osu file format v14

[General]
AudioFilename: audio.mp3
AudioLeadIn: 0
PreviewTime: 71304
Countdown: 0
SampleSet: Soft
StackLeniency: 0.4
Mode: 0
LetterboxInBreaks: 0
WidescreenStoryboard: 1

[Editor]
Bookmarks: 122541,132488
DistanceSpacing: 0.9
BeatDivisor: 4
GridSize: 4
TimelineZoom: 1

[Metadata]
Title:Tougetsu, Rinzen ni Kisu.
TitleUnicode:冬月、凜然に帰す。
Artist:Ren feat. Hatsune Miku
ArtistUnicode:廉 feat. 初音ミク
Creator:Log Off Now
Version:Insane
Source:
Tags:japanese pop jpop j-pop vocaloid tomobop 友達募集P tomodachi boshuup suimin
BeatmapID:2938023
BeatmapSetID:1418780

[Difficulty]
HPDrainRate:5
CircleSize:3.6
OverallDifficulty:8
ApproachRate:9
SliderMultiplier:1.3
SliderTickRate:1

[Events]
//Background and Video events
0,0,"ren-miku.jpg",0,0
//Break Periods
2,92301,101238
//Storyboard Layer 0 (Background)
//Storyboard Layer 1 (Fail)
//Storyboard Layer 2 (Pass)
//Storyboard Layer 3 (Foreground)
//Storyboard Layer 4 (Overlay)
//Storyboard Sound Samples

[TimingPoints]
1260,315.789473684211,4,2,1,55,1,0
8838,-200,4,2,1,55,0,0
8917,-200,4,2,1,25,0,0
10102,-200,4,2,1,5,0,0
10733,-200,4,2,1,15,0,0
11049,-133.333333333333,4,2,1,30,0,0
11207,-133.333333333333,4,2,1,50,0,0
11365,-90.9090909090909,4,2,2,70,0,0
11681,-90.9090909090909,4,2,1,70,0,0
31575,-100,4,2,1,70,0,0
31733,-100,4,2,1,60,0,0
40417,-100,4,2,1,60,0,0
41681,-100,4,2,1,60,0,0
51786,-100,4,2,3,55,0,0
61891,-90.9090909090909,4,2,1,55,0,0
70102,-83.3333333333333,4,2,1,55,0,0
71365,-100,4,2,1,35,0,0
71602,-100,4,2,1,5,0,0
71681,-100,4,2,1,55,0,0
71917,-100,4,2,1,5,0,0
71996,-83.3333333333333,4,2,2,80,0,1
72154,-83.3333333333333,4,2,1,80,0,1
92102,-83.3333333333333,4,2,1,80,0,0
101838,-105.263157894737,4,2,1,40,0,0
102233,-105.263157894737,4,2,1,5,0,0
102312,-105.263157894737,4,2,1,50,0,0
121891,-105.263157894737,4,2,1,55,0,0
122049,-105.263157894737,4,2,1,5,0,0
122128,-105.263157894737,4,2,1,55,0,0
122286,-105.263157894737,4,2,1,5,0,0
122365,-133.333333333334,4,2,1,45,0,0
132470,-100,4,2,1,65,0,0
137365,-86.9565217391304,4,2,1,65,0,0
142102,-83.3333333333333,4,2,1,65,0,0
142338,-83.3333333333333,4,2,1,5,0,0
142417,-76.9230769230769,4,2,1,65,0,0
142654,-76.9230769230769,4,2,1,5,0,0
142733,-76.9230769230769,4,2,2,85,0,1
142891,-76.9230769230769,4,2,1,85,0,1
162944,-100,4,2,1,55,0,0
170523,-250,4,2,1,55,0,0
170602,-250,4,2,1,25,0,0
171786,-250,4,2,1,5,0,0

[Colours]
Combo1 : 248,222,163
Combo2 : 5,211,228
Combo3 : 46,147,194
Combo4 : 247,176,244

[HitObjects]
463,273,1260,6,0,P|418:282|330:315,1,130,2|0,1:2|1:0,0:0:0:0:
264,257,1733,1,2,0:0:0:0:
201,358,1891,2,0,P|140:334|77:320,1,130,2|0,1:2|1:0,0:0:0:0:
23,246,2365,1,2,0:0:0:0:
83,177,2523,6,0,P|110:125|109:103,1,65,2|0,1:2|0:0,0:0:0:0:
198,98,2838,2,0,P|166:48|146:38,1,65,2|0,1:2|0:0,0:0:0:0:
276,155,3154,2,0,P|300:133|329:120,1,65,2|0,1:2|0:0,0:0:0:0:
349,30,3470,2,0,P|379:40|406:59,1,65,2|0,1:2|0:0,0:0:0:0:
477,174,3786,6,0,L|495:93,1,65,2|0,1:2|0:0,0:0:0:0:
381,198,4102,2,0,L|396:262,1,65,2|0,1:2|0:0,0:0:0:0:
498,167,4417,2,0,L|516:86,1,65,2|0,1:2|0:0,0:0:0:0:
362,217,4733,2,0,L|376:280,1,65,2|0,1:2|0:0,0:0:0:0:
430,365,5049,2,0,P|381:338|310:353,1,130,2|0,1:2|1:0,0:0:0:0:
41,278,5681,6,0,P|77:298|104:328,1,65,2|0,1:2|0:0,0:0:0:0:
170,360,5996,2,0,P|206:343|230:326,1,65,2|0,1:2|0:0,0:0:0:0:
307,285,6312,2,0,P|360:287|451:310,1,130,2|0,1:2|1:0,0:0:0:0:
499,239,6786,1,0,0:0:0:0:
423,133,6944,2,0,P|410:92|463:14,1,130,2|0,1:2|1:0,0:0:0:0:
498,90,7417,1,2,0:3:0:0:
355,196,7575,6,0,P|306:180|276:177,1,65,2|2,1:2|0:3,0:0:0:0:
251,96,7891,2,0,P|212:130|195:154,1,65,2|2,1:2|0:3,0:0:0:0:
143,236,8207,2,0,P|125:196|106:171,1,65,2|2,1:2|0:3,0:0:0:0:
37,126,8523,2,0,P|56:67|57:43,1,65,2|2,1:2|0:3,0:0:0:0:
134,22,8838,6,0,B|174:0|221:0|221:0|251:38|303:52|303:52|345:34|379:34,1,260,2|0,0:0|0:0,0:0:0:0:
370,34,10733,6,0,L|360:108,1,65,0|2,0:0|0:0,0:0:0:0:
351,185,11207,1,0,1:0:0:0:
144,103,11365,6,0,L|162:254,1,143.000004364014,12|8,1:2|0:0,0:0:0:0:
178,370,11838,1,2,0:0:0:0:
245,223,11996,1,0,1:0:0:0:
96,316,12154,1,2,1:2:0:0:
266,357,12312,2,0,P|308:345|341:340,1,71.5000021820069,8|0,0:0|0:0,0:0:0:0:
484,265,12628,6,0,P|418:278|357:204,1,143.000004364014,2|10,1:2|0:0,0:0:0:0:
453,122,13102,1,2,0:0:0:0:
453,122,13260,2,0,L|435:210,1,71.5000021820069,0|2,1:0|1:2,0:0:0:0:
295,306,13575,2,0,L|277:218,1,71.5000021820069,8|0,0:0|0:0,0:0:0:0:
376,86,13891,6,0,P|328:138|246:133,1,143.000004364014,2|10,1:2|0:0,0:0:0:0:
179,15,14365,2,0,P|191:66|181:94,1,71.5000021820069,2|0,0:0|1:0,0:0:0:0:
22,114,14681,1,2,1:2:0:0:
100,58,14838,1,8,0:0:0:0:
175,169,14996,6,0,P|121:159|86:153,1,71.5000021820069,2|0,0:2|1:2,0:0:0:0:
28,225,15312,1,2,1:2:0:0:
136,325,15470,2,0,L|124:254,1,71.5000021820069,10|2,0:0|0:0,0:0:0:0:
263,148,15786,1,2,1:2:0:0:
240,297,15944,1,2,1:2:0:0:
270,121,16102,2,0,L|283:41,1,71.5000021820069,10|0,0:0|0:0,0:0:0:0:
440,190,16417,6,0,B|347:185|393:236|286:227,1,143.000004364014,2|10,1:2|0:0,0:0:0:0:
177,175,16891,1,2,0:0:0:0:
240,297,17049,1,0,1:0:0:0:
314,143,17207,1,2,1:2:0:0:
428,269,17365,2,0,P|419:310|414:341,1,71.5000021820069,8|0,0:0|0:0,0:0:0:0:
263,221,17681,6,0,P|213:218|158:296,1,143.000004364014,2|10,1:2|0:0,0:0:0:0:
52,355,18154,1,2,0:0:0:0:
7,247,18312,2,0,P|57:259|88:268,1,71.5000021820069,0|2,1:0|1:2,0:0:0:0:
135,375,18628,2,0,P|169:365|204:357,1,71.5000021820069,8|0,0:0|0:0,0:0:0:0:
406,310,18944,6,0,P|358:297|245:279,1,143.000004364014,2|10,1:2|0:0,0:0:0:0:
198,135,19417,2,0,P|210:189|216:227,1,71.5000021820069,2|0,0:0|1:0,0:0:0:0:
189,333,19733,1,2,1:2:0:0:
129,246,19891,1,10,0:0:0:0:
281,123,20049,1,2,0:0:0:0:
366,220,20207,6,0,P|341:213|285:204,2,71.5000021820069,2|2|10,1:2|1:2|2:0,0:0:0:0:
439,168,20681,1,2,0:0:0:0:
468,355,20838,1,2,1:2:0:0:
371,304,20996,1,2,1:2:0:0:
512,207,21154,2,0,P|501:258|496:296,1,71.5000021820069,12|0,0:0|0:0,0:0:0:0:
400,82,21470,6,0,P|372:112|270:106,1,143.000004364014,6|10,1:2|0:0,0:0:0:0:
230,7,21944,1,2,0:0:0:0:
319,33,22102,1,0,1:0:0:0:
204,165,22260,1,2,1:2:0:0:
139,24,22418,2,0,P|151:66|156:99,1,71.5000021820069,8|0,0:0|0:0,0:0:0:0:
6,166,22734,6,0,P|72:153|133:227,1,143.000004364014,2|10,1:2|0:0,0:0:0:0:
66,306,23208,1,2,0:0:0:0:
66,306,23366,2,0,L|48:218,1,71.5000021820069,0|2,1:0|1:2,0:0:0:0:
203,229,23681,2,0,P|189:253|148:281,1,71.5000021820069,8|0,0:0|0:0,0:0:0:0:
307,378,23996,6,0,P|297:329|284:218,1,143.000004364014,2|8,1:2|0:0,0:0:0:0:
390,119,24471,2,0,P|351:154|322:160,1,71.5000021820069,2|0,0:0|1:0,0:0:0:0:
244,24,24787,1,2,1:2:0:0:
312,77,24944,1,8,0:0:0:0:
224,180,25102,6,0,P|230:137|239:84,1,71.5000021820069,2|0,0:2|1:2,0:0:0:0:
158,24,25417,1,2,1:2:0:0:
42,122,25575,2,0,P|83:113|139:101,1,71.5000021820069,10|2,0:0|0:0,0:0:0:0:
175,293,25892,1,2,1:2:0:0:
49,219,26050,1,2,1:2:0:0:
192,172,26207,2,0,P|233:181|289:193,1,71.5000021820069,10|0,0:0|0:0,0:0:0:0:
351,365,26523,6,0,P|320:328|350:220,1,143.000004364014,2|10,1:2|0:0,0:0:0:0:
485,173,26997,1,2,0:0:0:0:
399,292,27155,1,0,1:0:0:0:
379,154,27313,1,2,1:2:0:0:
500,288,27471,2,0,P|491:329|486:360,1,71.5000021820069,8|0,0:0|0:0,0:0:0:0:
314,258,27786,6,0,B|221:253|267:304|160:295,1,143.000004364014,2|10,1:2|0:0,0:0:0:0:
70,219,28260,1,2,0:0:0:0:
203,136,28418,2,0,P|193:170|185:205,1,71.5000021820069,0|2,1:0|1:2,0:0:0:0:
110,372,28733,2,0,P|101:337|92:302,1,71.5000021820069,8|0,0:0|0:0,0:0:0:0:
0,166,29049,6,0,P|68:172|124:100,1,143.000004364014,2|10,1:2|0:0,0:0:0:0:
53,21,29523,2,0,P|41:81|35:116,1,71.5000021820069,2|0,0:0|1:0,0:0:0:0:
174,206,29839,1,2,1:2:0:0:
137,103,29997,1,10,0:0:0:0:
95,288,30155,1,2,0:0:0:0:
206,194,30313,6,0,P|231:201|287:210,2,71.5000021820069,2|2|10,1:2|1:2|2:0,0:0:0:0:
241,299,30787,1,2,0:0:0:0:
403,119,30944,1,2,1:2:0:0:
286,179,31102,1,2,1:2:0:0:
403,293,31260,1,8,0:0:0:0:
373,203,31417,1,2,1:2:0:0:
329,343,31575,6,0,P|371:333|450:367,2,130,6|2|2,1:2|1:2|1:2,0:0:0:0:
230,377,32523,1,2,1:2:0:0:
140,324,32838,2,0,P|154:236|164:178,1,130,2|0,1:2|1:0,0:0:0:0:
245,134,33470,5,2,1:2:0:0:
266,149,33786,1,2,1:2:0:0:
356,52,34102,1,2,1:2:0:0:
335,67,34418,1,2,1:2:0:0:
431,161,34733,1,2,1:2:0:0:
419,137,35049,1,2,1:2:0:0:
340,226,35365,2,0,P|350:290|360:354,2,130,2|0|0,1:2|1:2|1:0,0:0:0:0:
201,102,36312,2,0,P|194:140|185:185,1,65,0|2,1:0|0:0,0:0:0:0:
108,209,36628,5,2,1:2:0:0:
87,194,36944,1,2,1:2:0:0:
1,296,37260,1,2,1:2:0:0:
22,281,37576,1,2,1:2:0:0:
99,348,37891,2,0,P|143:356|234:377,1,130,2|0,1:2|1:0,0:0:0:0:
358,253,38523,5,2,1:2:0:0:
334,266,38839,1,2,1:2:0:0:
247,159,39155,1,2,1:2:0:0:
268,174,39471,1,2,1:2:0:0:
402,72,39786,2,0,L|386:156,1,65,0|2,1:0|0:3,0:0:0:0:
508,250,40102,2,0,L|492:166,1,65,0|0,1:0|1:0,0:0:0:0:
490,152,40338,1,0,1:0:0:0:
490,152,40417,1,8,0:0:0:0:
427,336,41365,6,0,L|411:252,1,65,8|2,0:0|0:0,0:0:0:0:
349,217,41681,2,0,P|297:245|263:252,1,65,6|0,1:2|0:0,0:0:0:0:
185,338,41996,2,0,P|133:312|45:299,1,130,10|2,0:2|1:2,0:0:0:0:
119,167,42470,2,0,P|148:212|144:238,1,65,0|2,1:0|0:0,0:0:0:0:
19,369,42786,2,0,L|1:225,1,130,8|0,0:0|1:0,0:0:0:0:
105,358,43260,2,0,L|96:286,1,65,8|0,0:0|0:0,0:0:0:0:
167,226,43575,1,2,1:2:0:0:
167,226,43733,1,0,1:0:0:0:
257,316,43891,2,0,P|300:300|339:297,1,65,10|0,0:0|0:0,0:0:0:0:
452,358,44207,5,2,1:2:0:0:
403,286,44365,1,0,1:0:0:0:
506,147,44523,2,0,L|486:295,1,130,10|2,0:0|1:2,0:0:0:0:
361,182,44996,2,0,P|414:164|441:174,1,65,0|2,1:0|0:0,0:0:0:0:
414,318,45312,2,0,P|357:291|275:281,1,130,8|0,0:0|1:0,0:0:0:0:
147,349,45786,2,0,L|161:277,1,65,8|0,0:0|0:0,0:0:0:0:
224,214,46101,1,0,1:2:0:0:
224,214,46259,1,0,1:0:0:0:
119,100,46417,1,8,0:0:0:0:
140,185,46575,1,2,0:0:0:0:
259,93,46733,6,0,P|206:116|173:114,1,65,2|0,1:2|1:0,0:0:0:0:
15,50,47049,2,0,P|30:103|43:191,1,130,10|2,0:2|1:2,0:0:0:0:
0,344,47523,2,0,P|45:315|71:319,1,65,0|2,1:0|0:0,0:0:0:0:
221,371,47838,2,0,L|239:227,1,130,8|0,0:0|1:0,0:0:0:0:
135,360,48312,2,0,L|144:288,1,65,10|0,0:0|0:0,0:0:0:0:
159,199,48628,1,2,1:2:0:0:
159,199,48786,1,0,1:0:0:0:
285,318,48944,2,0,P|328:302|367:299,1,65,10|0,0:0|0:0,0:0:0:0:
415,221,49260,5,2,1:2:0:0:
415,221,49417,1,0,1:0:0:0:
480,334,49575,2,0,L|493:245,1,65,8|0,0:0|0:0,0:0:0:0:
338,174,49891,1,0,1:2:0:0:
378,304,50049,1,0,1:0:0:0:
473,129,50207,1,8,0:0:0:0:
300,256,50365,6,0,L|150:229,1,130,0|0,1:0|1:0,0:0:0:0:
97,72,50838,1,8,0:0:0:0:
31,179,50996,2,0,L|-5:187,2,32.5,8|8|0,0:3|0:3|1:0,0:0:0:0:
149,260,51312,1,4,0:3:0:0:
149,260,51391,1,4,0:3:0:0:
149,260,51470,2,0,L|64:285,1,65,8|0,0:0|1:0,0:0:0:0:
257,368,51786,6,0,P|231:319|265:237,1,130,6|0,1:2|1:0,0:0:0:0:
333,216,52260,1,2,0:0:0:0:
442,330,52417,2,0,P|396:319|301:306,1,130,2|0,1:2|1:0,0:0:0:0:
408,174,52891,2,0,P|417:225|406:259,2,65,10|2|8,0:0|1:2|0:0,0:0:0:0:
270,119,53365,2,0,P|308:134|349:137,1,65,2|0,1:2|0:0,0:0:0:0:
174,220,53681,2,0,P|229:200|265:194,1,65,2|0,1:2|0:0,0:0:0:0:
64,136,53996,2,0,P|104:144|133:156,1,65,2|0,1:2|0:0,0:0:0:0:
36,259,54312,6,0,P|16:223|-13:198,1,65,2|0,1:2|0:0,0:0:0:0:
110,298,54628,2,0,P|117:257|111:219,1,65,2|0,1:2|0:0,0:0:0:0:
117,383,54944,2,0,P|155:369|185:345,1,65,2|0,1:2|0:0,0:0:0:0:
204,280,55260,1,2,1:2:0:0:
322,356,55417,2,0,P|278:348|242:342,2,65,8|2|8,0:0|1:2|0:0,0:0:0:0:
387,296,55891,2,0,P|423:308|457:316,1,65,2|0,1:2|0:0,0:0:0:0:
476,169,56207,6,0,P|444:223|442:243,1,65,2|0,1:2|0:0,0:0:0:0:
307,272,56523,2,0,P|295:241|274:216,1,65,2|0,1:2|0:0,0:0:0:0:
344,62,56838,2,0,P|354:117|371:214,1,130,2|0,1:2|1:0,0:0:0:0:
212,357,57470,6,0,P|217:324|223:293,1,65,2|0,1:2|0:0,0:0:0:0:
154,218,57786,1,2,1:2:0:0:
126,368,57944,2,0,P|131:335|137:304,2,65,8|2|8,0:0|1:2|0:0,0:0:0:0:
66,231,58417,2,0,P|60:262|54:294,1,65,2|0,1:2|0:0,0:0:0:0:
142,154,58733,2,0,P|147:185|153:217,1,65,2|0,1:2|0:0,0:0:0:0:
3,151,59049,2,0,P|52:130|74:107,1,65,2|0,1:2|0:0,0:0:0:0:
182,27,59365,6,0,P|231:48|253:71,1,65,2|0,1:2|0:0,0:0:0:0:
301,2,59681,2,0,P|325:49|327:81,1,65,2|0,1:2|0:0,0:0:0:0:
411,52,59996,2,0,P|398:103|379:129,1,65,2|0,1:2|0:0,0:0:0:0:
311,147,60312,1,2,1:2:0:0:
238,103,60470,2,0,P|206:94|174:96,2,65,8|2|0,0:0|1:2|0:0,0:0:0:0:
277,229,60944,1,2,1:2:0:0:
405,135,61102,6,0,L|385:274,1,130,2|2,0:3|0:3,0:0:0:0:
357,289,61496,1,2,0:3:0:0:
357,289,61575,2,0,L|367:358,1,65,2|0,1:3|0:0,0:0:0:0:
268,256,61891,6,0,B|176:247|214:300|119:293,1,143.000004364014,6|0,1:2|1:0,0:0:0:0:
68,351,62365,1,2,0:0:0:0:
11,282,62523,2,0,P|67:237|42:149,1,143.000004364014,2|0,1:2|1:0,0:0:0:0:
17,98,62996,1,2,0:0:0:0:
124,27,63154,6,0,P|105:83|98:109,1,71.5000021820069,2|0,1:2|0:0,0:0:0:0:
206,181,63470,2,0,P|195:146|183:113,1,71.5000021820069,2|0,1:2|0:0,0:0:0:0:
279,20,63786,2,0,P|244:28|209:34,1,71.5000021820069,2|0,1:2|0:0,0:0:0:0:
276,109,64102,2,0,P|310:117|345:123,1,71.5000021820069,2|0,1:2|0:0,0:0:0:0:
421,12,64417,6,0,P|378:26|343:65,1,71.5000021820069,2|0,1:2|0:0,0:0:0:0:
426,165,64733,2,0,P|435:120|419:70,1,71.5000021820069,2|0,1:2|0:0,0:0:0:0:
351,211,65049,2,0,P|322:189|288:180,1,71.5000021820069,2|0,1:2|0:0,0:0:0:0:
414,273,65365,2,0,P|442:251|476:242,1,71.5000021820069,2|0,1:2|0:0,0:0:0:0:
373,353,65681,6,0,P|294:365|224:377,1,143.000004364014,2|0,1:2|1:0,0:0:0:0:
164,316,66154,1,0,0:0:0:0:
257,222,66312,2,0,L|239:316,1,71.5000021820069,2|0,1:2|0:0,0:0:0:0:
90,376,66628,2,0,L|72:282,1,71.5000021820069,2|0,1:2|0:0,0:0:0:0:
193,164,66944,6,0,P|154:214|57:202,1,143.000004364014,2|0,1:2|1:0,0:0:0:0:
28,137,67417,1,0,0:0:0:0:
146,0,67575,2,0,P|128:67|110:145,1,143.000004364014,2|0,1:2|1:2,0:0:0:0:
164,247,68049,1,0,0:0:0:0:
293,159,68207,6,0,L|190:182,1,71.5000021820069,2|0,1:2|0:0,0:0:0:0:
277,347,68523,2,0,L|346:362,1,71.5000021820069,2|2,1:2|0:3,0:0:0:0:
397,178,68838,1,2,1:2:0:0:
340,251,68996,1,2,0:3:0:0:
418,313,69154,2,0,L|487:297,1,71.5000021820069,2|2,1:2|0:3,0:0:0:0:
498,147,69470,6,0,P|477:200|482:233,1,71.5000021820069,2|2,1:2|0:3,0:0:0:0:
337,305,69786,2,0,P|333:269|316:238,1,71.5000021820069,0|2,1:3|0:3,0:0:0:0:
411,114,70102,2,0,P|365:145|342:148,1,77.999997619629,0|2,1:3|0:3,0:0:0:0:
211,19,70417,1,0,1:0:0:0:
341,55,70575,1,0,1:0:0:0:
233,226,70733,1,8,0:0:0:0:
210,211,71365,6,0,L|201:135,1,65,2|0,0:0|0:0,0:0:0:0:
281,98,71681,2,0,L|288:162,1,65,2|0,0:0|0:0,0:0:0:0:
184,297,71996,6,0,P|137:279|102:277,1,77.999997619629,12|0,1:2|0:0,0:0:0:0:
98,112,72312,2,0,P|122:170|123:196,1,77.999997619629,10|0,0:0|0:0,0:0:0:0:
71,362,72628,1,2,1:2:0:0:
19,233,72786,1,0,1:0:0:0:
185,333,72944,2,0,P|232:315|267:313,1,77.999997619629,10|0,0:0|0:0,0:0:0:0:
353,143,73260,5,2,1:2:0:0:
270,226,73417,1,0,1:0:0:0:
340,384,73575,2,0,P|345:330|363:215,1,155.999995239258,10|0,0:0|1:0,0:0:0:0:
431,179,74049,1,0,1:0:0:0:
306,125,74207,2,0,P|377:108|398:92,1,77.999997619629,10|0,0:0|0:0,0:0:0:0:
256,253,74523,6,0,P|220:237|181:233,1,77.999997619629,2|0,1:2|1:0,0:0:0:0:
171,145,74838,2,0,P|133:155|100:177,1,77.999997619629,10|0,0:0|0:0,0:0:0:0:
29,296,75154,2,0,P|29:235|16:204,1,77.999997619629,2|0,1:2|1:0,0:0:0:0:
69,379,75470,2,0,P|108:332|114:298,1,77.999997619629,10|0,0:0|0:0,0:0:0:0:
171,145,75786,6,0,P|206:189|307:197,1,155.999995239258,2|8,1:2|0:0,0:0:0:0:
361,124,76260,1,0,0:0:0:0:
434,213,76417,2,0,P|448:157|460:122,1,77.999997619629,2|0,1:2|1:0,0:0:0:0:
354,21,76733,2,0,P|365:58|374:96,1,77.999997619629,10|0,0:0|0:0,0:0:0:0:
302,224,77049,6,0,B|200:221|248:271|151:262,1,155.999995239258,2|8,1:2|0:0,0:0:0:0:
87,196,77523,1,0,0:0:0:0:
185,101,77681,2,0,L|170:185,1,77.999997619629,2|0,1:2|1:0,0:0:0:0:
19,286,77996,2,0,L|4:202,1,77.999997619629,10|0,0:0|0:0,0:0:0:0:
159,362,78312,6,0,P|108:338|76:340,1,77.999997619629,2|0,1:2|1:0,0:0:0:0:
252,233,78628,2,0,P|229:285|233:330,1,77.999997619629,10|0,0:0|0:0,0:0:0:0:
350,363,78944,2,0,P|297:375|274:382,1,77.999997619629,2|0,1:2|1:0,0:0:0:0:
381,285,79260,2,0,P|434:297|457:304,1,77.999997619629,10|0,0:0|0:0,0:0:0:0:
282,205,79575,6,0,P|296:263|301:288,1,77.999997619629,2|0,1:2|1:0,0:0:0:0:
387,123,79891,2,0,P|373:181|368:206,1,77.999997619629,10|0,0:0|0:0,0:0:0:0:
250,116,80207,2,0,P|303:98|323:79,1,77.999997619629,2|0,1:2|1:0,0:0:0:0:
164,0,80523,2,0,P|178:58|183:83,1,77.999997619629,10|0,0:0|0:0,0:0:0:0:
60,184,80838,5,2,1:2:0:0:
98,58,80996,1,0,1:0:0:0:
199,179,81154,2,0,P|185:237|180:262,1,77.999997619629,8|8,0:0|0:0,0:0:0:0:
159,280,81391,1,8,0:0:0:0:
159,280,81470,2,0,P|173:338|178:363,1,77.999997619629,0|0,1:0|1:0,0:0:0:0:
331,226,81786,1,12,0:0:0:0:
269,297,81944,1,2,0:0:0:0:
381,370,82102,6,0,L|465:354,1,77.999997619629,6|2,1:2|0:0,0:0:0:0:
331,226,82417,2,0,L|247:210,1,77.999997619629,10|2,0:2|0:0,0:0:0:0:
471,93,82733,1,2,1:2:0:0:
409,184,82891,1,2,0:0:0:0:
380,53,83049,1,10,0:2:0:0:
502,182,83207,1,2,0:0:0:0:
342,303,83365,6,0,L|329:218,1,77.999997619629,2|2,1:2|0:0,0:0:0:0:
311,100,83681,1,10,0:2:0:0:
225,250,83838,2,0,P|180:224|67:222,1,155.999995239258,2|2,0:0|0:0,0:0:0:0:
9,150,84312,1,10,0:0:0:0:
9,150,84470,1,2,0:0:0:0:
110,41,84628,6,0,L|97:126,1,77.999997619629,2|2,1:2|0:0,0:0:0:0:
204,251,84944,2,0,L|191:166,1,77.999997619629,10|2,0:0|0:0,0:0:0:0:
302,31,85260,1,2,1:2:0:0:
226,93,85417,1,2,0:0:0:0:
371,193,85575,1,10,0:0:0:0:
316,115,85733,1,2,0:0:0:0:
227,267,85891,6,0,P|263:245|308:243,1,77.999997619629,2|2,1:2|0:0,0:0:0:0:
426,376,86207,1,10,0:0:0:0:
509,263,86365,2,0,P|459:275|354:307,1,155.999995239258,2|0,0:0|0:0,0:0:0:0:
172,380,86838,2,0,P|134:368|96:358,1,77.999997619629,10|0,0:0|0:0,0:0:0:0:
21,210,87154,6,0,P|39:254|27:312,1,77.999997619629,2|0,1:2|0:0,0:0:0:0:
187,165,87470,2,0,P|141:191|104:194,1,77.999997619629,10|0,0:2|0:0,0:0:0:0:
141,32,87786,2,0,P|122:90|121:121,1,77.999997619629,2|0,1:2|0:0,0:0:0:0:
230,245,88102,2,0,P|276:219|313:216,1,77.999997619629,10|0,0:0|0:0,0:0:0:0:
408,114,88417,6,0,P|391:159|383:200,1,77.999997619629,2|0,1:2|0:0,0:0:0:0:
283,57,88733,2,0,P|297:93|306:131,1,77.999997619629,10|0,0:0|0:0,0:0:0:0:
209,268,89049,2,0,P|226:223|234:182,1,77.999997619629,2|0,1:2|0:0,0:0:0:0:
140,333,89365,2,0,P|125:296|116:258,1,77.999997619629,10|0,0:0|0:0,0:0:0:0:
27,224,89681,6,0,P|70:169|44:69,1,155.999995239258,2|8,1:2|0:0,0:0:0:0:
155,13,90154,1,2,0:0:0:0:
217,84,90312,2,0,P|270:72|317:68,1,77.999997619629,0|2,1:0|0:0,0:0:0:0:
357,8,90628,2,0,P|410:20|457:24,1,77.999997619629,8|0,0:0|0:0,0:0:0:0:
397,180,90944,6,0,P|384:133|373:103,1,77.999997619629,2|0,1:2|0:0,0:0:0:0:
343,265,91260,1,12,0:0:0:0:
487,166,91417,1,2,1:2:0:0:
285,121,91575,6,0,L|227:109,2,51.999998413086,8|8|8,0:0|0:0|0:0,0:0:0:0:
352,57,91891,6,0,L|402:46,2,51.999998413086,8|8|8,0:0|0:0|0:0,0:0:0:0:
357,118,101838,5,2,0:3:0:0:
357,118,101996,1,2,0:3:0:0:
289,263,102312,6,0,L|161:237,1,123.499996702194,4|2,1:2|0:0,0:0:0:0:
110,181,102786,1,0,1:0:0:0:
110,181,102944,1,8,0:0:0:0:
21,270,103260,2,0,L|1:141,1,123.499996702194,2|2,0:0|0:0,0:0:0:0:
150,62,103891,1,0,1:2:0:0:
24,20,104207,1,8,0:0:0:0:
70,97,104523,1,2,0:0:0:0:
240,21,104838,6,0,L|220:150,1,123.499996702194,0|2,1:2|0:0,0:0:0:0:
168,204,105312,1,0,1:0:0:0:
168,204,105470,1,8,0:0:0:0:
283,316,105786,2,0,L|431:292,2,123.499996702194,2|2|0,0:0|0:0|1:0,0:0:0:0:
144,268,106733,1,8,0:0:0:0:
197,375,107049,1,2,0:0:0:0:
279,234,107365,6,0,L|259:105,1,123.499996702194,0|0,1:2|0:0,0:0:0:0:
314,43,107838,1,0,1:0:0:0:
314,43,107996,2,0,L|462:67,2,123.499996702194,8|2|2,0:0|0:0|0:0,0:0:0:0:
197,214,108944,1,0,1:2:0:0:
352,141,109260,1,8,0:0:0:0:
244,103,109575,1,2,0:0:0:0:
308,250,109891,6,0,L|456:226,1,123.499996702194,0|2,1:2|0:0,0:0:0:0:
500,280,110365,1,0,1:0:0:0:
500,280,110523,1,8,0:0:0:0:
508,120,110838,1,2,0:0:0:0:
412,260,111154,2,0,L|264:236,1,123.499996702194,2|0,0:0|1:0,0:0:0:0:
234,298,111628,1,2,0:3:0:0:
171,248,111786,1,8,0:0:0:0:
171,248,111944,1,2,0:0:0:0:
105,295,112102,2,0,L|42:283,1,61.7499983510972,2|0,0:3|0:0,0:0:0:0:
120,381,112417,6,0,L|268:357,1,123.499996702194,4|0,1:2|0:0,0:0:0:0:
314,302,112891,1,0,3:0:0:0:
314,302,112970,1,0,3:0:0:0:
314,302,113049,2,0,L|396:318,1,61.7499983510972,8|0,0:0|1:0,0:0:0:0:
469,170,113523,2,0,B|441:206|441:206|460:291,2,123.499996702194,0|0|0,1:0|1:0|1:0,0:0:0:0:
324,126,114312,2,0,L|406:142,1,61.7499983510972,8|0,0:0|0:0,0:0:0:0:
278,205,114628,1,2,0:0:0:0:
213,31,114944,6,0,L|91:50,1,123.499996702194,0|0,1:0|0:0,0:0:0:0:
27,118,115417,1,0,3:0:0:0:
27,118,115496,1,0,3:0:0:0:
27,118,115575,1,8,0:0:0:0:
96,179,115733,2,0,B|87:224|87:224|106:265|106:265|99:303,2,123.499996702194,0|0|0,1:0|1:0|1:0,0:0:0:0:
239,60,116681,1,0,1:0:0:0:
300,128,116838,2,0,L|385:116,1,61.7499983510972,8|0,0:0|0:0,0:0:0:0:
431,58,117154,1,0,1:0:0:0:
431,58,117312,1,8,0:0:0:0:
497,123,117470,6,0,L|473:271,1,123.499996702194,0|0,1:2|0:0,0:0:0:0:
404,300,117944,1,0,3:0:0:0:
404,300,118023,1,0,3:0:0:0:
404,300,118102,2,0,L|420:382,1,61.7499983510972,8|0,0:0|1:0,0:0:0:0:
304,212,118575,2,0,B|268:240|268:240|183:221,2,123.499996702194,0|0|0,1:0|1:0|1:0,0:0:0:0:
398,126,119365,2,0,L|382:208,1,61.7499983510972,8|0,0:0|0:0,0:0:0:0:
366,315,119680,1,2,0:0:0:0:
193,247,119996,6,0,L|71:266,1,123.499996702194,0|0,1:0|0:0,0:0:0:0:
15,207,120469,1,0,3:0:0:0:
15,207,120548,1,0,3:0:0:0:
15,207,120627,1,8,0:0:0:0:
71,133,120786,2,0,B|62:88|62:88|81:47|81:47|74:9,2,123.499996702194,0|0|0,1:0|1:0|1:0,0:0:0:0:
98,316,121733,1,0,1:0:0:0:
175,265,121891,2,0,L|275:282,2,92.6249975266457,8|8|8,0:0|0:0|0:0,0:0:0:0:
262,379,122523,5,6,0:0:0:0:
451,308,122838,1,0,0:0:0:0:
274,256,123154,1,2,0:0:0:0:
354,325,123470,1,0,0:0:0:0:
441,220,123786,1,2,0:0:0:0:
420,233,124102,1,2,0:0:0:0:
350,176,124733,5,2,0:0:0:0:
330,193,125049,2,0,L|344:305,1,97.50000371933,2|2,0:0|0:0,0:0:0:0:
275,377,125681,1,0,0:0:0:0:
97,290,125996,1,2,0:0:0:0:
198,244,126312,1,2,0:0:0:0:
267,287,126944,6,0,L|254:168,1,97.50000371933,2|2,0:0|0:0,0:0:0:0:
117,241,127575,2,0,L|137:87,1,146.250005578995,2|0,0:0|0:0,0:0:0:0:
198,36,128207,1,2,0:0:0:0:
378,134,128523,1,2,0:0:0:0:
137,213,128838,5,2,0:0:0:0:
270,135,129154,1,2,0:0:0:0:
310,301,129470,1,2,0:0:0:0:
230,226,129786,1,0,0:0:0:0:
389,152,130102,6,0,L|378:248,1,97.50000371933,2|0,0:0|0:0,0:0:0:0:
481,320,130733,2,0,L|470:223,2,97.50000371933,2|2|2,0:0|0:0|0:0,0:0:0:0:
466,340,132470,5,2,0:0:0:0:
466,340,132628,2,0,P|415:324|396:322,1,65,6|2,1:2|0:0,0:0:0:0:
342,255,132944,2,0,P|291:271|272:273,1,65,2|0,1:2|0:0,0:0:0:0:
146,209,133260,5,2,1:2:0:0:
197,292,133417,1,2,0:0:0:0:
229,185,133575,1,2,1:2:0:0:
109,293,133733,1,0,0:0:0:0:
54,156,133891,6,0,L|66:236,1,65,2|2,1:2|0:0,0:0:0:0:
95,376,134207,1,2,1:2:0:0:
205,258,134365,2,0,P|256:264|351:289,1,130,2|2,0:0|0:0,0:0:0:0:
399,217,134838,1,2,1:2:0:0:
399,217,134996,1,0,0:0:0:0:
301,124,135154,6,0,L|314:199,1,65,2|2,1:2|0:0,0:0:0:0:
226,325,135470,2,0,L|239:250,1,65,2|2,1:2|0:0,0:0:0:0:
124,130,135786,1,2,1:2:0:0:
175,204,135944,1,0,0:0:0:0:
112,262,136102,2,0,L|37:249,1,65,2|0,1:2|0:0,0:0:0:0:
5,95,136417,5,2,1:2:0:0:
50,167,136575,1,2,0:0:0:0:
113,47,136733,1,2,1:2:0:0:
180,140,136891,2,0,P|233:126|310:118,1,130,2|0,0:0|0:0,0:0:0:0:
372,180,137365,2,0,P|353:229|352:252,1,74.7500014257431,2|0,1:2|0:0,0:0:0:0:
512,255,137681,6,0,P|446:243|422:241,1,74.7500014257431,2|0,1:2|0:0,0:0:0:0:
344,341,137996,2,0,P|410:329|434:327,1,74.7500014257431,2|0,1:2|0:0,0:0:0:0:
252,219,138312,2,0,P|271:268|272:291,1,74.7500014257431,2|0,1:2|0:0,0:0:0:0:
211,353,138628,2,0,P|170:339|130:331,1,74.7500014257431,2|0,1:2|0:0,0:0:0:0:
7,284,138944,6,0,P|48:270|88:262,1,74.7500014257431,2|0,1:2|0:0,0:0:0:0:
134,189,139260,2,0,P|170:197|205:209,1,74.7500014257431,2|0,1:2|0:0,0:0:0:0:
292,310,139575,2,0,P|328:301|363:289,1,74.7500014257431,2|0,1:2|0:0,0:0:0:0:
454,233,139891,1,2,1:2:0:0:
430,351,140049,1,2,0:3:0:0:
300,217,140207,6,0,L|310:143,1,74.7500014257431,2|2,1:2|0:3,0:0:0:0:
392,49,140523,2,0,L|402:123,1,74.7500014257431,0|2,1:0|0:3,0:0:0:0:
199,244,140838,2,0,L|209:170,1,74.7500014257431,0|2,1:0|0:3,0:0:0:0:
296,63,141154,1,0,1:0:0:0:
327,239,141312,1,0,1:0:0:0:
123,130,141470,1,8,0:0:0:0:
102,147,142102,6,0,L|113:235,1,77.999997619629,2|0,0:0|0:0,0:0:0:0:
231,362,142417,2,0,L|242:272,1,84.4999961318971,2|0,0:0|0:0,0:0:0:0:
409,100,142733,6,0,P|370:125|326:135,1,84.4999961318971,12|0,1:2|0:0,0:0:0:0:
236,13,143049,2,0,L|252:108,1,84.4999961318971,10|0,0:0|0:0,0:0:0:0:
181,260,143365,1,2,1:2:0:0:
263,188,143523,1,0,1:0:0:0:
97,140,143681,2,0,P|138:164|184:169,1,84.4999961318971,10|0,0:0|0:0,0:0:0:0:
347,124,143997,5,2,1:2:0:0:
318,269,144154,1,0,1:0:0:0:
454,122,144312,2,0,L|477:291,1,168.999992263794,10|0,0:0|1:0,0:0:0:0:
406,363,144786,1,0,1:0:0:0:
297,254,144944,2,0,P|262:278|212:280,1,84.4999961318971,10|0,0:0|0:0,0:0:0:0:
26,179,145260,6,0,L|43:270,1,84.4999961318971,2|0,1:2|1:0,0:0:0:0:
184,130,145575,2,0,L|201:39,1,84.4999961318971,10|0,0:0|0:0,0:0:0:0:
12,198,145891,2,0,L|29:289,1,84.4999961318971,2|0,1:2|1:0,0:0:0:0:
203,121,146207,2,0,L|220:30,1,84.4999961318971,10|0,0:0|0:0,0:0:0:0:
102,160,146523,6,0,P|135:211|247:214,1,168.999992263794,2|8,1:2|0:0,0:0:0:0:
324,168,146997,1,0,0:0:0:0:
404,284,147154,2,0,P|345:271|300:263,1,84.4999961318971,2|0,1:2|1:0,0:0:0:0:
411,150,147470,2,0,P|470:137|515:129,1,84.4999961318971,10|0,0:2|0:0,0:0:0:0:
309,39,147786,6,0,P|327:87|243:162,1,168.999992263794,2|8,1:2|0:0,0:0:0:0:
157,103,148260,1,0,0:0:0:0:
32,182,148417,2,0,L|47:266,1,84.4999961318971,2|0,1:2|1:0,0:0:0:0:
145,373,148733,2,0,L|160:286,1,84.4999961318971,10|0,0:0|0:0,0:0:0:0:
299,130,149049,6,0,P|259:160|210:165,1,84.4999961318971,2|0,1:2|1:0,0:0:0:0:
380,285,149365,2,0,P|420:294|453:321,1,84.4999961318971,10|0,0:0|0:0,0:0:0:0:
268,345,149681,2,0,L|284:256,1,84.4999961318971,2|0,1:2|1:0,0:0:0:0:
408,190,149996,2,0,L|392:101,1,84.4999961318971,10|0,0:2|0:0,0:0:0:0:
208,18,150312,5,2,1:2:0:0:
208,18,150470,1,0,1:0:0:0:
309,178,150628,2,0,P|258:168|218:162,1,84.4999961318971,10|0,0:0|0:0,0:0:0:0:
25,90,150944,2,0,P|76:80|116:74,1,84.4999961318971,2|0,1:2|1:0,0:0:0:0:
100,292,151260,2,0,P|106:250|114:208,1,84.4999961318971,10|0,0:0|0:0,0:0:0:0:
287,78,151575,5,2,1:2:0:0:
207,145,151733,1,0,1:0:0:0:
385,273,151891,1,8,0:0:0:0:
272,366,152049,2,0,L|296:194,1,168.999992263794,4|0,1:2|1:0,0:0:0:0:
180,92,152523,1,8,0:0:0:0:
180,92,152602,1,8,0:0:0:0:
180,92,152681,2,0,L|189:148,1,42.2499980659486,8|4,0:3|0:3,0:0:0:0:
119,214,152838,6,0,P|69:197|35:190,1,84.4999961318971,6|2,1:2|0:0,0:0:0:0:
164,369,153154,2,0,P|214:352|248:345,1,84.4999961318971,10|2,0:2|0:0,0:0:0:0:
348,201,153470,1,2,1:2:0:0:
236,257,153628,1,2,0:0:0:0:
383,311,153786,1,10,0:2:0:0:
212,254,153944,1,2,0:0:0:0:
369,190,154102,6,0,P|410:199|449:213,1,84.4999961318971,2|2,1:2|0:0,0:0:0:0:
373,344,154417,1,10,0:2:0:0:
279,192,154575,2,0,L|304:22,1,168.999992263794,2|2,0:0|0:0,0:0:0:0:
377,117,155049,1,10,0:0:0:0:
377,117,155207,1,2,0:0:0:0:
213,79,155365,6,0,P|171:88|132:102,1,84.4999961318971,2|2,1:2|0:0,0:0:0:0:
63,254,155681,1,10,0:0:0:0:
15,103,155838,1,2,0:0:0:0:
175,196,155996,1,2,1:2:0:0:
33,89,156154,2,0,P|24:40|16:2,2,84.4999961318971,2|10|2,0:0|0:0|0:0,0:0:0:0:
22,278,156628,5,2,1:2:0:0:
153,178,156786,1,2,0:0:0:0:
197,352,156944,1,10,0:0:0:0:
271,251,157102,2,0,B|363:245|330:311|443:294,1,168.999992263794,2|0,0:0|0:0,0:0:0:0:
440,135,157575,2,0,P|410:178|409:213,1,84.4999961318971,10|0,0:0|0:0,0:0:0:0:
279,334,157891,6,0,P|208:322|155:314,1,84.4999961318971,2|0,1:2|0:0,0:0:0:0:
42,176,158207,2,0,P|113:164|166:156,1,84.4999961318971,10|0,0:0|0:0,0:0:0:0:
301,222,158523,1,2,1:2:0:0:
261,77,158681,1,0,0:0:0:0:
209,237,158838,1,10,0:2:0:0:
342,128,158996,1,0,0:0:0:0:
383,262,159154,6,0,P|371:321|362:365,1,84.4999961318971,2|0,1:2|0:0,0:0:0:0:
197,219,159470,2,0,P|188:177|180:136,1,84.4999961318971,10|0,0:0|0:0,0:0:0:0:
328,14,159786,1,2,1:2:0:0:
292,139,159944,1,0,0:0:0:0:
232,38,160102,1,10,0:0:0:0:
392,105,160260,1,0,0:0:0:0:
264,225,160417,6,0,B|153:210|192:291|84:269,1,168.999992263794,2|8,1:2|0:0,0:0:0:0:
28,213,160891,1,2,0:0:0:0:
132,104,161049,2,0,P|119:154|109:203,1,84.4999961318971,0|2,1:2|0:0,0:0:0:0:
27,298,161365,2,0,P|40:348|50:397,1,84.4999961318971,8|2,0:2|0:0,0:0:0:0:
190,278,161681,6,0,P|240:269|321:346,1,168.999992263794,2|8,1:2|0:0,0:0:0:0:
393,263,162154,1,2,0:0:0:0:
261,182,162312,1,4,1:2:0:0:
360,98,162470,1,8,0:0:0:0:
360,98,162549,1,8,0:0:0:0:
360,98,162628,2,0,L|348:198,1,84.4999961318971,8|8,0:0|0:0,0:0:0:0:
273,288,162944,6,0,P|212:264|139:287,1,130,6|0,1:2|1:0,0:0:0:0:
75,330,163417,1,2,0:0:0:0:
13,263,163575,2,0,P|31:202|37:135,1,130,2|0,1:2|1:0,0:0:0:0:
4,50,164049,1,2,0:0:0:0:
86,10,164207,6,0,P|129:35|161:41,1,65,2|0,1:2|0:0,0:0:0:0:
176,124,164523,2,0,P|224:115|257:120,1,65,2|0,1:2|0:0,0:0:0:0:
316,66,164838,2,0,P|359:55|385:39,1,65,2|0,1:2|0:0,0:0:0:0:
438,113,165154,2,0,P|486:127|512:141,1,65,2|0,1:2|0:0,0:0:0:0:
352,210,165470,6,0,L|363:125,1,65,2|0,1:2|0:0,0:0:0:0:
447,226,165786,2,0,L|458:311,1,65,2|0,1:2|0:0,0:0:0:0:
299,320,166102,2,0,P|341:300|378:298,1,65,2|0,1:2|0:0,0:0:0:0:
202,208,166417,2,0,P|233:215|262:231,1,65,2|0,1:2|0:0,0:0:0:0:
96,325,166733,2,0,P|123:276|108:205,1,130,2|0,1:2|1:2,0:0:0:0:
274,353,167365,6,0,L|184:370,1,65,2|0,1:2|0:0,0:0:0:0:
340,283,167681,2,0,L|430:300,1,65,2|0,1:2|0:0,0:0:0:0:
270,214,167996,2,0,L|126:241,1,130,2|0,1:2|1:0,0:0:0:0:
77,170,168470,1,0,0:0:0:0:
147,98,168628,2,0,P|135:51|131:28,2,65,2|2|0,1:2|0:3|1:0,0:0:0:0:
203,168,169101,1,2,0:3:0:0:
336,92,169259,6,0,P|289:105|250:119,1,65,2|2,1:2|0:3,0:0:0:0:
165,251,169575,2,0,P|212:264|251:278,1,65,2|2,1:2|0:3,0:0:0:0:
340,179,169891,2,0,P|320:234|314:255,1,65,2|2,1:2|0:3,0:0:0:0:
203,168,170207,2,0,P|192:137|181:106,1,65,2|2,1:2|0:3,0:0:0:0:
233,34,170523,1,2,0:0:0:0:
256,192,170681,12,0,171786,0:0:0:0:
