osu file format v14

[General]
AudioFilename: audio.mp3
AudioLeadIn: 0
PreviewTime: 71304
Countdown: 0
SampleSet: Soft
StackLeniency: 0.4
Mode: 0
LetterboxInBreaks: 0
WidescreenStoryboard: 1

[Editor]
Bookmarks: 112435,122541,132488
DistanceSpacing: 0.9
BeatDivisor: 4
GridSize: 4
TimelineZoom: 1.3

[Metadata]
Title:Tougetsu, Rinzen ni Kisu.
TitleUnicode:冬月、凜然に帰す。
Artist:Ren feat. Hatsune Miku
ArtistUnicode:廉 feat. 初音ミク
Creator:Log Off Now
Version:Hard
Source:
Tags:japanese pop jpop j-pop vocaloid tomobop 友達募集P tomodachi boshuup suimin
BeatmapID:2928440
BeatmapSetID:1418780

[Difficulty]
HPDrainRate:4.5
CircleSize:3.2
OverallDifficulty:6
ApproachRate:8
SliderMultiplier:1.1
SliderTickRate:1

[Events]
//Background and Video events
0,0,"ren-miku.jpg",0,0
//Break Periods
2,92301,101088
//Storyboard Layer 0 (Background)
//Storyboard Layer 1 (Fail)
//Storyboard Layer 2 (Pass)
//Storyboard Layer 3 (Foreground)
//Storyboard Layer 4 (Overlay)
//Storyboard Sound Samples

[TimingPoints]
1260,315.789473684211,4,2,1,55,1,0
8838,-100,4,2,1,55,0,0
8917,-100,4,2,1,25,0,0
10102,-100,4,2,1,5,0,0
10733,-100,4,2,1,15,0,0
11049,-100,4,2,1,30,0,0
11207,-90.9090909090909,4,2,1,50,0,0
11365,-83.3333333333333,4,2,2,70,0,0
11681,-83.3333333333333,4,2,1,70,0,0
31575,-100,4,2,1,70,0,0
31733,-100,4,2,1,60,0,0
40417,-100,4,2,1,60,0,0
41681,-100,4,2,1,60,0,0
51786,-100,4,2,3,55,0,0
61891,-100,4,2,1,55,0,0
70102,-100,4,2,1,55,0,0
71365,-100,4,2,1,35,0,0
71602,-100,4,2,1,5,0,0
71681,-100,4,2,1,55,0,0
71917,-100,4,2,1,5,0,0
71996,-90.9090909090909,4,2,2,80,0,1
72154,-90.9090909090909,4,2,1,80,0,1
92102,-100,4,2,1,80,0,0
101838,-100,4,2,1,40,0,0
102233,-100,4,2,1,5,0,0
102312,-100,4,2,1,50,0,0
121891,-100,4,2,1,55,0,0
122049,-100,4,2,1,5,0,0
122128,-100,4,2,1,55,0,0
122286,-100,4,2,1,5,0,0
122365,-111.111111111111,4,2,1,45,0,0
132470,-100,4,2,1,65,0,0
137365,-100,4,2,1,65,0,0
142102,-100,4,2,1,65,0,0
142338,-100,4,2,1,5,0,0
142417,-100,4,2,1,65,0,0
142654,-100,4,2,1,5,0,0
142733,-83.3333333333333,4,2,2,85,0,1
142891,-83.3333333333333,4,2,1,85,0,1
162944,-100,4,2,1,55,0,0
170523,-100,4,2,1,55,0,0
170602,-100,4,2,1,25,0,0
171786,-100,4,2,1,5,0,0

[Colours]
Combo1 : 248,222,163
Combo2 : 5,211,228
Combo3 : 46,147,194
Combo4 : 247,176,244

[HitObjects]
484,86,1260,6,0,P|429:108|373:119,1,110,2|0,1:2|1:0,0:0:0:0:
306,68,1733,1,2,0:0:0:0:
243,130,1891,2,0,P|255:178|268:256,1,110,2|0,1:2|1:0,0:0:0:0:
216,311,2365,1,2,0:0:0:0:
135,274,2523,6,0,P|103:268|56:264,1,55,2|0,1:2|0:0,0:0:0:0:
10,212,2838,2,0,P|22:167|26:145,1,55,2|0,1:2|0:0,0:0:0:0:
111,147,3154,2,0,P|104:120|94:94,1,55,2|0,1:2|0:0,0:0:0:0:
48,19,3470,1,2,1:2:0:0:
224,18,3786,6,0,P|211:70|208:89,1,55,2|0,1:2|0:0,0:0:0:0:
273,133,4102,2,0,P|286:185|289:204,1,55,2|0,1:2|0:0,0:0:0:0:
220,244,4417,2,0,P|252:277|261:291,1,55,2|0,1:2|0:0,0:0:0:0:
285,368,4733,2,0,P|317:356|343:351,1,55,2|0,1:2|0:0,0:0:0:0:
387,278,5049,2,0,P|444:291|501:295,1,110,2|0,1:2|1:0,0:0:0:0:
418,135,5681,6,0,P|373:141|360:143,1,55,2|0,1:2|0:0,0:0:0:0:
304,208,5996,2,0,P|276:204|249:200,1,55,2|0,1:2|0:0,0:0:0:0:
169,162,6312,2,0,P|195:201|177:271,1,110,2|0,1:2|1:0,0:0:0:0:
124,325,6786,1,0,0:0:0:0:
44,286,6944,2,0,P|37:232|24:169,1,110,2|0,1:2|1:0,0:0:0:0:
85,112,7417,1,2,0:3:0:0:
155,164,7575,6,0,L|231:152,1,55,2|2,1:2|0:3,0:0:0:0:
264,85,7891,2,0,L|340:97,1,55,2|2,1:2|0:3,0:0:0:0:
341,179,8207,2,0,L|415:150,1,55,2|2,1:2|0:3,0:0:0:0:
411,72,8523,2,0,L|486:95,1,55,2|2,1:2|0:3,0:0:0:0:
499,168,8838,1,2,0:0:0:0:
256,192,8996,12,0,10102,0:0:0:0:
381,325,11207,5,0,1:0:0:0:
381,325,11365,2,0,P|305:304|249:298,1,131.99999597168,12|8,1:2|0:0,0:0:0:0:
185,233,11838,1,2,0:0:0:0:
123,302,11996,2,0,L|35:285,1,65.9999979858399,0|2,1:0|1:2,0:0:0:0:
10,209,12312,2,0,P|30:162|29:136,1,65.9999979858399,8|0,0:0|0:0,0:0:0:0:
92,78,12628,6,0,B|166:74|126:122|246:113,1,131.99999597168,2|10,1:2|0:0,0:0:0:0:
290,58,13102,1,2,0:0:0:0:
353,125,13260,2,0,P|342:169|335:201,1,65.9999979858399,0|2,1:0|1:2,0:0:0:0:
253,228,13575,2,0,P|264:272|271:304,1,65.9999979858399,8|0,0:0|0:0,0:0:0:0:
338,353,13891,6,0,P|385:326|462:337,1,131.99999597168,2|10,1:2|0:0,0:0:0:0:
497,250,14365,2,0,P|459:212|461:128,1,131.99999597168,2|2,0:0|1:2,0:0:0:0:
498,54,14838,2,0,P|440:44|419:42,1,65.9999979858399,8|2,0:0|0:2,0:0:0:0:
364,105,15154,5,0,1:2:0:0:
364,105,15312,1,2,1:2:0:0:
269,76,15470,2,0,P|236:81|204:88,1,65.9999979858399,10|2,0:0|0:0,0:0:0:0:
136,23,15786,1,2,1:2:0:0:
136,23,15944,1,2,1:2:0:0:
56,70,16102,2,0,P|70:116|75:145,1,65.9999979858399,10|0,0:0|0:0,0:0:0:0:
122,211,16417,6,0,P|106:264|89:350,1,131.99999597168,2|10,1:2|0:0,0:0:0:0:
174,379,16891,1,2,0:0:0:0:
249,325,17049,2,0,P|313:332|335:337,1,65.9999979858399,0|2,1:0|1:2,0:0:0:0:
395,378,17365,2,0,P|459:371|481:366,1,65.9999979858399,8|0,0:0|0:0,0:0:0:0:
499,286,17681,6,0,P|447:255|434:173,1,131.99999597168,2|10,1:2|0:0,0:0:0:0:
489,118,18154,1,2,0:0:0:0:
416,61,18312,2,0,P|363:77|344:81,1,65.9999979858399,0|2,1:0|1:2,0:0:0:0:
297,154,18628,2,0,P|250:140|225:135,1,65.9999979858399,8|0,0:0|0:0,0:0:0:0:
153,89,18944,6,0,P|181:148|158:222,1,131.99999597168,2|10,1:2|0:0,0:0:0:0:
210,291,19417,2,0,P|143:261|79:252,1,131.99999597168,2|2,0:0|1:2,0:0:0:0:
27,179,19891,1,10,0:0:0:0:
27,179,20049,1,2,0:0:0:0:
90,111,20207,6,0,L|173:125,2,65.9999979858399,2|2|10,1:2|1:2|2:0,0:0:0:0:
27,41,20681,1,2,0:0:0:0:
111,4,20838,2,0,L|194:18,1,65.9999979858399,2|2,1:2|1:2,0:0:0:0:
244,77,21154,1,12,0:0:0:0:
421,23,21470,6,0,P|407:72|393:156,1,131.99999597168,6|10,1:2|0:0,0:0:0:0:
318,207,21944,1,2,0:0:0:0:
389,265,22102,2,0,P|397:305|403:339,1,65.9999979858399,0|2,1:0|1:2,0:0:0:0:
320,375,22417,2,0,P|262:361|232:356,1,65.9999979858399,8|0,0:0|0:0,0:0:0:0:
178,308,22733,6,0,B|93:303|138:363|29:343,1,131.99999597168,2|10,1:2|0:0,0:0:0:0:
2,271,23207,1,2,0:0:0:0:
63,201,23365,2,0,P|115:220|142:223,1,65.9999979858399,0|2,1:0|1:2,0:0:0:0:
204,173,23681,2,0,P|246:159|277:157,1,65.9999979858399,8|0,0:0|0:0,0:0:0:0:
338,215,23996,6,0,P|361:164|332:90,1,131.99999597168,2|8,1:2|0:0,0:0:0:0:
287,16,24470,2,0,P|376:43|424:51,1,131.99999597168,2|2,0:0|1:2,0:0:0:0:
457,132,24944,2,0,P|444:186|441:209,1,65.9999979858399,8|2,0:0|0:2,0:0:0:0:
493,274,25260,5,0,1:2:0:0:
493,274,25417,1,2,1:2:0:0:
429,341,25575,2,0,P|393:331|352:327,1,65.9999979858399,10|2,0:0|0:0,0:0:0:0:
285,287,25892,1,2,1:2:0:0:
285,287,26050,1,2,1:2:0:0:
327,205,26208,2,0,P|341:159|346:130,1,65.9999979858399,10|0,0:0|0:0,0:0:0:0:
276,78,26523,6,0,P|229:118|154:116,1,131.99999597168,2|10,1:2|0:0,0:0:0:0:
80,72,26997,1,2,0:0:0:0:
16,140,27155,2,0,P|23:182|28:226,1,65.9999979858399,0|2,1:0|1:2,0:0:0:0:
116,225,27470,2,0,P|111:257|106:290,1,65.9999979858399,8|0,0:0|0:0,0:0:0:0:
62,373,27787,6,0,P|111:339|192:345,1,131.99999597168,2|10,1:2|0:0,0:0:0:0:
249,277,28260,1,2,0:0:0:0:
318,338,28418,2,0,P|370:352|402:344,1,65.9999979858399,0|2,1:0|1:2,0:0:0:0:
454,293,28733,2,0,P|444:243|444:218,1,65.9999979858399,8|0,0:0|0:0,0:0:0:0:
496,151,29049,6,0,P|452:177|364:164,1,131.99999597168,2|10,1:2|0:0,0:0:0:0:
301,110,29523,2,0,P|315:164|329:248,1,131.99999597168,2|2,0:0|1:2,0:0:0:0:
290,326,29997,1,10,0:0:0:0:
290,326,30155,1,2,0:0:0:0:
213,274,30313,6,0,L|227:191,2,65.9999979858399,2|2|10,1:2|1:2|2:0,0:0:0:0:
152,341,30787,1,2,0:0:0:0:
63,315,30944,2,0,L|49:232,1,65.9999979858399,2|2,1:2|1:2,0:0:0:0:
113,179,31260,1,8,0:0:0:0:
52,109,31417,1,2,1:2:0:0:
113,40,31575,6,0,B|173:37|151:64|232:63,1,110,6|2,1:2|1:2,0:0:0:0:
359,127,32207,2,0,P|325:67|338:13,1,110,2|2,1:2|1:2,0:0:0:0:
479,71,32838,2,0,P|468:120|459:191,1,110,2|0,1:2|1:0,0:0:0:0:
333,267,33470,5,2,1:2:0:0:
438,314,33786,1,2,1:2:0:0:
295,373,34102,1,2,1:2:0:0:
445,341,34417,1,2,1:2:0:0:
321,249,34733,1,2,1:2:0:0:
196,339,35049,1,2,1:2:0:0:
72,246,35365,2,0,P|59:171|49:130,1,110,2|0,1:2|1:2,0:0:0:0:
167,36,35996,2,0,P|157:88|145:155,1,110,0|0,1:0|1:0,0:0:0:0:
206,217,36470,1,2,0:0:0:0:
280,170,36628,6,0,P|332:193|399:162,1,110,2|2,1:2|1:2,0:0:0:0:
507,55,37260,2,0,L|496:188,1,110,2|2,1:2|1:2,0:0:0:0:
436,329,37891,2,0,P|384:306|309:317,1,110,2|0,1:2|1:0,0:0:0:0:
159,348,38523,5,2,1:2:0:0:
229,187,38838,1,2,1:2:0:0:
131,333,39154,1,2,1:2:0:0:
79,164,39470,1,2,1:2:0:0:
213,277,39786,2,0,L|285:266,1,55,0|2,1:0|0:3,0:0:0:0:
329,205,40102,1,0,1:0:0:0:
409,262,40260,1,0,1:0:0:0:
409,262,40338,1,0,1:0:0:0:
409,262,40417,1,8,0:0:0:0:
460,81,41365,5,8,0:0:0:0:
389,28,41523,1,2,0:0:0:0:
328,91,41681,2,0,P|283:82|251:77,1,55,6|0,1:2|0:0,0:0:0:0:
195,39,41996,2,0,P|135:48|80:57,1,110,10|2,0:2|1:2,0:0:0:0:
26,121,42470,2,0,P|39:150|46:179,1,55,0|2,1:0|0:0,0:0:0:0:
113,228,42786,2,0,P|98:280|86:347,1,110,8|0,0:0|1:0,0:0:0:0:
163,381,43260,1,8,0:0:0:0:
301,273,43575,5,2,1:2:0:0:
385,297,43733,1,0,1:0:0:0:
468,324,43891,1,10,0:0:0:0:
510,153,44207,6,0,L|432:168,1,55,2|0,1:2|1:0,0:0:0:0:
374,198,44523,2,0,L|248:165,1,110,10|2,0:0|1:2,0:0:0:0:
197,223,44996,2,0,P|208:276|207:297,1,55,0|2,1:0|0:0,0:0:0:0:
159,350,45312,2,0,P|103:329|43:329,1,110,8|0,0:0|1:0,0:0:0:0:
4,253,45786,1,8,0:0:0:0:
67,88,46102,5,0,1:2:0:0:
151,112,46260,1,0,1:0:0:0:
233,139,46418,1,8,0:0:0:0:
303,86,46575,1,2,0:0:0:0:
366,147,46733,6,0,P|354:195|351:221,1,55,2|0,1:2|1:0,0:0:0:0:
287,259,47049,2,0,P|299:307|313:370,1,110,10|2,0:2|1:2,0:0:0:0:
399,379,47523,2,0,P|438:362|475:354,1,55,0|2,1:0|0:0,0:0:0:0:
499,286,47838,2,0,P|481:252|501:177,1,110,8|0,0:0|1:0,0:0:0:0:
451,106,48312,2,0,L|377:119,1,55,10|0,0:0|0:0,0:0:0:0:
356,196,48628,1,2,1:2:0:0:
356,196,48786,1,0,1:0:0:0:
276,158,48944,2,0,L|202:171,1,55,10|0,0:0|0:0,0:0:0:0:
171,240,49260,5,2,1:2:0:0:
87,216,49418,1,0,1:0:0:0:
6,189,49576,1,8,0:0:0:0:
71,351,49891,5,0,1:2:0:0:
155,327,50049,1,0,1:0:0:0:
236,300,50207,1,8,0:0:0:0:
303,356,50365,2,0,P|351:344|422:331,1,110,0|0,1:0|1:0,0:0:0:0:
477,275,50838,1,8,0:0:0:0:
415,211,50996,2,0,L|369:219,2,27.5,8|8|0,0:3|0:3|1:0,0:0:0:0:
477,147,51312,1,4,0:3:0:0:
477,147,51391,1,4,0:3:0:0:
477,147,51470,2,0,P|459:97|455:74,1,55,8|0,0:0|1:0,0:0:0:0:
390,38,51786,6,0,P|351:59|269:43,1,110,6|0,1:2|1:0,0:0:0:0:
209,11,52260,1,2,0:0:0:0:
135,59,52417,2,0,P|147:99|160:170,1,110,2|0,1:2|1:0,0:0:0:0:
105,236,52891,1,10,0:0:0:0:
164,300,53049,6,0,L|232:285,1,55,2|8,1:2|0:0,0:0:0:0:
281,226,53365,1,2,1:2:0:0:
393,361,53681,1,2,1:2:0:0:
491,269,53996,1,2,1:2:0:0:
403,187,54312,6,0,L|419:66,1,110,2|2,1:2|1:2,0:0:0:0:
293,8,54944,2,0,L|309:129,1,110,2|2,1:2|1:2,0:0:0:0:
248,182,55417,1,8,0:0:0:0:
170,140,55575,2,0,P|138:149|110:155,1,55,2|8,1:2|0:0,0:0:0:0:
41,107,55891,1,2,1:2:0:0:
183,17,56207,5,2,1:2:0:0:
279,110,56523,1,2,1:2:0:0:
409,63,56838,2,0,P|398:111|388:192,1,110,2|0,1:2|1:0,0:0:0:0:
480,322,57470,5,2,1:2:0:0:
338,378,57786,1,2,1:2:0:0:
270,321,57944,2,0,L|195:337,1,55,8|2,0:0|1:2,0:0:0:0:
139,377,58260,1,8,0:0:0:0:
139,377,58417,1,2,1:2:0:0:
27,289,58733,1,2,1:2:0:0:
157,208,59049,1,2,1:2:0:0:
110,78,59365,6,0,L|-9:96,2,110,2|2|2,1:2|1:2|1:2,0:0:0:0:
229,9,60312,1,2,1:2:0:0:
289,72,60470,2,0,L|277:137,1,55,8|2,0:0|1:2,0:0:0:0:
209,181,60786,1,0,0:0:0:0:
209,181,60944,1,2,1:2:0:0:
272,242,61102,6,0,P|330:220|388:219,1,110,2|2,0:3|0:3,0:0:0:0:
440,278,61575,2,0,P|463:240|468:213,1,55,2|0,1:3|0:0,0:0:0:0:
441,144,61891,6,0,P|429:101|424:33,1,110,6|0,1:2|1:0,0:0:0:0:
342,1,62365,1,2,0:0:0:0:
276,60,62523,2,0,P|220:41|146:36,1,110,2|0,1:2|1:0,0:0:0:0:
97,85,62996,1,2,0:0:0:0:
153,152,63154,6,0,L|136:218,1,55,2|0,1:2|0:0,0:0:0:0:
62,249,63470,2,0,L|79:315,1,55,2|0,1:2|0:0,0:0:0:0:
144,357,63786,2,0,P|191:341|216:338,1,55,2|0,1:2|0:0,0:0:0:0:
259,277,64102,2,0,P|296:292|319:296,1,55,2|0,1:2|0:0,0:0:0:0:
373,356,64417,6,0,P|426:328|483:323,1,110,2|2,1:2|1:2,0:0:0:0:
499,237,64891,1,0,0:0:0:0:
442,169,65049,2,0,P|391:181|327:193,1,110,2|2,1:2|1:2,0:0:0:0:
172,262,65681,2,0,B|203:214|210:140,1,110,2|0,1:2|1:0,0:0:0:0:
161,84,66154,1,0,0:0:0:0:
222,21,66312,6,0,P|263:29|289:32,1,55,2|0,1:2|0:0,0:0:0:0:
341,90,66628,2,0,P|392:78|404:76,1,55,2|0,1:2|0:0,0:0:0:0:
465,24,66944,2,0,P|450:57|479:136,1,110,2|0,1:2|1:0,0:0:0:0:
509,203,67417,1,0,0:0:0:0:
448,266,67575,2,0,P|386:250|336:247,1,110,2|0,1:2|1:2,0:0:0:0:
272,304,68049,1,0,0:0:0:0:
211,239,68207,6,0,L|225:174,1,55,2|0,1:2|0:0,0:0:0:0:
300,142,68523,2,0,L|286:77,1,55,2|2,1:2|0:3,0:0:0:0:
224,27,68838,2,0,P|182:46|154:48,1,55,2|2,1:2|0:3,0:0:0:0:
95,4,69154,1,2,1:2:0:0:
95,4,69312,1,2,0:3:0:0:
30,63,69470,6,0,L|44:122,1,55,2|2,1:2|0:3,0:0:0:0:
108,175,69786,2,0,L|95:228,1,55,0|2,1:3|0:3,0:0:0:0:
27,285,70102,2,0,L|41:344,1,55,0|2,1:3|0:3,0:0:0:0:
120,374,70417,1,0,1:0:0:0:
186,315,70575,1,0,1:0:0:0:
268,345,70733,1,8,0:0:0:0:
268,345,71365,6,0,P|280:282|296:227,1,110,2|2,0:0|0:0,0:0:0:0:
206,64,71996,6,0,P|257:80|276:85,1,60.5000018463135,12|0,1:2|0:0,0:0:0:0:
337,135,72312,2,0,P|388:119|407:114,1,60.5000018463135,10|0,0:0|0:0,0:0:0:0:
473,162,72628,2,0,P|461:199|457:224,1,60.5000018463135,2|0,1:2|1:0,0:0:0:0:
407,296,72944,2,0,P|379:256|365:240,1,60.5000018463135,10|0,0:0|0:0,0:0:0:0:
287,212,73260,5,2,1:2:0:0:
287,212,73417,1,0,1:0:0:0:
221,274,73575,2,0,P|175:260|87:247,1,121.000003692627,10|0,0:0|1:0,0:0:0:0:
33,189,74049,1,0,1:0:0:0:
94,121,74207,2,0,P|109:76|109:52,1,60.5000018463135,10|0,0:0|0:0,0:0:0:0:
179,4,74523,6,0,P|199:39|205:70,1,60.5000018463135,2|0,1:2|1:0,0:0:0:0:
292,75,74838,2,0,P|284:114|269:142,1,60.5000018463135,10|0,0:0|0:0,0:0:0:0:
205,191,75154,2,0,P|236:216|266:228,1,60.5000018463135,2|0,1:2|1:0,0:0:0:0:
240,314,75470,2,0,P|279:313|310:303,1,60.5000018463135,10|0,0:0|0:0,0:0:0:0:
369,248,75786,2,0,P|429:262|494:284,1,121.000003692627,2|8,1:2|0:0,0:0:0:0:
407,116,76417,6,0,P|394:79|391:54,1,60.5000018463135,2|0,1:2|1:0,0:0:0:0:
315,6,76733,2,0,P|300:42|293:73,1,60.5000018463135,10|0,0:0|0:0,0:0:0:0:
274,151,77049,2,0,P|245:137|139:142,1,121.000003692627,2|8,1:2|0:0,0:0:0:0:
90,72,77523,1,0,0:0:0:0:
25,135,77681,2,0,L|41:195,1,60.5000018463135,2|0,1:2|1:0,0:0:0:0:
125,225,77996,2,0,L|109:285,1,60.5000018463135,10|0,0:0|0:0,0:0:0:0:
43,347,78312,6,0,P|79:367|106:370,1,60.5000018463135,2|0,1:2|1:0,0:0:0:0:
182,335,78628,2,0,P|234:322|264:324,1,60.5000018463135,10|0,0:0|0:0,0:0:0:0:
277,238,78944,2,0,P|324:269|340:287,1,60.5000018463135,2|0,1:2|1:0,0:0:0:0:
398,328,79260,2,0,P|415:296|417:268,1,60.5000018463135,10|0,0:0|0:0,0:0:0:0:
385,187,79575,6,0,P|430:218|505:215,1,121.000003692627,2|10,1:2|0:0,0:0:0:0:
461,133,80049,1,0,0:0:0:0:
495,49,80207,2,0,P|444:32|421:28,1,60.5000018463135,2|0,1:2|1:0,0:0:0:0:
364,85,80523,2,0,P|313:102|290:106,1,60.5000018463135,10|0,0:0|0:0,0:0:0:0:
222,67,80838,6,0,P|252:120|231:185,1,121.000003692627,2|8,1:2|0:0,0:0:0:0:
175,242,81312,1,8,0:0:0:0:
175,242,81391,1,8,0:0:0:0:
175,242,81470,2,0,L|91:226,1,60.5000018463135,0|0,1:0|1:0,0:0:0:0:
57,160,81786,1,12,0:0:0:0:
21,338,82102,6,0,L|105:322,1,60.5000018463135,6|2,1:2|0:0,0:0:0:0:
158,372,82417,2,0,L|242:356,1,60.5000018463135,10|2,0:2|0:0,0:0:0:0:
278,292,82733,1,2,1:2:0:0:
278,292,82891,1,2,0:0:0:0:
351,345,83049,1,10,0:2:0:0:
351,345,83207,1,2,0:0:0:0:
419,284,83365,6,0,P|408:241|407:214,1,60.5000018463135,2|2,1:2|0:0,0:0:0:0:
468,157,83681,1,10,0:2:0:0:
405,91,83838,2,0,P|356:121|279:114,1,121.000003692627,2|2,0:0|0:0,0:0:0:0:
226,58,84312,1,10,0:0:0:0:
226,58,84470,1,2,0:0:0:0:
154,114,84628,6,0,L|167:179,1,60.5000018463135,2|2,1:2|0:0,0:0:0:0:
79,201,84944,2,0,L|92:266,1,60.5000018463135,10|2,0:0|0:0,0:0:0:0:
163,315,85260,1,2,1:2:0:0:
163,315,85417,1,2,0:0:0:0:
234,258,85575,1,10,0:0:0:0:
234,258,85733,1,2,0:0:0:0:
303,316,85891,6,0,P|344:325|375:336,1,60.5000018463135,2|2,1:2|0:0,0:0:0:0:
435,277,86207,1,10,0:0:0:0:
500,340,86365,2,0,P|493:280|504:210,1,121.000003692627,2|0,0:0|0:0,0:0:0:0:
443,149,86838,2,0,P|406:167|372:172,1,60.5000018463135,10|0,0:0|0:0,0:0:0:0:
309,123,87154,6,0,P|294:166|298:198,1,60.5000018463135,2|0,1:2|0:0,0:0:0:0:
205,202,87470,2,0,P|221:244|244:266,1,60.5000018463135,10|0,0:2|0:0,0:0:0:0:
321,268,87786,2,0,L|380:257,1,60.5000018463135,2|0,1:2|0:0,0:0:0:0:
372,348,88102,2,0,L|312:358,1,60.5000018463135,10|0,0:0|0:0,0:0:0:0:
223,376,88417,6,0,P|187:351|161:343,1,60.5000018463135,2|0,1:2|0:0,0:0:0:0:
80,335,88733,2,0,P|97:297|105:260,1,60.5000018463135,10|0,0:0|0:0,0:0:0:0:
61,197,89049,2,0,P|116:181|139:170,1,60.5000018463135,2|0,1:2|0:0,0:0:0:0:
154,95,89365,2,0,P|196:120|214:127,1,60.5000018463135,10|0,0:0|0:0,0:0:0:0:
259,199,89681,6,0,P|319:179|386:170,1,121.000003692627,2|8,1:2|0:0,0:0:0:0:
453,218,90154,1,2,0:0:0:0:
503,142,90312,2,0,P|486:99|479:63,1,60.5000018463135,0|2,1:0|0:0,0:0:0:0:
423,15,90628,2,0,P|385:34|348:42,1,60.5000018463135,8|0,0:0|0:0,0:0:0:0:
292,90,90944,6,0,P|232:70|216:66,1,60.5000018463135,2|0,1:2|0:0,0:0:0:0:
158,21,91260,1,12,0:0:0:0:
84,73,91417,1,2,1:2:0:0:
130,151,91575,6,0,L|176:141,2,40.333334564209,8|8|8,0:0|0:0|0:0,0:0:0:0:
96,202,91891,6,0,L|50:192,2,40.333334564209,8|8|8,0:0|0:0|0:0,0:0:0:0:
118,108,101838,5,2,0:3:0:0:
118,108,101996,1,2,0:3:0:0:
204,248,102312,6,0,L|323:227,1,110,4|2,1:2|0:0,0:0:0:0:
367,167,102786,1,0,1:0:0:0:
367,167,102944,2,0,L|486:188,2,110,8|2|2,0:0|0:0|0:0,0:0:0:0:
286,22,103891,1,0,1:2:0:0:
166,135,104207,2,0,P|179:83|143:12,1,110,8|2,0:0|0:0,0:0:0:0:
13,104,104838,6,0,P|28:166|36:222,1,110,0|2,1:2|0:0,0:0:0:0:
100,271,105312,1,0,1:0:0:0:
100,271,105470,2,0,P|85:333|77:389,2,110,8|2|2,0:0|0:0|0:0,0:0:0:0:
236,177,106417,1,0,1:0:0:0:
279,336,106733,1,8,0:0:0:0:
127,269,107049,1,2,0:0:0:0:
268,183,107365,6,0,B|351:180|327:236|436:223,1,165,0|0,1:2|1:0,0:0:0:0:
488,173,107996,2,0,P|466:128|485:66,1,110,8|2,0:0|0:0,0:0:0:0:
326,9,108628,1,2,0:0:0:0:
243,151,108944,1,0,1:2:0:0:
104,61,109260,2,0,L|223:39,1,110,8|2,0:0|0:0,0:0:0:0:
363,107,109891,6,0,P|349:145|359:212,1,110,0|2,1:2|0:0,0:0:0:0:
428,268,110365,1,0,1:0:0:0:
428,268,110523,1,8,0:0:0:0:
303,375,110838,1,2,0:0:0:0:
165,283,111154,2,0,P|109:296|48:319,1,110,2|0,0:0|1:0,0:0:0:0:
5,251,111628,1,2,0:3:0:0:
5,251,111786,2,0,L|17:192,2,55,8|2|2,0:0|0:0|0:3,0:0:0:0:
160,196,112417,6,0,L|142:69,1,110,4|0,1:2|0:0,0:0:0:0:
188,20,112891,1,0,3:0:0:0:
188,20,112970,1,0,3:0:0:0:
188,20,113049,1,8,0:0:0:0:
254,69,113207,2,0,P|296:93|376:74,1,110,0|0,1:0|1:0,0:0:0:0:
500,8,113838,2,0,B|471:39|471:39|487:121,1,110,0|0,1:0|1:0,0:0:0:0:
424,163,114312,1,8,0:0:0:0:
273,95,114628,1,2,0:0:0:0:
128,175,114944,6,0,L|151:338,1,165,0|0,1:0|3:0,0:0:0:0:
175,357,115496,1,0,3:0:0:0:
175,357,115575,1,8,0:0:0:0:
250,324,115733,2,0,P|309:336|368:355,1,110,0|0,1:0|1:0,0:0:0:0:
492,255,116365,2,0,P|462:226|460:152,1,110,0|0,1:0|1:0,0:0:0:0:
499,90,116838,2,0,L|489:28,1,55,8|0,0:0|0:0,0:0:0:0:
413,4,117154,1,0,1:0:0:0:
413,4,117312,1,8,0:0:0:0:
350,58,117470,6,0,B|278:68|233:88,1,110,0|0,1:2|0:0,0:0:0:0:
163,59,117944,1,0,3:0:0:0:
163,59,118023,1,0,3:0:0:0:
163,59,118102,1,8,0:0:0:0:
103,121,118260,2,0,L|85:9,2,110,0|0|0,1:0|1:0|1:0,0:0:0:0:
10,262,119207,1,0,1:0:0:0:
67,321,119365,2,0,P|109:306|187:297,1,110,8|2,0:0|0:0,0:0:0:0:
238,144,119996,6,0,B|346:132|308:201|420:176,1,165,0|0,1:0|3:0,0:0:0:0:
417,161,120549,1,0,3:0:0:0:
417,161,120628,1,8,0:0:0:0:
494,201,120786,2,0,L|476:313,2,110,0|0|0,1:0|1:0|1:0,0:0:0:0:
441,44,121733,1,0,1:0:0:0:
369,85,121891,2,0,B|388:125|388:125|379:173,2,82.5,8|8|8,0:0|0:0|0:0,0:0:0:0:
301,37,122523,6,0,P|259:52|195:64,1,98.9999969787599,6|0,0:0|0:0,0:0:0:0:
89,37,123154,2,0,P|111:78|120:133,1,98.9999969787599,2|0,0:0|0:0,0:0:0:0:
44,221,123786,1,2,0:0:0:0:
108,324,124102,2,0,L|220:296,1,98.9999969787599,2|0,0:0|0:0,0:0:0:0:
284,212,124733,1,2,0:0:0:0:
376,288,125049,5,2,0:0:0:0:
488,248,125365,1,2,0:0:0:0:
460,364,125681,1,0,0:0:0:0:
500,216,125996,1,2,0:0:0:0:
392,264,126312,1,2,0:0:0:0:
252,72,126944,5,2,0:0:0:0:
160,148,127260,1,2,0:0:0:0:
116,36,127575,1,2,0:0:0:0:
288,200,128207,6,0,P|336:188|392:180,1,98.9999969787599,2|2,0:0|0:0,0:0:0:0:
480,108,128838,1,2,0:0:0:0:
380,44,129154,1,2,0:0:0:0:
492,8,129470,1,2,0:0:0:0:
388,12,129786,1,0,0:0:0:0:
336,120,130102,5,2,0:0:0:0:
232,68,130417,1,0,0:0:0:0:
312,136,130733,1,2,0:0:0:0:
220,184,131049,1,2,0:0:0:0:
324,152,131365,1,2,0:0:0:0:
160,332,132470,5,2,0:0:0:0:
160,332,132628,2,0,P|156:285|152:252,1,55,6|2,1:2|0:0,0:0:0:0:
93,221,132944,2,0,P|97:174|101:141,1,55,2|0,1:2|0:0,0:0:0:0:
157,108,133260,1,2,1:2:0:0:
157,108,133417,1,2,0:0:0:0:
224,155,133575,2,0,L|282:144,1,55,2|0,1:2|0:0,0:0:0:0:
336,86,133891,5,2,1:2:0:0:
336,86,134049,1,2,0:0:0:0:
294,14,134207,1,2,1:2:0:0:
375,1,134365,2,0,P|417:9|488:26,1,110,2|2,0:0|0:0,0:0:0:0:
446,98,134838,2,0,P|453:123|461:156,1,55,2|0,1:2|0:0,0:0:0:0:
402,211,135154,5,2,1:2:0:0:
402,211,135312,1,2,0:0:0:0:
321,191,135470,2,0,P|294:197|267:204,1,55,2|2,1:2|0:0,0:0:0:0:
225,278,135786,5,2,1:2:0:0:
225,278,135944,1,0,0:0:0:0:
154,235,136102,2,0,P|127:227|100:221,1,55,2|0,1:2|0:0,0:0:0:0:
27,258,136417,2,0,P|20:231|12:204,1,55,2|2,1:2|0:0,0:0:0:0:
63,139,136733,1,2,1:2:0:0:
63,139,136891,2,0,P|71:92|82:16,1,110,2|0,0:0|0:0,0:0:0:0:
159,5,137365,2,0,P|186:9|211:20,1,55,2|0,1:2|0:0,0:0:0:0:
235,106,137681,6,0,P|278:81|288:71,1,55,2|0,1:2|0:0,0:0:0:0:
354,27,137996,2,0,P|370:73|372:87,1,55,2|0,1:2|0:0,0:0:0:0:
327,155,138312,2,0,P|352:167|383:193,1,55,2|0,1:2|0:0,0:0:0:0:
416,260,138628,2,0,P|391:272|360:298,1,55,2|0,1:2|0:0,0:0:0:0:
331,368,138944,6,0,P|292:328|286:309,1,55,2|0,1:2|0:0,0:0:0:0:
214,371,139260,2,0,P|205:323|207:309,1,55,2|0,1:2|0:0,0:0:0:0:
235,234,139575,2,0,P|244:186|242:172,1,55,2|0,1:2|0:0,0:0:0:0:
179,119,139891,1,2,1:2:0:0:
179,119,140049,1,2,0:3:0:0:
122,186,140207,6,0,L|42:173,1,55,2|2,1:2|0:3,0:0:0:0:
29,257,140523,2,0,L|83:265,1,55,0|2,1:0|0:3,0:0:0:0:
128,341,140838,2,0,L|182:332,1,55,0|2,1:0|0:3,0:0:0:0:
248,272,141154,1,0,1:0:0:0:
248,272,141312,1,0,1:0:0:0:
320,322,141470,1,8,0:0:0:0:
487,173,142102,6,0,P|475:110|459:44,1,110,2|2,0:0|0:0,0:0:0:0:
328,209,142733,6,0,P|277:193|255:189,1,65.9999979858399,12|0,1:2|0:0,0:0:0:0:
197,116,143049,2,0,P|167:124|131:137,1,65.9999979858399,10|0,0:0|0:0,0:0:0:0:
89,225,143365,2,0,P|101:262|109:293,1,65.9999979858399,2|0,1:2|1:0,0:0:0:0:
185,351,143681,2,0,P|204:314|217:293,1,65.9999979858399,10|0,0:0|0:0,0:0:0:0:
305,244,143997,5,2,1:2:0:0:
305,244,144154,1,0,1:0:0:0:
366,321,144312,2,0,P|412:307|498:293,1,131.99999597168,10|0,0:0|1:0,0:0:0:0:
434,213,144786,1,0,1:0:0:0:
496,135,144944,2,0,P|501:91|488:64,1,65.9999979858399,10|0,0:0|0:0,0:0:0:0:
413,12,145260,6,0,L|333:34,1,65.9999979858399,2|0,1:2|1:0,0:0:0:0:
315,122,145575,2,0,L|235:100,1,65.9999979858399,10|0,0:0|0:0,0:0:0:0:
154,79,145891,2,0,L|170:153,1,65.9999979858399,2|0,1:2|1:0,0:0:0:0:
250,199,146207,2,0,L|234:273,1,65.9999979858399,10|0,0:0|0:0,0:0:0:0:
162,330,146523,2,0,P|228:316|287:366,1,131.99999597168,2|8,1:2|0:0,0:0:0:0:
421,213,147154,6,0,P|406:179|399:150,1,65.9999979858399,2|0,1:2|1:0,0:0:0:0:
321,88,147470,2,0,P|306:122|299:151,1,65.9999979858399,10|0,0:2|0:0,0:0:0:0:
338,241,147786,2,0,P|286:202|203:232,1,131.99999597168,2|8,1:2|0:0,0:0:0:0:
146,276,148260,1,0,0:0:0:0:
70,211,148418,2,0,L|60:145,1,65.9999979858399,2|0,1:2|1:0,0:0:0:0:
117,64,148733,2,0,P|161:82|186:86,1,65.9999979858399,10|0,0:0|0:0,0:0:0:0:
239,164,149049,6,0,P|283:146|308:142,1,65.9999979858399,2|0,1:2|1:0,0:0:0:0:
317,44,149365,2,0,P|362:58|383:71,1,65.9999979858399,10|0,0:0|0:0,0:0:0:0:
461,122,149681,2,0,P|443:166|439:191,1,65.9999979858399,2|0,1:2|1:0,0:0:0:0:
348,225,149997,2,0,P|362:270|375:291,1,65.9999979858399,10|0,0:2|0:0,0:0:0:0:
308,362,150312,6,0,L|225:348,1,65.9999979858399,2|0,1:2|1:0,0:0:0:0:
198,261,150628,2,0,L|115:275,1,65.9999979858399,10|0,0:0|0:0,0:0:0:0:
58,338,150944,1,2,1:2:0:0:
58,338,151102,1,0,1:0:0:0:
6,253,151260,2,0,P|24:214|28:185,1,65.9999979858399,10|0,0:0|0:0,0:0:0:0:
2,95,151575,5,2,1:2:0:0:
2,95,151733,1,0,1:0:0:0:
70,23,151891,1,8,0:0:0:0:
145,86,152049,2,0,P|202:101|272:130,1,131.99999597168,4|0,1:2|1:0,0:0:0:0:
355,77,152523,2,0,L|346:32,3,32.99999899292,8|8|8|4,0:0|0:0|0:3|0:3,0:0:0:0:
385,11,152838,6,0,L|476:29,1,65.9999979858399,6|2,1:2|0:0,0:0:0:0:
507,111,153154,1,10,0:2:0:0:
507,111,153312,1,2,0:0:0:0:
432,176,153470,2,0,L|444:240,1,65.9999979858399,2|2,1:2|0:0,0:0:0:0:
508,324,153786,1,10,0:2:0:0:
508,324,153944,1,2,0:0:0:0:
425,378,154102,6,0,P|374:360|350:353,1,65.9999979858399,2|2,1:2|0:0,0:0:0:0:
296,282,154418,1,10,0:2:0:0:
221,346,154575,2,0,P|161:372|86:335,1,131.99999597168,2|2,0:0|0:0,0:0:0:0:
50,271,155049,1,10,0:0:0:0:
50,271,155207,1,2,0:0:0:0:
119,200,155365,6,0,L|108:126,1,65.9999979858399,2|2,1:2|0:0,0:0:0:0:
43,59,155681,1,10,0:0:0:0:
125,5,155838,2,0,P|171:25|200:30,1,65.9999979858399,2|2,0:0|1:2,0:0:0:0:
252,103,156154,1,2,0:0:0:0:
252,103,156312,1,10,0:0:0:0:
336,52,156470,1,2,0:0:0:0:
421,104,156628,6,0,P|414:135|406:181,1,65.9999979858399,2|2,1:2|0:0,0:0:0:0:
457,255,156944,1,10,0:0:0:0:
373,308,157102,2,0,P|322:284|250:262,1,131.99999597168,2|0,0:0|0:0,0:0:0:0:
174,326,157575,2,0,P|156:289|153:245,1,65.9999979858399,10|0,0:0|0:0,0:0:0:0:
202,178,157891,6,0,P|220:141|223:97,1,65.9999979858399,2|0,1:2|0:0,0:0:0:0:
318,84,158207,2,0,P|294:49|258:25,1,65.9999979858399,10|0,0:0|0:0,0:0:0:0:
177,17,158523,2,0,P|120:39|104:40,1,65.9999979858399,2|0,1:2|0:0,0:0:0:0:
17,24,158838,2,0,P|31:80|25:109,1,65.9999979858399,10|0,0:2|0:0,0:0:0:0:
12,185,159154,6,0,L|104:164,1,65.9999979858399,2|0,1:2|0:0,0:0:0:0:
163,122,159470,2,0,L|253:150,1,65.9999979858399,10|0,0:0|0:0,0:0:0:0:
267,232,159786,2,0,L|322:189,1,65.9999979858399,2|0,1:2|0:0,0:0:0:0:
379,109,160102,2,0,L|434:152,1,65.9999979858399,10|0,0:0|0:0,0:0:0:0:
488,231,160418,6,0,P|436:276|408:348,1,131.99999597168,2|8,1:2|0:0,0:0:0:0:
331,272,160891,1,2,0:0:0:0:
277,355,161049,2,0,P|234:344|186:336,1,65.9999979858399,0|2,1:2|0:0,0:0:0:0:
149,263,161365,2,0,P|106:274|58:282,1,65.9999979858399,8|2,0:2|0:0,0:0:0:0:
17,351,161681,6,0,P|35:307|22:224,1,131.99999597168,2|8,1:2|0:0,0:0:0:0:
82,146,162154,1,2,0:0:0:0:
21,67,162312,1,4,1:2:0:0:
102,10,162470,1,8,0:0:0:0:
102,10,162549,1,8,0:0:0:0:
102,10,162628,2,0,L|188:28,1,65.9999979858399,8|8,0:0|0:0,0:0:0:0:
220,86,162944,6,0,P|267:72|332:63,1,110,6|0,1:2|1:0,0:0:0:0:
388,118,163417,1,2,0:0:0:0:
329,176,163575,2,0,P|305:222|325:289,1,110,2|0,1:2|1:0,0:0:0:0:
357,348,164049,1,2,0:0:0:0:
423,299,164207,6,0,P|450:302|477:307,1,55,2|0,1:2|0:0,0:0:0:0:
500,227,164523,2,0,P|488:182|484:160,1,55,2|0,1:2|0:0,0:0:0:0:
421,122,164838,2,0,P|430:96|437:69,1,55,2|0,1:2|0:0,0:0:0:0:
378,10,165154,1,2,1:2:0:0:
249,113,165470,6,0,P|217:103|181:96,1,55,2|0,1:2|0:0,0:0:0:0:
124,56,165786,2,0,P|92:65|56:73,1,55,2|0,1:2|0:0,0:0:0:0:
20,135,166102,2,0,P|31:167|36:188,1,55,2|0,1:2|0:0,0:0:0:0:
106,255,166417,2,0,P|112:228|121:202,1,55,2|0,1:2|0:0,0:0:0:0:
195,164,166733,2,0,P|238:192|309:181,1,110,2|0,1:2|1:2,0:0:0:0:
451,135,167365,6,0,P|445:180|443:193,1,55,2|0,1:2|0:0,0:0:0:0:
384,248,167681,2,0,P|390:293|392:306,1,55,2|0,1:2|0:0,0:0:0:0:
434,373,167996,2,0,P|376:350|315:370,1,110,2|0,1:2|1:0,0:0:0:0:
263,312,168470,1,0,0:0:0:0:
202,368,168628,2,0,P|144:345|76:342,1,110,2|0,1:2|1:0,0:0:0:0:
39,281,169101,1,2,0:3:0:0:
86,212,169260,6,0,L|146:224,1,55,2|2,1:2|0:3,0:0:0:0:
203,275,169575,2,0,L|263:263,1,55,2|2,1:2|0:3,0:0:0:0:
309,200,169891,2,0,P|296:160|296:147,1,55,2|2,1:2|0:3,0:0:0:0:
372,114,170207,2,0,P|385:74|385:61,1,55,2|2,1:2|0:3,0:0:0:0:
319,9,170523,1,2,0:0:0:0:
256,192,170681,12,0,171786,0:0:0:0:
