osu file format v14

[General]
AudioFilename: Remorse Code - Transcend (Pedwiik Drum & Bass Mix).mp3
AudioLeadIn: 0
PreviewTime: 99808
Countdown: 0
SampleSet: None
StackLeniency: 0.7
Mode: 0
LetterboxInBreaks: 1
WidescreenStoryboard: 1

[Editor]
DistanceSpacing: 1
BeatDivisor: 4
GridSize: 4
TimelineZoom: 3

[Metadata]
Title:Transcend (Pedwiik Drum & Bass Mix)
TitleUnicode:Transcend (Pedwiik Drum & Bass Mix)
Artist:Remorse Code
ArtistUnicode:Remorse Code
Creator:NeonLick
Version:Normal
Source:
Tags:
BeatmapID:1819813
BeatmapSetID:870905

[Difficulty]
HPDrainRate:4
CircleSize:3
OverallDifficulty:3
ApproachRate:5
SliderMultiplier:1
SliderTickRate:2

[Events]
//Background and Video events
0,0,"Art37.jpg",0,0
//Break Periods
//Storyboard Layer 0 (Background)
//Storyboard Layer 1 (Fail)
//Storyboard Layer 2 (Pass)
//Storyboard Layer 3 (Foreground)
//Storyboard Sound Samples

[TimingPoints]
-1100,347.462936374689,4,2,0,100,1,0
55883,-66.6666666666667,4,2,0,100,0,1
78121,-100,4,2,0,100,0,0
100359,-66.6666666666667,4,2,0,100,0,1
111477,-100,4,2,0,100,0,0

[Colours]
Combo1 : 108,32,32
Combo2 : 219,180,43
Combo3 : 221,128,51
Combo4 : 200,67,34

[HitObjects]
68,85,289,6,0,P|126:58|175:81,1,100,4|0,3:3|0:0,3:0:0:0:
195,101,811,2,0,P|260:110|336:58,1,150,4|0,3:3|0:0,0:0:0:0:
423,33,1679,1,0,0:0:0:0:
437,139,2027,1,0,0:0:0:0:
370,213,2374,1,0,0:0:0:0:
270,225,2722,1,0,0:0:0:0:
170,217,3069,6,0,P|111:190|96:138,1,100,4|0,3:3|0:0,3:3:0:0:
93,110,3590,2,0,P|158:101|222:151,1,150,4|0,3:3|0:0,0:0:0:0:
284,228,4459,1,0,0:0:0:0:
191,190,4807,1,0,0:0:0:0:
94,214,5154,1,0,0:0:0:0:
78,312,5502,1,0,0:0:0:0:
176,329,5849,6,0,P|236:314|260:266,1,100,4|0,3:3|0:0,3:3:0:0:
230,249,6370,2,0,P|185:200|174:114,1,150,4|0,3:3|0:0,0:0:0:0:
234,40,7239,1,4,3:3:0:0:
309,85,7586,2,4,P|336:112|333:142,1,50,4|4,3:3|3:3,3:3:0:0:
268,194,8107,2,4,B|234:194|234:194|212:174,1,50,4|4,3:3|3:3,3:3:0:0:
199,85,8628,6,0,P|222:71|266:79,2,50,4|4|0,3:3|3:3|2:2,0:0:0:0:
181,132,9150,1,4,3:3:0:0:
92,183,10018,5,0,0:0:0:0:
126,277,10366,1,0,0:0:0:0:
189,199,10713,1,0,0:0:0:0:
230,289,11061,1,0,0:0:0:0:
203,78,11408,6,0,P|226:64|270:72,2,50,4|4|0,3:3|3:3|2:2,0:0:0:0:
160,104,11929,2,0,P|149:147|216:218,1,150,4|0,3:3|0:0,0:0:0:0:
420,75,13319,2,0,B|409:91|409:91|426:99|426:99|406:110|406:110|411:149|385:186|385:186|409:187|409:187|387:229|387:229,1,200,0|0,2:2|2:2,0:0:0:0:
383,266,14188,6,0,P|360:280|316:272,2,50,4|4|0,3:3|3:3|2:2,0:0:0:0:
406,221,14709,2,0,P|394:146|324:153,1,150,4|0,3:3|2:2,0:0:0:0:
257,214,15578,6,0,L|146:210,1,100,0|0,2:2|2:2,2:2:0:0:
239,157,16273,2,0,L|159:94,1,100,0|0,2:2|2:2,2:2:0:0:
253,58,16968,6,0,P|276:44|320:52,2,50,4|4|0,3:3|3:3|2:2,0:0:0:0:
207,78,17489,2,0,P|179:145|231:188,1,150,4|0,3:3|2:2,0:0:0:0:
329,174,18357,1,4,3:3:0:0:
402,106,18705,1,4,3:3:0:0:
428,148,18879,1,4,3:3:0:0:
412,246,19226,1,4,3:3:0:0:
364,260,19400,1,4,3:3:0:0:
264,260,19747,6,0,P|237:256|208:222,2,50,4|4|0,3:3|3:3|2:2,0:0:0:0:
312,248,20268,2,0,P|327:182|257:171,1,150,4|0,3:3|2:2,0:0:0:0:
440,61,22527,6,0,L|420:175,1,100,4|0,3:3|1:1,0:0:0:0:
372,157,23048,2,0,B|440:284,1,100,0|4,0:0|3:3,0:0:0:0:
450,284,23569,1,0,1:1:0:0:
413,318,23743,1,4,3:3:0:0:
356,310,23917,2,0,B|326:266|292:346|245:284,1,100,4|0,3:3|1:1,0:0:0:0:
164,295,24612,2,0,L|77:292,2,50,0|4|0,0:0|3:3|1:1,0:0:0:0:
262,277,25307,6,0,L|168:184,1,100,4|0,3:3|1:1,0:0:0:0:
239,194,25828,2,0,B|257:86,1,100,0|4,0:0|3:3,0:0:0:0:
248,45,26349,1,0,1:1:0:0:
198,36,26523,1,4,3:3:0:0:
157,62,26697,2,0,B|83:49|59:109|115:140,1,100,4|0,3:3|1:1,0:0:0:0:
97,204,27392,2,0,L|111:253,2,50,0|4|0,0:0|3:3|1:1,0:0:0:0:
172,139,28086,6,0,L|292:91,1,100,4|0,3:3|1:1,0:0:0:0:
277,150,28607,2,0,B|418:179,1,100,0|4,0:0|3:3,0:0:0:0:
424,164,29128,1,0,1:1:0:0:
432,114,29302,1,4,3:3:0:0:
394,69,29476,2,0,B|364:25|330:105|283:43,1,100,4|0,3:3|1:1,0:0:0:0:
206,91,30171,2,0,L|142:159,2,50,0|4|0,0:0|3:3|1:1,0:0:0:0:
294,43,30866,6,0,L|406:89,1,100,4|0,3:3|1:1,0:0:0:0:
368,127,31387,2,0,B|436:254,1,100,0|4,0:0|3:3,0:0:0:0:
396,261,31908,1,0,1:1:0:0:
361,296,32082,1,4,3:3:0:0:
311,302,32256,2,0,B|259:346|247:278|200:276,1,100,4|0,3:3|1:1,0:0:0:0:
149,218,32951,2,0,L|95:164,3,50,0|4|0|4,0:0|3:3|1:1|3:3,0:0:0:0:
90,138,33646,6,0,L|210:90,1,100,4|0,3:3|1:1,0:0:0:0:
228,79,34167,2,0,B|369:108,1,100,0|4,0:0|3:3,0:0:0:0:
373,116,34688,1,0,1:1:0:0:
411,148,34862,1,4,3:3:0:0:
424,196,35036,2,0,B|400:247|371:262|312:264,1,100,4|0,3:3|1:1,0:0:0:0:
253,277,35731,2,0,L|171:283,2,50,0|4|0,0:0|3:3|1:1,0:0:0:0:
352,259,36425,6,0,L|455:186,1,100,4|0,3:3|1:1,0:0:0:0:
459,158,36946,2,0,B|408:72,1,100,0|4,0:0|3:3,0:0:0:0:
363,49,37467,1,0,1:1:0:0:
313,56,37641,1,4,3:3:0:0:
263,65,37815,2,0,B|215:46|215:46|190:52|190:52|172:88,1,100,4|0,3:3|1:1,0:0:0:0:
131,160,38510,2,0,L|94:233,2,50,0|4|0,0:0|3:3|1:1,0:0:0:0:
179,72,39205,6,0,L|306:71,1,100,4|0,3:3|1:1,0:0:0:0:
323,84,39726,2,0,B|336:208,1,100,0|4,0:0|3:3,0:0:0:0:
334,233,40247,1,0,1:1:0:0:
332,283,40421,1,4,3:3:0:0:
284,299,40595,2,0,B|252:269|252:269|220:335|182:282,1,100,4|0,3:3|1:1,0:0:0:0:
113,310,41290,2,0,L|48:303,2,50,0|4|0,0:0|3:3|1:1,0:0:0:0:
212,321,41985,6,0,L|332:273,1,100,4|0,3:3|1:1,0:0:0:0:
350,264,42506,2,0,B|423:177,1,100,0|4,0:0|3:3,0:0:0:0:
439,144,43027,1,0,1:1:0:0:
422,96,43201,1,4,3:3:0:0:
374,80,43375,2,0,B|311:55|311:55|294:68|303:100,1,100,4|0,3:3|1:1,0:0:0:0:
257,174,44070,2,0,L|193:242,2,50,0|4|0,0:0|3:3|1:1,0:0:0:0:
355,193,44765,6,0,P|393:229|406:296,2,100,4|0|0,3:3|1:1|0:0,0:0:0:0:
313,165,45633,2,0,B|296:146|296:146|266:144,2,50,4|0|4,3:3|1:1|3:3,3:3:0:0:
355,193,46154,2,0,B|398:256|398:256|348:242|348:242|271:268|258:188|258:188|212:238,1,300,4|0,3:3|1:1,0:0:0:0:
143,310,47544,6,0,P|81:292|57:269,2,100,4|0|0,3:3|1:1|0:0,0:0:0:0:
191,298,48413,2,0,B|213:285|213:285|221:256,2,50,4|0|4,3:3|1:1|3:3,3:3:0:0:
184,347,48934,2,0,B|187:309|187:309|140:343|140:343|125:276|125:276|66:315|47:281|47:281|67:216,1,300,4|0,3:3|1:1,0:0:0:0:
103,145,50324,6,0,P|140:110|204:115,2,100,4|0|0,3:3|1:1|0:0,0:0:0:0:
146,120,51193,2,0,B|131:141|131:141|136:170,2,50,4|0|4,3:3|1:1|3:3,3:3:0:0:
195,112,51714,2,0,B|240:64|240:64|245:124|245:124|219:170|329:125|329:125|293:195,1,300,4|0,3:3|1:1,0:0:0:0:
348,267,53104,6,0,P|295:300|252:271,2,100,4|0|0,3:3|1:1|0:0,0:0:0:0:
367,221,53972,2,0,B|381:199|381:199|376:170,2,50,4|0|4,3:3|1:1|3:3,3:3:0:0:
257,242,55883,6,0,P|261:280|218:308,1,75.0000028610231,4|0,3:3|0:0,0:0:0:0:
164,332,56231,2,0,P|126:310|115:246,2,75.0000028610231,0|0|0,1:1|0:0|0:0,0:0:0:0:
236,304,56752,2,0,P|263:272|235:220,2,75.0000028610231,4|0|0,3:3|1:1|0:0,0:0:0:0:
162,286,57273,2,0,B|187:204|187:204|251:173|293:196,1,150.000005722046,4|0,3:3|1:1,0:0:0:0:
253,261,57794,2,0,B|307:254|307:254|337:205|350:165|290:111,1,150.000005722046,2|4,2:2|3:3,3:3:0:0:
328,164,58316,1,0,1:1:0:0:
452,80,58663,6,0,P|456:118|413:146,1,75.0000028610231,4|0,3:3|0:0,0:0:0:0:
357,156,59011,2,0,P|319:134|309:65,2,75.0000028610231,0|0|0,1:1|0:0|0:0,0:0:0:0:
431,142,59532,2,0,P|458:110|430:58,2,75.0000028610231,4|0|0,3:3|1:1|0:0,0:0:0:0:
371,197,60053,2,0,B|332:193|332:193|333:258|218:234|266:324,1,150.000005722046,4|0,3:3|1:1,0:0:0:0:
308,325,60574,2,0,B|375:298|385:271|385:271|443:274,1,150.000005722046,2|4,2:2|3:3,3:3:0:0:
438,273,61096,1,0,1:1:0:0:
327,171,61443,6,0,P|288:189|288:237,1,75.0000028610231,4|0,3:3|0:0,0:0:0:0:
290,292,61791,2,0,P|331:321|388:292,2,75.0000028610231,0|0|0,1:1|0:0|0:0,0:0:0:0:
280,217,62311,2,0,P|301:180|354:177,2,75.0000028610231,4|0|0,3:3|1:1|0:0,0:0:0:0:
210,246,62833,2,0,B|250:230|250:230|153:189|224:103|178:91,1,150.000005722046,4|0,3:3|1:1,0:0:0:0:
255,103,63354,2,0,P|124:118|121:173,1,150.000005722046,2|4,2:2|3:3,3:3:0:0:
128,110,63876,1,0,1:1:0:0:
83,253,64223,6,0,P|102:286|143:286,1,75.0000028610231,4|0,3:3|0:0,0:0:0:0:
207,265,64571,2,0,P|239:236|192:182,2,75.0000028610231,0|0|0,1:1|0:0|0:0,0:0:0:0:
136,289,65091,2,0,P|88:272|87:231,2,75.0000028610231,4|0|0,3:3|1:1|0:0,0:0:0:0:
179,227,65613,2,0,B|173:182|173:182|248:178|258:126|261:74,1,150.000005722046,4|0,3:3|1:1,0:0:0:0:
324,149,66134,2,0,B|309:215|254:239|254:239|264:267,1,150.000005722046,2|4,2:2|3:3,3:3:0:0:
265,268,66656,1,0,1:1:0:0:
120,305,67002,6,0,L|134:231,1,75.0000028610231,4|0,3:3|0:0,0:0:0:0:
108,162,67350,2,0,L|63:95,2,75.0000028610231,0|0|0,1:1|0:0|0:0,0:0:0:0:
182,171,67870,2,0,L|240:118,2,75.0000028610231,4|0|0,3:3|1:1|0:0,0:0:0:0:
137,232,68392,2,0,B|299:335,1,150.000005722046,4|0,3:3|1:1,0:0:0:0:
327,272,68913,2,0,B|125:350,1,150.000005722046,2|4,2:2|3:3,3:3:0:0:
187,326,69435,1,0,1:1:0:0:
331,286,69782,6,0,L|340:211,1,75.0000028610231,4|0,3:3|0:0,0:0:0:0:
306,144,70130,2,0,L|261:77,2,75.0000028610231,0|0|0,1:1|0:0|0:0,0:0:0:0:
384,150,70650,2,0,L|442:97,2,75.0000028610231,4|0|0,3:3|1:1|0:0,0:0:0:0:
327,200,71172,2,0,B|208:315,1,150.000005722046,4|0,3:3|1:1,0:0:0:0:
179,240,71693,2,0,B|331:345,1,150.000005722046,2|4,2:2|3:3,3:3:0:0:
352,269,72214,2,0,L|389:236,3,37.5000014305115,0|0|0|0,2:2|2:2|2:2|2:2,2:2:0:0:
404,215,72562,6,0,L|326:169,1,75.0000028610231,4|0,3:3|0:0,0:0:0:0:
263,176,72910,2,0,L|184:183,2,75.0000028610231,0|0|0,1:1|0:0|0:0,0:0:0:0:
300,111,73430,6,0,L|264:31,2,75.0000028610231,4|0|0,3:3|1:1|0:0,0:0:0:0:
331,179,73952,2,0,B|180:169,1,150.000005722046,4|0,3:3|1:1,0:0:0:0:
238,120,74473,2,0,B|36:198,1,150.000005722046,2|4,2:2|3:3,3:3:0:0:
98,174,74995,1,0,1:1:0:0:
145,315,75341,6,0,L|230:286,1,75.0000028610231,4|0,3:3|0:0,0:0:0:0:
265,233,75689,2,0,L|300:151,2,75.0000028610231,0|0|0,1:1|0:0|0:0,0:0:0:0:
291,303,76209,2,0,L|368:324,2,75.0000028610231,4|0|0,3:3|1:1|0:0,0:0:0:0:
215,290,76731,2,0,B|73:217,1,150.000005722046,4|0,3:3|1:1,0:0:0:0:
85,296,77252,2,0,B|235:198,1,150.000005722046,2|4,2:2|3:3,3:3:0:0:
210,213,77774,1,0,1:1:0:0:
287,276,78121,6,0,L|242:302,2,50,0|0|0,3:3|3:3|3:3,0:0:0:0:
349,270,78642,2,0,B|367:303|367:303|400:306|400:306|392:353,1,100,0|0,2:2|2:2,0:0:0:0:
345,336,79163,6,0,L|287:341,2,50,0|0|0,3:3|3:3|3:3,0:0:0:0:
383,303,79685,2,0,B|349:241|334:222|334:222|299:307|249:231|249:231|194:240,1,250,0|0,2:2|2:2,0:0:0:0:
121,264,80901,6,0,L|126:316,2,50,0|0|0,3:3|3:3|3:3,0:0:0:0:
116,214,81422,2,0,B|113:167|113:167|150:154|150:154|163:138,1,100,0|0,2:2|2:2,0:0:0:0:
204,123,81943,6,0,L|258:123,2,50,0|0|0,3:3|3:3|3:3,0:0:0:0:
153,122,82464,2,0,B|120:98|120:98|77:122|77:122|89:160|51:189,1,150,0|0,2:2|2:2,0:0:0:0:
72,226,83159,2,0,L|127:273,1,50,0|0,2:2|2:2,0:0:0:0:
210,261,83680,6,0,L|254:224,2,50,0|0|0,3:3|3:3|3:3,0:0:0:0:
160,254,84202,2,0,B|110:249|110:249|127:216|92:195,1,100,0|0,2:2|2:2,0:0:0:0:
55,191,84723,6,0,L|23:255,2,50,0|0|0,3:3|3:3|3:3,0:0:0:0:
75,145,85244,2,0,B|74:79|74:79|138:62|138:62|129:129|222:106,1,250,0|0,2:2|2:2,0:0:0:0:
319,115,86460,6,0,L|308:60,2,50,0|0|0,3:3|3:3|3:3,0:0:0:0:
320,165,86981,2,0,B|305:214|305:214|249:219,1,100,0|0,2:2|2:2,0:0:0:0:
261,268,87503,6,0,L|319:306,2,50,0|0|0,3:3|3:3|3:3,0:0:0:0:
218,241,88024,2,0,B|162:216|162:216|96:230|137:161,1,150,0|0,2:2|2:2,0:0:0:0:
175,137,88719,2,0,L|221:119,1,50,0|0,2:2|2:2,0:0:0:0:
320,102,89240,6,0,P|352:108|377:138,1,50,4|0,3:3|0:0,0:0:0:0:
383,165,89587,2,0,P|382:194|358:222,1,50,0|0,1:1|0:0,0:0:0:0:
328,237,89935,2,0,P|289:230|265:211,1,50,0|4,0:0|3:3,0:0:0:0:
256,181,90282,2,0,P|254:151|269:134,1,50,0|4,1:1|3:3,0:0:0:0:
269,86,90630,6,0,L|206:117,1,50,4|0,3:3|0:0,0:0:0:0:
180,84,90977,2,0,L|157:152,1,50,0|0,1:1|0:0,0:0:0:0:
116,147,91325,2,0,L|149:205,1,50,0|4,0:0|3:3,0:0:0:0:
121,236,91672,2,0,L|157:272,1,50,0|0,1:1|0:0,0:0:0:0:
203,259,92020,6,0,B|178:234|179:198,1,50,4|0,3:3|0:0,0:0:0:0:
227,212,92367,2,0,P|251:228|257:254,1,50,0|0,1:1|0:0,0:0:0:0:
248,296,92715,2,0,B|222:318|188:315,1,50,0|4,0:0|3:3,0:0:0:0:
183,268,93062,2,0,P|157:247|153:228,1,50,0|4,1:1|3:3,0:0:0:0:
165,173,93409,6,0,L|191:124,1,50,4|0,3:3|0:0,0:0:0:0:
233,151,93757,2,0,L|300:131,1,50,0|0,1:1|0:0,0:0:0:0:
290,186,94105,2,0,L|350:216,1,50,0|4,0:0|3:3,0:0:0:0:
307,250,94452,2,0,L|331:297,1,50,0|0,1:1|0:0,0:0:0:0:
256,192,94799,12,0,96189,0:0:0:0:
256,192,97579,12,0,98969,0:0:0:0:
94,274,100359,6,0,L|168:226,1,75.0000028610231,4|0,3:3|0:0,0:0:0:0:
212,283,100706,2,0,L|287:313,1,75.0000028610231,0|0,1:1|0:0,0:0:0:0:
334,257,101054,2,0,L|410:220,2,75.0000028610231,0|4|0,0:0|3:3|1:1,0:0:0:0:
264,286,101575,1,4,3:3:0:0:
191,306,101749,1,4,3:3:0:0:
124,272,101922,2,0,L|53:268,4,37.5000014305115,0|0|0|0|0,0:0|0:0|1:1|0:0|0:0,0:0:0:0:
182,227,102443,2,0,B|204:200|204:200|235:257|299:219|299:219|336:231,1,150.000005722046,0|0,0:0|1:1,0:0:0:0:
420,128,103138,6,0,L|358:73,1,75.0000028610231,4|0,3:3|0:0,0:0:0:0:
305,126,103486,2,0,L|212:156,1,75.0000028610231,0|0,1:1|0:0,0:0:0:0:
222,80,103833,2,0,L|147:42,2,75.0000028610231,0|4|0,0:0|3:3|1:1,0:0:0:0:
283,124,104355,1,4,3:3:0:0:
334,179,104528,2,0,L|354:228,3,37.5000014305115,4|0|0|0,3:3|0:0|0:0|0:0,0:0:0:0:
351,251,104876,2,0,L|313:295,3,37.5000014305115,0|0|0|4,1:1|0:0|0:0|3:3,0:0:0:0:
300,306,105223,2,0,B|260:317|260:317|247:343|247:343|250:310|250:310|200:257,1,150.000005722046,0|0,0:0|1:1,0:0:0:0:
147,143,105918,6,0,P|162:103|221:95,1,75.0000028610231,4|0,3:3|0:0,0:0:0:0:
244,38,106265,2,0,P|271:67|278:111,1,75.0000028610231,0|0,1:1|0:0,0:0:0:0:
228,158,106613,2,0,P|266:180|323:159,2,75.0000028610231,0|4|0,0:0|3:3|1:1,0:0:0:0:
185,96,107134,2,0,P|151:65|101:79,1,75.0000028610231,4|4,3:3|3:3,3:3:0:0:
74,207,107655,2,0,L|94:256,3,37.5000014305115,0|0|0|4,1:1|0:0|0:0|3:3,0:0:0:0:
117,265,108003,2,0,B|157:276|157:276|168:235|168:235|167:269|167:269|219:287,1,150.000005722046,0|0,0:0|1:1,0:0:0:0:
340,239,108698,6,0,P|332:192|365:154,1,75.0000028610231,4|0,3:3|0:0,0:0:0:0:
295,112,109045,2,0,P|271:132|227:130,1,75.0000028610231,0|0,1:1|0:0,0:0:0:0:
215,205,109393,2,0,P|246:222|252:286,2,75.0000028610231,0|4|0,0:0|3:3|1:1,0:0:0:0:
256,192,110088,12,0,111477,0:0:0:0:
