osu file format v14

[General]
AudioFilename: Remorse Code - Transcend (Pedwiik Drum & Bass Mix).mp3
AudioLeadIn: 0
PreviewTime: 99808
Countdown: 0
SampleSet: Soft
StackLeniency: 0.7
Mode: 0
LetterboxInBreaks: 1
WidescreenStoryboard: 1

[Editor]
DistanceSpacing: 2.5
BeatDivisor: 4
GridSize: 4
TimelineZoom: 2.6

[Metadata]
Title:Transcend (Pedwiik Drum & Bass Mix)
TitleUnicode:Transcend (Pedwiik Drum & Bass Mix)
Artist:Remorse Code
ArtistUnicode:Remorse Code
Creator:NeonLick
Version:Insane
Source:
Tags:industrial blue stahli
BeatmapID:1819812
BeatmapSetID:870905

[Difficulty]
HPDrainRate:7
CircleSize:4
OverallDifficulty:7
ApproachRate:9
SliderMultiplier:1
SliderTickRate:2

[Events]
//Background and Video events
0,0,"Art37.jpg",0,0
//Break Periods
//Storyboard Layer 0 (Background)
//Storyboard Layer 1 (Fail)
//Storyboard Layer 2 (Pass)
//Storyboard Layer 3 (Foreground)
//Storyboard Sound Samples

[TimingPoints]
-1100,347.462936374689,4,2,0,100,1,0
55883,-66.6666666666667,4,2,0,100,0,1
78121,-100,4,2,0,100,0,0
100359,-66.6666666666667,4,2,0,100,0,1
111477,-100,4,2,0,100,0,0

[Colours]
Combo1 : 108,32,32
Combo2 : 219,180,43
Combo3 : 221,128,51
Combo4 : 200,67,34

[HitObjects]
51,55,289,6,0,L|110:55,1,50,2|0,2:2|2:2,0:0:0:0:
201,56,637,2,0,L|272:56,1,50,0|0,2:2|2:2,2:2:0:0:
351,58,984,1,0,2:2:0:0:
424,125,1158,1,0,2:2:0:0:
327,152,1332,1,0,2:2:0:0:
351,58,1505,1,0,2:2:0:0:
250,53,1679,6,0,L|179:52,1,50,2|0,2:2|2:2,2:2:0:0:
100,67,2027,2,0,L|88:128,1,50,0|0,2:2|2:2,2:2:0:0:
65,202,2374,1,0,2:2:0:0:
138,269,2548,2,0,L|197:306,1,50,0|0,2:2|2:2,2:2:0:0:
273,332,2895,1,0,2:2:0:0:
371,312,3069,6,0,L|413:258,1,50,2|0,2:2|2:2,2:2:0:0:
306,239,3417,2,0,L|293:172,1,50,0|0,2:2|2:2,2:2:0:0:
396,185,3764,1,0,2:2:0:0:
318,121,3938,1,0,2:2:0:0:
417,114,4111,1,0,2:2:0:0:
339,50,4285,1,0,2:2:0:0:
246,87,4459,6,0,L|200:134,1,50,2|0,2:2|2:2,2:2:0:0:
110,48,4806,2,0,L|113:109,1,50,0|0,2:2|2:2,2:2:0:0:
126,197,5154,1,0,2:2:0:0:
163,104,5328,2,0,L|142:156,1,50,0|0,2:2|2:2,2:2:0:0:
102,241,5675,1,0,2:2:0:0:
59,331,5849,6,0,L|117:332,1,50,2|0,2:2|2:2,2:2:0:0:
167,250,6196,2,0,L|220:249,1,50,0|0,2:2|2:2,2:2:0:0:
279,328,6544,1,0,2:2:0:0:
344,253,6717,1,0,2:2:0:0:
409,328,6891,1,0,2:2:0:0:
476,254,7065,1,0,2:2:0:0:
433,163,7239,6,0,L|428:108,1,50,2|0,2:2|2:2,2:2:0:0:
331,139,7586,2,0,L|278:102,1,50,0|0,2:2|2:2,2:2:0:0:
362,40,7934,1,0,2:2:0:0:
262,40,8107,2,0,L|196:57,1,50,0|0,2:2|2:2,2:2:0:0:
119,89,8455,1,0,2:2:0:0:
62,171,8628,6,0,L|125:204,1,50,2|0,2:2|2:2,2:2:0:0:
71,288,8976,2,0,L|131:278,1,50,0|0,2:2|2:2,2:2:0:0:
218,261,9323,1,0,2:2:0:0:
166,174,9497,1,0,2:2:0:0:
121,263,9671,1,0,2:2:0:0:
218,261,9845,1,0,2:2:0:0:
313,288,10018,6,0,L|368:335,1,50,2|0,2:2|2:2,2:2:0:0:
340,220,10366,2,0,L|395:217,1,50,0|0,2:2|2:2,2:2:0:0:
458,291,10713,1,0,2:2:0:0:
362,261,10887,2,0,L|301:245,1,50,0|0,2:2|2:2,2:2:0:0:
217,218,11234,1,0,2:2:0:0:
220,117,11408,6,0,P|230:94|218:54,1,50,4|4,3:3|3:3,0:0:0:0:
127,71,11756,1,0,2:2:0:0:
220,117,11929,2,0,P|203:61|121:78,1,150,4|0,3:3|0:0,0:0:0:0:
47,255,12798,5,0,2:2:0:0:
233,327,13145,1,0,2:2:0:0:
260,230,13319,2,0,B|241:217|241:217|254:204|254:204|247:195|247:195|247:177|247:177|198:179,1,100,0|0,2:2|2:2,0:0:0:0:
117,189,13840,1,0,2:2:0:0:
73,164,13927,1,0,2:2:0:0:
56,116,14014,1,0,2:2:0:0:
73,68,14101,1,0,2:2:0:0:
122,58,14188,6,0,P|156:53|180:78,1,50,4|4,3:3|3:3,0:0:0:0:
164,155,14535,1,0,2:2:0:0:
122,58,14709,2,0,P|186:98|159:158,1,150,4|0,3:3|2:2,0:0:0:0:
46,317,15578,6,0,L|101:294,1,50,0|0,2:2|2:2,2:2:0:0:
187,329,15925,2,0,L|250:304,1,50,0|0,2:2|2:2,2:2:0:0:
328,339,16273,1,0,2:2:0:0:
427,341,16446,2,0,L|482:300,1,50,0|0,2:2|2:2,2:2:0:0:
467,210,16794,1,0,2:2:0:0:
438,113,16968,6,0,P|430:80|396:61,1,50,4|4,3:3|3:3,0:0:0:0:
335,123,17315,1,0,2:2:0:0:
438,113,17489,2,0,P|381:74|334:125,1,150,4|0,3:3|2:2,0:0:0:0:
257,309,18357,5,4,3:3:0:0:
98,185,18705,1,4,3:3:0:0:
88,85,18879,1,4,3:3:0:0:
88,85,19226,1,4,3:3:0:0:
98,185,19400,1,4,3:3:0:0:
268,289,19747,6,0,P|287:313|322:312,1,50,4|4,3:3|3:3,0:0:0:0:
336,221,20095,1,0,2:2:0:0:
268,289,20268,2,0,P|330:294|331:217,1,150,4|0,3:3|2:2,0:0:0:0:
43,53,22527,6,0,B|88:35|88:35|100:77|144:68,1,100,4|0,3:3|1:1,0:0:0:0:
220,86,23048,2,0,L|238:137,1,50,0|0,2:2|2:2,0:0:0:0:
267,229,23396,5,4,3:3:0:0:
303,321,23569,1,0,1:1:0:0:
204,304,23743,1,4,3:3:0:0:
167,210,23917,1,4,3:3:0:0:
54,44,24264,1,0,1:1:0:0:
203,55,24525,1,4,3:3:0:0:
130,185,24785,1,4,3:3:0:0:
127,84,24959,1,0,1:1:0:0:
326,96,25307,6,0,B|331:44|331:44|291:35|266:49,1,100,4|0,3:3|1:1,0:0:0:0:
189,72,25828,2,0,L|141:102,1,50,0|0,2:2|2:2,0:0:0:0:
66,158,26175,5,4,3:3:0:0:
100,251,26348,1,0,1:1:0:0:
180,311,26523,1,4,3:3:0:0:
280,315,26697,1,4,3:3:0:0:
447,205,27044,1,0,1:1:0:0:
301,168,27305,1,4,3:3:0:0:
447,139,27565,1,4,3:3:0:0:
375,208,27739,1,0,1:1:0:0:
219,333,28086,6,0,B|188:300|188:300|145:322|139:264,1,100,4|0,3:3|1:1,0:0:0:0:
78,209,28608,2,0,L|80:157,1,50,0|0,2:2|2:2,0:0:0:0:
83,58,28955,5,4,3:3:0:0:
79,159,29128,1,0,1:1:0:0:
132,73,29303,1,4,3:3:0:0:
170,164,29476,1,4,3:3:0:0:
66,335,29824,1,0,1:1:0:0:
167,224,30084,1,4,3:3:0:0:
34,294,30345,1,4,3:3:0:0:
74,202,30519,1,0,1:1:0:0:
207,53,30866,6,0,B|266:62|266:62|236:69|239:111,1,100,4|0,3:3|1:1,0:0:0:0:
238,190,31387,2,0,L|284:225,1,50,0|0,2:2|2:2,0:0:0:0:
360,277,31735,5,4,3:3:0:0:
425,202,31908,1,0,1:1:0:0:
438,102,32082,1,4,3:3:0:0:
357,42,32256,1,4,3:3:0:0:
198,163,32603,1,0,1:1:0:0:
348,166,32864,1,4,3:3:0:0:
450,56,33125,1,4,3:3:0:0:
453,129,33298,1,0,1:1:0:0:
455,179,33385,1,0,2:2:0:0:
455,229,33472,1,0,2:2:0:0:
456,279,33559,1,0,2:2:0:0:
407,290,33646,6,0,B|384:319|384:319|370:278|335:299,1,100,4|0,3:3|1:1,0:0:0:0:
248,345,34167,2,0,L|197:318,1,50,0|0,2:2|2:2,0:0:0:0:
114,276,34514,5,4,3:3:0:0:
62,190,34687,1,0,1:1:0:0:
114,276,34862,1,4,3:3:0:0:
62,190,35036,1,4,3:3:0:0:
234,290,35383,1,0,1:1:0:0:
169,154,35644,1,4,3:3:0:0:
265,268,35904,1,4,3:3:0:0:
232,173,36078,1,0,1:1:0:0:
76,298,36425,6,0,B|48:316|48:316|65:344|116:340,1,100,4|0,3:3|1:1,0:0:0:0:
202,322,36947,2,0,L|252:304,1,50,0|0,2:2|2:2,0:0:0:0:
343,272,37294,5,4,3:3:0:0:
416,204,37467,1,0,1:1:0:0:
343,272,37642,1,4,3:3:0:0:
416,204,37815,1,4,3:3:0:0:
278,58,38163,1,0,1:1:0:0:
129,75,38423,1,4,3:3:0:0:
214,198,38684,1,4,3:3:0:0:
203,98,38858,1,0,1:1:0:0:
402,81,39205,6,0,B|429:46|429:46|449:83|443:122,1,100,4|0,3:3|1:1,0:0:0:0:
459,199,39726,2,0,L|397:231,1,50,0|0,2:2|2:2,0:0:0:0:
319,187,40074,5,4,3:3:0:0:
266,102,40247,1,0,1:1:0:0:
319,187,40421,1,4,3:3:0:0:
266,102,40595,1,4,3:3:0:0:
67,77,40943,1,0,1:1:0:0:
95,223,41203,1,4,3:3:0:0:
194,110,41464,1,4,3:3:0:0:
220,206,41637,1,0,1:1:0:0:
391,309,41985,6,0,B|398:275|398:275|448:303|447:239,1,100,4|0,3:3|1:1,0:0:0:0:
441,157,42506,2,0,L|399:111,1,50,0|0,2:2|2:2,0:0:0:0:
319,170,42854,5,4,3:3:0:0:
238,227,43027,1,0,1:1:0:0:
319,170,43201,1,4,3:3:0:0:
238,227,43375,1,4,3:3:0:0:
60,318,43722,1,0,1:1:0:0:
210,322,43983,1,4,3:3:0:0:
359,318,44243,1,4,3:3:0:0:
459,318,44417,1,0,1:1:0:0:
208,103,44765,6,0,P|258:86|324:106,2,100,4|0|0,3:3|1:1|0:0,0:0:0:0:
132,168,45633,1,4,3:3:0:0:
133,268,45807,1,0,1:1:0:0:
220,316,45981,1,4,3:3:0:0:
319,314,46154,6,0,L|358:316,1,25,4|0,3:3|0:0,0:0:0:0:
316,272,46328,2,0,L|341:249,1,25
284,245,46502,2,0,L|283:214,1,25,0|0,1:1|0:0,0:0:0:0:
243,248,46676,2,0,L|242:282,1,25,0|4,0:0|3:3,0:0:0:0:
284,245,46849,6,0,L|289:208,1,25
311,264,47023,2,0,L|343:240,1,25,4|0,3:3|0:0,0:0:0:0:
329,299,47197,2,0,L|370:290,1,25,0|0,1:1|0:0,0:0:0:0:
322,333,47371,1,0,0:0:0:0:
355,239,47544,6,0,P|324:183|271:155,2,100,4|0|0,3:3|1:1|0:0,0:0:0:0:
313,330,48413,1,4,3:3:0:0:
228,276,48587,1,0,1:1:0:0:
191,182,48760,1,4,3:3:0:0:
108,67,48934,6,0,L|145:62,1,25,4|0,3:3|0:0,0:0:0:0:
143,107,49108,2,0,L|161:78,1,25
185,127,49282,2,0,L|184:92,1,25,0|0,1:1|0:0,0:0:0:0:
185,51,49455,2,0,L|162:85,1,25,0|4,2:2|3:3,0:0:0:0:
109,65,49629,6,0,L|110:102,1,25,0|0,2:2|0:0,0:0:0:0:
154,93,49803,2,0,L|128:116,1,25,4|0,3:3|0:0,0:0:0:0:
180,132,49977,2,0,L|145:136,1,25,0|0,1:1|0:0,0:0:0:0:
104,135,50151,1,0,0:0:0:0:
77,231,50324,6,0,P|114:266|178:261,2,100,4|0|0,3:3|1:1|0:0,0:0:0:0:
70,130,51193,1,4,3:3:0:0:
167,149,51366,1,0,1:1:0:0:
234,223,51540,1,4,3:3:0:0:
306,291,51714,6,0,P|359:308|395:273,1,100,4|0,3:3|1:1,0:0:0:0:
388,183,52235,2,0,P|326:142|293:197,1,150,0|0,0:0|1:1,0:0:0:0:
120,298,53104,6,0,P|67:331|24:302,2,100,4|0|0,3:3|1:1|0:0,0:0:0:0:
128,198,53972,1,4,3:3:0:0:
67,117,54146,1,0,1:1:0:0:
166,106,54320,1,4,3:3:0:0:
256,192,54494,12,0,55536,0:0:0:0:
51,99,55883,6,0,B|69:166|98:7|96:73|191:91,1,150.000005722046,4|0,3:3|1:1,0:0:0:0:
345,143,56405,1,0,2:2:0:0:
166,197,56578,1,0,2:2:0:0:
347,244,56752,1,4,3:3:0:0:
194,117,56926,1,0,1:1:0:0:
238,299,57100,1,0,2:2:0:0:
52,275,57273,6,0,B|50:226|19:183|78:209|78:209|123:148,1,150.000005722046,4|0,3:3|1:1,0:0:0:0:
264,79,57794,1,0,2:2:0:0:
310,69,57881,1,4,3:3:0:0:
356,85,57968,1,0,2:2:0:0:
385,130,58055,1,0,2:2:0:0:
405,174,58142,2,0,B|418:223|358:192|357:233,1,75.0000028610231,4|0,3:3|1:1,0:0:0:0:
185,288,58489,1,0,2:2:0:0:
372,297,58663,6,0,B|438:294|474:250|398:188,1,150.000005722046,4|0,3:3|1:1,0:0:0:0:
235,138,59184,1,0,2:2:0:0:
416,90,59358,1,0,2:2:0:0:
254,185,59532,1,4,3:3:0:0:
369,36,59706,1,0,1:1:0:0:
190,89,59879,1,0,2:2:0:0:
56,221,60053,6,0,B|112:287|112:287|121:251|181:282,1,150.000005722046,4|0,3:3|1:1,0:0:0:0:
350,301,60574,1,0,2:2:0:0:
384,268,60661,1,4,3:3:0:0:
403,225,60748,1,0,2:2:0:0:
402,177,60835,1,0,2:2:0:0:
374,134,60922,2,0,P|332:139|291:154,1,75.0000028610231,4|0,3:3|1:1,0:0:0:0:
161,275,61269,1,0,2:2:0:0:
340,329,61443,6,0,B|398:312|339:258|339:258|383:209,1,150.000005722046,4|0,3:3|1:1,0:0:0:0:
446,41,61964,1,0,2:2:0:0:
258,50,62138,1,0,2:2:0:0:
128,182,62311,1,4,3:3:0:0:
264,52,62485,1,0,1:1:0:0:
446,41,62659,1,0,2:2:0:0:
439,228,62833,6,0,B|426:283|426:283|386:235|308:257,1,150.000005722046,4|0,3:3|1:1,0:0:0:0:
155,237,63354,1,0,2:2:0:0:
112,230,63441,1,4,3:3:0:0:
79,205,63528,1,0,2:2:0:0:
77,153,63614,1,0,2:2:0:0:
111,128,63701,2,0,P|153:125|188:165,1,75.0000028610231,4|0,3:3|1:1,0:0:0:0:
72,300,64049,1,0,2:2:0:0:
259,309,64223,6,0,B|314:298|360:339|360:339|395:285,1,150.000005722046,4|0,3:3|1:1,0:0:0:0:
224,180,64744,1,0,2:2:0:0:
65,81,64917,1,0,2:2:0:0:
61,268,65091,1,4,3:3:0:0:
224,180,65265,1,0,1:1:0:0:
65,81,65439,1,0,2:2:0:0:
61,268,65612,6,0,B|94:319|94:319|132:282|132:282|197:300,1,150.000005722046,4|0,3:3|1:1,0:0:0:0:
354,297,66134,1,0,2:2:0:0:
384,270,66220,1,4,3:3:0:0:
410,238,66307,1,0,2:2:0:0:
434,196,66394,1,0,2:2:0:0:
439,150,66481,2,0,P|400:130|358:154,1,75.0000028610231,4|0,3:3|1:1,0:0:0:0:
307,316,66829,1,0,2:2:0:0:
120,322,67002,6,0,P|70:289|59:242,1,75.0000028610231,4|0,3:3|2:2,3:3:0:0:
110,96,67350,1,0,1:1:0:0:
186,266,67523,1,0,2:2:0:0:
319,119,67697,1,0,2:2:0:0:
242,290,67871,1,4,3:3:0:0:
166,117,68045,1,0,1:1:0:0:
351,133,68218,1,0,2:2:0:0:
404,348,68392,6,0,B|476:349|476:349|491:303|491:303|473:250,1,150.000005722046,4|0,3:3|1:1,0:0:0:0:
411,100,68913,1,0,2:2:0:0:
389,73,69000,1,4,3:3:0:0:
347,78,69087,1,0,2:2:0:0:
318,54,69174,1,0,2:2:0:0:
274,45,69261,2,0,P|236:64|207:106,1,75.0000028610231,4|0,3:3|1:1,0:0:0:0:
91,229,69608,1,0,2:2:0:0:
245,335,69782,6,0,B|278:294|278:294|245:251,1,75.0000028610231,4|0,3:3|2:2,3:3:0:0:
109,169,70129,1,0,1:1:0:0:
275,81,70303,1,0,2:2:0:0:
146,218,70477,1,0,2:2:0:0:
316,138,70651,1,4,3:3:0:0:
132,103,70824,1,0,1:1:0:0:
192,280,70998,1,0,2:2:0:0:
373,328,71172,6,0,L|449:321,2,75.0000028610231,4|4|0,3:3|3:3|1:1,3:3:0:0:
177,334,71693,1,0,2:2:0:0:
128,327,71780,1,4,3:3:0:0:
90,308,71867,1,0,2:2:0:0:
53,274,71954,1,0,2:2:0:0:
42,230,72040,1,4,3:3:0:0:
51,99,72214,5,0,1:1:0:0:
123,117,72301,1,0,2:2:0:0:
188,149,72388,1,0,2:2:0:0:
226,212,72475,1,0,2:2:0:0:
286,283,72562,6,0,B|327:226|348:296|348:296|412:247,1,150.000005722046,4|0,3:3|1:1,0:0:0:0:
447,82,73083,1,0,2:2:0:0:
294,191,73257,1,0,2:2:0:0:
138,294,73430,1,4,3:3:0:0:
325,299,73604,1,0,1:1:0:0:
468,178,73778,1,0,2:2:0:0:
316,69,73951,6,0,B|251:34|251:34|243:83|209:123,1,150.000005722046,4|0,3:3|1:1,0:0:0:0:
86,236,74473,1,0,2:2:0:0:
65,269,74560,1,4,3:3:0:0:
79,307,74646,1,0,2:2:0:0:
116,327,74733,1,0,2:2:0:0:
159,323,74820,2,0,P|182:294|174:248,1,75.0000028610231,4|0,3:3|1:1,0:0:0:0:
70,104,75168,1,0,2:2:0:0:
256,98,75341,6,0,B|307:94|307:94|348:19|358:113,1,150.000005722046,4|0,3:3|1:1,0:0:0:0:
423,284,75863,1,0,2:2:0:0:
236,279,76036,1,0,2:2:0:0:
141,116,76210,1,4,3:3:0:0:
328,113,76384,1,0,1:1:0:0:
423,284,76557,1,0,2:2:0:0:
236,279,76731,6,0,L|129:284,2,75.0000028610231,4|4|0,3:3|3:3|1:1,3:3:0:0:
423,290,77252,1,0,2:2:0:0:
440,251,77339,1,4,3:3:0:0:
444,205,77426,1,0,2:2:0:0:
443,162,77513,1,0,2:2:0:0:
418,125,77600,2,0,L|344:86,1,75.0000028610231,4|0,3:3|1:1,0:0:0:0:
93,89,78121,6,0,L|53:45,2,50,0|0|0,3:3|3:3|3:3,0:0:0:0:
160,162,78642,2,0,B|178:195|178:195|211:198|211:198|203:245,1,100,0|0,2:2|2:2,0:0:0:0:
129,290,79163,6,0,L|89:330,2,50,0|0|0,3:3|3:3|3:3,0:0:0:0:
195,215,79685,2,0,B|229:153|244:134|244:134|279:219|329:143|329:143|384:152,1,250,0|0,2:2|2:2,0:0:0:0:
486,305,80901,6,0,L|491:357,2,50,0|0|0,3:3|3:3|3:3,0:0:0:0:
419,229,81422,2,0,B|416:182|416:182|453:169|453:169|466:153,1,100,0|0,2:2|2:2,0:0:0:0:
434,80,81943,6,0,L|488:80,2,50,0|0|0,3:3|3:3|3:3,0:0:0:0:
333,75,82464,2,0,B|300:51|300:51|257:75|257:75|269:113|231:142,1,150,0|0,2:2|2:2,0:0:0:0:
185,211,83159,2,0,L|132:260,1,50,0|0,2:2|2:2,0:0:0:0:
370,264,83680,6,0,L|414:227,2,50,0|0|0,3:3|3:3|3:3,0:0:0:0:
279,305,84202,2,0,B|229:300|229:300|246:267|211:246,1,100,0|0,2:2|2:2,0:0:0:0:
123,259,84723,6,0,L|91:323,2,50,0|0|0,3:3|3:3|3:3,0:0:0:0:
61,180,85244,2,0,B|60:114|60:114|124:97|124:97|115:164|208:141,1,250,0|0,2:2|2:2,0:0:0:0:
401,90,86460,6,0,L|390:35,2,50,0|0|0,3:3|3:3|3:3,0:0:0:0:
401,194,86981,2,0,B|386:243|386:243|330:248,1,100,0|0,2:2|2:2,0:0:0:0:
246,289,87503,6,0,L|304:327,2,50,0|0|0,3:3|3:3|3:3,0:0:0:0:
148,267,88024,2,0,B|92:242|92:242|26:256|67:187,1,150,0|0,2:2|2:2,0:0:0:0:
104,100,88719,2,0,L|150:82,1,50,0|0,2:2|2:2,0:0:0:0:
349,60,89240,6,0,B|379:66|379:66|406:84|373:126,1,100,4|0,3:3|1:1,0:0:0:0:
300,195,89761,2,0,L|257:228,1,50,0|0,2:2|2:2,0:0:0:0:
176,281,90109,5,4,3:3:0:0:
83,244,90282,1,0,1:1:0:0:
116,149,90456,1,4,3:3:0:0:
211,180,90630,1,4,3:3:0:0:
363,51,90977,1,0,1:1:0:0:
457,167,91238,1,4,3:3:0:0:
311,130,91498,1,4,3:3:0:0:
305,229,91672,1,0,1:1:0:0:
129,326,92020,6,0,B|90:296|90:296|64:279|121:246,1,100,4|0,3:3|1:1,0:0:0:0:
169,181,92541,2,0,L|217:138,1,50,0|0,2:2|2:2,0:0:0:0:
286,88,92888,5,4,3:3:0:0:
382,65,93061,1,0,1:1:0:0:
446,142,93236,1,4,3:3:0:0:
389,224,93409,1,4,3:3:0:0:
451,33,93757,1,0,1:1:0:0:
349,143,94017,1,4,3:3:0:0:
243,36,94278,1,4,3:3:0:0:
171,106,94452,1,0,1:1:0:0:
364,156,94799,6,0,B|381:151|381:151|409:158|393:232,1,100,4|0,3:3|1:1,0:0:0:0:
341,310,95320,2,0,L|301:276,1,50,0|0,2:2|2:2,0:0:0:0:
213,231,95668,5,4,3:3:0:0:
145,154,95841,1,0,1:1:0:0:
108,247,96015,1,4,3:3:0:0:
44,169,96189,1,4,3:3:0:0:
163,330,96537,1,0,1:1:0:0:
200,185,96797,1,4,3:3:0:0:
58,234,97058,1,4,3:3:0:0:
49,134,97232,1,0,1:1:0:0:
237,67,97579,6,0,B|277:72|292:112|292:112|335:101,1,100,4|0,3:3|1:1,0:0:0:0:
414,91,98100,2,0,L|423:143,1,50,0|0,2:2|2:2,0:0:0:0:
448,237,98448,5,4,3:3:0:0:
405,327,98621,1,0,1:1:0:0:
343,248,98795,1,4,3:3:0:0:
301,339,98969,1,4,3:3:0:0:
263,142,99316,1,0,1:1:0:0:
265,292,99577,1,4,3:3:0:0:
399,226,99837,2,0,L|441:209,5,25,4|0|0|0|0|0,3:3|2:2|1:1|2:2|2:2|2:2,2:2:0:0:
333,181,100359,5,4,3:3:0:0:
146,189,100532,1,0,0:0:0:0:
315,270,100706,1,0,1:1:0:0:
229,102,100880,1,0,0:0:0:0:
183,284,101054,1,0,0:0:0:0:
310,147,101227,1,4,3:3:0:0:
122,150,101401,1,0,1:1:0:0:
275,258,101575,1,4,3:3:0:0:
173,100,101749,1,4,3:3:0:0:
102,273,101922,5,0,0:0:0:0:
102,273,102009,1,0,0:0:0:0:
102,273,102096,1,0,1:1:0:0:
102,273,102183,1,0,0:0:0:0:
102,273,102270,2,0,B|147:240|147:240|212:303|250:233,1,150.000005722046,0|4,0:0|3:3,0:0:0:0:
404,191,102791,2,0,P|410:150|370:123,1,75.0000028610231,0|0,1:1|0:0,0:0:0:0:
214,57,103138,5,4,3:3:0:0:
109,211,103311,1,0,0:0:0:0:
262,102,103485,1,0,1:1:0:0:
81,157,103660,1,0,0:0:0:0:
266,174,103833,1,0,0:0:0:0:
96,95,104006,1,4,3:3:0:0:
227,229,104180,1,0,1:1:0:0:
150,57,104354,1,4,3:3:0:0:
154,244,104528,5,4,3:3:0:0:
322,327,104702,1,0,2:2:0:0:
322,327,104789,1,0,2:2:0:0:
322,327,104876,2,0,L|222:287,1,75.0000028610231,0|0,1:1|2:2,2:2:0:0:
80,222,105223,1,0,0:0:0:0:
189,69,105397,2,0,L|227:42,5,37.5000014305115,4|0|0|0|0|0,3:3|0:0|1:1|0:0|0:0|0:0,0:0:0:0:
141,99,105918,5,4,3:3:0:0:
69,271,106091,1,0,0:0:0:0:
256,259,106265,1,0,1:1:0:0:
187,84,106439,1,0,0:0:0:0:
60,222,106613,1,0,0:0:0:0:
232,294,106786,1,4,3:3:0:0:
243,106,106960,1,0,1:1:0:0:
63,160,107134,1,4,3:3:0:0:
177,308,107308,6,0,L|243:236,1,75.0000028610231,4|0,3:3|2:2,3:3:0:0:
357,117,107655,1,0,1:1:0:0:
357,117,107742,1,0,0:0:0:0:
357,117,107829,1,0,0:0:0:0:
357,117,107916,1,4,3:3:0:0:
357,117,108003,1,0,0:0:0:0:
170,99,108177,1,4,3:3:0:0:
65,253,108350,2,0,P|54:292|90:324,1,75.0000028610231,0|0,1:1|0:0,0:0:0:0:
257,287,108697,5,4,3:3:0:0:
445,286,108872,1,0,0:0:0:0:
268,228,109044,1,0,1:1:0:0:
456,218,109219,1,0,0:0:0:0:
270,248,109393,1,0,0:0:0:0:
454,275,109566,1,4,3:3:0:0:
291,181,109740,1,0,1:1:0:0:
412,324,109914,1,4,3:3:0:0:
225,299,110088,5,4,3:3:0:0:
132,136,110261,1,0,0:0:0:0:
256,192,110435,12,0,111477,2:2:0:0:
