osu file format v14

[General]
AudioFilename: audio.mp3
AudioLeadIn: 0
PreviewTime: 132965
Countdown: 1
SampleSet: Soft
StackLeniency: 0.7
Mode: 2
LetterboxInBreaks: 0
WidescreenStoryboard: 0

[Editor]
Bookmarks: 23751,45367,66897,88513,111391,120872
DistanceSpacing: 1
BeatDivisor: 4
GridSize: 16
TimelineZoom: 1.9

[Metadata]
Title:Despacito but its Translated to Tagalog using Google Translate
TitleUnicode:Despacito but its Translated to Tagalog using Google Translate
Artist:Remoi
ArtistUnicode:Remoi
Creator:JeirYagtama
Version:hi whoever commentates this stream
Source:AJamez & Jeir
Tags:Mod our maps seriously we need them especially jamez
BeatmapID:1670175
BeatmapSetID:795247

[Difficulty]
HPDrainRate:0
CircleSize:4
OverallDifficulty:9.5
ApproachRate:9.5
SliderMultiplier:1.9
SliderTickRate:1

[Events]
//Background and Video events
0,0,"LUGAW BOI.png",0,0
//Break Periods
//Storyboard Layer 0 (Background)
//Storyboard Layer 1 (Fail)
//Storyboard Layer 2 (Pass)
//Storyboard Layer 3 (Foreground)
//Storyboard Sound Samples

[TimingPoints]
1748,337.078651685393,4,2,1,100,1,0
2759,-83.3333333333333,4,2,1,100,0,0
3433,-66.6666666666667,4,2,1,100,0,0
4444,-100,4,2,1,100,0,0
16579,-25,4,2,1,100,0,0
16916,-100,4,2,1,100,0,0
17253,-25,4,2,1,100,0,0
17927,-100,4,2,1,100,0,0
22983,-25,4,2,1,100,0,0
23794,337.078651685393,4,2,1,100,1,0
24299,-41.6666666666667,4,2,1,100,0,0
24468,-100,4,2,1,100,0,0
25142,-33.3333333333333,4,2,1,100,0,0
25647,-100,4,2,1,100,0,0
26743,-33.3333333333333,4,2,1,100,0,0
26996,-50,4,2,1,100,0,0
28513,-33.3333333333333,4,2,1,100,0,0
28681,-25,4,2,1,100,0,0
29187,-100,4,2,1,100,0,0
30282,-50,4,2,1,100,0,0
31883,-100,4,2,1,100,0,0
32558,-50,4,2,1,100,0,0
32895,-100,4,2,1,100,0,0
33232,-50,4,2,1,100,0,0
33737,-25,4,2,1,100,0,0
33906,-50,4,2,1,100,0,0
37529,-33.3333333333333,4,2,1,100,0,0
38541,-100,4,2,1,100,0,0
39299,-33.3333333333333,4,2,1,100,0,0
39973,-100,4,2,1,100,0,0
40647,-33.3333333333333,4,2,1,100,0,0
41322,-100,4,2,1,100,0,0
41659,-33.3333333333333,4,2,1,100,0,0
42080,-50,4,2,1,100,0,0
42333,-25,4,2,1,100,0,0
42670,-100,4,2,1,100,0,0
43344,-25,4,2,1,100,0,0
43765,-100,4,2,1,100,0,0
44355,-100,4,2,1,100,0,0
44482,-33.3333333333333,4,2,1,100,0,0
44861,-25,4,2,1,100,0,0
47220,-25,4,2,1,100,0,0
47558,-100,4,2,1,100,0,0
48063,-25,4,2,1,100,0,0
48400,-100,4,2,1,100,0,0
50086,-25,4,2,1,100,0,0
50928,-100,4,2,1,100,0,0
53288,-25,4,2,1,100,0,0
53962,-100,4,2,1,100,0,0
55985,-25,4,2,1,100,0,0
57501,-100,4,2,1,100,0,0
60872,-66.6666666666667,4,2,1,100,0,0
61546,-100,4,2,1,100,0,0
62052,-25,4,2,1,100,0,0
62393,-33.3333333333333,4,2,1,100,0,0
66940,-100,4,2,1,100,0,0
67445,-33.3333333333333,4,2,1,100,0,0
68709,-50,4,2,1,100,0,0
69299,-33.3333333333333,4,2,1,100,0,0
69636,-100,4,2,1,100,0,0
70310,-50,4,2,1,100,0,0
70985,-100,4,2,1,100,0,0
71111,-33.3333333333333,4,2,1,100,0,0
71322,-100,4,2,1,100,0,0
71659,-50,4,2,1,100,0,0
73007,-33.3333333333333,4,2,1,100,0,0
73681,-100,4,2,1,100,0,0
75029,-33.3333333333333,4,2,1,100,0,0
75535,-50,4,2,1,100,0,0
75788,-33.3333333333333,4,2,1,100,0,0
76041,-25,4,2,1,100,0,0
76378,-100,4,2,1,100,0,0
78232,-50,4,2,1,100,0,0
78400,-33.3333333333333,4,2,1,100,0,0
79074,-100,4,2,1,100,0,0
80086,-50,4,2,1,100,0,0
80423,-33.3333333333333,4,2,1,100,0,0
81097,-25,4,2,1,100,0,0
81518,-33.3333333333333,4,2,1,100,0,0
89524,-25,4,2,1,100,0,0
89861,-100,4,2,1,100,0,0
91715,-25,4,2,1,100,0,0
92558,-100,4,2,1,100,0,0
94580,-25,4,2,1,100,0,0
94580,-25,4,2,1,100,0,0
97277,-100,4,2,1,100,0,0
107052,-25,4,2,1,100,0,0
111771,-100,4,2,1,100,0,0
113456,-25,4,2,1,100,0,0
114131,-100,4,2,1,100,0,0
118176,-25,4,2,1,100,0,0
118850,-100,4,2,1,100,0,0

[HitObjects]
142,233,62,6,0,L|29:230,1,95,8|0,0:0|0:0,0:0:0:0:
334,231,399,2,8,P|441:125|349:87,1,285
133,93,1073,2,8,L|422:92,1,285
159,142,1748,5,0,0:0:0:0:
415,141,2085,2,0,L|285:141,2,95
113,139,2759,2,0,L|272:139,2,113.999996520996
400,141,3433,2,0,L|200:141,2,142.500005435944
85,144,4107,2,0,L|227:144,1,142.500005435944
468,129,4444,6,0,L|269:127,1,190
420,115,4950,1,0,0:0:0:0:
166,209,5118,2,0,P|228:151|152:110,1,190
308,100,5624,1,0,0:0:0:0:
62,98,5792,2,0,L|286:92,1,190
414,87,6298,1,0,0:0:0:0:
166,181,6467,2,0,L|277:181,1,95
415,169,6804,2,0,L|304:169,1,95
84,200,7141,6,0,B|43:184|43:184|210:180,1,190
346,182,7646,1,0,0:0:0:0:
247,242,7815,2,0,P|149:213|170:142,1,190
328,152,8321,1,0,0:0:0:0:
100,176,8489,2,0,P|24:140|96:84,1,190
233,77,8995,1,0,0:0:0:0:
474,97,9163,2,0,L|277:102,1,190
436,96,9669,1,0,0:0:0:0:
188,212,9837,6,0,P|192:146|321:139,1,190
141,117,10343,1,0,0:0:0:0:
398,132,10512,2,0,L|194:108,1,190
366,100,11017,1,0,0:0:0:0:
104,80,11186,2,0,L|308:56,1,190
156,48,11691,1,0,0:0:0:0:
404,96,11860,2,0,L|588:96,1,142.5
340,72,12197,2,0,L|464:72,1,95
168,304,12534,6,0,L|172:196,1,95
328,208,12787,2,0,L|332:100,1,95
80,144,13208,2,0,L|248:144,1,142.5
380,160,13545,2,0,L|380:64,1,95
224,60,13882,2,0,L|352:64,1,95
164,88,14219,2,0,L|44:88,1,95
324,152,14556,2,0,L|492:160,1,142.5
284,132,14894,2,0,L|156:120,1,95
448,232,15231,2,0,L|452:124,1,95
184,236,15568,2,0,L|48:236,1,95
252,176,15905,2,0,L|388:180,1,95
92,168,16242,2,0,P|36:124|80:92,1,126.666666666667
448,80,16579,2,0,L|16:96,1,380
312,160,16916,2,0,L|440:160,1,95
92,168,17253,2,0,L|524:156,3,380
152,272,17927,2,0,L|148:136,1,95
304,172,18264,2,0,L|412:172,1,95
176,172,18517,2,0,L|44:172,1,118.75
224,156,18854,2,0,L|384:156,1,142.5
88,152,19276,2,0,L|212:152,1,95
440,168,19613,1,0,0:0:0:0:
156,216,19781,1,0,0:0:0:0:
300,196,20034,2,0,L|424:196,1,95
176,292,20287,2,0,L|184:160,1,95
448,200,20624,1,0,0:0:0:0:
248,200,20708,2,0,L|80:200,1,142.5
220,184,21130,1,0,0:0:0:0:
332,180,21298,1,0,0:0:0:0:
72,212,21467,2,0,L|76:96,1,95
188,112,21804,1,0,0:0:0:0:
84,108,21951,2,2,L|520:128,1,427.5
80,148,21972,2,2,L|80:32,1,106.875
84,108,21972,2,2,L|520:128,1,427.5
84,108,21972,2,2,L|520:128,1,427.5
84,108,21993,2,2,L|520:128,1,427.5
84,108,22014,2,2,L|520:128,1,427.5
84,108,22014,2,2,L|520:128,1,427.5
304,152,22014,2,2,L|304:44,1,106.875
408,160,22056,2,2,L|408:56,1,95
188,352,22057,2,2,L|188:224,1,118.75
80,352,22057,2,2,L|80:224,1,118.75
80,352,22057,2,2,L|80:224,1,118.75
80,352,22078,2,2,L|80:224,1,118.75
188,352,22078,2,2,L|188:224,1,118.75
188,352,22078,2,2,L|188:224,1,118.75
40,152,22098,1,2,0:0:0:0:
188,352,22099,2,2,L|188:224,1,118.75
80,352,22099,2,2,L|80:224,1,118.75
80,352,22099,2,2,L|80:224,1,118.75
188,352,22120,2,2,L|188:224,1,118.75
188,352,22120,2,2,L|188:224,1,118.75
392,300,22140,1,2,0:0:0:0:
168,284,22182,1,2,0:0:0:0:
104,272,22224,1,2,0:0:0:0:
172,12,22224,1,2,0:0:0:0:
104,272,22245,1,2,0:0:0:0:
104,272,22245,1,2,0:0:0:0:
172,12,22245,1,2,0:0:0:0:
172,12,22245,1,2,0:0:0:0:
172,12,22266,1,2,0:0:0:0:
304,360,22267,2,2,L|304:232,1,118.75
172,12,22287,1,2,0:0:0:0:
172,12,22287,1,2,0:0:0:0:
336,72,22309,1,2,0:0:0:0:
392,352,22351,2,2,L|492:352,1,95
480,232,22393,1,2,0:0:0:0:
4,152,22435,1,2,0:0:0:0:
416,64,22477,1,2,0:0:0:0:
177,138,22519,1,2,0:0:0:0:
432,296,22519,1,2,0:0:0:0:
177,138,22540,1,2,0:0:0:0:
177,138,22540,1,2,0:0:0:0:
432,296,22540,1,2,0:0:0:0:
432,296,22540,1,2,0:0:0:0:
432,296,22561,1,2,0:0:0:0:
432,296,22582,1,2,0:0:0:0:
432,296,22582,1,2,0:0:0:0:
131,125,22604,1,2,0:0:0:0:
316,296,22646,1,2,0:0:0:0:
328,160,22688,1,2,0:0:0:0:
304,336,22730,1,2,0:0:0:0:
308,216,22772,1,2,0:0:0:0:
96,240,22814,1,2,0:0:0:0:
112,284,22856,1,2,0:0:0:0:
92,60,22856,1,2,0:0:0:0:
112,284,22877,1,2,0:0:0:0:
112,284,22877,1,2,0:0:0:0:
92,60,22877,1,2,0:0:0:0:
92,60,22877,1,2,0:0:0:0:
92,60,22898,1,2,0:0:0:0:
92,60,22919,1,2,0:0:0:0:
92,60,22919,1,2,0:0:0:0:
470,79,22983,2,0,L|-160:72,1,570
267,283,23321,2,0,P|11:211|307:171,1,760
252,288,23321,2,0,P|508:216|212:176,1,760
13,175,23794,6,0,L|272:191,1,237.5
134,180,23962,1,0,0:0:0:0:
491,246,24299,2,0,L|337:251,1,113.999996520996
124,349,24468,2,0,L|116:267,1,47.5
461,140,24636,1,0,0:0:0:0:
327,333,24805,2,0,L|485:333,1,142.5
149,169,25142,2,0,P|170:31|246:201,1,427.500016307831
46,301,25479,1,0,0:0:0:0:
407,240,25647,2,0,L|490:231,1,47.5
108,24,25816,2,0,L|114:153,1,95
299,80,26069,1,0,0:0:0:0:
485,173,26153,2,0,L|467:324,1,142.5
113,301,26490,1,0,0:0:0:0:
468,317,26659,1,0,0:0:0:0:
294,351,26743,2,0,P|314:189|410:180,1,285.000010871888
186,118,26996,2,0,L|65:113,1,95
299,47,27164,1,0,0:0:0:0:
478,129,27249,2,0,L|432:328,1,190
163,357,27501,1,0,0:0:0:0:
140,267,27585,1,0,0:0:0:0:
194,193,27669,1,0,0:0:0:0:
285,185,27753,1,0,0:0:0:0:
51,238,27838,2,0,L|43:27,1,190
459,48,28176,1,0,0:0:0:0:
126,48,28344,2,0,L|114:157,1,95
441,259,28513,2,0,L|290:292,1,142.500005435944
197,349,28681,2,0,L|410:360,1,190
91,262,28850,1,0,0:0:0:0:
239,213,28934,1,0,0:0:0:0:
39,171,29018,1,0,0:0:0:0:
280,118,29102,1,0,0:0:0:0:
24,68,29187,2,0,P|55:11|202:6,1,190
324,16,29692,1,0,0:0:0:0:
495,135,29861,2,0,L|483:213,1,47.5
466,230,30029,2,0,L|331:230,1,95
187,244,30282,2,0,P|235:337|379:307,1,190
35,351,30535,1,0,0:0:0:0:
110,270,30619,2,0,L|101:159,1,95
12,106,30788,1,0,0:0:0:0:
298,78,30872,1,0,0:0:0:0:
98,74,30956,2,0,L|89:198,1,95
465,204,31125,2,0,L|469:319,1,95
195,337,31293,2,0,L|322:337,1,95
466,204,31462,1,0,0:0:0:0:
221,177,31546,1,0,0:0:0:0:
466,122,31631,1,0,0:0:0:0:
50,271,31715,2,0,L|166:257,1,95
455,32,31883,2,0,L|337:38,1,118.75
157,77,32305,2,0,L|163:162,1,47.5
390,183,32473,1,0,0:0:0:0:
286,217,32558,2,0,L|305:355,1,95
400,333,32726,1,0,0:0:0:0:
61,352,32810,1,0,0:0:0:0:
165,272,32895,2,0,L|332:264,1,142.5
25,168,33232,2,2,P|238:63|506:168,1,522.5
483,190,33737,2,2,L|181:201,1,285
182,242,33906,2,2,P|412:235|494:351,1,380
59,349,34327,2,2,P|67:228|310:200,1,380
453,204,34749,2,2,L|445:67,1,95
149,73,34917,2,2,L|29:75,1,95
72,177,35086,1,2,0:0:0:0:
254,255,35170,1,2,0:0:0:0:
468,336,35254,2,2,P|467:242|358:223,1,190
92,316,35507,1,2,0:0:0:0:
465,18,35591,2,2,L|146:13,1,285
464,126,35928,2,2,L|446:367,1,237.5
411,364,36181,1,2,0:0:0:0:
117,177,36265,2,2,L|-12:177,1,95
240,121,36434,1,2,0:0:0:0:
15,301,36518,1,2,0:0:0:0:
292,293,36602,1,2,0:0:0:0:
281,201,36686,1,2,0:0:0:0:
205,150,36770,1,2,0:0:0:0:
116,176,36854,1,2,0:0:0:0:
434,137,36940,1,2,0:0:0:0:
339,123,37066,2,2,L|350:295,1,142.5
101,348,37277,1,2,0:0:0:0:
455,357,37445,1,2,0:0:0:0:
237,346,37529,2,2,L|256:109,1,213.750008153916
301,119,37698,1,2,0:0:0:0:
70,103,37782,2,2,L|94:266,1,142.500005435944
437,188,37951,2,2,P|422:96|125:47,1,427.500016307831
383,39,38119,1,2,0:0:0:0:
289,115,38288,1,2,0:0:0:0:
455,238,38372,2,2,L|436:393,1,142.500005435944
77,373,38541,1,2,0:0:0:0:
245,349,38625,2,2,L|221:252,1,95
173,244,38878,1,2,0:0:0:0:
378,185,38962,2,2,L|393:79,1,95
210,63,39215,1,2,0:0:0:0:
55,129,39299,2,2,P|26:210|203:256,1,285.000010871888
29,280,39383,1,2,0:0:0:0:
461,344,39636,1,2,0:0:0:0:
230,188,39889,1,2,0:0:0:0:
323,178,39973,2,2,P|333:273|303:365,1,190
176,253,40058,1,2,0:0:0:0:
185,327,40142,1,2,0:0:0:0:
237,374,40226,1,2,0:0:0:0:
104,363,40479,2,0,L|90:310,1,47.5
285,276,40647,2,0,P|480:277|481:222,2,285.000010871888
397,209,41153,2,0,L|414:37,1,142.500005435944
147,96,41322,2,0,L|311:101,1,142.5
147,96,41659,2,0,P|58:124|269:230,1,570.000021743775
21,283,41827,1,0,0:0:0:0:
414,309,42080,2,0,P|388:226|272:196,1,190
485,105,42333,2,0,P|460:366|195:334,1,570
463,356,42417,1,0,0:0:0:0:
485,215,42670,2,0,L|484:22,1,190
333,46,42838,1,0,0:0:0:0:
20,42,43176,1,0,0:0:0:0:
177,98,43344,2,0,P|372:170|78:284,1,760
247,281,43513,1,0,0:0:0:0:
167,316,43597,1,0,0:0:0:0:
323,246,43765,2,0,L|355:162,1,47.5
181,98,43934,1,0,0:0:0:0:
30,341,44018,2,0,L|201:361,1,142.5
20,233,44102,1,0,0:0:0:0:
457,335,44355,1,0,0:0:0:0:
325,246,44482,2,0,P|276:167|454:163,1,356.25001358986
279,191,44524,2,0,L|267:121,1,71.2500027179719
401,220,44777,1,0,0:0:0:0:
94,329,44861,1,2,0:0:0:0:
84,309,44903,1,2,0:0:0:0:
79,288,44945,1,2,0:0:0:0:
78,266,44987,1,2,0:0:0:0:
370,309,45029,2,2,L|392:149,1,142.5
104,207,45113,1,2,0:0:0:0:
121,193,45155,1,2,0:0:0:0:
17,168,45198,2,2,L|7:43,1,95
182,174,45282,1,2,0:0:0:0:
204,178,45324,1,2,0:0:0:0:
459,350,45367,2,2,P|465:228|50:319,1,760
264,184,45788,1,0,0:0:0:0:
168,156,46041,5,2,0:0:0:0:
464,172,46209,2,2,L|340:168,1,95
88,168,46462,2,2,L|212:164,1,95
384,124,46715,1,2,0:0:0:0:
272,116,46883,2,2,L|104:120,1,142.5
308,104,47220,2,2,B|496:104|496:104|296:108,1,380
56,140,47558,1,2,0:0:0:0:
324,144,47726,2,2,L|428:144,1,95
52,168,48063,2,2,L|516:172,1,380
182,152,48400,2,2,L|73:146,1,95
238,109,48737,2,2,L|347:112,2,95
100,97,49243,1,2,0:0:0:0:
346,94,49411,1,2,0:0:0:0:
95,204,49580,2,2,P|25:134|101:82,1,190
384,382,50086,2,4,L|381:-5,1,380,4|0,0:0|0:0,0:0:0:0:
464,197,50086,2,0,L|85:191,1,380
384,382,50086,2,0,L|381:-5,1,380
384,382,50086,2,0,L|381:-5,1,380
16,213,50086,2,0,L|395:219,1,380
457,278,50086,2,0,L|77:271,1,380
52,113,50086,2,0,L|486:120,1,380
16,213,50086,2,0,L|395:219,1,380
457,278,50086,2,4,L|77:271,1,380
52,113,50086,2,4,L|486:120,1,380
384,382,50086,2,0,L|381:-5,1,380
384,382,50086,2,0,L|381:-5,1,380
464,197,50086,2,4,L|85:191,1,380
384,382,50086,2,4,L|381:-5,1,380
403,0,50423,1,0,0:0:0:0:
183,314,50591,2,0,B|-18:130|-18:130|180:-73,1,380
19,290,50591,2,0,B|203:161|203:161|16:-97,1,380
0,223,50591,2,0,B|113:153|113:153|306:306,1,380
422,294,50591,2,0,B|353:80|353:80|682:73,1,380
200,277,50591,2,0,B|384:148|384:148|197:-110,1,380
196,286,50591,2,0,B|380:157|380:157|193:-101,1,380
0,311,50591,2,0,B|184:182|184:182|-3:-76,1,380
124,299,50591,2,0,B|308:170|308:170|121:-88,1,380
143,303,50591,2,0,B|327:174|327:174|140:-84,1,380
200,277,50591,2,0,B|384:148|384:148|197:-110,1,380
8,282,50591,2,0,B|192:153|192:153|5:-105,1,380
243,335,50591,2,0,B|427:206|427:206|240:-52,1,380
19,290,50591,2,0,B|203:161|203:161|16:-97,1,380
183,314,50591,2,0,B|-18:130|-18:130|180:-73,1,380
418,300,50591,2,0,B|349:86|349:86|678:79,1,380
157,239,50591,2,0,B|270:169|270:169|463:322,1,380
152,139,50928,6,0,L|43:137,1,95
408,120,51265,2,0,L|301:115,2,95
259,68,51771,2,0,L|353:71,1,95
95,124,52108,2,0,L|-13:122,1,95
300,137,52445,1,0,0:0:0:0:
31,140,52614,2,0,L|359:140,1,285
157,313,53288,2,0,P|55:269|243:166,1,380
355,313,53288,2,0,P|457:269|269:166,1,380
157,313,53288,2,0,P|55:269|243:166,1,380
355,313,53288,2,0,P|457:269|269:166,1,380
157,313,53288,2,0,P|55:269|243:166,1,380
355,313,53288,2,0,P|457:269|269:166,1,380
157,313,53288,2,6,P|55:269|243:166,1,380
355,313,53288,2,6,P|457:269|269:166,1,380
157,313,53625,2,0,P|55:269|243:166,1,380
355,313,53625,2,0,P|457:269|269:166,1,380
157,313,53625,2,0,P|55:269|243:166,1,380
355,313,53625,2,0,P|457:269|269:166,1,380
157,313,53625,2,0,P|55:269|243:166,1,380
355,313,53625,2,0,P|457:269|269:166,1,380
157,313,53625,2,0,P|55:269|243:166,1,380
355,313,53625,2,6,P|457:269|269:166,1,380
124,105,53962,2,6,L|219:105,2,95
403,85,54468,2,0,L|305:86,1,95
314,83,54749,1,0,0:0:0:0:
130,228,54805,2,0,P|52:183|122:120,1,190
256,122,55310,1,0,0:0:0:0:
67,125,55479,2,0,L|287:122,1,190
81,106,55985,2,0,L|489:109,2,380
81,106,56490,1,0,0:0:0:0:
81,106,56827,2,0,L|460:104,2,380
81,106,57333,1,0,0:0:0:0:
81,200,57670,2,0,L|80:103,1,95
322,169,58007,2,0,L|453:166,2,95
155,142,58513,2,0,L|321:140,1,142.5
393,138,58906,1,0,0:0:0:0:
184,190,59018,6,0,P|93:156|101:100,1,142.5
148,97,59440,1,0,0:0:0:0:
477,107,59692,2,0,L|371:107,2,95
235,224,60198,1,0,0:0:0:0:
186,224,60282,2,0,P|108:189|146:130,1,142.5
139,128,60619,1,0,0:0:0:0:
466,177,60872,6,0,P|437:110|248:98,1,285.000010871888
374,93,61378,1,0,0:0:0:0:
86,220,61546,2,0,L|93:98,1,95
267,126,61883,1,0,0:0:0:0:
66,79,62052,2,2,L|446:69,1,380
446,69,62052,2,2,L|36:80,1,380
321,274,62052,2,2,P|484:105|335:64,1,380
191,274,62052,2,2,P|28:105|177:64,1,380
437,70,62389,1,0,0:0:0:0:
133,203,62558,2,0,L|128:82,1,95
441,186,62895,2,2,L|252:191,1,190
96,189,63400,1,2,0:0:0:0:
512,210,63569,2,2,L|512:103,1,95
0,210,63906,2,2,L|0:103,1,95
405,153,64243,2,2,L|509:151,2,95
281,148,64749,1,0,0:0:0:0:
70,156,64917,2,0,L|192:160,1,95
324,163,65254,2,0,L|450:158,1,95
161,166,65591,1,0,0:0:0:0:
155,165,66041,2,0,L|156:121,1,31.6666666666667
354,255,66238,1,2,0:0:0:0:
158,255,66265,1,2,0:0:0:0:
378,255,66280,1,2,0:0:0:0:
134,255,66307,1,2,0:0:0:0:
401,248,66322,1,2,0:0:0:0:
111,248,66349,1,2,0:0:0:0:
419,233,66364,1,2,0:0:0:0:
93,233,66391,1,2,0:0:0:0:
432,214,66406,1,2,0:0:0:0:
80,214,66433,1,2,0:0:0:0:
258,185,66434,1,2,0:0:0:0:
438,191,66448,1,2,0:0:0:0:
74,191,66475,1,2,0:0:0:0:
435,167,66490,1,2,0:0:0:0:
77,167,66517,1,2,0:0:0:0:
425,146,66532,1,2,0:0:0:0:
87,146,66559,1,2,0:0:0:0:
408,129,66575,1,2,0:0:0:0:
104,129,66602,1,2,0:0:0:0:
387,119,66617,1,2,0:0:0:0:
125,119,66644,1,2,0:0:0:0:
253,69,66687,6,2,P|348:63|428:230,1,285.000010871888
112,344,66940,2,0,P|105:275|230:253,1,190
37,289,67024,1,0,0:0:0:0:
79,182,67108,1,0,0:0:0:0:
178,143,67192,1,0,0:0:0:0:
286,164,67361,1,0,0:0:0:0:
458,333,67445,2,0,L|253:344,1,142.500005435944
274,349,67614,2,2,P|203:121|477:97,1,570.000021743775
373,235,67782,1,2,0:0:0:0:
398,52,67994,1,2,0:0:0:0:
331,70,68036,1,2,0:0:0:0:
289,126,68078,1,2,0:0:0:0:
292,196,68120,1,2,0:0:0:0:
338,249,68162,1,2,0:0:0:0:
407,261,68204,1,0,0:0:0:0:
79,76,68288,2,0,P|122:318|416:381,1,570.000021743775
472,310,68456,1,0,0:0:0:0:
345,382,68709,1,0,0:0:0:0:
168,312,68793,2,2,L|188:150,1,95
458,179,68962,2,2,P|452:62|239:12,1,285
32,257,69299,2,2,L|489:289,1,427.500016307831
120,284,69636,1,2,0:0:0:0:
203,238,69720,2,2,P|211:155|109:113,1,190
135,199,69805,1,2,0:0:0:0:
341,117,70142,2,2,L|419:114,1,47.5
230,329,70310,2,2,L|82:360,2,95
438,329,70563,1,2,0:0:0:0:
162,239,70647,1,2,0:0:0:0:
144,195,70689,1,2,0:0:0:0:
145,149,70731,1,2,0:0:0:0:
165,106,70773,1,2,0:0:0:0:
200,75,70815,1,2,0:0:0:0:
244,61,70857,1,2,0:0:0:0:
291,66,70899,1,2,0:0:0:0:
40,96,70985,1,2,0:0:0:0:
145,149,71111,2,2,P|209:226|102:297,1,213.750008153916
108,306,71279,1,2,0:0:0:0:
313,309,71322,2,2,L|367:307,1,47.5
75,216,71490,2,2,L|12:212,1,47.5
287,216,71659,2,0,P|320:160|108:71,1,380
297,50,71911,1,0,0:0:0:0:
279,333,72164,2,2,L|268:215,1,95
53,348,72333,2,2,P|38:254|265:146,1,380
157,306,72417,1,2,0:0:0:0:
151,211,72501,1,2,0:0:0:0:
58,186,72586,1,2,0:0:0:0:
311,166,72754,1,2,0:0:0:0:
70,49,72838,2,2,L|66:162,1,95
341,314,73007,2,2,P|389:219|157:143,1,427.500016307831
449,233,73133,2,2,L|463:147,1,71.2500027179719
162,134,73260,1,2,0:0:0:0:
227,145,73302,1,2,0:0:0:0:
279,184,73344,1,2,0:0:0:0:
306,244,73386,1,2,0:0:0:0:
301,310,73428,1,0,0:0:0:0:
266,365,73470,1,0,0:0:0:0:
208,396,73512,1,0,0:0:0:0:
143,396,73554,1,0,0:0:0:0:
85,365,73597,1,0,0:0:0:0:
366,168,73681,2,0,L|368:102,1,47.5
245,67,73934,1,0,0:0:0:0:
35,267,74018,2,0,L|148:271,2,95
257,359,74440,2,0,P|261:282|239:257,1,95
58,342,74692,2,0,L|85:187,1,142.5
353,295,75029,2,0,P|428:202|129:109,1,570.000021743775
481,111,75198,1,0,0:0:0:0:
110,140,75451,1,0,0:0:0:0:
276,208,75535,2,2,L|435:207,1,142.5
441,184,75704,2,2,L|440:121,1,47.5
418,108,75788,2,2,L|105:109,1,285.000010871888
128,84,75999,2,2,L|122:11,1,71.2500027179719
122,12,76041,2,2,L|507:35,1,380
490,82,76251,1,2,0:0:0:0:
479,120,76293,1,2,0:0:0:0:
174,208,76378,2,2,P|119:240|166:351,1,190
352,310,76968,2,10,L|359:267,1,23.75
428,230,77094,1,10,0:0:0:0:
113,214,77220,2,10,L|110:181,1,23.75
418,141,77389,2,10,L|429:105,1,23.75
18,346,77726,2,2,P|21:264|120:231,1,190
302,320,77895,1,2,0:0:0:0:
61,232,78147,1,2,0:0:0:0:
234,228,78232,1,2,0:0:0:0:
435,240,78316,1,2,0:0:0:0:
147,194,78400,2,2,P|103:95|361:69,1,427.500016307831
69,46,78569,1,2,0:0:0:0:
332,11,78653,1,2,0:0:0:0:
264,0,78695,1,2,0:0:0:0:
197,15,78737,1,2,0:0:0:0:
150,67,78779,1,2,0:0:0:0:
136,135,78821,1,2,0:0:0:0:
157,201,78863,1,2,0:0:0:0:
210,247,78905,1,2,0:0:0:0:
278,261,78947,1,2,0:0:0:0:
344,237,78990,1,2,0:0:0:0:
60,367,79074,2,2,L|50:208,1,142.5
268,147,79411,2,0,L|327:145,1,47.5
65,58,79580,2,2,L|124:43,1,47.5
434,80,79749,2,2,P|472:131|467:169,1,95
425,178,79959,2,2,L|386:181,1,23.75
155,203,80086,2,2,P|120:249|281:313,1,285
444,291,80423,2,2,L|148:266,2,285.000010871888
88,193,80928,2,2,L|72:106,2,71.2500027179719
350,271,81097,2,2,P|390:161|54:251,1,760
383,88,81265,1,2,0:0:0:0:
223,0,81350,1,2,0:0:0:0:
221,162,81518,2,2,P|278:212|119:306,1,285.000010871888
463,352,81771,2,2,L|475:254,1,71.2500027179719
241,263,82024,2,2,L|204:407,1,142.500005435944
454,178,82192,2,2,P|471:82|218:44,1,427.500016307831
292,142,82277,1,2,0:0:0:0:
486,82,82361,1,2,0:0:0:0:
192,72,82529,1,2,0:0:0:0:
435,258,82614,1,2,0:0:0:0:
115,266,82782,2,2,L|85:334,1,71.2500027179719
335,371,83035,1,2,0:0:0:0:
12,180,83119,2,2,L|301:174,2,285.000010871888
325,77,83583,2,0,P|442:106|201:274,1,641.250024461747
386,238,83793,1,0,0:0:0:0:
190,280,84046,1,0,0:0:0:0:
372,150,84131,1,2,0:0:0:0:
441,157,84173,1,2,0:0:0:0:
493,203,84215,1,2,0:0:0:0:
510,270,84257,1,2,0:0:0:0:
486,335,84299,1,2,0:0:0:0:
429,375,84341,1,2,0:0:0:0:
359,376,84383,1,2,0:0:0:0:
148,158,84468,2,2,P|27:184|37:364,2,285.000010871888
318,131,84973,2,2,L|469:133,1,142.500005435944
135,299,85142,2,2,L|452:318,1,285.000010871888
437,255,85395,1,2,0:0:0:0:
137,41,85479,2,2,L|164:349,1,285.000010871888
405,364,85732,1,2,0:0:0:0:
78,360,85816,2,2,P|61:248|408:184,1,570.000021743775
328,283,85985,1,2,0:0:0:0:
466,238,86237,1,2,0:0:0:0:
201,202,86322,2,2,P|43:189|85:115,1,285.000010871888
109,96,86574,1,2,0:0:0:0:
374,85,86659,2,2,P|460:372|325:366,1,570.000021743775
416,174,86743,1,2,0:0:0:0:
417,269,86827,1,2,0:0:0:0:
259,306,86911,1,2,0:0:0:0:
415,366,87080,1,2,0:0:0:0:
116,274,87164,2,2,L|437:237,1,285.000010871888
367,222,87417,1,2,0:0:0:0:
79,173,87501,1,2,0:0:0:0:
261,143,87628,1,2,0:0:0:0:
68,59,87712,2,2,L|40:155,1,71.2500027179719
336,325,87838,2,2,P|370:224|92:175,1,498.750019025803
81,234,88176,1,2,0:0:0:0:
149,239,88218,1,2,0:0:0:0:
199,190,88260,1,2,0:0:0:0:
194,122,88302,1,2,0:0:0:0:
139,80,88344,1,2,0:0:0:0:
71,95,88386,2,2,L|168:89,1,71.2500027179719
458,197,88513,5,2,0:0:0:0:
69,197,88681,1,0,0:0:0:0:
69,197,89018,1,0,0:0:0:0:
325,201,89187,2,0,L|437:195,1,95
190,187,89524,2,0,B|135:182|135:182|466:171,1,380
176,289,89861,2,0,L|174:122,1,142.5
386,159,90198,2,0,L|384:40,1,95
103,82,90535,2,0,L|317:83,1,190
105,84,91209,1,0,0:0:0:0:
387,87,91378,1,0,0:0:0:0:
387,87,91715,2,0,L|-12:85,1,380
157,61,92220,2,0,B|81:62|81:62|225:84|225:84|32:91|32:91|173:99,1,380
376,113,92558,1,0,0:0:0:0:
253,119,92726,2,0,L|347:116,1,95
470,118,93063,1,0,0:0:0:0:
162,155,93232,2,0,L|-13:158,1,142.5
200,128,93569,2,0,L|45:128,1,142.5
325,124,93906,1,0,0:0:0:0:
209,115,94074,1,0,0:0:0:0:
400,112,94411,1,0,0:0:0:0:
0,96,94580,2,0,L|685:97,2,760
15,97,95591,1,0,0:0:0:0:
129,97,95760,1,0,0:0:0:0:
512,96,95928,2,0,L|-173:97,2,760
195,103,96771,1,0,0:0:0:0:
403,105,97108,1,0,0:0:0:0:
83,147,97277,2,0,L|287:149,2,190
512,159,98119,2,4,L|105:162,1,522.5
0,160,98119,2,4,L|448:160,1,522.5
503,262,98583,1,4,0:0:0:0:
21,255,98625,1,4,0:0:0:0:
480,262,98625,1,4,0:0:0:0:
44,255,98667,1,4,0:0:0:0:
457,255,98667,1,4,0:0:0:0:
67,248,98709,1,4,0:0:0:0:
438,241,98709,1,4,0:0:0:0:
86,234,98751,1,4,0:0:0:0:
423,222,98751,1,4,0:0:0:0:
101,215,98793,1,4,0:0:0:0:
415,200,98793,1,4,0:0:0:0:
109,193,98835,1,4,0:0:0:0:
414,177,98835,1,4,0:0:0:0:
110,170,98877,1,4,0:0:0:0:
420,154,98877,1,4,0:0:0:0:
257,187,98878,1,4,0:0:0:0:
104,147,98919,1,4,0:0:0:0:
433,134,98920,1,4,0:0:0:0:
91,127,98962,1,4,0:0:0:0:
451,119,98962,1,4,0:0:0:0:
73,112,99004,1,4,0:0:0:0:
473,110,99004,1,4,0:0:0:0:
51,103,99046,1,4,0:0:0:0:
257,187,99299,5,0,0:0:0:0:
51,197,99636,2,0,L|162:194,1,95
271,189,99973,1,0,0:0:0:0:
271,189,100310,2,0,L|160:186,1,95
35,182,100647,1,0,0:0:0:0:
35,182,100985,2,0,L|146:179,1,95
391,180,101322,1,0,0:0:0:0:
391,180,101659,2,0,L|296:177,1,95
35,178,101996,1,0,0:0:0:0:
35,178,102333,2,0,L|131:176,1,95
477,178,102670,2,0,L|381:176,1,95
129,176,103007,2,0,L|33:174,1,95
368,157,103344,1,0,0:0:0:0:
244,151,103513,1,0,0:0:0:0:
120,154,103681,1,0,0:0:0:0:
359,160,103850,1,0,0:0:0:0:
17,200,104018,2,0,L|28:86,1,95
477,178,104355,2,0,L|519:62,1,95
164,182,104692,1,0,0:0:0:0:
414,197,105029,2,0,L|288:197,1,95
58,138,105367,2,0,L|174:144,3,95
397,154,106041,1,0,0:0:0:0:
397,154,106378,2,0,L|274:154,2,95
397,154,107052,2,0,L|-43:149,2,380
397,154,107726,6,0,L|-96:156,1,380
121,126,108063,2,2,L|12:126,14,95
24,118,108063,2,2,L|119:118,14,95
179,122,108063,2,2,L|70:122,14,95
333,122,108063,2,2,L|442:122,14,95
488,118,108063,2,2,L|393:118,14,95
391,126,108063,2,2,L|500:126,14,95
179,122,108105,2,2,L|70:122,14,95
333,122,108105,2,2,L|442:122,14,95
255,125,108400,1,2,0:0:0:0:
512,154,108737,1,0,0:0:0:0:
256,192,108794,12,0,108822,0:0:0:0:
256,192,108822,12,0,108850,0:0:0:0:
256,192,108822,12,0,108850,0:0:0:0:
256,192,108850,12,0,108878,0:0:0:0:
256,192,108850,12,0,108878,0:0:0:0:
256,192,108850,12,0,108878,0:0:0:0:
256,192,108878,12,0,108906,0:0:0:0:
256,192,108878,12,0,108906,0:0:0:0:
256,192,108878,12,0,108906,0:0:0:0:
256,192,108906,12,0,108934,0:0:0:0:
256,192,108934,12,0,108962,0:0:0:0:
256,192,108934,12,0,108962,0:0:0:0:
256,192,108934,12,0,108962,0:0:0:0:
256,192,108962,12,0,108990,0:0:0:0:
0,216,108990,5,0,0:0:0:0:
256,192,109018,12,0,109046,0:0:0:0:
45,215,109032,5,0,0:0:0:0:
256,192,109046,12,0,109074,0:0:0:0:
256,192,109046,12,0,109074,0:0:0:0:
140,214,109074,5,0,0:0:0:0:
256,192,109103,12,0,109131,0:0:0:0:
235,214,109116,5,0,0:0:0:0:
256,192,109131,12,0,109159,0:0:0:0:
330,213,109158,5,0,0:0:0:0:
256,192,109159,12,0,109187,0:0:0:0:
256,192,109159,12,0,109187,0:0:0:0:
256,192,109159,12,0,109187,0:0:0:0:
256,192,109187,12,0,109215,0:0:0:0:
425,212,109200,5,0,0:0:0:0:
256,192,109215,12,0,109243,0:0:0:0:
256,192,109215,12,0,109243,0:0:0:0:
256,192,109215,12,0,109243,0:0:0:0:
512,212,109242,5,0,0:0:0:0:
256,192,109243,12,0,109271,0:0:0:0:
256,192,109271,12,0,109299,0:0:0:0:
256,192,109271,12,0,109299,0:0:0:0:
256,192,109271,12,0,109299,0:0:0:0:
256,192,109299,12,0,109327,0:0:0:0:
256,192,109327,12,0,109355,0:0:0:0:
256,192,109327,12,0,109355,0:0:0:0:
256,192,109327,12,0,109355,0:0:0:0:
256,192,109355,12,0,109383,0:0:0:0:
256,192,109383,12,0,109411,0:0:0:0:
256,192,109383,12,0,109411,0:0:0:0:
256,192,109383,12,0,109411,0:0:0:0:
256,192,109411,12,0,109439,0:0:0:0:
256,192,109439,12,0,109467,0:0:0:0:
256,192,109440,12,0,109468,0:0:0:0:
256,192,109468,12,0,109496,0:0:0:0:
256,192,109496,12,0,109524,0:0:0:0:
256,192,109496,12,0,109524,0:0:0:0:
256,192,109496,12,0,109524,0:0:0:0:
256,192,109524,12,0,109552,0:0:0:0:
256,192,109552,12,0,109580,0:0:0:0:
256,192,109552,12,0,109580,0:0:0:0:
256,192,109552,12,0,109580,0:0:0:0:
0,216,109580,5,0,0:0:0:0:
256,192,109608,12,0,109636,0:0:0:0:
256,192,109608,12,0,109636,0:0:0:0:
256,192,109608,12,0,109636,0:0:0:0:
45,215,109622,5,0,0:0:0:0:
256,192,109636,12,0,109664,0:0:0:0:
140,214,109664,5,0,0:0:0:0:
140,214,109664,1,0,0:0:0:0:
256,192,109692,12,0,109720,0:0:0:0:
235,214,109706,5,0,0:0:0:0:
256,192,109720,12,0,109748,0:0:0:0:
256,192,109720,12,0,109748,0:0:0:0:
256,192,109748,12,0,109776,0:0:0:0:
330,213,109748,5,0,0:0:0:0:
330,213,109748,1,0,0:0:0:0:
256,192,109776,12,0,109804,0:0:0:0:
256,192,109776,12,0,109804,0:0:0:0:
256,192,109776,12,0,109804,0:0:0:0:
425,212,109790,5,0,0:0:0:0:
256,192,109804,12,0,109832,0:0:0:0:
256,192,109832,12,0,109860,0:0:0:0:
512,212,109832,5,0,0:0:0:0:
512,212,109832,1,0,0:0:0:0:
256,192,109860,12,0,109888,0:0:0:0:
256,192,109888,12,0,109916,0:0:0:0:
256,192,109888,12,0,109916,0:0:0:0:
256,192,109888,12,0,109916,0:0:0:0:
256,192,109916,12,0,109944,0:0:0:0:
0,216,109917,5,0,0:0:0:0:
256,192,109944,12,0,109972,0:0:0:0:
256,192,109944,12,0,109972,0:0:0:0:
256,192,109944,12,0,109972,0:0:0:0:
45,215,109959,5,0,0:0:0:0:
256,192,109972,12,0,110000,0:0:0:0:
256,192,110000,12,0,110028,0:0:0:0:
140,214,110001,5,0,0:0:0:0:
256,192,110029,12,0,110057,0:0:0:0:
235,214,110043,5,0,0:0:0:0:
256,192,110057,12,0,110085,0:0:0:0:
256,192,110057,12,0,110085,0:0:0:0:
256,192,110057,12,0,110085,0:0:0:0:
330,213,110085,5,0,0:0:0:0:
0,216,110086,5,0,0:0:0:0:
256,192,110113,12,0,110141,0:0:0:0:
256,192,110113,12,0,110141,0:0:0:0:
256,192,110113,12,0,110141,0:0:0:0:
425,212,110127,5,0,0:0:0:0:
45,215,110128,1,0,0:0:0:0:
256,192,110141,12,0,110169,0:0:0:0:
256,192,110169,12,0,110197,0:0:0:0:
256,192,110169,12,0,110197,0:0:0:0:
512,212,110169,5,0,0:0:0:0:
140,214,110170,1,0,0:0:0:0:
256,192,110197,12,0,110225,0:0:0:0:
235,214,110212,5,0,0:0:0:0:
256,192,110225,12,0,110253,0:0:0:0:
256,192,110225,12,0,110253,0:0:0:0:
256,192,110225,12,0,110253,0:0:0:0:
256,192,110253,12,0,110281,0:0:0:0:
330,213,110254,5,0,0:0:0:0:
256,192,110281,12,0,110309,0:0:0:0:
256,192,110281,12,0,110309,0:0:0:0:
256,192,110281,12,0,110309,0:0:0:0:
425,212,110296,5,0,0:0:0:0:
256,192,110309,12,0,110337,0:0:0:0:
256,192,110337,12,0,110365,0:0:0:0:
512,212,110338,5,0,0:0:0:0:
256,192,110366,12,0,110394,0:0:0:0:
235,214,110380,5,0,0:0:0:0:
256,192,110394,12,0,110422,0:0:0:0:
256,192,110394,12,0,110422,0:0:0:0:
256,192,110394,12,0,110422,0:0:0:0:
330,213,110422,5,0,0:0:0:0:
0,216,110423,5,0,0:0:0:0:
256,192,110450,12,0,110478,0:0:0:0:
256,192,110450,12,0,110478,0:0:0:0:
256,192,110450,12,0,110478,0:0:0:0:
425,212,110464,5,0,0:0:0:0:
45,215,110465,1,0,0:0:0:0:
256,192,110478,12,0,110506,0:0:0:0:
256,192,110506,12,0,110534,0:0:0:0:
256,192,110506,12,0,110534,0:0:0:0:
512,212,110506,5,0,0:0:0:0:
140,214,110507,1,0,0:0:0:0:
256,192,110534,12,0,110562,0:0:0:0:
235,214,110549,5,0,0:0:0:0:
256,192,110562,12,0,110590,0:0:0:0:
256,192,110562,12,0,110590,0:0:0:0:
256,192,110563,12,0,110591,0:0:0:0:
0,216,110591,5,0,0:0:0:0:
330,213,110591,1,0,0:0:0:0:
256,192,110619,12,0,110647,0:0:0:0:
256,192,110619,12,0,110647,0:0:0:0:
256,192,110619,12,0,110647,0:0:0:0:
45,215,110633,5,0,0:0:0:0:
256,192,110647,12,0,110675,0:0:0:0:
256,192,110647,12,0,110675,0:0:0:0:
256,192,110647,12,0,110675,0:0:0:0:
140,214,110675,5,0,0:0:0:0:
256,192,110703,12,0,110731,0:0:0:0:
256,192,110703,12,0,110731,0:0:0:0:
256,192,110703,12,0,110731,0:0:0:0:
235,214,110717,5,0,0:0:0:0:
256,192,110731,12,0,110759,0:0:0:0:
256,192,110759,12,0,110787,0:0:0:0:
256,192,110759,12,0,110787,0:0:0:0:
330,213,110759,5,0,0:0:0:0:
256,192,110787,12,0,110815,0:0:0:0:
425,212,110801,5,0,0:0:0:0:
256,192,110815,12,0,110843,0:0:0:0:
256,192,110815,12,0,110843,0:0:0:0:
256,192,110815,12,0,110843,0:0:0:0:
512,212,110843,5,0,0:0:0:0:
256,192,110871,12,0,110899,0:0:0:0:
256,192,110871,12,0,110899,0:0:0:0:
256,192,110872,12,0,110900,0:0:0:0:
256,192,110900,12,0,110928,0:0:0:0:
256,192,110928,12,0,110956,0:0:0:0:
256,192,110928,12,0,110956,0:0:0:0:
256,192,110928,12,0,110956,0:0:0:0:
256,192,110956,12,0,110984,0:0:0:0:
256,192,110984,12,0,111012,0:0:0:0:
256,192,110984,12,0,111012,0:0:0:0:
256,192,110984,12,0,111012,0:0:0:0:
256,192,111012,12,0,111040,0:0:0:0:
256,192,111040,12,0,111068,0:0:0:0:
256,192,111040,12,0,111068,0:0:0:0:
256,192,111040,12,0,111068,0:0:0:0:
256,192,111068,12,0,111096,0:0:0:0:
256,192,111096,12,0,111124,0:0:0:0:
256,192,111096,12,0,111124,0:0:0:0:
256,192,111096,12,0,111124,0:0:0:0:
256,192,111124,12,0,111152,0:0:0:0:
256,192,111152,12,0,111180,0:0:0:0:
256,192,111152,12,0,111180,0:0:0:0:
256,192,111152,12,0,111180,0:0:0:0:
256,192,111180,12,0,111208,0:0:0:0:
256,192,111208,12,0,111236,0:0:0:0:
256,192,111208,12,0,111236,0:0:0:0:
7,182,111434,5,0,0:0:0:0:
511,188,111602,1,0,0:0:0:0:
257,198,111771,2,0,L|132:198,2,95
508,213,112277,1,2,0:0:0:0:
506,181,112333,1,2,0:0:0:0:
505,149,112389,1,2,0:0:0:0:
503,118,112445,1,2,0:0:0:0:
77,116,112614,1,2,0:0:0:0:
365,96,112782,2,2,L|225:101,2,95
152,83,113288,1,2,0:0:0:0:
488,118,113456,2,2,L|0:120,1,380
488,118,113457,1,2,0:0:0:0:
393,119,113499,1,2,0:0:0:0:
298,120,113541,1,2,0:0:0:0:
203,121,113583,1,2,0:0:0:0:
108,122,113625,1,2,0:0:0:0:
108,122,113793,2,2,L|596:124,1,380
108,122,113794,1,2,0:0:0:0:
202,123,113836,1,2,0:0:0:0:
297,124,113878,1,2,0:0:0:0:
392,125,113920,1,2,0:0:0:0:
487,126,113962,1,2,0:0:0:0:
170,166,114131,2,0,L|56:172,2,95
394,197,114636,1,0,0:0:0:0:
112,176,114805,2,0,L|245:175,2,95
445,151,115310,1,2,0:0:0:0:
147,157,115479,2,2,L|360:155,1,190
108,162,115985,1,2,0:0:0:0:
370,177,116153,2,2,L|524:179,1,142.5
142,177,116490,2,2,L|-12:179,1,142.5
373,180,116827,1,2,0:0:0:0:
195,148,116996,1,2,0:0:0:0:
333,144,117164,1,2,0:0:0:0:
52,127,117333,1,2,0:0:0:0:
506,126,117501,1,2,0:0:0:0:
258,117,117670,1,2,0:0:0:0:
0,120,117838,1,2,0:0:0:0:
497,128,118007,1,2,0:0:0:0:
0,133,118176,2,2,L|645:136,1,760
12,133,118681,1,2,0:0:0:0:
497,383,118850,2,2,L|493:224,1,142.5
5,299,119187,2,2,L|1:140,1,142.5
503,162,119524,1,2,0:0:0:0:
384,160,119692,1,2,0:0:0:0:
267,159,119861,1,2,0:0:0:0:
428,154,120029,1,2,0:0:0:0:
13,152,120198,1,2,0:0:0:0:
259,155,120367,1,10,0:0:0:0:
512,156,120535,1,10,0:0:0:0:
13,152,120704,1,10,0:0:0:0:
512,156,120872,1,14,0:0:0:0:
