osu file format v14

[General]
AudioFilename: .mp3
AudioLeadIn: 0
PreviewTime: 83710
Countdown: 0
SampleSet: None
StackLeniency: 0.7
Mode: 1
LetterboxInBreaks: 0
WidescreenStoryboard: 0

[Editor]
Bookmarks: 42014,50472,58930,67388,75846,105450,109679,118137,126595,135053,143511,168886,179459,222807
DistanceSpacing: 1
BeatDivisor: 4
GridSize: 32
TimelineZoom: 2.4

[Metadata]
Title:Sendan Life
TitleUnicode:センダンライフ
Artist:Remo Prototype[CV: Hanamori Yumiri]
ArtistUnicode:リモ Prototype[CV:花守ゆみり]
Creator:Y O U T A
Version:SK's Inner Oni
Source:ガラスの花と壊す世界
Tags:vocaloid Chukka やしきん yashikin Glass no Hana to Kowasu Sekai GARAKOWA Restore the World Vitreous Flower Destroy the World D.backup
BeatmapID:969113
BeatmapSetID:395660

[Difficulty]
HPDrainRate:6
CircleSize:5
OverallDifficulty:6
ApproachRate:5
SliderMultiplier:1.4
SliderTickRate:1

[Events]
//Background and Video events
0,0,"BG169.jpg",0,0
//Break Periods
//Storyboard Layer 0 (Background)
//Storyboard Layer 1 (Fail)
//Storyboard Layer 2 (Pass)
//Storyboard Layer 3 (Foreground)
//Storyboard Sound Samples

[TimingPoints]
37785,264.31718061674,4,1,0,80,1,0
84304,-100,4,1,0,80,0,1
101221,-100,4,1,0,80,0,0
143511,-100,4,1,0,80,0,1
160428,-100,4,1,0,80,0,0
178401,-111.111111111111,4,1,0,70,0,0
178930,-125,4,1,0,65,0,0
179459,-133.333333333333,4,1,0,60,0,0
186595,-125,4,1,0,61,0,0
186727,-121.951219512195,4,1,0,62,0,0
186992,-117.647058823529,4,1,0,63,0,0
187124,-113.636363636364,4,1,0,64,0,0
187256,-109.89010989011,4,1,0,65,0,0
187388,-106.382978723404,4,1,0,67,0,0
187520,-104.166666666667,4,1,0,69,0,0
187652,-102.040816326531,4,1,0,71,0,0
187784,-101.010101010101,4,1,0,73,0,0
187917,-100,4,1,0,75,0,0
197432,-100,4,1,0,80,0,1
214348,-100,4,1,0,80,0,0
222807,-100,4,1,0,80,0,1
231265,-100,4,1,0,80,0,0

[HitObjects]
224,224,37784,5,4,0:0:0:0:
224,224,38049,1,4,0:0:0:0:
224,224,38313,1,4,0:0:0:0:
224,224,38445,1,4,0:0:0:0:
224,224,38710,1,4,0:0:0:0:
224,224,38974,1,4,0:0:0:0:
224,224,39238,1,4,0:0:0:0:
224,224,39503,1,4,0:0:0:0:
224,224,39635,1,6,0:0:0:0:
224,224,39899,1,4,0:0:0:0:
224,224,40163,1,4,0:0:0:0:
224,224,40428,1,4,0:0:0:0:
224,224,40560,1,4,0:0:0:0:
224,224,40824,1,4,0:0:0:0:
224,224,41088,1,4,0:0:0:0:
224,192,41353,1,4,0:0:0:0:
160,160,41485,1,2,0:0:0:0:
288,256,41617,1,0,0:0:0:0:
288,256,41749,1,2,0:0:0:0:
192,224,41815,1,2,0:0:0:0:
224,224,41881,1,0,0:0:0:0:
192,160,41947,1,0,0:0:0:0:
224,224,42014,1,2,0:0:0:0:
288,224,42146,1,0,0:0:0:0:
224,192,42278,1,2,0:0:0:0:
384,256,42410,1,2,0:0:0:0:
384,256,42476,1,2,0:0:0:0:
224,192,42542,1,0,0:0:0:0:
352,288,42674,1,0,0:0:0:0:
224,192,42807,1,2,0:0:0:0:
224,192,42939,1,0,0:0:0:0:
64,160,43005,1,0,0:0:0:0:
224,192,43071,1,2,0:0:0:0:
352,288,43203,1,0,0:0:0:0:
224,192,43335,1,2,0:0:0:0:
256,224,43467,1,2,0:0:0:0:
256,192,43533,1,2,0:0:0:0:
224,192,43599,1,0,0:0:0:0:
192,192,43732,1,0,0:0:0:0:
224,192,43864,1,2,0:0:0:0:
224,192,43996,1,0,0:0:0:0:
256,224,44062,1,0,0:0:0:0:
96,192,44128,1,2,0:0:0:0:
192,192,44194,1,2,0:0:0:0:
224,224,44260,1,0,0:0:0:0:
96,192,44392,1,2,0:0:0:0:
224,224,44525,1,2,0:0:0:0:
128,96,44591,1,2,0:0:0:0:
96,192,44657,1,0,0:0:0:0:
160,128,44789,1,0,0:0:0:0:
96,192,44921,1,2,0:0:0:0:
192,160,45053,1,0,0:0:0:0:
160,96,45119,1,0,0:0:0:0:
96,192,45185,1,2,0:0:0:0:
64,160,45318,1,0,0:0:0:0:
64,192,45450,1,2,0:0:0:0:
288,192,45582,1,2,0:0:0:0:
288,192,45648,1,2,0:0:0:0:
64,192,45714,1,0,0:0:0:0:
160,224,45846,1,0,0:0:0:0:
192,224,45912,1,0,0:0:0:0:
64,192,45978,1,2,0:0:0:0:
160,224,46110,1,0,0:0:0:0:
160,192,46243,1,2,0:0:0:0:
96,192,46375,1,0,0:0:0:0:
128,160,46441,1,0,0:0:0:0:
320,128,46507,1,2,0:0:0:0:
96,192,46639,1,2,0:0:0:0:
320,128,46705,1,2,0:0:0:0:
224,160,46771,1,0,0:0:0:0:
256,160,46903,1,0,0:0:0:0:
320,128,47036,1,2,0:0:0:0:
192,128,47168,1,0,0:0:0:0:
256,96,47234,1,0,0:0:0:0:
192,128,47300,1,2,0:0:0:0:
256,192,47432,1,0,0:0:0:0:
256,96,47564,1,2,0:0:0:0:
160,192,47696,1,2,0:0:0:0:
160,192,47762,1,2,0:0:0:0:
256,96,47829,1,0,0:0:0:0:
192,192,47961,1,0,0:0:0:0:
256,96,48093,1,2,0:0:0:0:
192,192,48225,1,0,0:0:0:0:
96,224,48291,1,0,0:0:0:0:
128,192,48357,1,2,0:0:0:0:
192,256,48423,1,2,0:0:0:0:
192,256,48489,1,0,0:0:0:0:
128,192,48622,1,2,0:0:0:0:
128,160,48754,1,0,0:0:0:0:
128,192,48886,1,2,0:0:0:0:
96,160,49018,1,0,0:0:0:0:
96,160,49084,1,0,0:0:0:0:
128,192,49150,1,2,0:0:0:0:
128,192,49282,1,6,0:0:0:0:
128,192,49547,1,0,0:0:0:0:
128,192,49679,1,2,0:0:0:0:
96,192,49811,1,0,0:0:0:0:
96,192,49943,1,2,0:0:0:0:
96,192,50009,1,2,0:0:0:0:
96,192,50075,1,0,0:0:0:0:
96,192,50141,1,0,0:0:0:0:
96,192,50207,1,2,0:0:0:0:
96,192,50273,1,2,0:0:0:0:
96,192,50340,1,0,0:0:0:0:
96,192,50406,1,0,0:0:0:0:
320,224,50472,1,2,0:0:0:0:
352,192,50736,1,2,0:0:0:0:
128,192,51000,1,0,0:0:0:0:
128,192,51133,1,0,0:0:0:0:
128,192,51265,1,2,0:0:0:0:
320,256,51529,1,0,0:0:0:0:
320,256,51793,1,2,0:0:0:0:
160,192,51925,1,0,0:0:0:0:
160,192,52190,1,0,0:0:0:0:
320,256,52322,1,2,0:0:0:0:
288,256,52586,1,0,0:0:0:0:
288,256,52851,1,2,0:0:0:0:
288,256,52983,1,0,0:0:0:0:
288,256,53115,1,0,0:0:0:0:
288,256,53247,1,0,0:0:0:0:
288,256,53379,1,2,0:0:0:0:
192,224,53644,1,0,0:0:0:0:
192,224,53908,1,2,0:0:0:0:
192,224,54040,1,0,0:0:0:0:
192,224,54304,1,0,0:0:0:0:
192,224,54436,1,2,0:0:0:0:
160,224,54701,1,0,0:0:0:0:
64,160,54965,1,2,0:0:0:0:
320,224,55229,1,0,0:0:0:0:
320,224,55362,1,0,0:0:0:0:
288,192,55494,1,2,0:0:0:0:
320,192,55758,1,0,0:0:0:0:
320,192,56022,1,2,0:0:0:0:
320,192,56155,1,0,0:0:0:0:
288,192,56419,1,0,0:0:0:0:
288,192,56551,1,2,0:0:0:0:
160,256,56815,1,0,0:0:0:0:
32,192,57080,1,2,0:0:0:0:
288,192,57212,1,0,0:0:0:0:
288,192,57344,1,0,0:0:0:0:
288,192,57476,1,0,0:0:0:0:
288,192,57608,1,2,0:0:0:0:
192,192,57873,1,0,0:0:0:0:
256,192,58137,1,2,0:0:0:0:
256,192,58269,1,0,0:0:0:0:
256,192,58401,1,2,0:0:0:0:
256,192,58467,1,2,0:0:0:0:
256,192,58533,1,0,0:0:0:0:
256,192,58599,1,0,0:0:0:0:
256,192,58666,1,2,0:0:0:0:
256,224,58798,1,0,0:0:0:0:
256,192,58930,1,6,0:0:0:0:
160,192,59194,1,2,0:0:0:0:
128,224,59326,1,0,0:0:0:0:
160,192,59459,1,2,0:0:0:0:
480,288,59525,1,2,0:0:0:0:
448,288,59591,1,0,0:0:0:0:
256,224,59657,1,0,0:0:0:0:
160,192,59723,1,2,0:0:0:0:
256,224,59855,1,0,0:0:0:0:
160,192,59987,1,2,0:0:0:0:
224,224,60053,1,2,0:0:0:0:
224,224,60119,1,0,0:0:0:0:
160,192,60251,1,2,0:0:0:0:
224,224,60384,1,2,0:0:0:0:
224,224,60450,1,0,0:0:0:0:
160,192,60516,1,0,0:0:0:0:
160,192,60648,1,0,0:0:0:0:
160,192,60780,1,2,0:0:0:0:
192,192,60912,1,0,0:0:0:0:
160,192,60978,1,0,0:0:0:0:
192,224,61044,1,0,0:0:0:0:
288,128,61177,1,0,0:0:0:0:
384,224,61243,1,0,0:0:0:0:
256,128,61309,1,2,0:0:0:0:
384,224,61441,1,0,0:0:0:0:
256,128,61573,1,2,0:0:0:0:
256,288,61639,1,2,0:0:0:0:
352,224,61705,1,0,0:0:0:0:
32,192,61771,1,0,0:0:0:0:
256,128,61837,1,2,0:0:0:0:
256,128,61970,1,0,0:0:0:0:
32,192,62102,1,2,0:0:0:0:
256,128,62366,1,2,0:0:0:0:
224,224,62498,1,0,0:0:0:0:
256,128,62630,1,2,0:0:0:0:
192,192,62762,1,0,0:0:0:0:
320,224,62829,1,0,0:0:0:0:
256,128,62895,1,2,0:0:0:0:
192,192,63027,1,2,0:0:0:0:
192,192,63159,1,0,0:0:0:0:
224,192,63423,1,2,0:0:0:0:
192,192,63555,1,0,0:0:0:0:
224,192,63688,1,2,0:0:0:0:
224,192,63754,1,0,0:0:0:0:
224,192,63820,1,0,0:0:0:0:
224,192,63886,1,0,0:0:0:0:
224,192,63952,1,2,0:0:0:0:
128,224,64084,1,0,0:0:0:0:
224,192,64216,1,2,0:0:0:0:
256,128,64348,1,2,0:0:0:0:
256,128,64414,1,0,0:0:0:0:
224,192,64481,1,2,0:0:0:0:
128,192,64613,1,2,0:0:0:0:
224,192,64745,1,0,0:0:0:0:
192,224,64877,1,0,0:0:0:0:
288,160,64943,1,0,0:0:0:0:
224,192,65009,1,2,0:0:0:0:
192,224,65141,1,2,0:0:0:0:
192,224,65273,1,0,0:0:0:0:
448,288,65406,1,0,0:0:0:0:
128,160,65538,1,2,0:0:0:0:
256,224,65670,1,2,0:0:0:0:
256,224,65736,1,0,0:0:0:0:
128,160,65802,1,0,0:0:0:0:
448,288,65934,1,0,0:0:0:0:
128,160,66066,1,2,0:0:0:0:
192,128,66199,1,0,0:0:0:0:
128,192,66463,1,2,0:0:0:0:
192,224,66727,1,0,0:0:0:0:
192,224,66859,1,2,0:0:0:0:
192,224,66925,1,2,0:0:0:0:
192,224,66992,1,0,0:0:0:0:
192,224,67058,1,0,0:0:0:0:
192,224,67124,1,2,0:0:0:0:
192,224,67256,1,0,0:0:0:0:
192,224,67388,1,6,0:0:0:0:
320,224,67652,1,0,0:0:0:0:
320,224,67785,1,2,0:0:0:0:
320,224,67917,1,0,0:0:0:0:
320,224,68181,1,2,0:0:0:0:
288,192,68577,1,0,0:0:0:0:
288,192,68974,1,2,0:0:0:0:
288,192,69238,1,2,0:0:0:0:
320,288,69370,1,2,0:0:0:0:
288,192,69503,1,0,0:0:0:0:
288,192,69767,1,0,0:0:0:0:
288,192,69899,1,2,0:0:0:0:
288,192,70031,1,0,0:0:0:0:
288,192,70296,1,0,0:0:0:0:
320,224,70692,1,0,0:0:0:0:
320,224,71088,1,2,0:0:0:0:
384,288,71353,1,0,0:0:0:0:
160,224,71485,1,0,0:0:0:0:
384,288,71617,1,2,0:0:0:0:
352,288,71881,1,0,0:0:0:0:
352,288,72014,1,2,0:0:0:0:
320,224,72146,1,0,0:0:0:0:
288,192,72410,1,2,0:0:0:0:
288,256,72674,1,0,0:0:0:0:
288,256,72939,1,0,0:0:0:0:
288,256,73071,1,2,0:0:0:0:
320,256,73203,1,0,0:0:0:0:
128,192,73467,1,2,0:0:0:0:
384,288,73732,1,0,0:0:0:0:
384,288,74128,1,2,0:0:0:0:
384,288,74260,1,0,0:0:0:0:
160,192,74525,1,2,0:0:0:0:
160,192,74789,1,2,0:0:0:0:
160,192,74921,1,0,0:0:0:0:
224,192,75053,1,2,0:0:0:0:
160,192,75318,1,2,0:0:0:0:
160,192,75450,1,0,0:0:0:0:
320,192,75516,1,0,0:0:0:0:
160,192,75582,1,2,0:0:0:0:
160,192,75714,1,6,0:0:0:0:
320,224,75978,1,0,0:0:0:0:
320,224,76110,1,2,0:0:0:0:
320,224,76243,1,0,0:0:0:0:
224,160,76375,1,2,0:0:0:0:
352,256,76441,1,0,0:0:0:0:
352,256,76507,1,0,0:0:0:0:
320,224,76573,1,0,0:0:0:0:
224,160,76639,1,2,0:0:0:0:
128,192,76771,1,0,0:0:0:0:
224,160,76903,1,2,0:0:0:0:
160,192,76970,1,2,0:0:0:0:
160,192,77036,1,0,0:0:0:0:
224,160,77168,1,2,0:0:0:0:
160,192,77300,1,2,0:0:0:0:
160,192,77366,1,0,0:0:0:0:
224,160,77432,1,0,0:0:0:0:
160,192,77564,1,0,0:0:0:0:
224,160,77696,1,2,0:0:0:0:
224,160,77829,1,4,0:0:0:0:
416,192,78093,1,0,0:0:0:0:
416,192,78225,1,2,0:0:0:0:
128,160,78357,1,0,0:0:0:0:
416,192,78489,1,2,0:0:0:0:
128,160,78555,1,2,0:0:0:0:
96,160,78622,1,0,0:0:0:0:
128,160,78688,1,0,0:0:0:0:
416,192,78754,1,2,0:0:0:0:
224,160,78886,1,0,0:0:0:0:
384,192,79018,1,6,0:0:0:0:
320,224,79150,1,0,0:0:0:0:
320,224,79216,1,0,0:0:0:0:
224,160,79282,1,2,0:0:0:0:
320,224,79414,1,2,0:0:0:0:
224,160,79547,1,0,0:0:0:0:
192,192,79679,1,0,0:0:0:0:
192,192,79745,1,0,0:0:0:0:
224,160,79811,1,2,0:0:0:0:
224,128,79943,1,4,0:0:0:0:
224,160,80207,1,0,0:0:0:0:
224,160,80340,1,2,0:0:0:0:
352,224,80472,1,2,0:0:0:0:
224,160,80604,1,0,0:0:0:0:
224,160,80868,1,2,0:0:0:0:
352,224,81000,1,2,0:0:0:0:
192,192,81066,1,0,0:0:0:0:
224,160,81133,1,2,0:0:0:0:
320,224,81265,1,0,0:0:0:0:
224,160,81397,1,2,0:0:0:0:
416,160,81529,1,2,0:0:0:0:
128,96,81595,1,0,0:0:0:0:
224,160,81661,1,0,0:0:0:0:
416,160,81793,1,0,0:0:0:0:
224,160,81925,1,2,0:0:0:0:
160,192,82058,1,0,0:0:0:0:
224,160,82190,1,4,0:0:0:0:
160,160,82322,1,0,0:0:0:0:
160,192,82454,1,2,0:0:0:0:
160,160,82586,1,0,0:0:0:0:
160,192,82718,1,2,0:0:0:0:
160,160,82851,1,0,0:0:0:0:
160,192,82983,1,2,0:0:0:0:
288,192,83115,1,6,0:0:0:0:
320,224,83379,1,0,0:0:0:0:
320,224,83511,1,2,0:0:0:0:
320,224,83644,1,0,0:0:0:0:
320,224,83710,1,0,0:0:0:0:
320,224,83776,1,2,0:0:0:0:
352,224,83842,1,2,0:0:0:0:
352,224,83908,1,0,0:0:0:0:
352,224,83974,1,0,0:0:0:0:
320,224,84040,1,2,0:0:0:0:
352,224,84106,1,0,0:0:0:0:
352,224,84172,1,0,0:0:0:0:
352,224,84238,1,0,0:0:0:0:
352,224,84304,1,2,0:0:0:0:
256,256,84436,1,0,0:0:0:0:
256,224,84503,1,0,0:0:0:0:
160,128,84569,1,2,0:0:0:0:
320,224,84701,1,0,0:0:0:0:
192,96,84833,1,2,0:0:0:0:
256,192,84899,1,2,0:0:0:0:
256,192,84965,1,0,0:0:0:0:
256,192,85031,1,0,0:0:0:0:
192,96,85097,1,2,0:0:0:0:
128,192,85229,1,2,0:0:0:0:
128,192,85296,1,2,0:0:0:0:
192,96,85362,1,0,0:0:0:0:
160,224,85494,1,0,0:0:0:0:
160,192,85560,1,0,0:0:0:0:
192,96,85626,1,2,0:0:0:0:
128,192,85758,1,0,0:0:0:0:
192,96,85890,1,2,0:0:0:0:
96,192,85956,1,0,0:0:0:0:
96,192,86022,1,0,0:0:0:0:
96,192,86088,1,0,0:0:0:0:
192,96,86155,1,2,0:0:0:0:
96,192,86287,1,0,0:0:0:0:
96,192,86419,1,2,0:0:0:0:
160,192,86485,1,2,0:0:0:0:
160,192,86551,1,0,0:0:0:0:
128,192,86617,1,0,0:0:0:0:
224,192,86683,1,2,0:0:0:0:
192,192,86815,1,0,0:0:0:0:
224,160,86947,1,2,0:0:0:0:
192,192,87014,1,2,0:0:0:0:
160,192,87080,1,0,0:0:0:0:
224,160,87212,1,2,0:0:0:0:
128,160,87344,1,2,0:0:0:0:
160,224,87410,1,0,0:0:0:0:
224,160,87476,1,0,0:0:0:0:
224,192,87608,1,0,0:0:0:0:
224,160,87740,1,2,0:0:0:0:
256,192,87873,1,2,0:0:0:0:
96,128,87939,1,0,0:0:0:0:
224,160,88005,1,2,0:0:0:0:
256,192,88137,1,0,0:0:0:0:
224,160,88269,1,2,0:0:0:0:
256,160,88401,1,0,0:0:0:0:
192,224,88533,1,2,0:0:0:0:
256,224,88599,1,2,0:0:0:0:
256,224,88666,1,0,0:0:0:0:
256,224,88732,1,0,0:0:0:0:
192,224,88798,1,2,0:0:0:0:
256,224,88930,1,0,0:0:0:0:
192,224,89062,1,2,0:0:0:0:
288,256,89128,1,0,0:0:0:0:
288,256,89194,1,0,0:0:0:0:
288,256,89260,1,0,0:0:0:0:
192,224,89326,1,2,0:0:0:0:
192,224,89459,1,0,0:0:0:0:
192,224,89591,1,2,0:0:0:0:
224,256,89657,1,2,0:0:0:0:
224,256,89723,1,0,0:0:0:0:
192,224,89855,1,2,0:0:0:0:
224,256,89987,1,2,0:0:0:0:
224,256,90053,1,0,0:0:0:0:
192,224,90119,1,0,0:0:0:0:
192,224,90251,1,0,0:0:0:0:
256,224,90318,1,0,0:0:0:0:
192,224,90384,1,2,0:0:0:0:
160,192,90516,1,0,0:0:0:0:
224,256,90648,1,2,0:0:0:0:
320,256,90780,1,0,0:0:0:0:
160,256,90912,1,2,0:0:0:0:
256,224,90978,1,2,0:0:0:0:
256,224,91044,1,2,0:0:0:0:
224,192,91110,1,2,0:0:0:0:
256,224,91177,1,0,0:0:0:0:
224,192,91243,1,0,0:0:0:0:
224,192,91309,1,0,0:0:0:0:
224,192,91375,1,0,0:0:0:0:
160,256,91441,1,2,0:0:0:0:
160,224,91573,1,4,0:0:0:0:
160,256,91837,1,0,0:0:0:0:
160,256,91970,1,2,0:0:0:0:
448,320,92036,1,2,0:0:0:0:
448,320,92102,1,0,0:0:0:0:
448,320,92168,1,0,0:0:0:0:
448,320,92234,1,2,0:0:0:0:
448,320,92300,1,0,0:0:0:0:
448,320,92366,1,0,0:0:0:0:
448,320,92432,1,0,0:0:0:0:
448,320,92498,1,2,0:0:0:0:
448,320,92630,1,0,0:0:0:0:
448,320,92762,1,2,0:0:0:0:
352,256,92895,1,0,0:0:0:0:
352,256,92961,1,0,0:0:0:0:
288,192,93027,1,2,0:0:0:0:
384,352,93159,1,0,0:0:0:0:
288,192,93291,1,2,0:0:0:0:
384,288,93357,1,2,0:0:0:0:
352,256,93423,1,0,0:0:0:0:
288,192,93555,1,2,0:0:0:0:
224,256,93688,1,2,0:0:0:0:
192,256,93754,1,0,0:0:0:0:
288,192,93820,1,0,0:0:0:0:
224,224,93952,1,0,0:0:0:0:
288,192,94084,1,2,0:0:0:0:
224,224,94216,1,0,0:0:0:0:
224,224,94348,1,0,0:0:0:0:
288,224,94414,1,2,0:0:0:0:
224,224,94481,1,0,0:0:0:0:
224,224,94547,1,0,0:0:0:0:
288,224,94613,1,2,0:0:0:0:
192,192,94745,1,0,0:0:0:0:
192,192,94877,1,2,0:0:0:0:
320,160,94943,1,0,0:0:0:0:
320,160,95009,1,0,0:0:0:0:
320,160,95075,1,0,0:0:0:0:
192,192,95141,1,2,0:0:0:0:
64,192,95273,1,0,0:0:0:0:
192,192,95406,1,2,0:0:0:0:
320,288,95472,1,0,0:0:0:0:
320,288,95538,1,0,0:0:0:0:
192,192,95670,1,2,0:0:0:0:
224,224,95802,1,2,0:0:0:0:
224,224,95868,1,2,0:0:0:0:
160,192,95934,1,0,0:0:0:0:
224,192,96066,1,0,0:0:0:0:
160,224,96199,1,2,0:0:0:0:
352,192,96331,1,0,0:0:0:0:
160,224,96463,1,2,0:0:0:0:
320,192,96529,1,2,0:0:0:0:
320,192,96595,1,0,0:0:0:0:
352,192,96661,1,0,0:0:0:0:
160,192,96727,1,2,0:0:0:0:
320,224,96859,1,0,0:0:0:0:
288,224,96992,1,4,0:0:0:0:
288,160,97124,1,0,0:0:0:0:
288,160,97190,1,0,0:0:0:0:
320,224,97256,1,2,0:0:0:0:
256,160,97388,1,0,0:0:0:0:
320,224,97520,1,2,0:0:0:0:
288,256,97652,1,0,0:0:0:0:
320,224,97784,1,2,0:0:0:0:
416,320,97851,1,0,0:0:0:0:
416,320,97917,1,0,0:0:0:0:
416,288,97983,1,0,0:0:0:0:
320,224,98049,1,2,0:0:0:0:
256,192,98181,1,0,0:0:0:0:
320,224,98313,1,2,0:0:0:0:
320,288,98445,1,0,0:0:0:0:
320,192,98511,1,0,0:0:0:0:
320,224,98577,1,2,0:0:0:0:
288,192,98710,1,0,0:0:0:0:
320,224,98842,1,2,0:0:0:0:
320,288,98974,1,0,0:0:0:0:
320,256,99106,1,6,0:0:0:0:
256,224,99238,1,0,0:0:0:0:
224,224,99304,1,0,0:0:0:0:
224,224,99370,1,2,0:0:0:0:
224,224,99503,1,0,0:0:0:0:
224,224,99635,1,2,0:0:0:0:
224,192,99701,1,0,0:0:0:0:
224,192,99767,1,0,0:0:0:0:
192,192,99833,1,0,0:0:0:0:
224,224,99899,1,2,0:0:0:0:
256,256,100031,1,0,0:0:0:0:
224,192,100163,1,2,0:0:0:0:
224,192,100229,1,2,0:0:0:0:
224,192,100296,1,0,0:0:0:0:
224,192,100362,1,0,0:0:0:0:
224,192,100428,1,2,0:0:0:0:
224,192,100494,1,0,0:0:0:0:
224,192,100560,1,0,0:0:0:0:
224,192,100626,1,0,0:0:0:0:
224,192,100692,1,2,0:0:0:0:
224,192,100758,1,2,0:0:0:0:
224,192,100824,1,0,0:0:0:0:
224,192,100890,1,0,0:0:0:0:
224,192,100956,1,2,0:0:0:0:
224,192,101022,1,0,0:0:0:0:
224,192,101088,1,2,0:0:0:0:
224,192,101155,1,0,0:0:0:0:
224,224,101221,1,2,0:0:0:0:
288,224,101353,1,0,0:0:0:0:
224,192,101485,1,2,0:0:0:0:
384,256,101617,1,2,0:0:0:0:
384,256,101683,1,2,0:0:0:0:
224,192,101749,1,0,0:0:0:0:
352,288,101881,1,0,0:0:0:0:
224,192,102014,1,2,0:0:0:0:
224,192,102146,1,0,0:0:0:0:
64,160,102212,1,0,0:0:0:0:
224,192,102278,1,2,0:0:0:0:
352,288,102410,1,0,0:0:0:0:
224,192,102542,1,2,0:0:0:0:
256,224,102674,1,2,0:0:0:0:
256,192,102740,1,2,0:0:0:0:
224,192,102806,1,0,0:0:0:0:
192,192,102939,1,0,0:0:0:0:
224,192,103071,1,2,0:0:0:0:
224,192,103203,1,0,0:0:0:0:
256,224,103269,1,0,0:0:0:0:
96,192,103335,1,2,0:0:0:0:
192,192,103401,1,2,0:0:0:0:
224,224,103467,1,0,0:0:0:0:
96,192,103599,1,2,0:0:0:0:
224,224,103732,1,2,0:0:0:0:
128,96,103798,1,2,0:0:0:0:
96,192,103864,1,0,0:0:0:0:
160,128,103996,1,0,0:0:0:0:
96,192,104128,1,2,0:0:0:0:
192,160,104260,1,0,0:0:0:0:
160,96,104326,1,0,0:0:0:0:
96,192,104392,1,2,0:0:0:0:
64,160,104525,1,0,0:0:0:0:
64,192,104657,1,2,0:0:0:0:
288,192,104789,1,2,0:0:0:0:
288,192,104855,1,2,0:0:0:0:
64,192,104921,1,0,0:0:0:0:
160,224,105053,1,0,0:0:0:0:
192,224,105119,1,0,0:0:0:0:
64,192,105185,1,2,0:0:0:0:
160,224,105317,1,0,0:0:0:0:
160,192,105450,1,2,0:0:0:0:
96,192,105582,1,0,0:0:0:0:
128,256,105648,1,0,0:0:0:0:
320,128,105714,1,2,0:0:0:0:
96,192,105846,1,2,0:0:0:0:
320,128,105912,1,2,0:0:0:0:
224,160,105978,1,0,0:0:0:0:
256,160,106110,1,0,0:0:0:0:
320,128,106243,1,2,0:0:0:0:
192,128,106375,1,0,0:0:0:0:
256,96,106441,1,2,0:0:0:0:
192,128,106507,1,0,0:0:0:0:
256,192,106639,1,0,0:0:0:0:
352,224,106705,1,0,0:0:0:0:
256,96,106771,1,2,0:0:0:0:
160,192,106903,1,2,0:0:0:0:
160,192,106969,1,2,0:0:0:0:
256,96,107036,1,0,0:0:0:0:
256,96,107168,1,0,0:0:0:0:
192,192,107300,1,2,0:0:0:0:
192,192,107432,1,0,0:0:0:0:
96,224,107498,1,2,0:0:0:0:
128,192,107564,1,0,0:0:0:0:
192,256,107696,1,0,0:0:0:0:
192,192,107762,1,0,0:0:0:0:
128,192,107829,1,2,0:0:0:0:
128,160,107961,1,0,0:0:0:0:
128,192,108093,1,2,0:0:0:0:
128,160,108159,1,0,0:0:0:0:
96,160,108225,1,0,0:0:0:0:
96,160,108291,1,0,0:0:0:0:
128,192,108357,1,2,0:0:0:0:
128,192,108489,1,6,0:0:0:0:
128,192,108754,1,0,0:0:0:0:
128,192,108886,1,2,0:0:0:0:
96,192,109018,1,0,0:0:0:0:
96,192,109150,1,2,0:0:0:0:
96,192,109216,1,2,0:0:0:0:
96,192,109282,1,0,0:0:0:0:
96,192,109348,1,0,0:0:0:0:
96,192,109414,1,2,0:0:0:0:
96,192,109480,1,2,0:0:0:0:
96,192,109547,1,0,0:0:0:0:
96,192,109613,1,0,0:0:0:0:
320,224,109679,1,2,0:0:0:0:
0,160,110736,1,4,0:0:0:0:
288,224,111000,1,2,0:0:0:0:
256,160,111133,1,4,0:0:0:0:
160,192,111397,1,2,0:0:0:0:
224,160,111529,1,4,0:0:0:0:
224,160,111793,1,6,0:0:0:0:
288,224,112718,1,0,0:0:0:0:
288,224,112851,1,6,0:0:0:0:
320,224,112983,1,2,0:0:0:0:
320,224,113115,1,0,0:0:0:0:
320,192,113247,1,2,0:0:0:0:
320,192,113511,1,0,0:0:0:0:
320,192,113644,1,2,0:0:0:0:
320,192,113776,1,2,0:0:0:0:
320,192,113908,1,0,0:0:0:0:
320,256,114172,1,0,0:0:0:0:
224,192,114304,1,0,0:0:0:0:
320,256,114436,1,2,0:0:0:0:
320,256,114701,1,0,0:0:0:0:
320,256,114965,1,2,0:0:0:0:
320,256,115229,1,0,0:0:0:0:
224,192,115362,1,0,0:0:0:0:
320,256,115494,1,2,0:0:0:0:
320,256,115758,1,2,0:0:0:0:
320,256,116022,1,0,0:0:0:0:
192,224,116287,1,0,0:0:0:0:
192,192,116419,1,0,0:0:0:0:
160,224,116551,1,2,0:0:0:0:
160,224,116815,1,0,0:0:0:0:
224,256,116947,1,6,0:0:0:0:
128,224,117212,1,0,0:0:0:0:
96,192,117476,1,0,0:0:0:0:
96,160,117608,1,2,0:0:0:0:
96,160,117674,1,2,0:0:0:0:
96,160,117740,1,0,0:0:0:0:
96,160,117807,1,0,0:0:0:0:
96,160,117873,1,2,0:0:0:0:
256,192,118137,1,6,0:0:0:0:
160,192,118401,1,2,0:0:0:0:
128,224,118533,1,0,0:0:0:0:
160,192,118666,1,2,0:0:0:0:
480,288,118732,1,2,0:0:0:0:
448,288,118798,1,0,0:0:0:0:
256,224,118864,1,0,0:0:0:0:
160,192,118930,1,2,0:0:0:0:
256,224,119062,1,0,0:0:0:0:
160,192,119194,1,2,0:0:0:0:
224,224,119260,1,2,0:0:0:0:
224,224,119326,1,0,0:0:0:0:
160,192,119458,1,2,0:0:0:0:
224,224,119591,1,2,0:0:0:0:
224,224,119657,1,0,0:0:0:0:
160,192,119723,1,0,0:0:0:0:
160,192,119855,1,0,0:0:0:0:
160,192,119987,1,2,0:0:0:0:
192,192,120119,1,0,0:0:0:0:
160,192,120185,1,0,0:0:0:0:
192,224,120251,1,0,0:0:0:0:
288,128,120384,1,0,0:0:0:0:
384,224,120450,1,0,0:0:0:0:
256,128,120516,1,2,0:0:0:0:
384,224,120648,1,0,0:0:0:0:
256,128,120780,1,2,0:0:0:0:
256,288,120846,1,0,0:0:0:0:
352,224,120912,1,0,0:0:0:0:
32,192,120978,1,0,0:0:0:0:
256,128,121044,1,2,0:0:0:0:
256,128,121177,1,0,0:0:0:0:
32,192,121309,1,2,0:0:0:0:
256,128,121573,1,2,0:0:0:0:
224,224,121705,1,0,0:0:0:0:
256,128,121837,1,2,0:0:0:0:
192,192,121969,1,0,0:0:0:0:
320,224,122036,1,0,0:0:0:0:
256,128,122102,1,2,0:0:0:0:
192,192,122234,1,2,0:0:0:0:
192,192,122366,1,0,0:0:0:0:
224,192,122630,1,2,0:0:0:0:
192,192,122762,1,0,0:0:0:0:
224,192,122895,1,2,0:0:0:0:
224,192,122961,1,0,0:0:0:0:
224,192,123027,1,0,0:0:0:0:
224,192,123093,1,0,0:0:0:0:
224,192,123159,1,2,0:0:0:0:
128,224,123291,1,0,0:0:0:0:
224,192,123423,1,2,0:0:0:0:
256,128,123555,1,2,0:0:0:0:
256,128,123621,1,0,0:0:0:0:
224,192,123688,1,2,0:0:0:0:
128,192,123820,1,2,0:0:0:0:
224,192,123952,1,0,0:0:0:0:
192,224,124084,1,0,0:0:0:0:
288,160,124150,1,0,0:0:0:0:
224,192,124216,1,2,0:0:0:0:
192,224,124348,1,2,0:0:0:0:
192,224,124480,1,0,0:0:0:0:
448,288,124613,1,0,0:0:0:0:
256,224,124679,1,0,0:0:0:0:
128,160,124745,1,2,0:0:0:0:
256,224,124877,1,0,0:0:0:0:
128,160,125009,1,2,0:0:0:0:
256,224,125075,1,2,0:0:0:0:
448,288,125141,1,0,0:0:0:0:
128,160,125273,1,2,0:0:0:0:
192,128,125406,1,0,0:0:0:0:
128,192,125670,1,2,0:0:0:0:
192,224,125934,1,0,0:0:0:0:
192,224,126066,1,2,0:0:0:0:
192,224,126132,1,2,0:0:0:0:
192,224,126199,1,0,0:0:0:0:
192,224,126265,1,0,0:0:0:0:
192,224,126331,1,2,0:0:0:0:
192,224,126397,1,0,0:0:0:0:
224,224,126463,1,2,0:0:0:0:
192,224,126595,1,4,0:0:0:0:
128,128,126859,1,0,0:0:0:0:
224,160,126992,1,0,0:0:0:0:
128,128,127124,1,2,0:0:0:0:
288,192,127388,1,0,0:0:0:0:
288,192,127652,1,0,0:0:0:0:
224,192,127784,1,2,0:0:0:0:
288,192,127917,1,0,0:0:0:0:
288,192,128181,1,2,0:0:0:0:
288,192,128445,1,2,0:0:0:0:
288,160,128710,1,0,0:0:0:0:
224,224,128974,1,0,0:0:0:0:
128,192,129106,1,0,0:0:0:0:
224,224,129238,1,2,0:0:0:0:
320,256,129503,1,0,0:0:0:0:
320,256,129767,1,0,0:0:0:0:
320,256,129899,1,2,0:0:0:0:
320,256,130031,1,0,0:0:0:0:
320,256,130296,1,2,0:0:0:0:
224,224,130560,1,0,0:0:0:0:
160,192,130824,1,2,0:0:0:0:
224,192,131088,1,0,0:0:0:0:
352,224,131221,1,0,0:0:0:0:
192,160,131353,1,2,0:0:0:0:
256,256,131617,1,0,0:0:0:0:
288,256,131881,1,0,0:0:0:0:
224,256,132014,1,2,0:0:0:0:
288,256,132146,1,0,0:0:0:0:
288,288,132410,1,2,0:0:0:0:
160,224,132674,1,2,0:0:0:0:
160,224,132939,1,0,0:0:0:0:
288,224,133203,1,0,0:0:0:0:
352,288,133335,1,0,0:0:0:0:
288,224,133467,1,2,0:0:0:0:
352,288,133732,1,0,0:0:0:0:
224,224,133996,1,2,0:0:0:0:
224,224,134260,1,0,0:0:0:0:
224,224,134525,1,2,0:0:0:0:
160,192,134657,1,0,0:0:0:0:
224,256,134723,1,0,0:0:0:0:
160,192,134789,1,2,0:0:0:0:
160,192,134921,1,6,0:0:0:0:
320,224,135185,1,0,0:0:0:0:
320,224,135317,1,2,0:0:0:0:
320,224,135450,1,0,0:0:0:0:
224,160,135582,1,2,0:0:0:0:
352,256,135648,1,0,0:0:0:0:
352,256,135714,1,0,0:0:0:0:
320,224,135780,1,0,0:0:0:0:
224,160,135846,1,2,0:0:0:0:
128,192,135978,1,0,0:0:0:0:
224,160,136110,1,2,0:0:0:0:
160,192,136177,1,2,0:0:0:0:
160,192,136243,1,0,0:0:0:0:
224,160,136375,1,2,0:0:0:0:
160,192,136507,1,2,0:0:0:0:
160,192,136573,1,0,0:0:0:0:
224,160,136639,1,0,0:0:0:0:
160,192,136771,1,0,0:0:0:0:
224,160,136903,1,2,0:0:0:0:
224,160,137036,1,4,0:0:0:0:
416,192,137300,1,0,0:0:0:0:
416,192,137432,1,2,0:0:0:0:
128,160,137564,1,0,0:0:0:0:
416,192,137696,1,2,0:0:0:0:
128,160,137762,1,2,0:0:0:0:
96,160,137829,1,0,0:0:0:0:
128,160,137895,1,0,0:0:0:0:
416,192,137961,1,2,0:0:0:0:
224,160,138093,1,0,0:0:0:0:
384,192,138225,1,6,0:0:0:0:
320,224,138357,1,0,0:0:0:0:
320,224,138423,1,0,0:0:0:0:
224,160,138489,1,2,0:0:0:0:
320,224,138621,1,2,0:0:0:0:
224,160,138754,1,0,0:0:0:0:
192,192,138886,1,0,0:0:0:0:
192,192,138952,1,0,0:0:0:0:
224,160,139018,1,2,0:0:0:0:
224,128,139150,1,4,0:0:0:0:
224,160,139414,1,0,0:0:0:0:
224,160,139547,1,6,0:0:0:0:
320,224,139811,1,2,0:0:0:0:
320,224,139943,1,2,0:0:0:0:
128,160,140009,1,0,0:0:0:0:
320,224,140075,1,2,0:0:0:0:
320,224,140207,1,4,0:0:0:0:
384,224,140340,1,2,0:0:0:0:
384,224,140604,1,0,0:0:0:0:
288,256,140736,1,2,0:0:0:0:
288,224,140868,1,0,0:0:0:0:
224,192,141000,1,0,0:0:0:0:
288,224,141133,1,2,0:0:0:0:
352,224,141397,1,2,0:0:0:0:
256,192,141529,1,0,0:0:0:0:
352,192,141595,1,0,0:0:0:0:
384,224,141661,1,2,0:0:0:0:
288,224,141793,1,0,0:0:0:0:
352,224,141925,1,2,0:0:0:0:
256,160,141992,1,2,0:0:0:0:
288,160,142058,1,0,0:0:0:0:
320,192,142124,1,0,0:0:0:0:
352,224,142190,1,2,0:0:0:0:
256,224,142322,1,0,0:0:0:0:
352,224,142454,1,2,0:0:0:0:
192,160,142520,1,2,0:0:0:0:
256,224,142586,1,0,0:0:0:0:
352,224,142718,1,6,0:0:0:0:
320,224,142851,1,0,0:0:0:0:
320,224,142917,1,0,0:0:0:0:
320,224,142983,1,2,0:0:0:0:
352,224,143049,1,2,0:0:0:0:
352,224,143115,1,0,0:0:0:0:
352,224,143181,1,0,0:0:0:0:
320,224,143247,1,2,0:0:0:0:
352,224,143313,1,0,0:0:0:0:
352,224,143379,1,0,0:0:0:0:
352,224,143445,1,0,0:0:0:0:
352,224,143511,1,2,0:0:0:0:
256,256,143643,1,0,0:0:0:0:
256,224,143710,1,0,0:0:0:0:
160,128,143776,1,2,0:0:0:0:
320,224,143908,1,0,0:0:0:0:
192,96,144040,1,2,0:0:0:0:
256,192,144106,1,2,0:0:0:0:
256,192,144172,1,0,0:0:0:0:
256,192,144238,1,0,0:0:0:0:
192,96,144304,1,2,0:0:0:0:
128,192,144436,1,2,0:0:0:0:
128,192,144503,1,2,0:0:0:0:
192,96,144569,1,0,0:0:0:0:
160,224,144701,1,0,0:0:0:0:
160,192,144767,1,0,0:0:0:0:
192,96,144833,1,2,0:0:0:0:
128,192,144965,1,0,0:0:0:0:
192,96,145097,1,2,0:0:0:0:
96,192,145163,1,0,0:0:0:0:
96,192,145229,1,0,0:0:0:0:
96,192,145295,1,0,0:0:0:0:
192,96,145362,1,2,0:0:0:0:
96,192,145494,1,0,0:0:0:0:
96,192,145626,1,2,0:0:0:0:
160,192,145692,1,2,0:0:0:0:
160,192,145758,1,0,0:0:0:0:
128,192,145824,1,0,0:0:0:0:
224,192,145890,1,2,0:0:0:0:
192,192,146022,1,0,0:0:0:0:
224,160,146154,1,2,0:0:0:0:
192,192,146221,1,2,0:0:0:0:
160,192,146287,1,0,0:0:0:0:
224,160,146419,1,2,0:0:0:0:
128,160,146551,1,2,0:0:0:0:
160,224,146617,1,0,0:0:0:0:
224,160,146683,1,0,0:0:0:0:
224,192,146815,1,0,0:0:0:0:
224,160,146947,1,2,0:0:0:0:
256,192,147080,1,2,0:0:0:0:
96,128,147146,1,0,0:0:0:0:
224,160,147212,1,2,0:0:0:0:
256,192,147344,1,0,0:0:0:0:
224,160,147476,1,2,0:0:0:0:
256,160,147608,1,0,0:0:0:0:
192,224,147740,1,2,0:0:0:0:
256,224,147806,1,2,0:0:0:0:
256,224,147873,1,0,0:0:0:0:
256,224,147939,1,0,0:0:0:0:
192,224,148005,1,2,0:0:0:0:
256,224,148137,1,0,0:0:0:0:
192,224,148269,1,2,0:0:0:0:
288,256,148335,1,0,0:0:0:0:
288,256,148401,1,0,0:0:0:0:
288,256,148467,1,0,0:0:0:0:
192,224,148533,1,2,0:0:0:0:
192,224,148666,1,0,0:0:0:0:
192,224,148798,1,2,0:0:0:0:
224,256,148864,1,2,0:0:0:0:
224,256,148930,1,0,0:0:0:0:
192,224,149062,1,2,0:0:0:0:
224,256,149194,1,2,0:0:0:0:
224,256,149260,1,0,0:0:0:0:
192,224,149326,1,0,0:0:0:0:
192,224,149458,1,0,0:0:0:0:
256,224,149525,1,0,0:0:0:0:
192,224,149591,1,2,0:0:0:0:
160,192,149723,1,0,0:0:0:0:
224,256,149855,1,2,0:0:0:0:
320,256,149987,1,0,0:0:0:0:
160,256,150119,1,2,0:0:0:0:
256,224,150185,1,2,0:0:0:0:
256,224,150251,1,2,0:0:0:0:
224,192,150317,1,2,0:0:0:0:
256,224,150384,1,0,0:0:0:0:
224,192,150450,1,0,0:0:0:0:
224,192,150516,1,0,0:0:0:0:
224,192,150582,1,0,0:0:0:0:
160,256,150648,1,2,0:0:0:0:
160,224,150780,1,4,0:0:0:0:
160,256,151044,1,0,0:0:0:0:
160,256,151177,1,2,0:0:0:0:
448,320,151243,1,2,0:0:0:0:
448,320,151309,1,0,0:0:0:0:
448,320,151375,1,0,0:0:0:0:
448,320,151441,1,2,0:0:0:0:
448,320,151507,1,0,0:0:0:0:
448,320,151573,1,0,0:0:0:0:
448,320,151639,1,0,0:0:0:0:
448,320,151705,1,2,0:0:0:0:
448,320,151837,1,0,0:0:0:0:
448,320,151969,1,2,0:0:0:0:
352,256,152102,1,0,0:0:0:0:
352,256,152168,1,0,0:0:0:0:
288,192,152234,1,2,0:0:0:0:
384,352,152366,1,0,0:0:0:0:
288,192,152498,1,2,0:0:0:0:
384,288,152564,1,2,0:0:0:0:
352,256,152630,1,0,0:0:0:0:
288,192,152762,1,2,0:0:0:0:
224,256,152895,1,2,0:0:0:0:
192,256,152961,1,0,0:0:0:0:
288,192,153027,1,0,0:0:0:0:
224,224,153159,1,0,0:0:0:0:
288,192,153291,1,2,0:0:0:0:
224,224,153423,1,0,0:0:0:0:
224,224,153555,1,0,0:0:0:0:
288,224,153621,1,2,0:0:0:0:
224,224,153688,1,0,0:0:0:0:
224,224,153754,1,0,0:0:0:0:
288,224,153820,1,2,0:0:0:0:
192,192,153952,1,0,0:0:0:0:
192,192,154084,1,2,0:0:0:0:
320,160,154150,1,0,0:0:0:0:
320,160,154216,1,0,0:0:0:0:
320,160,154282,1,0,0:0:0:0:
192,192,154348,1,2,0:0:0:0:
64,192,154480,1,0,0:0:0:0:
192,192,154613,1,2,0:0:0:0:
320,288,154679,1,0,0:0:0:0:
320,288,154745,1,0,0:0:0:0:
192,192,154877,1,2,0:0:0:0:
224,224,155009,1,2,0:0:0:0:
224,224,155075,1,2,0:0:0:0:
160,192,155141,1,0,0:0:0:0:
224,192,155273,1,0,0:0:0:0:
160,224,155406,1,2,0:0:0:0:
352,192,155538,1,0,0:0:0:0:
160,224,155670,1,2,0:0:0:0:
320,192,155736,1,2,0:0:0:0:
320,192,155802,1,0,0:0:0:0:
352,192,155868,1,0,0:0:0:0:
160,192,155934,1,2,0:0:0:0:
320,224,156066,1,0,0:0:0:0:
288,224,156199,1,4,0:0:0:0:
288,160,156331,1,0,0:0:0:0:
288,160,156397,1,0,0:0:0:0:
320,224,156463,1,2,0:0:0:0:
256,160,156595,1,0,0:0:0:0:
320,224,156727,1,2,0:0:0:0:
288,256,156859,1,0,0:0:0:0:
320,224,156991,1,2,0:0:0:0:
416,320,157058,1,0,0:0:0:0:
416,320,157124,1,0,0:0:0:0:
416,288,157190,1,0,0:0:0:0:
320,224,157256,1,2,0:0:0:0:
256,192,157388,1,0,0:0:0:0:
320,224,157520,1,2,0:0:0:0:
320,288,157652,1,0,0:0:0:0:
320,192,157718,1,0,0:0:0:0:
320,224,157784,1,2,0:0:0:0:
288,192,157917,1,0,0:0:0:0:
320,224,158049,1,2,0:0:0:0:
320,288,158181,1,0,0:0:0:0:
320,256,158313,1,6,0:0:0:0:
256,224,158445,1,0,0:0:0:0:
224,224,158511,1,0,0:0:0:0:
224,224,158577,1,2,0:0:0:0:
224,224,158710,1,0,0:0:0:0:
224,224,158842,1,2,0:0:0:0:
224,192,158908,1,0,0:0:0:0:
224,192,158974,1,0,0:0:0:0:
192,192,159040,1,0,0:0:0:0:
224,224,159106,1,2,0:0:0:0:
256,256,159238,1,0,0:0:0:0:
224,192,159370,1,2,0:0:0:0:
224,192,159436,1,2,0:0:0:0:
224,192,159503,1,0,0:0:0:0:
224,192,159569,1,0,0:0:0:0:
224,192,159635,1,2,0:0:0:0:
224,192,159701,1,0,0:0:0:0:
224,192,159767,1,0,0:0:0:0:
224,192,159833,1,0,0:0:0:0:
224,192,159899,1,2,0:0:0:0:
224,192,159965,1,2,0:0:0:0:
224,192,160031,1,0,0:0:0:0:
224,192,160097,1,0,0:0:0:0:
224,192,160163,1,2,0:0:0:0:
224,192,160229,1,0,0:0:0:0:
224,192,160295,1,2,0:0:0:0:
224,192,160362,1,0,0:0:0:0:
224,224,160428,1,2,0:0:0:0:
256,224,160560,1,0,0:0:0:0:
256,224,160626,1,0,0:0:0:0:
352,256,160692,1,2,0:0:0:0:
352,256,160824,1,2,0:0:0:0:
256,224,160890,1,2,0:0:0:0:
224,192,160956,1,0,0:0:0:0:
352,256,161088,1,0,0:0:0:0:
224,192,161155,1,0,0:0:0:0:
352,256,161221,1,2,0:0:0:0:
224,192,161353,1,2,0:0:0:0:
352,256,161485,1,0,0:0:0:0:
224,192,161617,1,0,0:0:0:0:
224,192,161683,1,0,0:0:0:0:
352,256,161749,1,2,0:0:0:0:
224,192,161881,1,2,0:0:0:0:
224,192,161947,1,0,0:0:0:0:
224,192,162014,1,0,0:0:0:0:
224,192,162146,1,2,0:0:0:0:
224,192,162212,1,0,0:0:0:0:
352,192,162278,1,2,0:0:0:0:
352,256,162410,1,2,0:0:0:0:
352,192,162542,1,0,0:0:0:0:
352,160,162674,1,2,0:0:0:0:
256,160,162740,1,0,0:0:0:0:
352,160,162807,1,2,0:0:0:0:
320,160,162939,1,2,0:0:0:0:
192,192,163005,1,2,0:0:0:0:
192,192,163071,1,0,0:0:0:0:
320,160,163203,1,0,0:0:0:0:
192,192,163269,1,0,0:0:0:0:
320,160,163335,1,2,0:0:0:0:
192,192,163467,1,2,0:0:0:0:
96,224,163599,1,0,0:0:0:0:
160,224,163732,1,2,0:0:0:0:
288,256,163798,1,2,0:0:0:0:
288,256,163864,1,0,0:0:0:0:
160,224,163996,1,2,0:0:0:0:
128,192,164062,1,0,0:0:0:0:
96,192,164128,1,0,0:0:0:0:
96,192,164194,1,0,0:0:0:0:
160,192,164260,1,2,0:0:0:0:
96,192,164326,1,0,0:0:0:0:
160,192,164392,1,2,0:0:0:0:
160,192,164525,1,2,0:0:0:0:
224,224,164657,1,0,0:0:0:0:
256,224,164789,1,0,0:0:0:0:
256,224,164855,1,0,0:0:0:0:
352,256,164921,1,2,0:0:0:0:
352,256,165053,1,2,0:0:0:0:
256,224,165119,1,2,0:0:0:0:
224,192,165185,1,0,0:0:0:0:
352,256,165317,1,0,0:0:0:0:
224,192,165384,1,0,0:0:0:0:
352,256,165450,1,2,0:0:0:0:
224,192,165582,1,2,0:0:0:0:
352,256,165714,1,0,0:0:0:0:
224,192,165846,1,0,0:0:0:0:
224,192,165912,1,0,0:0:0:0:
352,256,165978,1,2,0:0:0:0:
224,192,166110,1,2,0:0:0:0:
224,192,166176,1,0,0:0:0:0:
224,192,166243,1,0,0:0:0:0:
224,192,166375,1,2,0:0:0:0:
224,192,166441,1,0,0:0:0:0:
352,192,166507,1,2,0:0:0:0:
352,256,166639,1,2,0:0:0:0:
352,192,166771,1,0,0:0:0:0:
352,160,166903,1,2,0:0:0:0:
256,160,166969,1,0,0:0:0:0:
352,160,167036,1,2,0:0:0:0:
320,160,167168,1,2,0:0:0:0:
192,192,167234,1,2,0:0:0:0:
192,192,167300,1,0,0:0:0:0:
320,160,167432,1,0,0:0:0:0:
192,192,167498,1,0,0:0:0:0:
320,160,167564,1,2,0:0:0:0:
192,192,167696,1,2,0:0:0:0:
96,224,167828,1,0,0:0:0:0:
160,224,167961,1,2,0:0:0:0:
288,256,168027,1,2,0:0:0:0:
288,256,168093,1,0,0:0:0:0:
160,224,168225,1,2,0:0:0:0:
128,192,168291,1,0,0:0:0:0:
96,192,168357,1,0,0:0:0:0:
96,192,168423,1,0,0:0:0:0:
160,192,168489,1,2,0:0:0:0:
96,192,168555,1,0,0:0:0:0:
160,192,168621,1,2,0:0:0:0:
160,192,168754,1,2,0:0:0:0:
256,128,168886,1,0,0:0:0:0:
256,128,169018,1,2,0:0:0:0:
288,224,169084,1,0,0:0:0:0:
256,128,169150,1,2,0:0:0:0:
256,128,169282,1,0,0:0:0:0:
256,128,169414,1,2,0:0:0:0:
384,192,169481,1,0,0:0:0:0:
224,128,169547,1,2,0:0:0:0:
224,128,169679,1,2,0:0:0:0:
160,192,169811,1,4,0:0:0:0:
224,192,170075,1,0,0:0:0:0:
224,192,170207,1,2,0:0:0:0:
224,192,170340,1,0,0:0:0:0:
224,192,170472,1,2,0:0:0:0:
192,224,170538,1,2,0:0:0:0:
224,192,170604,1,0,0:0:0:0:
192,224,170670,1,0,0:0:0:0:
224,192,170736,1,2,0:0:0:0:
288,224,170868,1,0,0:0:0:0:
224,192,171000,1,6,0:0:0:0:
256,192,171133,1,0,0:0:0:0:
256,192,171199,1,0,0:0:0:0:
256,192,171265,1,2,0:0:0:0:
288,224,171397,1,0,0:0:0:0:
256,192,171529,1,2,0:0:0:0:
256,192,171661,1,2,0:0:0:0:
224,224,171727,1,0,0:0:0:0:
256,192,171793,1,2,0:0:0:0:
256,192,171925,1,4,0:0:0:0:
384,256,172190,1,0,0:0:0:0:
384,256,172322,1,2,0:0:0:0:
256,224,172454,1,0,0:0:0:0:
256,224,172520,1,0,0:0:0:0:
384,256,172586,1,2,0:0:0:0:
384,256,172718,1,0,0:0:0:0:
384,256,172851,1,2,0:0:0:0:
256,224,172983,1,0,0:0:0:0:
288,224,173115,1,6,0:0:0:0:
256,224,173247,1,0,0:0:0:0:
256,224,173313,1,0,0:0:0:0:
224,192,173379,1,2,0:0:0:0:
256,192,173511,1,0,0:0:0:0:
224,192,173644,1,2,0:0:0:0:
320,224,173710,1,0,0:0:0:0:
224,192,173776,1,0,0:0:0:0:
320,224,173842,1,0,0:0:0:0:
224,192,173908,1,2,0:0:0:0:
256,192,174040,1,4,0:0:0:0:
128,160,174304,1,0,0:0:0:0:
128,160,174436,1,2,0:0:0:0:
320,288,174569,1,0,0:0:0:0:
256,224,174635,1,0,0:0:0:0:
128,160,174701,1,2,0:0:0:0:
128,160,174833,1,0,0:0:0:0:
128,160,174965,1,2,0:0:0:0:
256,224,175097,1,0,0:0:0:0:
0,128,175229,1,6,0:0:0:0:
320,224,175362,1,0,0:0:0:0:
288,224,175428,1,0,0:0:0:0:
384,192,175494,1,2,0:0:0:0:
320,192,175560,1,0,0:0:0:0:
288,224,175626,1,2,0:0:0:0:
384,192,175758,1,0,0:0:0:0:
224,224,175890,1,2,0:0:0:0:
160,192,175956,1,0,0:0:0:0:
384,192,176022,1,2,0:0:0:0:
288,224,176155,1,2,0:0:0:0:
256,224,176287,1,2,0:0:0:0:
320,224,176353,1,0,0:0:0:0:
320,256,176419,1,0,0:0:0:0:
320,224,176485,1,0,0:0:0:0:
256,224,176551,1,2,0:0:0:0:
160,224,176683,1,0,0:0:0:0:
256,224,176815,1,2,0:0:0:0:
256,192,176947,1,0,0:0:0:0:
256,224,177014,1,0,0:0:0:0:
224,192,177080,1,2,0:0:0:0:
256,224,177212,1,0,0:0:0:0:
256,192,177344,1,4,0:0:0:0:
192,160,177608,1,2,0:0:0:0:
192,160,177740,1,2,0:0:0:0:
192,160,177873,1,0,0:0:0:0:
192,160,178137,1,6,0:0:0:0:
320,256,178401,1,0,0:0:0:0:
96,160,178930,1,0,0:0:0:0:
96,160,179459,1,2,0:0:0:0:
192,96,181044,1,2,0:0:0:0:
192,96,181573,1,0,0:0:0:0:
256,224,183159,1,0,0:0:0:0:
256,192,183688,1,2,0:0:0:0:
384,224,184745,1,2,0:0:0:0:
384,224,185141,1,2,0:0:0:0:
384,224,185538,1,0,0:0:0:0:
288,192,186066,1,0,0:0:0:0:
288,192,186331,1,0,0:0:0:0:
288,192,186595,1,0,0:0:0:0:
320,224,186727,1,2,0:0:0:0:
320,224,186992,1,2,0:0:0:0:
320,224,187124,1,0,0:0:0:0:
320,224,187256,1,0,0:0:0:0:
288,192,187388,1,2,0:0:0:0:
288,192,187520,1,2,0:0:0:0:
288,192,187652,1,0,0:0:0:0:
288,192,187784,1,0,0:0:0:0:
224,160,187917,1,6,0:0:0:0:
256,128,188181,1,0,0:0:0:0:
256,128,188313,1,2,0:0:0:0:
352,256,188445,1,0,0:0:0:0:
352,256,188710,1,2,0:0:0:0:
192,224,188974,1,0,0:0:0:0:
192,224,189106,1,2,0:0:0:0:
192,224,189238,1,0,0:0:0:0:
192,224,189503,1,2,0:0:0:0:
256,192,189767,1,0,0:0:0:0:
192,160,190031,1,2,0:0:0:0:
192,160,190296,1,0,0:0:0:0:
192,128,190428,1,2,0:0:0:0:
192,128,190560,1,0,0:0:0:0:
192,128,190692,1,2,0:0:0:0:
192,128,190824,1,2,0:0:0:0:
192,128,191088,1,0,0:0:0:0:
288,224,191221,1,2,0:0:0:0:
192,128,191353,1,0,0:0:0:0:
192,128,191617,1,2,0:0:0:0:
160,160,191881,1,0,0:0:0:0:
160,160,192146,1,2,0:0:0:0:
160,160,192410,1,0,0:0:0:0:
160,160,192542,1,2,0:0:0:0:
160,160,192674,1,0,0:0:0:0:
160,128,192807,1,0,0:0:0:0:
160,128,192939,1,2,0:0:0:0:
256,224,193203,1,0,0:0:0:0:
256,192,193335,1,2,0:0:0:0:
256,192,193467,1,0,0:0:0:0:
224,160,193732,1,0,0:0:0:0:
224,160,193996,1,2,0:0:0:0:
224,160,194260,1,2,0:0:0:0:
192,192,194525,1,0,0:0:0:0:
192,192,194657,1,2,0:0:0:0:
192,192,194789,1,0,0:0:0:0:
192,192,195053,1,0,0:0:0:0:
192,192,195318,1,2,0:0:0:0:
192,192,195582,1,0,0:0:0:0:
192,160,195846,1,2,0:0:0:0:
160,192,196903,1,0,0:0:0:0:
160,192,196992,1,0,0:0:0:0:
160,192,197080,1,0,0:0:0:0:
160,192,197168,1,0,0:0:0:0:
160,192,197256,1,0,0:0:0:0:
160,192,197344,1,0,0:0:0:0:
352,224,197432,1,2,0:0:0:0:
256,256,197564,1,0,0:0:0:0:
256,224,197631,1,0,0:0:0:0:
160,128,197697,1,2,0:0:0:0:
320,224,197829,1,0,0:0:0:0:
192,96,197961,1,2,0:0:0:0:
256,192,198027,1,2,0:0:0:0:
256,192,198093,1,0,0:0:0:0:
256,192,198159,1,0,0:0:0:0:
192,96,198225,1,2,0:0:0:0:
128,192,198357,1,2,0:0:0:0:
128,192,198424,1,2,0:0:0:0:
192,96,198490,1,0,0:0:0:0:
160,224,198622,1,0,0:0:0:0:
160,192,198688,1,0,0:0:0:0:
192,96,198754,1,2,0:0:0:0:
128,192,198886,1,0,0:0:0:0:
192,96,199018,1,2,0:0:0:0:
96,192,199084,1,0,0:0:0:0:
96,192,199150,1,0,0:0:0:0:
96,192,199216,1,0,0:0:0:0:
192,96,199283,1,2,0:0:0:0:
96,192,199415,1,0,0:0:0:0:
96,192,199547,1,2,0:0:0:0:
160,192,199613,1,2,0:0:0:0:
160,192,199679,1,0,0:0:0:0:
128,192,199745,1,0,0:0:0:0:
224,192,199811,1,2,0:0:0:0:
192,192,199943,1,0,0:0:0:0:
224,160,200075,1,2,0:0:0:0:
192,192,200142,1,2,0:0:0:0:
160,192,200208,1,0,0:0:0:0:
224,160,200340,1,2,0:0:0:0:
128,160,200472,1,2,0:0:0:0:
160,224,200538,1,0,0:0:0:0:
224,160,200604,1,0,0:0:0:0:
224,192,200736,1,0,0:0:0:0:
224,160,200868,1,2,0:0:0:0:
256,192,201001,1,2,0:0:0:0:
96,128,201067,1,0,0:0:0:0:
224,160,201133,1,2,0:0:0:0:
256,192,201265,1,0,0:0:0:0:
224,160,201397,1,2,0:0:0:0:
256,160,201529,1,0,0:0:0:0:
192,224,201661,1,2,0:0:0:0:
256,224,201727,1,2,0:0:0:0:
256,224,201794,1,0,0:0:0:0:
256,224,201860,1,0,0:0:0:0:
192,224,201926,1,2,0:0:0:0:
256,224,202058,1,0,0:0:0:0:
192,224,202190,1,2,0:0:0:0:
288,256,202256,1,0,0:0:0:0:
288,256,202322,1,0,0:0:0:0:
288,256,202388,1,0,0:0:0:0:
192,224,202454,1,2,0:0:0:0:
192,224,202587,1,0,0:0:0:0:
192,224,202719,1,2,0:0:0:0:
224,256,202785,1,2,0:0:0:0:
224,256,202851,1,0,0:0:0:0:
192,224,202983,1,2,0:0:0:0:
224,256,203115,1,2,0:0:0:0:
224,256,203181,1,0,0:0:0:0:
192,224,203247,1,0,0:0:0:0:
192,224,203379,1,0,0:0:0:0:
256,224,203446,1,0,0:0:0:0:
192,224,203512,1,2,0:0:0:0:
160,192,203644,1,0,0:0:0:0:
224,256,203776,1,2,0:0:0:0:
320,256,203908,1,0,0:0:0:0:
160,256,204040,1,2,0:0:0:0:
256,224,204106,1,2,0:0:0:0:
256,224,204172,1,2,0:0:0:0:
224,192,204238,1,2,0:0:0:0:
256,224,204305,1,0,0:0:0:0:
224,192,204371,1,0,0:0:0:0:
224,192,204437,1,0,0:0:0:0:
224,192,204503,1,0,0:0:0:0:
160,256,204569,1,2,0:0:0:0:
160,224,204701,1,4,0:0:0:0:
160,256,204965,1,0,0:0:0:0:
160,256,205098,1,2,0:0:0:0:
448,320,205164,1,2,0:0:0:0:
448,320,205230,1,0,0:0:0:0:
448,320,205296,1,0,0:0:0:0:
448,320,205362,1,2,0:0:0:0:
448,320,205428,1,0,0:0:0:0:
448,320,205494,1,0,0:0:0:0:
448,320,205560,1,0,0:0:0:0:
448,320,205626,1,2,0:0:0:0:
448,320,205758,1,0,0:0:0:0:
448,320,205890,1,2,0:0:0:0:
352,256,206023,1,0,0:0:0:0:
352,256,206089,1,0,0:0:0:0:
288,192,206155,1,2,0:0:0:0:
384,352,206287,1,0,0:0:0:0:
288,192,206419,1,2,0:0:0:0:
384,288,206485,1,2,0:0:0:0:
352,256,206551,1,0,0:0:0:0:
288,192,206683,1,2,0:0:0:0:
224,256,206816,1,2,0:0:0:0:
192,256,206882,1,0,0:0:0:0:
288,192,206948,1,0,0:0:0:0:
224,224,207080,1,0,0:0:0:0:
288,192,207212,1,2,0:0:0:0:
224,224,207344,1,0,0:0:0:0:
224,224,207476,1,0,0:0:0:0:
288,224,207542,1,2,0:0:0:0:
224,224,207609,1,0,0:0:0:0:
224,224,207675,1,0,0:0:0:0:
288,224,207741,1,2,0:0:0:0:
192,192,207873,1,0,0:0:0:0:
192,192,208005,1,2,0:0:0:0:
320,160,208071,1,0,0:0:0:0:
320,160,208137,1,0,0:0:0:0:
320,160,208203,1,0,0:0:0:0:
192,192,208269,1,2,0:0:0:0:
64,192,208401,1,0,0:0:0:0:
192,192,208534,1,2,0:0:0:0:
320,288,208600,1,0,0:0:0:0:
320,288,208666,1,0,0:0:0:0:
192,192,208798,1,2,0:0:0:0:
224,224,208930,1,2,0:0:0:0:
224,224,208996,1,2,0:0:0:0:
160,192,209062,1,0,0:0:0:0:
224,192,209194,1,0,0:0:0:0:
160,224,209327,1,2,0:0:0:0:
352,192,209459,1,0,0:0:0:0:
160,224,209591,1,2,0:0:0:0:
320,192,209657,1,2,0:0:0:0:
320,192,209723,1,0,0:0:0:0:
352,192,209789,1,0,0:0:0:0:
160,192,209855,1,2,0:0:0:0:
320,224,209987,1,0,0:0:0:0:
288,224,210120,1,4,0:0:0:0:
288,160,210252,1,0,0:0:0:0:
288,160,210318,1,0,0:0:0:0:
320,224,210384,1,2,0:0:0:0:
256,160,210516,1,0,0:0:0:0:
320,224,210648,1,2,0:0:0:0:
288,256,210780,1,0,0:0:0:0:
320,224,210912,1,2,0:0:0:0:
416,320,210979,1,0,0:0:0:0:
416,320,211045,1,0,0:0:0:0:
416,288,211111,1,0,0:0:0:0:
320,224,211177,1,2,0:0:0:0:
256,192,211309,1,0,0:0:0:0:
320,224,211441,1,2,0:0:0:0:
320,288,211573,1,0,0:0:0:0:
320,192,211639,1,0,0:0:0:0:
320,224,211705,1,2,0:0:0:0:
288,192,211838,1,0,0:0:0:0:
320,224,211970,1,2,0:0:0:0:
320,288,212102,1,0,0:0:0:0:
320,256,212234,1,6,0:0:0:0:
256,224,212366,1,0,0:0:0:0:
224,224,212432,1,0,0:0:0:0:
224,224,212498,1,2,0:0:0:0:
224,224,212631,1,0,0:0:0:0:
224,224,212763,1,2,0:0:0:0:
224,192,212829,1,0,0:0:0:0:
224,192,212895,1,0,0:0:0:0:
192,192,212961,1,0,0:0:0:0:
224,224,213027,1,2,0:0:0:0:
256,256,213159,1,0,0:0:0:0:
224,192,213291,1,2,0:0:0:0:
224,192,213357,1,2,0:0:0:0:
224,192,213424,1,0,0:0:0:0:
224,192,213490,1,0,0:0:0:0:
224,192,213556,1,2,0:0:0:0:
224,192,213622,1,0,0:0:0:0:
224,192,213688,1,0,0:0:0:0:
224,192,213754,1,0,0:0:0:0:
224,192,213820,1,2,0:0:0:0:
224,192,213886,1,2,0:0:0:0:
224,192,213952,1,0,0:0:0:0:
224,192,214018,1,0,0:0:0:0:
224,192,214084,1,2,0:0:0:0:
224,192,214150,1,0,0:0:0:0:
224,192,214216,1,2,0:0:0:0:
224,192,214283,1,0,0:0:0:0:
224,224,214348,1,2,0:0:0:0:
288,224,214480,1,0,0:0:0:0:
224,192,214612,1,2,0:0:0:0:
384,256,214744,1,2,0:0:0:0:
384,256,214810,1,2,0:0:0:0:
224,192,214876,1,0,0:0:0:0:
352,288,215008,1,0,0:0:0:0:
224,192,215141,1,2,0:0:0:0:
224,192,215273,1,0,0:0:0:0:
64,160,215339,1,0,0:0:0:0:
224,192,215405,1,2,0:0:0:0:
352,288,215537,1,0,0:0:0:0:
224,192,215669,1,2,0:0:0:0:
256,224,215801,1,2,0:0:0:0:
256,192,215867,1,2,0:0:0:0:
224,192,215933,1,0,0:0:0:0:
192,192,216066,1,0,0:0:0:0:
224,192,216198,1,2,0:0:0:0:
224,192,216330,1,0,0:0:0:0:
256,224,216396,1,0,0:0:0:0:
96,192,216462,1,2,0:0:0:0:
192,192,216528,1,2,0:0:0:0:
224,224,216594,1,0,0:0:0:0:
96,192,216726,1,2,0:0:0:0:
224,224,216859,1,2,0:0:0:0:
128,96,216925,1,2,0:0:0:0:
96,192,216991,1,0,0:0:0:0:
160,128,217123,1,0,0:0:0:0:
96,192,217255,1,2,0:0:0:0:
192,160,217387,1,0,0:0:0:0:
160,96,217453,1,0,0:0:0:0:
96,192,217519,1,2,0:0:0:0:
64,160,217652,1,0,0:0:0:0:
64,192,217784,1,2,0:0:0:0:
288,192,217916,1,2,0:0:0:0:
288,192,217982,1,2,0:0:0:0:
64,192,218048,1,0,0:0:0:0:
160,224,218180,1,0,0:0:0:0:
192,224,218246,1,0,0:0:0:0:
64,192,218312,1,2,0:0:0:0:
160,224,218444,1,0,0:0:0:0:
160,192,218577,1,2,0:0:0:0:
96,192,218709,1,0,0:0:0:0:
128,160,218775,1,0,0:0:0:0:
320,128,218841,1,2,0:0:0:0:
96,192,218973,1,2,0:0:0:0:
320,128,219039,1,2,0:0:0:0:
224,160,219105,1,0,0:0:0:0:
256,160,219237,1,0,0:0:0:0:
320,128,219370,1,2,0:0:0:0:
192,128,219502,1,0,0:0:0:0:
256,96,219568,1,0,0:0:0:0:
192,128,219634,1,2,0:0:0:0:
256,192,219766,1,0,0:0:0:0:
256,96,219898,1,2,0:0:0:0:
160,192,220030,1,2,0:0:0:0:
160,192,220096,1,2,0:0:0:0:
256,96,220163,1,0,0:0:0:0:
192,192,220295,1,0,0:0:0:0:
256,96,220427,1,2,0:0:0:0:
192,192,220559,1,0,0:0:0:0:
96,224,220625,1,0,0:0:0:0:
128,192,220691,1,2,0:0:0:0:
192,256,220757,1,2,0:0:0:0:
192,256,220823,1,0,0:0:0:0:
128,192,220956,1,2,0:0:0:0:
128,160,221088,1,0,0:0:0:0:
128,192,221220,1,2,0:0:0:0:
96,160,221352,1,0,0:0:0:0:
96,160,221418,1,0,0:0:0:0:
128,192,221484,1,2,0:0:0:0:
128,192,221616,1,2,0:0:0:0:
224,256,221749,1,0,0:0:0:0:
128,192,221881,1,0,0:0:0:0:
288,256,221947,1,0,0:0:0:0:
128,192,222013,1,2,0:0:0:0:
96,192,222145,1,0,0:0:0:0:
96,192,222277,1,2,0:0:0:0:
96,192,222343,1,2,0:0:0:0:
96,192,222409,1,0,0:0:0:0:
96,192,222475,1,0,0:0:0:0:
96,192,222541,1,2,0:0:0:0:
96,192,222607,1,2,0:0:0:0:
96,192,222674,1,0,0:0:0:0:
96,192,222740,1,0,0:0:0:0:
320,224,222806,1,2,0:0:0:0:
224,224,222939,1,0,0:0:0:0:
256,224,223005,1,0,0:0:0:0:
352,192,223071,1,2,0:0:0:0:
352,256,223203,1,0,0:0:0:0:
352,192,223335,1,2,0:0:0:0:
416,224,223401,1,0,0:0:0:0:
256,192,223467,1,0,0:0:0:0:
256,192,223533,1,0,0:0:0:0:
352,192,223599,1,2,0:0:0:0:
224,224,223732,1,0,0:0:0:0:
352,192,223864,1,2,0:0:0:0:
256,192,223996,1,0,0:0:0:0:
256,192,224062,1,0,0:0:0:0:
352,192,224128,1,2,0:0:0:0:
416,256,224260,1,0,0:0:0:0:
352,192,224392,1,2,0:0:0:0:
288,160,224459,1,0,0:0:0:0:
288,160,224525,1,0,0:0:0:0:
288,160,224591,1,0,0:0:0:0:
352,192,224657,1,2,0:0:0:0:
288,160,224723,1,2,0:0:0:0:
288,160,224789,1,0,0:0:0:0:
288,160,224855,1,0,0:0:0:0:
288,160,224921,1,2,0:0:0:0:
352,224,225053,1,0,0:0:0:0:
320,224,225119,1,0,0:0:0:0:
256,224,225185,1,2,0:0:0:0:
224,224,225318,1,0,0:0:0:0:
256,224,225450,1,2,0:0:0:0:
288,224,225516,1,0,0:0:0:0:
288,224,225582,1,0,0:0:0:0:
288,224,225648,1,0,0:0:0:0:
288,224,225714,1,2,0:0:0:0:
288,224,225780,1,0,0:0:0:0:
288,224,225846,1,2,0:0:0:0:
256,192,225978,1,0,0:0:0:0:
224,224,226110,1,2,0:0:0:0:
224,192,226177,1,2,0:0:0:0:
256,192,226243,1,0,0:0:0:0:
320,224,226375,1,0,0:0:0:0:
256,192,226507,1,2,0:0:0:0:
384,224,226573,1,0,0:0:0:0:
384,224,226639,1,0,0:0:0:0:
352,224,226705,1,0,0:0:0:0:
256,192,226771,1,2,0:0:0:0:
256,224,226903,1,0,0:0:0:0:
256,224,227036,1,2,0:0:0:0:
288,256,227102,1,2,0:0:0:0:
256,256,227168,1,0,0:0:0:0:
288,256,227234,1,0,0:0:0:0:
288,256,227300,1,2,0:0:0:0:
256,256,227366,1,0,0:0:0:0:
256,256,227432,1,0,0:0:0:0:
256,256,227498,1,0,0:0:0:0:
256,256,227564,1,2,0:0:0:0:
256,256,227630,1,2,0:0:0:0:
256,256,227696,1,0,0:0:0:0:
256,256,227762,1,0,0:0:0:0:
256,256,227829,1,2,0:0:0:0:
256,256,227895,1,0,0:0:0:0:
256,256,227961,1,2,0:0:0:0:
256,256,228027,1,0,0:0:0:0:
256,256,228093,1,2,0:0:0:0:
256,256,228159,1,2,0:0:0:0:
256,256,228225,1,0,0:0:0:0:
256,256,228291,1,0,0:0:0:0:
256,256,228357,1,2,0:0:0:0:
256,256,228423,1,0,0:0:0:0:
256,256,228489,1,0,0:0:0:0:
256,256,228555,1,0,0:0:0:0:
256,256,228622,1,2,0:0:0:0:
256,256,228688,1,2,0:0:0:0:
256,256,228754,1,0,0:0:0:0:
256,256,228820,1,0,0:0:0:0:
256,256,228886,1,2,0:0:0:0:
256,256,228952,1,0,0:0:0:0:
256,256,229018,1,2,0:0:0:0:
256,256,229150,1,6,0:0:0:0:
288,160,229414,1,4,0:0:0:0:
256,160,229679,1,6,0:0:0:0:
256,160,229943,1,4,0:0:0:0:
256,160,230075,1,6,0:0:0:0:
320,192,230340,1,0,0:0:0:0:
320,192,230472,1,2,0:0:0:0:
320,224,230538,1,0,0:0:0:0:
320,192,230604,1,2,0:0:0:0:
320,192,230736,1,2,0:0:0:0:
320,192,230868,1,2,0:0:0:0:
192,160,230934,1,2,0:0:0:0:
320,192,231000,1,0,0:0:0:0:
320,192,231133,1,0,0:0:0:0:
320,192,231265,1,6,0:0:0:0:
