osu file format v14

[General]
AudioFilename: .mp3
AudioLeadIn: 0
PreviewTime: 83710
Countdown: 1
SampleSet: Normal
StackLeniency: 0.7
Mode: 1
LetterboxInBreaks: 0
WidescreenStoryboard: 1

[Editor]
DistanceSpacing: 1
BeatDivisor: 4
GridSize: 32
TimelineZoom: 2.4

[Metadata]
Title:Sendan Life
TitleUnicode:センダンライフ
Artist:Remo Prototype[CV: Hanamori Yumiri]
ArtistUnicode:リモ Prototype[CV:花守ゆみり]
Creator:Y O U T A
Version:Oni
Source:ガラスの花と壊す世界
Tags:vocaloid Chukka やしきん yashikin Glass no Hana to Kowasu Sekai GARAKOWA Restore the World Vitreous Flower Destroy the World D.backup
BeatmapID:861026
BeatmapSetID:395660

[Difficulty]
HPDrainRate:6
CircleSize:5
OverallDifficulty:5
ApproachRate:5
SliderMultiplier:1.4
SliderTickRate:1

[Events]
//Background and Video events
0,0,"BG169.jpg",0,0
//Break Periods
//Storyboard Layer 0 (Background)
//Storyboard Layer 1 (Fail)
//Storyboard Layer 2 (Pass)
//Storyboard Layer 3 (Foreground)
//Storyboard Sound Samples

[TimingPoints]
37785,264.31718061674,4,1,0,100,1,0
67653,-111.111111111111,4,1,0,100,0,0
75714,-100,4,1,0,100,0,0
84305,-100,4,1,0,100,0,1
101221,-100,4,1,0,100,0,0
114172,-111.111111111111,4,1,0,100,0,0
116948,-100,4,1,0,100,0,0
143512,-100,4,1,0,100,0,1
160428,-100,4,1,0,100,0,0
178402,-111.111111111111,4,1,0,100,0,0
178930,-117.647058823529,4,1,0,100,0,0
179459,-125,4,1,0,100,0,0
186595,-111.111111111111,4,1,0,100,0,0
196904,-100,4,1,0,100,0,0
197432,-100,4,1,0,100,0,1
214349,-100,4,1,0,100,0,0

[HitObjects]
256,160,37785,5,4,0:0:0:0:
256,160,38049,1,4,0:0:0:0:
256,160,38313,1,4,0:0:0:0:
256,160,38446,1,4,0:0:0:0:
256,160,38710,1,4,0:0:0:0:
256,160,38974,1,4,0:0:0:0:
256,160,39239,1,4,0:0:0:0:
256,160,39503,1,4,0:0:0:0:
256,160,39635,1,8,0:0:0:0:
256,160,39899,1,4,0:0:0:0:
256,160,40164,1,4,0:0:0:0:
256,160,40428,1,4,0:0:0:0:
256,160,40560,1,4,0:0:0:0:
256,160,40824,1,4,0:0:0:0:
256,160,41089,1,4,0:0:0:0:
256,160,41353,1,4,0:0:0:0:
224,160,41485,1,8,0:0:0:0:
224,160,41551,1,8,0:0:0:0:
224,160,41617,1,0,0:0:0:0:
224,160,41683,1,0,0:0:0:0:
224,160,41750,1,8,0:0:0:0:
192,192,41882,1,0,0:0:0:0:
224,160,42014,1,4,0:0:0:0:
224,160,42278,1,8,0:0:0:0:
224,160,42410,1,0,0:0:0:0:
224,160,42476,1,0,0:0:0:0:
224,160,42542,1,8,0:0:0:0:
224,160,42675,1,0,0:0:0:0:
224,160,42807,1,8,0:0:0:0:
288,160,42939,1,8,0:0:0:0:
224,160,43071,1,0,0:0:0:0:
256,160,43335,1,8,0:0:0:0:
256,160,43468,1,8,0:0:0:0:
256,160,43600,1,0,0:0:0:0:
256,160,43732,1,0,0:0:0:0:
256,160,43864,1,8,0:0:0:0:
256,160,43996,1,0,0:0:0:0:
256,160,44062,1,0,0:0:0:0:
256,160,44128,1,8,0:0:0:0:
256,160,44393,1,0,0:0:0:0:
256,160,44525,1,0,0:0:0:0:
256,160,44657,1,8,0:0:0:0:
256,160,44789,1,0,0:0:0:0:
256,160,44921,1,8,0:0:0:0:
256,160,45053,1,8,0:0:0:0:
320,160,45120,1,8,0:0:0:0:
256,160,45186,1,0,0:0:0:0:
320,160,45450,1,8,0:0:0:0:
320,160,45582,1,0,0:0:0:0:
320,160,45714,1,8,0:0:0:0:
320,160,45846,1,8,0:0:0:0:
320,160,45979,1,0,0:0:0:0:
320,160,46111,1,0,0:0:0:0:
320,160,46177,1,0,0:0:0:0:
320,160,46243,1,8,0:0:0:0:
320,160,46507,1,0,0:0:0:0:
320,160,46639,1,8,0:0:0:0:
320,160,46772,1,0,0:0:0:0:
320,160,46904,1,0,0:0:0:0:
320,160,46970,1,0,0:0:0:0:
320,160,47036,1,8,0:0:0:0:
320,160,47168,1,0,0:0:0:0:
288,128,47300,1,8,0:0:0:0:
320,192,47565,1,8,0:0:0:0:
320,192,47697,1,8,0:0:0:0:
320,192,47829,1,0,0:0:0:0:
320,192,47895,1,0,0:0:0:0:
320,192,47961,1,0,0:0:0:0:
320,192,48093,1,8,0:0:0:0:
320,192,48225,1,0,0:0:0:0:
320,192,48357,1,8,0:0:0:0:
384,192,48622,1,0,0:0:0:0:
384,192,48754,1,8,0:0:0:0:
320,160,48886,1,8,0:0:0:0:
320,160,48952,1,8,0:0:0:0:
320,160,49018,1,0,0:0:0:0:
320,160,49150,1,8,0:0:0:0:
320,160,49283,1,12,0:0:0:0:
320,192,49547,1,0,0:0:0:0:
320,192,49679,1,8,0:0:0:0:
320,192,49811,1,0,0:0:0:0:
384,224,49943,1,8,0:0:0:0:
384,224,50009,1,8,0:0:0:0:
384,224,50076,1,0,0:0:0:0:
256,160,50208,1,0,0:0:0:0:
256,160,50340,1,8,0:0:0:0:
256,160,50472,1,4,0:0:0:0:
320,192,50736,1,8,0:0:0:0:
320,192,51001,1,0,0:0:0:0:
320,192,51133,1,0,0:0:0:0:
320,192,51265,1,8,0:0:0:0:
320,192,51397,1,0,0:0:0:0:
320,192,51529,1,8,0:0:0:0:
320,192,51794,1,0,0:0:0:0:
320,192,51926,1,8,0:0:0:0:
256,128,52190,1,8,0:0:0:0:
256,128,52322,1,0,0:0:0:0:
256,128,52454,1,0,0:0:0:0:
256,128,52587,1,8,0:0:0:0:
256,128,52851,1,8,0:0:0:0:
256,128,52983,1,0,0:0:0:0:
256,128,53115,1,8,0:0:0:0:
224,128,53379,1,0,0:0:0:0:
224,128,53512,1,8,0:0:0:0:
224,128,53644,1,0,0:0:0:0:
224,128,53908,1,0,0:0:0:0:
224,128,54040,1,8,0:0:0:0:
224,128,54305,1,8,0:0:0:0:
224,128,54437,1,0,0:0:0:0:
224,128,54701,1,8,0:0:0:0:
224,128,54965,1,0,0:0:0:0:
224,128,55098,1,0,0:0:0:0:
224,128,55230,1,8,0:0:0:0:
320,128,55494,1,0,0:0:0:0:
320,128,55758,1,8,0:0:0:0:
256,96,56023,1,0,0:0:0:0:
256,96,56155,1,0,0:0:0:0:
256,96,56287,1,8,0:0:0:0:
224,96,56551,1,0,0:0:0:0:
224,96,56683,1,8,0:0:0:0:
224,96,56816,1,0,0:0:0:0:
224,96,57080,1,0,0:0:0:0:
224,96,57344,1,8,0:0:0:0:
224,96,57609,1,8,0:0:0:0:
256,128,57741,1,8,0:0:0:0:
256,128,57873,1,0,0:0:0:0:
256,128,58137,1,8,0:0:0:0:
256,128,58269,1,0,0:0:0:0:
256,128,58335,1,0,0:0:0:0:
256,128,58402,1,0,0:0:0:0:
256,128,58534,1,0,0:0:0:0:
256,128,58666,1,8,0:0:0:0:
256,192,58930,1,4,0:0:0:0:
256,192,59194,1,8,0:0:0:0:
256,192,59459,1,0,0:0:0:0:
256,192,59591,1,0,0:0:0:0:
256,192,59723,1,8,0:0:0:0:
256,192,59987,1,0,0:0:0:0:
256,192,60252,1,8,0:0:0:0:
256,192,60384,1,0,0:0:0:0:
288,128,60648,1,0,0:0:0:0:
288,128,60780,1,8,0:0:0:0:
288,128,60913,1,0,0:0:0:0:
288,128,61177,1,0,0:0:0:0:
256,160,61309,1,8,0:0:0:0:
256,160,61573,1,8,0:0:0:0:
256,160,61705,1,8,0:0:0:0:
256,160,61838,1,0,0:0:0:0:
256,160,61970,1,8,0:0:0:0:
224,128,62102,1,0,0:0:0:0:
288,128,62366,1,8,0:0:0:0:
288,128,62498,1,0,0:0:0:0:
288,128,62763,1,0,0:0:0:0:
288,128,62895,1,8,0:0:0:0:
288,128,63027,1,8,0:0:0:0:
288,128,63159,1,0,0:0:0:0:
288,128,63424,1,8,0:0:0:0:
288,128,63688,1,0,0:0:0:0:
288,128,63820,1,0,0:0:0:0:
288,128,63952,1,8,0:0:0:0:
288,128,64216,1,0,0:0:0:0:
288,128,64481,1,8,0:0:0:0:
288,128,64745,1,8,0:0:0:0:
288,128,64877,1,0,0:0:0:0:
288,128,65009,1,8,0:0:0:0:
288,128,65142,1,8,0:0:0:0:
288,128,65274,1,0,0:0:0:0:
288,128,65538,1,8,0:0:0:0:
288,128,65802,1,0,0:0:0:0:
288,128,65935,1,0,0:0:0:0:
288,128,66067,1,8,0:0:0:0:
256,160,66199,1,8,0:0:0:0:
256,96,66463,1,0,0:0:0:0:
288,96,66595,1,8,0:0:0:0:
288,96,66860,1,0,0:0:0:0:
288,96,66926,1,0,0:0:0:0:
288,96,66992,1,0,0:0:0:0:
288,96,67124,1,8,0:0:0:0:
288,96,67256,1,0,0:0:0:0:
288,96,67388,1,4,0:0:0:0:
288,192,67653,1,0,0:0:0:0:
288,192,67785,1,8,0:0:0:0:
288,192,68181,1,8,0:0:0:0:
288,192,68446,1,8,0:0:0:0:
288,192,68578,1,0,0:0:0:0:
288,192,68842,1,0,0:0:0:0:
288,192,68974,1,8,0:0:0:0:
320,192,69239,1,0,0:0:0:0:
320,192,69503,1,0,0:0:0:0:
320,192,70031,1,8,0:0:0:0:
320,192,70296,1,8,0:0:0:0:
320,192,70560,1,0,0:0:0:0:
320,192,71089,1,0,0:0:0:0:
320,192,71353,1,0,0:0:0:0:
320,192,71485,1,0,0:0:0:0:
320,192,71617,1,0,0:0:0:0:
320,192,72146,1,8,0:0:0:0:
320,192,72410,1,8,0:0:0:0:
288,128,72675,1,0,0:0:0:0:
288,128,73203,1,0,0:0:0:0:
288,128,73468,1,8,0:0:0:0:
320,224,73600,1,8,0:0:0:0:
288,128,73732,1,0,0:0:0:0:
320,224,74128,1,0,0:0:0:0:
320,224,74261,1,8,0:0:0:0:
288,128,74525,1,0,0:0:0:0:
288,128,74789,1,8,0:0:0:0:
288,128,75053,1,0,0:0:0:0:
256,128,75186,1,0,0:0:0:0:
224,96,75318,1,8,0:0:0:0:
224,96,75582,1,0,0:0:0:0:
224,96,75714,1,4,0:0:0:0:
288,128,75979,1,0,0:0:0:0:
288,128,76111,1,8,0:0:0:0:
288,128,76243,1,0,0:0:0:0:
288,128,76375,1,0,0:0:0:0:
288,128,76507,1,0,0:0:0:0:
288,128,76639,1,8,0:0:0:0:
288,128,76904,1,0,0:0:0:0:
288,128,77036,1,0,0:0:0:0:
288,128,77102,1,0,0:0:0:0:
288,128,77168,1,8,0:0:0:0:
288,128,77300,1,0,0:0:0:0:
288,128,77565,1,8,0:0:0:0:
288,128,77829,1,4,0:0:0:0:
288,128,78093,1,0,0:0:0:0:
256,96,78225,1,8,0:0:0:0:
256,96,78490,1,8,0:0:0:0:
256,96,78622,1,0,0:0:0:0:
256,96,78688,1,0,0:0:0:0:
256,96,78754,1,0,0:0:0:0:
256,96,78886,1,0,0:0:0:0:
256,96,79018,1,12,0:0:0:0:
256,96,79283,1,8,0:0:0:0:
256,96,79415,1,0,0:0:0:0:
256,96,79679,1,8,0:0:0:0:
256,96,79943,1,4,0:0:0:0:
320,128,80208,1,0,0:0:0:0:
320,128,80340,1,8,0:0:0:0:
320,128,80472,1,0,0:0:0:0:
320,128,80604,1,0,0:0:0:0:
320,128,80736,1,0,0:0:0:0:
320,128,80868,1,8,0:0:0:0:
320,128,81133,1,8,0:0:0:0:
320,128,81265,1,0,0:0:0:0:
320,128,81397,1,8,0:0:0:0:
320,128,81463,1,8,0:0:0:0:
320,128,81529,1,0,0:0:0:0:
320,128,81794,1,8,0:0:0:0:
320,128,81926,1,8,0:0:0:0:
320,128,82058,1,8,0:0:0:0:
320,128,82190,1,4,0:0:0:0:
320,128,82454,1,4,0:0:0:0:
320,128,82719,1,4,0:0:0:0:
320,128,82983,1,4,0:0:0:0:
288,224,83115,1,12,0:0:0:0:
384,192,83379,1,0,0:0:0:0:
384,192,83446,1,0,0:0:0:0:
384,192,83512,1,8,0:0:0:0:
384,192,83776,1,0,0:0:0:0:
384,192,83908,1,0,0:0:0:0:
384,192,83974,1,0,0:0:0:0:
384,192,84040,1,8,0:0:0:0:
384,192,84172,1,0,0:0:0:0:
384,192,84305,1,4,0:0:0:0:
384,192,84569,1,8,0:0:0:0:
384,192,84701,1,0,0:0:0:0:
384,192,84833,1,0,0:0:0:0:
384,192,84965,1,0,0:0:0:0:
384,192,85098,1,8,0:0:0:0:
384,192,85230,1,0,0:0:0:0:
384,192,85296,1,0,0:0:0:0:
384,192,85362,1,0,0:0:0:0:
384,192,85494,1,0,0:0:0:0:
384,192,85626,1,8,0:0:0:0:
288,160,85758,1,0,0:0:0:0:
384,192,85890,1,8,0:0:0:0:
384,192,86023,1,0,0:0:0:0:
384,192,86089,1,0,0:0:0:0:
384,192,86155,1,8,0:0:0:0:
384,192,86287,1,0,0:0:0:0:
384,192,86419,1,8,0:0:0:0:
256,160,86683,1,8,0:0:0:0:
256,160,86816,1,0,0:0:0:0:
256,160,86948,1,0,0:0:0:0:
256,160,87080,1,0,0:0:0:0:
256,160,87212,1,8,0:0:0:0:
256,160,87344,1,8,0:0:0:0:
256,160,87410,1,8,0:0:0:0:
256,160,87476,1,0,0:0:0:0:
256,160,87609,1,0,0:0:0:0:
256,160,87741,1,8,0:0:0:0:
288,128,87873,1,0,0:0:0:0:
288,128,87939,1,0,0:0:0:0:
288,128,88005,1,8,0:0:0:0:
288,128,88137,1,8,0:0:0:0:
288,128,88269,1,0,0:0:0:0:
288,128,88402,1,8,0:0:0:0:
256,160,88534,1,0,0:0:0:0:
256,160,88798,1,8,0:0:0:0:
256,128,88930,1,8,0:0:0:0:
256,128,89062,1,0,0:0:0:0:
256,128,89327,1,8,0:0:0:0:
256,128,89591,1,8,0:0:0:0:
256,128,89723,1,0,0:0:0:0:
256,128,89855,1,0,0:0:0:0:
256,96,89987,1,8,0:0:0:0:
256,96,90120,1,0,0:0:0:0:
256,96,90252,1,0,0:0:0:0:
256,96,90384,1,8,0:0:0:0:
256,128,90516,1,0,0:0:0:0:
256,128,90648,1,0,0:0:0:0:
256,128,90913,1,8,0:0:0:0:
256,96,91177,1,0,0:0:0:0:
256,96,91309,1,0,0:0:0:0:
256,96,91375,1,0,0:0:0:0:
256,96,91441,1,8,0:0:0:0:
256,96,91573,1,4,0:0:0:0:
256,96,91838,1,0,0:0:0:0:
256,96,91970,1,8,0:0:0:0:
256,96,92102,1,0,0:0:0:0:
256,96,92234,1,8,0:0:0:0:
256,96,92300,1,8,0:0:0:0:
256,96,92366,1,0,0:0:0:0:
256,96,92432,1,0,0:0:0:0:
224,96,92498,1,8,0:0:0:0:
256,96,92631,1,0,0:0:0:0:
256,96,92763,1,4,0:0:0:0:
288,192,93027,1,8,0:0:0:0:
288,192,93159,1,8,0:0:0:0:
288,192,93291,1,0,0:0:0:0:
288,192,93424,1,0,0:0:0:0:
288,192,93490,1,0,0:0:0:0:
288,192,93556,1,8,0:0:0:0:
288,192,93688,1,0,0:0:0:0:
256,160,93820,1,0,0:0:0:0:
288,192,93952,1,0,0:0:0:0:
288,192,94084,1,8,0:0:0:0:
288,192,94216,1,8,0:0:0:0:
352,192,94349,1,8,0:0:0:0:
352,192,94415,1,8,0:0:0:0:
352,192,94481,1,0,0:0:0:0:
256,160,94613,1,8,0:0:0:0:
288,192,94745,1,0,0:0:0:0:
288,192,94877,1,8,0:0:0:0:
288,192,95142,1,0,0:0:0:0:
288,192,95274,1,0,0:0:0:0:
288,192,95406,1,8,0:0:0:0:
288,192,95538,1,0,0:0:0:0:
288,192,95670,1,8,0:0:0:0:
288,192,95802,1,8,0:0:0:0:
288,192,96067,1,0,0:0:0:0:
288,192,96199,1,8,0:0:0:0:
288,224,96331,1,8,0:0:0:0:
288,224,96397,1,8,0:0:0:0:
288,192,96463,1,0,0:0:0:0:
288,192,96595,1,0,0:0:0:0:
288,192,96727,1,8,0:0:0:0:
320,160,96992,1,0,0:0:0:0:
320,160,97256,1,8,0:0:0:0:
320,160,97388,1,0,0:0:0:0:
320,160,97520,1,0,0:0:0:0:
320,160,97653,1,0,0:0:0:0:
320,160,97785,1,8,0:0:0:0:
320,160,98049,1,0,0:0:0:0:
288,160,98313,1,8,0:0:0:0:
288,160,98446,1,8,0:0:0:0:
288,160,98578,1,0,0:0:0:0:
288,160,98644,1,0,0:0:0:0:
288,128,98710,1,0,0:0:0:0:
192,160,98842,1,8,0:0:0:0:
352,192,99106,1,8,0:0:0:0:
352,192,99239,1,0,0:0:0:0:
352,192,99371,1,0,0:0:0:0:
352,192,99503,1,0,0:0:0:0:
448,192,99635,1,8,0:0:0:0:
352,192,99899,1,0,0:0:0:0:
352,192,100031,1,0,0:0:0:0:
352,192,100163,1,8,0:0:0:0:
352,192,100230,1,8,0:0:0:0:
352,192,100296,1,0,0:0:0:0:
352,192,100428,1,8,0:0:0:0:
352,192,100560,1,0,0:0:0:0:
352,192,100692,1,8,0:0:0:0:
288,192,100957,1,0,0:0:0:0:
288,192,101089,1,0,0:0:0:0:
288,192,101221,1,4,0:0:0:0:
288,192,101485,1,8,0:0:0:0:
288,192,101617,1,0,0:0:0:0:
288,192,101750,1,8,0:0:0:0:
288,192,101882,1,8,0:0:0:0:
288,192,102014,1,0,0:0:0:0:
288,192,102146,1,0,0:0:0:0:
288,192,102212,1,0,0:0:0:0:
288,192,102278,1,8,0:0:0:0:
288,192,102542,1,0,0:0:0:0:
288,192,102675,1,8,0:0:0:0:
288,192,102807,1,0,0:0:0:0:
288,192,102939,1,0,0:0:0:0:
288,192,103071,1,8,0:0:0:0:
288,192,103137,1,8,0:0:0:0:
288,192,103203,1,0,0:0:0:0:
288,192,103335,1,8,0:0:0:0:
320,160,103600,1,0,0:0:0:0:
320,160,103732,1,8,0:0:0:0:
320,160,103864,1,0,0:0:0:0:
320,160,103996,1,0,0:0:0:0:
320,160,104128,1,8,0:0:0:0:
320,160,104261,1,0,0:0:0:0:
320,160,104327,1,0,0:0:0:0:
320,160,104393,1,8,0:0:0:0:
320,160,104657,1,8,0:0:0:0:
320,160,104789,1,8,0:0:0:0:
320,160,104921,1,0,0:0:0:0:
320,160,105053,1,0,0:0:0:0:
320,160,105186,1,8,0:0:0:0:
320,160,105252,1,8,0:0:0:0:
320,160,105318,1,8,0:0:0:0:
320,160,105450,1,0,0:0:0:0:
320,160,105714,1,8,0:0:0:0:
320,160,105846,1,0,0:0:0:0:
320,160,105979,1,8,0:0:0:0:
320,160,106111,1,0,0:0:0:0:
320,160,106177,1,0,0:0:0:0:
320,160,106243,1,8,0:0:0:0:
320,160,106375,1,0,0:0:0:0:
320,160,106507,1,8,0:0:0:0:
288,192,106772,1,0,0:0:0:0:
288,192,106904,1,8,0:0:0:0:
288,192,107036,1,0,0:0:0:0:
288,192,107168,1,0,0:0:0:0:
288,192,107234,1,0,0:0:0:0:
288,192,107300,1,8,0:0:0:0:
288,192,107432,1,0,0:0:0:0:
288,192,107565,1,8,0:0:0:0:
288,160,107829,1,8,0:0:0:0:
288,160,107961,1,8,0:0:0:0:
288,160,108093,1,0,0:0:0:0:
288,160,108159,1,0,0:0:0:0:
288,160,108225,1,0,0:0:0:0:
288,160,108357,1,8,0:0:0:0:
288,160,108490,1,12,0:0:0:0:
256,160,108754,1,0,0:0:0:0:
256,160,108886,1,8,0:0:0:0:
256,160,109018,1,8,0:0:0:0:
256,160,109150,1,0,0:0:0:0:
256,160,109283,1,0,0:0:0:0:
256,160,109349,1,0,0:0:0:0:
256,160,109415,1,8,0:0:0:0:
256,160,109547,1,0,0:0:0:0:
256,160,109679,1,4,0:0:0:0:
320,192,110736,1,4,0:0:0:0:
320,192,111133,1,4,0:0:0:0:
320,192,111529,1,4,0:0:0:0:
320,192,111794,1,4,0:0:0:0:
256,192,112851,1,12,0:0:0:0:
256,192,113115,1,0,0:0:0:0:
256,192,113247,1,12,0:0:0:0:
256,192,113512,1,0,0:0:0:0:
256,192,113644,1,8,0:0:0:0:
256,192,113776,1,0,0:0:0:0:
256,192,113908,1,0,0:0:0:0:
256,128,114172,1,0,0:0:0:0:
256,128,114437,1,8,0:0:0:0:
256,128,114701,1,0,0:0:0:0:
256,128,114965,1,8,0:0:0:0:
256,128,115230,1,0,0:0:0:0:
256,128,115494,1,8,0:0:0:0:
288,160,115758,1,0,0:0:0:0:
288,160,116023,1,8,0:0:0:0:
288,160,116287,1,0,0:0:0:0:
288,160,116551,1,8,0:0:0:0:
224,128,116816,1,0,0:0:0:0:
224,128,116948,1,4,0:0:0:0:
288,160,117609,1,8,0:0:0:0:
288,160,117675,1,0,0:0:0:0:
288,160,117741,1,0,0:0:0:0:
288,160,117873,1,8,0:0:0:0:
288,160,118137,1,4,0:0:0:0:
288,160,118402,1,8,0:0:0:0:
288,160,118666,1,0,0:0:0:0:
288,160,118798,1,0,0:0:0:0:
288,160,118930,1,8,0:0:0:0:
288,160,119194,1,0,0:0:0:0:
320,160,119459,1,8,0:0:0:0:
320,160,119591,1,0,0:0:0:0:
320,160,119855,1,0,0:0:0:0:
320,160,119987,1,8,0:0:0:0:
320,160,120120,1,0,0:0:0:0:
320,160,120252,1,0,0:0:0:0:
320,160,120516,1,8,0:0:0:0:
320,160,120780,1,0,0:0:0:0:
320,160,120913,1,0,0:0:0:0:
320,160,121045,1,8,0:0:0:0:
320,160,121177,1,0,0:0:0:0:
320,160,121309,1,8,0:0:0:0:
320,160,121573,1,8,0:0:0:0:
320,160,121705,1,0,0:0:0:0:
320,160,121970,1,0,0:0:0:0:
320,160,122102,1,8,0:0:0:0:
320,160,122234,1,8,0:0:0:0:
320,160,122366,1,0,0:0:0:0:
320,160,122631,1,8,0:0:0:0:
320,160,122895,1,0,0:0:0:0:
320,160,123027,1,0,0:0:0:0:
320,160,123159,1,8,0:0:0:0:
320,160,123424,1,0,0:0:0:0:
320,160,123688,1,8,0:0:0:0:
320,160,123820,1,0,0:0:0:0:
320,160,124084,1,0,0:0:0:0:
320,160,124216,1,8,0:0:0:0:
320,160,124349,1,8,0:0:0:0:
320,160,124613,1,0,0:0:0:0:
320,160,124745,1,8,0:0:0:0:
320,160,125009,1,8,0:0:0:0:
320,160,125142,1,0,0:0:0:0:
320,160,125274,1,0,0:0:0:0:
320,160,125406,1,8,0:0:0:0:
320,192,125670,1,0,0:0:0:0:
320,192,125802,1,8,0:0:0:0:
320,192,125935,1,0,0:0:0:0:
320,192,126067,1,8,0:0:0:0:
320,192,126133,1,8,0:0:0:0:
320,192,126199,1,0,0:0:0:0:
320,192,126331,1,8,0:0:0:0:
320,192,126463,1,0,0:0:0:0:
320,192,126595,1,4,0:0:0:0:
320,192,126860,1,0,0:0:0:0:
320,192,127124,1,8,0:0:0:0:
320,192,127520,1,0,0:0:0:0:
320,192,127653,1,0,0:0:0:0:
288,224,127917,1,0,0:0:0:0:
288,192,128181,1,8,0:0:0:0:
288,192,128710,1,0,0:0:0:0:
288,192,128974,1,0,0:0:0:0:
288,192,129239,1,8,0:0:0:0:
288,192,129635,1,8,0:0:0:0:
288,192,129767,1,0,0:0:0:0:
288,192,130031,1,0,0:0:0:0:
224,128,130296,1,8,0:0:0:0:
288,192,130692,1,0,0:0:0:0:
288,192,130824,1,0,0:0:0:0:
288,192,131089,1,0,0:0:0:0:
288,192,131353,1,8,0:0:0:0:
288,192,131882,1,0,0:0:0:0:
288,192,132146,1,0,0:0:0:0:
288,192,132410,1,8,0:0:0:0:
288,192,132939,1,8,0:0:0:0:
288,192,133203,1,0,0:0:0:0:
256,128,133468,1,8,0:0:0:0:
256,128,133732,1,0,0:0:0:0:
256,128,133996,1,8,0:0:0:0:
224,128,134261,1,0,0:0:0:0:
224,128,134393,1,0,0:0:0:0:
224,128,134525,1,8,0:0:0:0:
224,128,134789,1,0,0:0:0:0:
224,128,134921,1,4,0:0:0:0:
224,128,135186,1,0,0:0:0:0:
224,96,135318,1,8,0:0:0:0:
224,96,135582,1,0,0:0:0:0:
256,96,135714,1,0,0:0:0:0:
256,96,135846,1,8,0:0:0:0:
256,96,136111,1,8,0:0:0:0:
256,96,136243,1,0,0:0:0:0:
448,160,136309,1,0,0:0:0:0:
224,64,136375,1,0,0:0:0:0:
224,64,136507,1,8,0:0:0:0:
320,160,136639,1,0,0:0:0:0:
224,64,136772,1,0,0:0:0:0:
224,64,137036,1,4,0:0:0:0:
288,160,137300,1,0,0:0:0:0:
288,160,137432,1,8,0:0:0:0:
288,160,137565,1,8,0:0:0:0:
288,160,137697,1,0,0:0:0:0:
288,160,137829,1,0,0:0:0:0:
288,160,137961,1,8,0:0:0:0:
288,160,138093,1,0,0:0:0:0:
288,160,138225,1,8,0:0:0:0:
352,160,138357,1,8,0:0:0:0:
352,160,138424,1,8,0:0:0:0:
352,160,138490,1,0,0:0:0:0:
352,192,138622,1,8,0:0:0:0:
288,160,138886,1,0,0:0:0:0:
224,96,139018,1,8,0:0:0:0:
256,160,139150,1,4,0:0:0:0:
352,160,139415,1,0,0:0:0:0:
256,96,139547,1,8,0:0:0:0:
288,96,139679,1,0,0:0:0:0:
288,96,139745,1,0,0:0:0:0:
288,96,139811,1,8,0:0:0:0:
288,96,140076,1,0,0:0:0:0:
288,96,140208,1,12,0:0:0:0:
288,96,140472,1,8,0:0:0:0:
288,96,140604,1,0,0:0:0:0:
288,96,140736,1,0,0:0:0:0:
288,96,140802,1,0,0:0:0:0:
288,96,140868,1,8,0:0:0:0:
288,96,141001,1,0,0:0:0:0:
288,96,141133,1,8,0:0:0:0:
288,96,141265,1,8,0:0:0:0:
288,96,141397,1,4,0:0:0:0:
288,96,141661,1,4,0:0:0:0:
224,96,141926,1,4,0:0:0:0:
224,96,142190,1,4,0:0:0:0:
224,96,142454,1,12,0:0:0:0:
256,96,142719,1,12,0:0:0:0:
256,160,142983,1,0,0:0:0:0:
256,160,143049,1,0,0:0:0:0:
256,160,143115,1,0,0:0:0:0:
256,160,143181,1,0,0:0:0:0:
256,160,143247,1,8,0:0:0:0:
256,160,143379,1,0,0:0:0:0:
256,160,143512,1,4,0:0:0:0:
256,160,143776,1,8,0:0:0:0:
256,160,143908,1,0,0:0:0:0:
256,160,144040,1,0,0:0:0:0:
256,160,144172,1,0,0:0:0:0:
256,160,144305,1,8,0:0:0:0:
256,160,144437,1,0,0:0:0:0:
256,160,144503,1,0,0:0:0:0:
256,160,144569,1,0,0:0:0:0:
256,160,144701,1,0,0:0:0:0:
256,160,144833,1,8,0:0:0:0:
224,160,144965,1,0,0:0:0:0:
224,160,145031,1,0,0:0:0:0:
224,160,145098,1,8,0:0:0:0:
256,160,145230,1,0,0:0:0:0:
256,160,145362,1,8,0:0:0:0:
256,160,145494,1,0,0:0:0:0:
256,160,145626,1,8,0:0:0:0:
256,160,145890,1,8,0:0:0:0:
256,160,146023,1,8,0:0:0:0:
256,160,146155,1,0,0:0:0:0:
256,192,146221,1,0,0:0:0:0:
256,160,146287,1,0,0:0:0:0:
256,160,146419,1,8,0:0:0:0:
288,160,146551,1,0,0:0:0:0:
288,160,146816,1,0,0:0:0:0:
288,160,146948,1,8,0:0:0:0:
288,160,147080,1,8,0:0:0:0:
288,160,147212,1,0,0:0:0:0:
288,160,147344,1,0,0:0:0:0:
288,160,147410,1,0,0:0:0:0:
288,160,147476,1,8,0:0:0:0:
288,160,147609,1,0,0:0:0:0:
288,160,147741,1,8,0:0:0:0:
288,160,148005,1,8,0:0:0:0:
288,160,148137,1,8,0:0:0:0:
288,160,148269,1,0,0:0:0:0:
288,160,148402,1,0,0:0:0:0:
288,160,148534,1,8,0:0:0:0:
288,160,148666,1,0,0:0:0:0:
288,160,148798,1,8,0:0:0:0:
320,224,148930,1,0,0:0:0:0:
288,160,149062,1,8,0:0:0:0:
288,160,149194,1,8,0:0:0:0:
288,160,149327,1,0,0:0:0:0:
288,160,149459,1,0,0:0:0:0:
288,160,149591,1,8,0:0:0:0:
288,160,149855,1,0,0:0:0:0:
288,160,149987,1,0,0:0:0:0:
288,160,150120,1,8,0:0:0:0:
288,160,150186,1,8,0:0:0:0:
288,160,150252,1,0,0:0:0:0:
288,160,150384,1,8,0:0:0:0:
288,160,150516,1,8,0:0:0:0:
288,160,150648,1,8,0:0:0:0:
320,160,150780,1,4,0:0:0:0:
320,160,151045,1,0,0:0:0:0:
320,160,151177,1,8,0:0:0:0:
320,160,151309,1,0,0:0:0:0:
320,160,151375,1,0,0:0:0:0:
320,160,151441,1,0,0:0:0:0:
320,160,151573,1,0,0:0:0:0:
320,160,151705,1,8,0:0:0:0:
320,160,151970,1,4,0:0:0:0:
320,160,152234,1,8,0:0:0:0:
320,160,152366,1,0,0:0:0:0:
288,160,152432,1,0,0:0:0:0:
320,160,152498,1,0,0:0:0:0:
320,160,152631,1,0,0:0:0:0:
320,160,152763,1,8,0:0:0:0:
320,160,152895,1,8,0:0:0:0:
288,160,153027,1,0,0:0:0:0:
288,160,153093,1,0,0:0:0:0:
288,160,153159,1,8,0:0:0:0:
320,160,153291,1,8,0:0:0:0:
320,160,153424,1,0,0:0:0:0:
320,160,153490,1,0,0:0:0:0:
320,160,153556,1,8,0:0:0:0:
256,128,153688,1,0,0:0:0:0:
256,128,153820,1,8,0:0:0:0:
256,128,153952,1,8,0:0:0:0:
256,128,154084,1,0,0:0:0:0:
256,128,154349,1,8,0:0:0:0:
256,128,154481,1,0,0:0:0:0:
256,128,154613,1,8,0:0:0:0:
224,128,154745,1,8,0:0:0:0:
256,128,154877,1,0,0:0:0:0:
256,128,155009,1,8,0:0:0:0:
256,128,155274,1,0,0:0:0:0:
256,128,155406,1,8,0:0:0:0:
256,128,155538,1,0,0:0:0:0:
256,128,155604,1,0,0:0:0:0:
256,128,155670,1,0,0:0:0:0:
256,128,155802,1,0,0:0:0:0:
256,128,155935,1,8,0:0:0:0:
320,192,156067,1,8,0:0:0:0:
256,160,156199,1,0,0:0:0:0:
256,160,156463,1,8,0:0:0:0:
256,160,156595,1,8,0:0:0:0:
256,160,156727,1,0,0:0:0:0:
256,160,156860,1,0,0:0:0:0:
256,128,156992,1,8,0:0:0:0:
256,128,157124,1,0,0:0:0:0:
256,128,157388,1,0,0:0:0:0:
256,128,157520,1,8,0:0:0:0:
256,128,157653,1,8,0:0:0:0:
256,128,157785,1,0,0:0:0:0:
256,128,157917,1,0,0:0:0:0:
256,128,157983,1,0,0:0:0:0:
256,128,158049,1,8,0:0:0:0:
416,288,158181,1,8,0:0:0:0:
256,128,158313,1,0,0:0:0:0:
256,128,158578,1,8,0:0:0:0:
256,128,158710,1,0,0:0:0:0:
256,128,158842,1,8,0:0:0:0:
256,128,158974,1,8,0:0:0:0:
256,128,159106,1,0,0:0:0:0:
288,128,159239,1,8,0:0:0:0:
288,128,159371,1,0,0:0:0:0:
288,128,159635,1,0,0:0:0:0:
288,128,159701,1,0,0:0:0:0:
288,128,159767,1,0,0:0:0:0:
288,96,159899,1,8,0:0:0:0:
288,96,160031,1,0,0:0:0:0:
320,96,160164,1,8,0:0:0:0:
224,96,160296,1,8,0:0:0:0:
288,160,160428,1,4,0:0:0:0:
320,96,160692,1,8,0:0:0:0:
320,96,160824,1,0,0:0:0:0:
320,96,160957,1,8,0:0:0:0:
320,96,161221,1,8,0:0:0:0:
224,128,161353,1,8,0:0:0:0:
224,128,161485,1,0,0:0:0:0:
224,128,161750,1,8,0:0:0:0:
224,128,161882,1,8,0:0:0:0:
224,128,162014,1,0,0:0:0:0:
224,128,162146,1,8,0:0:0:0:
256,128,162278,1,0,0:0:0:0:
256,128,162410,1,0,0:0:0:0:
256,128,162542,1,8,0:0:0:0:
320,128,162807,1,8,0:0:0:0:
320,128,162939,1,8,0:0:0:0:
320,128,163071,1,0,0:0:0:0:
320,128,163203,1,0,0:0:0:0:
320,128,163335,1,8,0:0:0:0:
256,160,163600,1,0,0:0:0:0:
288,160,163732,1,8,0:0:0:0:
288,160,163864,1,0,0:0:0:0:
288,160,163996,1,8,0:0:0:0:
256,160,164261,1,8,0:0:0:0:
256,160,164393,1,0,0:0:0:0:
256,160,164525,1,8,0:0:0:0:
256,192,164657,1,4,0:0:0:0:
288,128,164921,1,0,0:0:0:0:
288,128,165053,1,8,0:0:0:0:
288,128,165186,1,8,0:0:0:0:
288,128,165318,1,0,0:0:0:0:
288,128,165450,1,8,0:0:0:0:
288,128,165582,1,0,0:0:0:0:
288,128,165714,1,0,0:0:0:0:
288,128,165979,1,8,0:0:0:0:
288,128,166111,1,8,0:0:0:0:
288,128,166243,1,0,0:0:0:0:
288,128,166375,1,0,0:0:0:0:
288,128,166507,1,8,0:0:0:0:
288,128,166639,1,0,0:0:0:0:
288,128,166772,1,0,0:0:0:0:
352,128,167036,1,8,0:0:0:0:
352,128,167168,1,8,0:0:0:0:
352,128,167300,1,0,0:0:0:0:
352,128,167432,1,0,0:0:0:0:
352,128,167565,1,8,0:0:0:0:
352,128,167697,1,0,0:0:0:0:
352,128,167829,1,8,0:0:0:0:
352,128,167961,1,8,0:0:0:0:
352,128,168225,1,8,0:0:0:0:
352,128,168357,1,0,0:0:0:0:
352,128,168490,1,0,0:0:0:0:
352,128,168622,1,8,0:0:0:0:
352,128,168754,1,0,0:0:0:0:
352,128,168886,1,4,0:0:0:0:
352,128,169150,1,8,0:0:0:0:
352,128,169283,1,0,0:0:0:0:
320,160,169415,1,8,0:0:0:0:
320,160,169547,1,8,0:0:0:0:
320,160,169679,1,0,0:0:0:0:
320,160,169811,1,12,0:0:0:0:
320,160,170076,1,0,0:0:0:0:
320,160,170208,1,8,0:0:0:0:
320,160,170472,1,0,0:0:0:0:
320,160,170604,1,0,0:0:0:0:
320,160,170736,1,8,0:0:0:0:
256,160,170868,1,8,0:0:0:0:
256,160,171001,1,4,0:0:0:0:
224,128,171265,1,8,0:0:0:0:
224,128,171397,1,0,0:0:0:0:
224,128,171529,1,0,0:0:0:0:
224,128,171661,1,8,0:0:0:0:
224,128,171794,1,0,0:0:0:0:
224,128,171926,1,12,0:0:0:0:
160,160,172190,1,0,0:0:0:0:
160,160,172322,1,8,0:0:0:0:
256,160,172587,1,0,0:0:0:0:
256,160,172719,1,8,0:0:0:0:
128,192,172851,1,0,0:0:0:0:
160,160,172983,1,8,0:0:0:0:
160,160,173115,1,4,0:0:0:0:
288,160,173379,1,8,0:0:0:0:
288,160,173512,1,8,0:0:0:0:
288,160,173644,1,0,0:0:0:0:
288,160,173776,1,0,0:0:0:0:
288,160,173908,1,8,0:0:0:0:
288,160,174040,1,0,0:0:0:0:
288,160,174305,1,0,0:0:0:0:
256,160,174437,1,8,0:0:0:0:
256,160,174569,1,0,0:0:0:0:
256,160,174701,1,8,0:0:0:0:
256,160,174767,1,0,0:0:0:0:
256,160,174833,1,0,0:0:0:0:
256,160,174965,1,8,0:0:0:0:
256,160,175098,1,0,0:0:0:0:
288,160,175230,1,4,0:0:0:0:
288,160,175494,1,8,0:0:0:0:
256,128,175626,1,0,0:0:0:0:
256,128,175758,1,8,0:0:0:0:
256,128,175890,1,8,0:0:0:0:
256,128,176023,1,0,0:0:0:0:
256,128,176155,1,8,0:0:0:0:
256,128,176287,1,0,0:0:0:0:
256,128,176551,1,0,0:0:0:0:
256,128,176683,1,0,0:0:0:0:
256,128,176816,1,8,0:0:0:0:
256,128,176948,1,0,0:0:0:0:
256,128,177080,1,8,0:0:0:0:
256,128,177344,1,8,0:0:0:0:
256,128,177476,1,8,0:0:0:0:
256,128,177609,1,0,0:0:0:0:
256,128,177741,1,0,0:0:0:0:
256,128,177873,1,4,0:0:0:0:
256,128,178137,1,4,0:0:0:0:
256,128,178402,1,8,0:0:0:0:
256,128,178930,1,8,0:0:0:0:
256,128,179459,1,8,0:0:0:0:
256,192,181045,1,0,0:0:0:0:
320,192,181573,1,8,0:0:0:0:
320,224,183159,1,8,0:0:0:0:
320,224,183688,1,0,0:0:0:0:
320,192,184745,1,8,0:0:0:0:
320,192,185142,1,8,0:0:0:0:
320,192,185538,1,0,0:0:0:0:
288,160,186067,1,0,0:0:0:0:
288,160,186331,1,8,0:0:0:0:
288,160,186595,1,8,0:0:0:0:
288,160,186727,1,8,0:0:0:0:
288,160,186860,1,0,0:0:0:0:
288,160,187124,1,8,0:0:0:0:
256,160,187256,1,8,0:0:0:0:
256,160,187388,1,0,0:0:0:0:
256,160,187520,1,0,0:0:0:0:
256,160,187653,1,8,0:0:0:0:
320,192,187917,1,4,0:0:0:0:
320,192,188313,1,0,0:0:0:0:
320,192,188710,1,8,0:0:0:0:
320,192,189239,1,8,0:0:0:0:
320,192,189503,1,0,0:0:0:0:
320,192,189635,1,8,0:0:0:0:
352,160,189899,1,8,0:0:0:0:
352,160,190031,1,0,0:0:0:0:
352,160,190296,1,0,0:0:0:0:
224,32,190428,1,8,0:0:0:0:
256,192,190824,1,0,0:0:0:0:
256,160,191353,1,0,0:0:0:0:
256,160,191485,1,0,0:0:0:0:
256,160,191617,1,8,0:0:0:0:
256,160,191881,1,0,0:0:0:0:
256,160,192146,1,0,0:0:0:0:
288,160,192410,1,8,0:0:0:0:
288,192,192542,1,0,0:0:0:0:
288,192,192807,1,0,0:0:0:0:
288,192,192939,1,8,0:0:0:0:
384,192,193203,1,0,0:0:0:0:
384,192,193335,1,8,0:0:0:0:
352,160,193732,1,8,0:0:0:0:
352,160,193996,1,0,0:0:0:0:
352,160,194261,1,8,0:0:0:0:
352,192,194657,1,8,0:0:0:0:
352,160,195053,1,0,0:0:0:0:
352,160,195318,1,4,0:0:0:0:
352,160,195582,1,0,0:0:0:0:
352,160,195846,1,4,0:0:0:0:
256,160,196904,1,8,0:0:0:0:
256,160,196992,1,0,0:0:0:0:
256,160,197080,1,0,0:0:0:0:
256,160,197168,1,8,0:0:0:0:
288,192,197300,1,0,0:0:0:0:
288,192,197432,1,4,0:0:0:0:
320,192,197697,1,8,0:0:0:0:
320,192,197829,1,0,0:0:0:0:
320,192,197895,1,0,0:0:0:0:
320,192,197961,1,0,0:0:0:0:
320,192,198093,1,0,0:0:0:0:
320,192,198225,1,8,0:0:0:0:
320,192,198357,1,0,0:0:0:0:
288,160,198490,1,0,0:0:0:0:
320,192,198622,1,8,0:0:0:0:
288,128,198754,1,8,0:0:0:0:
288,128,198886,1,0,0:0:0:0:
288,128,198952,1,0,0:0:0:0:
288,128,199018,1,8,0:0:0:0:
288,128,199150,1,0,0:0:0:0:
288,128,199283,1,8,0:0:0:0:
288,128,199349,1,0,0:0:0:0:
288,128,199415,1,0,0:0:0:0:
288,128,199547,1,8,0:0:0:0:
288,96,199811,1,8,0:0:0:0:
320,128,199943,1,8,0:0:0:0:
288,128,200076,1,0,0:0:0:0:
288,128,200208,1,0,0:0:0:0:
288,128,200274,1,0,0:0:0:0:
288,128,200340,1,8,0:0:0:0:
288,128,200472,1,8,0:0:0:0:
320,128,200736,1,0,0:0:0:0:
320,128,200868,1,8,0:0:0:0:
320,128,201001,1,0,0:0:0:0:
320,128,201067,1,0,0:0:0:0:
320,128,201133,1,8,0:0:0:0:
320,128,201265,1,0,0:0:0:0:
320,128,201397,1,8,0:0:0:0:
256,128,201529,1,8,0:0:0:0:
256,128,201595,1,8,0:0:0:0:
320,128,201661,1,0,0:0:0:0:
320,256,201794,1,0,0:0:0:0:
256,128,201926,1,8,0:0:0:0:
256,128,202058,1,8,0:0:0:0:
256,128,202190,1,0,0:0:0:0:
256,128,202322,1,0,0:0:0:0:
256,128,202388,1,0,0:0:0:0:
256,128,202454,1,8,0:0:0:0:
256,128,202587,1,0,0:0:0:0:
256,128,202719,1,8,0:0:0:0:
256,128,202851,1,0,0:0:0:0:
224,96,202983,1,0,0:0:0:0:
224,96,203115,1,8,0:0:0:0:
224,96,203247,1,0,0:0:0:0:
224,96,203379,1,0,0:0:0:0:
224,96,203512,1,8,0:0:0:0:
256,192,203644,1,0,0:0:0:0:
256,192,203776,1,0,0:0:0:0:
256,192,204040,1,8,0:0:0:0:
256,192,204305,1,8,0:0:0:0:
256,192,204437,1,8,0:0:0:0:
256,192,204503,1,8,0:0:0:0:
256,192,204569,1,0,0:0:0:0:
256,192,204701,1,12,0:0:0:0:
256,192,204965,1,0,0:0:0:0:
256,192,205098,1,8,0:0:0:0:
256,192,205230,1,0,0:0:0:0:
256,192,205362,1,0,0:0:0:0:
256,192,205494,1,0,0:0:0:0:
256,192,205626,1,8,0:0:0:0:
256,192,205692,1,0,0:0:0:0:
256,192,205758,1,0,0:0:0:0:
256,192,205824,1,0,0:0:0:0:
256,192,205890,1,8,0:0:0:0:
288,224,206155,1,8,0:0:0:0:
288,224,206287,1,8,0:0:0:0:
256,128,206419,1,0,0:0:0:0:
256,128,206485,1,0,0:0:0:0:
256,128,206551,1,0,0:0:0:0:
256,128,206683,1,8,0:0:0:0:
256,128,206816,1,0,0:0:0:0:
320,128,206882,1,0,0:0:0:0:
320,128,206948,1,8,0:0:0:0:
256,128,207080,1,8,0:0:0:0:
256,96,207212,1,0,0:0:0:0:
256,128,207344,1,0,0:0:0:0:
192,96,207476,1,8,0:0:0:0:
192,128,207609,1,0,0:0:0:0:
192,128,207675,1,0,0:0:0:0:
192,128,207741,1,8,0:0:0:0:
192,128,207873,1,0,0:0:0:0:
192,128,208005,1,0,0:0:0:0:
192,128,208269,1,8,0:0:0:0:
192,128,208402,1,0,0:0:0:0:
256,96,208534,1,8,0:0:0:0:
256,96,208666,1,8,0:0:0:0:
256,96,208798,1,0,0:0:0:0:
256,96,208930,1,8,0:0:0:0:
256,96,209194,1,0,0:0:0:0:
256,96,209327,1,8,0:0:0:0:
256,96,209459,1,0,0:0:0:0:
256,96,209525,1,0,0:0:0:0:
256,96,209591,1,0,0:0:0:0:
256,96,209723,1,0,0:0:0:0:
224,96,209855,1,8,0:0:0:0:
256,96,209987,1,0,0:0:0:0:
256,96,210120,1,0,0:0:0:0:
256,192,210384,1,8,0:0:0:0:
256,192,210516,1,0,0:0:0:0:
256,192,210648,1,0,0:0:0:0:
256,192,210780,1,0,0:0:0:0:
256,192,210913,1,8,0:0:0:0:
256,192,211177,1,0,0:0:0:0:
256,192,211441,1,8,0:0:0:0:
256,192,211573,1,0,0:0:0:0:
256,192,211838,1,0,0:0:0:0:
256,192,211970,1,8,0:0:0:0:
256,192,212102,1,8,0:0:0:0:
256,192,212168,1,8,0:0:0:0:
256,192,212234,1,0,0:0:0:0:
256,192,212498,1,8,0:0:0:0:
256,192,212631,1,0,0:0:0:0:
256,192,212763,1,8,0:0:0:0:
256,192,212895,1,0,0:0:0:0:
288,160,213027,1,8,0:0:0:0:
288,160,213159,1,8,0:0:0:0:
288,160,213291,1,0,0:0:0:0:
288,160,213424,1,8,0:0:0:0:
288,160,213556,1,0,0:0:0:0:
288,160,213688,1,0,0:0:0:0:
288,160,213754,1,0,0:0:0:0:
288,160,213820,1,8,0:0:0:0:
288,160,213952,1,0,0:0:0:0:
288,160,214084,1,8,0:0:0:0:
256,128,214349,1,4,0:0:0:0:
256,128,214613,1,8,0:0:0:0:
256,128,214745,1,0,0:0:0:0:
256,128,214877,1,8,0:0:0:0:
256,128,215009,1,8,0:0:0:0:
256,128,215142,1,0,0:0:0:0:
352,224,215274,1,0,0:0:0:0:
352,224,215340,1,0,0:0:0:0:
256,128,215406,1,8,0:0:0:0:
352,288,215538,1,0,0:0:0:0:
288,192,215670,1,8,0:0:0:0:
288,192,215802,1,8,0:0:0:0:
288,192,215935,1,0,0:0:0:0:
288,192,216067,1,0,0:0:0:0:
288,192,216199,1,8,0:0:0:0:
288,192,216331,1,0,0:0:0:0:
288,192,216397,1,0,0:0:0:0:
288,192,216463,1,8,0:0:0:0:
288,192,216727,1,0,0:0:0:0:
288,192,216860,1,8,0:0:0:0:
288,192,216992,1,0,0:0:0:0:
288,192,217124,1,0,0:0:0:0:
256,160,217256,1,0,0:0:0:0:
256,160,217388,1,8,0:0:0:0:
256,160,217454,1,8,0:0:0:0:
256,160,217520,1,0,0:0:0:0:
256,160,217653,1,0,0:0:0:0:
288,128,217785,1,8,0:0:0:0:
288,128,217917,1,0,0:0:0:0:
288,128,218049,1,8,0:0:0:0:
288,128,218181,1,0,0:0:0:0:
288,128,218247,1,0,0:0:0:0:
288,128,218313,1,8,0:0:0:0:
288,128,218446,1,0,0:0:0:0:
288,128,218578,1,8,0:0:0:0:
288,128,218842,1,0,0:0:0:0:
288,128,218974,1,8,0:0:0:0:
288,128,219106,1,0,0:0:0:0:
288,128,219239,1,0,0:0:0:0:
288,128,219371,1,8,0:0:0:0:
288,128,219437,1,8,0:0:0:0:
288,128,219503,1,0,0:0:0:0:
288,128,219635,1,8,0:0:0:0:
288,160,219767,1,0,0:0:0:0:
288,128,219899,1,0,0:0:0:0:
288,128,220031,1,8,0:0:0:0:
288,128,220164,1,8,0:0:0:0:
288,128,220296,1,8,0:0:0:0:
288,128,220428,1,0,0:0:0:0:
288,128,220494,1,0,0:0:0:0:
288,128,220560,1,0,0:0:0:0:
288,128,220692,1,8,0:0:0:0:
288,128,220957,1,0,0:0:0:0:
288,128,221089,1,8,0:0:0:0:
288,128,221221,1,0,0:0:0:0:
288,192,221353,1,8,0:0:0:0:
320,128,221485,1,0,0:0:0:0:
320,128,221551,1,0,0:0:0:0:
352,224,221617,1,8,0:0:0:0:
352,224,221882,1,0,0:0:0:0:
352,224,222014,1,8,0:0:0:0:
352,224,222146,1,8,0:0:0:0:
352,224,222278,1,0,0:0:0:0:
352,224,222344,1,0,0:0:0:0:
352,224,222410,1,0,0:0:0:0:
352,224,222542,1,8,0:0:0:0:
288,128,222675,1,0,0:0:0:0:
288,128,222807,1,4,0:0:0:0:
288,128,223071,1,8,0:0:0:0:
288,128,223203,1,0,0:0:0:0:
288,128,223335,1,8,0:0:0:0:
288,128,223468,1,8,0:0:0:0:
288,128,223600,1,0,0:0:0:0:
288,128,223732,1,8,0:0:0:0:
288,128,223864,1,0,0:0:0:0:
288,128,223996,1,0,0:0:0:0:
288,128,224062,1,0,0:0:0:0:
288,128,224128,1,8,0:0:0:0:
288,128,224261,1,0,0:0:0:0:
288,128,224393,1,8,0:0:0:0:
288,128,224525,1,0,0:0:0:0:
288,128,224657,1,8,0:0:0:0:
256,160,224723,1,8,0:0:0:0:
288,128,224789,1,8,0:0:0:0:
288,128,224921,1,0,0:0:0:0:
320,192,225053,1,0,0:0:0:0:
288,128,225186,1,8,0:0:0:0:
288,128,225318,1,8,0:0:0:0:
288,128,225450,1,0,0:0:0:0:
288,128,225582,1,0,0:0:0:0:
352,224,225648,1,0,0:0:0:0:
288,128,225714,1,8,0:0:0:0:
288,128,225846,1,8,0:0:0:0:
288,128,225979,1,0,0:0:0:0:
256,192,226045,1,0,0:0:0:0:
288,128,226111,1,0,0:0:0:0:
288,128,226243,1,8,0:0:0:0:
288,128,226375,1,0,0:0:0:0:
288,128,226507,1,8,0:0:0:0:
288,128,226639,1,8,0:0:0:0:
288,128,226772,1,0,0:0:0:0:
288,128,226904,1,8,0:0:0:0:
288,128,227036,1,0,0:0:0:0:
320,192,227300,1,8,0:0:0:0:
320,160,227432,1,8,0:0:0:0:
320,160,227565,1,0,0:0:0:0:
320,160,227697,1,8,0:0:0:0:
320,160,227829,1,0,0:0:0:0:
320,160,227961,1,0,0:0:0:0:
288,160,228027,1,0,0:0:0:0:
288,160,228093,1,8,0:0:0:0:
288,160,228225,1,0,0:0:0:0:
288,160,228357,1,8,0:0:0:0:
288,160,228490,1,8,0:0:0:0:
288,224,228556,1,8,0:0:0:0:
288,160,228622,1,0,0:0:0:0:
288,128,228754,1,8,0:0:0:0:
352,256,228886,1,8,0:0:0:0:
288,128,229018,1,0,0:0:0:0:
288,192,229150,1,4,0:0:0:0:
288,192,229415,1,4,0:0:0:0:
288,192,229679,1,4,0:0:0:0:
288,192,229943,1,4,0:0:0:0:
288,192,230076,1,12,0:0:0:0:
288,192,230340,1,8,0:0:0:0:
288,192,230472,1,0,0:0:0:0:
288,192,230604,1,8,0:0:0:0:
288,192,230670,1,8,0:0:0:0:
288,192,230736,1,0,0:0:0:0:
288,192,230869,1,8,0:0:0:0:
288,192,231001,1,0,0:0:0:0:
288,192,231067,1,0,0:0:0:0:
288,192,231133,1,8,0:0:0:0:
288,192,231265,1,12,0:0:0:0:
