osu file format v14

[General]
AudioFilename: .mp3
AudioLeadIn: 0
PreviewTime: 83710
Countdown: 1
SampleSet: Normal
StackLeniency: 0.7
Mode: 1
LetterboxInBreaks: 0
WidescreenStoryboard: 0

[Editor]
DistanceSpacing: 1
BeatDivisor: 4
GridSize: 32
TimelineZoom: 2.4

[Metadata]
Title:Sendan Life
TitleUnicode:センダンライフ
Artist:Remo Prototype[CV: Hanamori Yumiri]
ArtistUnicode:リモ Prototype[CV:花守ゆみり]
Creator:Y O U T A
Version:Inner Oni
Source:ガラスの花と壊す世界
Tags:vocaloid Chukka やしきん yashikin Glass no Hana to Kowasu Sekai GARAKOWA Restore the World Vitreous Flower Destroy the World D.backup
BeatmapID:861023
BeatmapSetID:395660

[Difficulty]
HPDrainRate:6
CircleSize:2
OverallDifficulty:6
ApproachRate:5
SliderMultiplier:1.4
SliderTickRate:1

[Events]
//Background and Video events
0,0,"BG169.jpg",0,0
//Break Periods
//Storyboard Layer 0 (Background)
//Storyboard Layer 1 (Fail)
//Storyboard Layer 2 (Pass)
//Storyboard Layer 3 (Foreground)
//Storyboard Sound Samples

[TimingPoints]
37785,264.31718061674,4,1,0,100,1,0
67653,-111.111111111111,4,1,0,100,0,0
75714,-100,4,1,0,100,0,0
84304,-100,4,1,0,100,0,1
101221,-100,4,1,0,100,0,0
114172,-111.111111111111,4,1,0,100,0,0
116948,-100,4,1,0,100,0,0
126860,-111.111111111111,4,1,0,100,0,0
134525,-100,4,1,0,100,0,0
143511,-100,4,1,0,100,0,1
160428,-100,4,1,0,100,0,0
178402,-111.111111111111,4,1,0,100,0,0
178930,-125,4,1,0,100,0,0
179459,-142.857142857143,4,1,0,100,0,0
181045,-125,4,1,0,100,0,0
187917,-111.111111111111,4,1,0,100,0,0
196904,-100,4,1,0,100,0,0
197432,-100,4,1,0,100,0,1
214348,-100,4,1,0,100,0,0
222807,-95.2380952380952,4,1,0,100,0,0

[HitObjects]
256,160,37784,5,4,0:0:0:0:
256,160,38049,1,4,0:0:0:0:
256,160,38313,1,4,0:0:0:0:
256,160,38445,1,4,0:0:0:0:
256,160,38710,1,4,0:0:0:0:
256,160,38974,1,4,0:0:0:0:
256,160,39238,1,4,0:0:0:0:
288,160,39503,1,4,0:0:0:0:
288,160,39635,1,8,0:0:0:0:
288,160,39899,1,4,0:0:0:0:
288,160,40164,1,4,0:0:0:0:
288,160,40428,1,4,0:0:0:0:
288,160,40560,1,4,0:0:0:0:
288,160,40824,1,4,0:0:0:0:
288,160,41089,1,4,0:0:0:0:
288,160,41353,1,4,0:0:0:0:
288,192,41485,1,8,0:0:0:0:
288,192,41551,1,8,0:0:0:0:
288,192,41617,1,0,0:0:0:0:
288,192,41683,1,0,0:0:0:0:
288,192,41750,1,8,0:0:0:0:
288,160,41794,1,8,0:0:0:0:
288,160,41838,1,8,0:0:0:0:
288,160,41882,1,0,0:0:0:0:
256,160,42014,1,8,0:0:0:0:
288,160,42146,1,0,0:0:0:0:
288,160,42212,1,0,0:0:0:0:
288,160,42278,1,8,0:0:0:0:
288,160,42410,1,0,0:0:0:0:
288,160,42542,1,8,0:0:0:0:
288,160,42675,1,8,0:0:0:0:
288,160,42807,1,0,0:0:0:0:
288,160,42939,1,8,0:0:0:0:
288,160,43005,1,8,0:0:0:0:
288,160,43071,1,8,0:0:0:0:
288,160,43203,1,0,0:0:0:0:
288,160,43269,1,0,0:0:0:0:
288,160,43335,1,8,0:0:0:0:
256,192,43468,1,0,0:0:0:0:
256,192,43600,1,8,0:0:0:0:
256,192,43666,1,0,0:0:0:0:
256,192,43732,1,0,0:0:0:0:
256,192,43798,1,0,0:0:0:0:
256,192,43864,1,8,0:0:0:0:
256,192,43996,1,0,0:0:0:0:
256,192,44062,1,0,0:0:0:0:
256,192,44128,1,8,0:0:0:0:
256,192,44261,1,8,0:0:0:0:
256,192,44393,1,0,0:0:0:0:
256,192,44525,1,0,0:0:0:0:
256,192,44657,1,8,0:0:0:0:
256,192,44723,1,8,0:0:0:0:
256,192,44789,1,0,0:0:0:0:
256,192,44855,1,0,0:0:0:0:
256,192,44921,1,8,0:0:0:0:
256,192,45053,1,0,0:0:0:0:
288,160,45186,1,0,0:0:0:0:
288,160,45252,1,0,0:0:0:0:
288,160,45318,1,8,0:0:0:0:
288,160,45384,1,0,0:0:0:0:
288,160,45450,1,8,0:0:0:0:
288,160,45582,1,0,0:0:0:0:
288,160,45714,1,8,0:0:0:0:
288,160,45780,1,8,0:0:0:0:
288,160,45846,1,0,0:0:0:0:
288,160,45913,1,0,0:0:0:0:
288,160,45979,1,8,0:0:0:0:
288,160,46111,1,0,0:0:0:0:
288,160,46177,1,0,0:0:0:0:
288,160,46243,1,8,0:0:0:0:
288,160,46375,1,0,0:0:0:0:
288,160,46507,1,8,0:0:0:0:
288,160,46639,1,8,0:0:0:0:
288,160,46705,1,8,0:0:0:0:
288,160,46772,1,0,0:0:0:0:
288,160,46838,1,0,0:0:0:0:
288,160,46904,1,0,0:0:0:0:
288,160,47036,1,8,0:0:0:0:
288,160,47168,1,0,0:0:0:0:
288,160,47300,1,8,0:0:0:0:
288,160,47366,1,8,0:0:0:0:
288,160,47432,1,0,0:0:0:0:
288,160,47565,1,8,0:0:0:0:
288,160,47697,1,0,0:0:0:0:
288,160,47829,1,8,0:0:0:0:
288,160,47961,1,8,0:0:0:0:
288,160,48093,1,0,0:0:0:0:
288,160,48225,1,0,0:0:0:0:
320,160,48357,1,8,0:0:0:0:
320,160,48424,1,8,0:0:0:0:
320,160,48490,1,0,0:0:0:0:
320,160,48622,1,8,0:0:0:0:
320,160,48754,1,0,0:0:0:0:
320,160,48820,1,0,0:0:0:0:
320,160,48886,1,8,0:0:0:0:
320,160,48952,1,0,0:0:0:0:
320,160,49018,1,8,0:0:0:0:
320,160,49084,1,8,0:0:0:0:
320,160,49150,1,0,0:0:0:0:
352,192,49283,1,12,0:0:0:0:
352,192,49547,1,0,0:0:0:0:
352,192,49613,1,0,0:0:0:0:
352,192,49679,1,8,0:0:0:0:
352,192,49811,1,8,0:0:0:0:
320,160,49943,1,8,0:0:0:0:
320,160,50009,1,0,0:0:0:0:
320,160,50076,1,0,0:0:0:0:
320,160,50142,1,0,0:0:0:0:
320,160,50208,1,8,0:0:0:0:
320,160,50274,1,8,0:0:0:0:
320,160,50340,1,0,0:0:0:0:
320,160,50406,1,0,0:0:0:0:
320,160,50472,1,8,0:0:0:0:
320,192,50736,1,8,0:0:0:0:
320,192,51001,1,0,0:0:0:0:
320,192,51133,1,0,0:0:0:0:
320,192,51265,1,8,0:0:0:0:
320,192,51397,1,0,0:0:0:0:
320,192,51529,1,8,0:0:0:0:
320,192,51794,1,8,0:0:0:0:
320,192,51926,1,0,0:0:0:0:
320,192,52190,1,0,0:0:0:0:
320,192,52322,1,8,0:0:0:0:
320,192,52454,1,8,0:0:0:0:
320,192,52587,1,0,0:0:0:0:
320,192,52851,1,8,0:0:0:0:
320,192,52983,1,0,0:0:0:0:
320,192,53115,1,8,0:0:0:0:
320,192,53247,1,8,0:0:0:0:
320,192,53379,1,0,0:0:0:0:
320,192,53512,1,8,0:0:0:0:
320,192,53644,1,0,0:0:0:0:
320,192,53908,1,8,0:0:0:0:
320,192,54040,1,0,0:0:0:0:
320,192,54305,1,0,0:0:0:0:
320,192,54437,1,8,0:0:0:0:
320,192,54569,1,0,0:0:0:0:
320,192,54701,1,0,0:0:0:0:
288,160,54965,1,8,0:0:0:0:
288,160,55098,1,0,0:0:0:0:
288,160,55230,1,0,0:0:0:0:
288,160,55362,1,0,0:0:0:0:
288,160,55494,1,8,0:0:0:0:
288,160,55626,1,8,0:0:0:0:
288,160,55758,1,0,0:0:0:0:
256,128,56023,1,8,0:0:0:0:
256,128,56155,1,0,0:0:0:0:
256,128,56419,1,0,0:0:0:0:
256,128,56551,1,8,0:0:0:0:
256,128,56683,1,0,0:0:0:0:
256,128,56816,1,0,0:0:0:0:
224,160,57080,1,8,0:0:0:0:
224,160,57212,1,0,0:0:0:0:
224,160,57344,1,8,0:0:0:0:
256,128,57476,1,8,0:0:0:0:
224,160,57609,1,8,0:0:0:0:
320,160,57741,1,0,0:0:0:0:
288,160,58005,1,0,0:0:0:0:
288,160,58137,1,8,0:0:0:0:
192,192,58269,1,0,0:0:0:0:
352,192,58402,1,8,0:0:0:0:
352,192,58468,1,8,0:0:0:0:
352,192,58533,1,0,0:0:0:0:
352,192,58599,1,0,0:0:0:0:
352,192,58667,1,8,0:0:0:0:
352,192,58798,1,0,0:0:0:0:
256,192,58930,1,4,0:0:0:0:
288,160,59194,1,8,0:0:0:0:
288,160,59327,1,0,0:0:0:0:
288,160,59393,1,0,0:0:0:0:
288,160,59459,1,8,0:0:0:0:
288,160,59591,1,0,0:0:0:0:
288,160,59723,1,8,0:0:0:0:
288,160,59855,1,8,0:0:0:0:
288,160,59987,1,0,0:0:0:0:
288,160,60120,1,0,0:0:0:0:
288,160,60252,1,8,0:0:0:0:
288,160,60384,1,0,0:0:0:0:
288,160,60648,1,0,0:0:0:0:
288,160,60780,1,8,0:0:0:0:
288,160,60913,1,0,0:0:0:0:
288,160,60979,1,0,0:0:0:0:
288,160,61045,1,0,0:0:0:0:
256,224,61177,1,0,0:0:0:0:
256,192,61309,1,8,0:0:0:0:
320,192,61441,1,8,0:0:0:0:
320,192,61507,1,8,0:0:0:0:
320,192,61573,1,0,0:0:0:0:
320,192,61706,1,0,0:0:0:0:
320,192,61838,1,8,0:0:0:0:
320,192,61970,1,0,0:0:0:0:
320,192,62102,1,8,0:0:0:0:
320,192,62366,1,8,0:0:0:0:
320,192,62499,1,0,0:0:0:0:
320,192,62631,1,0,0:0:0:0:
320,192,62763,1,0,0:0:0:0:
320,192,62829,1,0,0:0:0:0:
320,192,62895,1,8,0:0:0:0:
192,160,63027,1,0,0:0:0:0:
192,160,63159,1,0,0:0:0:0:
288,192,63424,1,8,0:0:0:0:
288,192,63556,1,0,0:0:0:0:
288,160,63688,1,0,0:0:0:0:
320,192,63820,1,0,0:0:0:0:
320,192,63952,1,8,0:0:0:0:
320,192,64084,1,8,0:0:0:0:
320,192,64216,1,0,0:0:0:0:
256,192,64348,1,0,0:0:0:0:
256,192,64414,1,0,0:0:0:0:
320,192,64481,1,8,0:0:0:0:
320,192,64613,1,8,0:0:0:0:
320,192,64877,1,0,0:0:0:0:
192,192,65009,1,8,0:0:0:0:
320,192,65142,1,8,0:0:0:0:
320,192,65274,1,0,0:0:0:0:
160,224,65406,1,0,0:0:0:0:
160,224,65472,1,0,0:0:0:0:
288,160,65538,1,8,0:0:0:0:
288,160,65670,1,0,0:0:0:0:
224,128,65802,1,0,0:0:0:0:
224,128,65868,1,0,0:0:0:0:
224,128,65935,1,8,0:0:0:0:
320,160,66067,1,0,0:0:0:0:
320,160,66199,1,8,0:0:0:0:
192,192,66331,1,0,0:0:0:0:
320,192,66463,1,8,0:0:0:0:
320,192,66529,1,0,0:0:0:0:
320,192,66595,1,0,0:0:0:0:
256,160,66727,1,0,0:0:0:0:
288,160,66860,1,8,0:0:0:0:
288,160,66926,1,8,0:0:0:0:
288,160,66992,1,8,0:0:0:0:
288,160,67058,1,8,0:0:0:0:
288,160,67124,1,0,0:0:0:0:
288,160,67190,1,0,0:0:0:0:
288,160,67256,1,0,0:0:0:0:
288,160,67322,1,0,0:0:0:0:
288,160,67388,1,8,0:0:0:0:
288,160,67653,1,0,0:0:0:0:
288,160,67785,1,0,0:0:0:0:
288,160,67917,1,8,0:0:0:0:
288,160,68049,1,0,0:0:0:0:
288,160,68181,1,8,0:0:0:0:
288,160,68313,1,8,0:0:0:0:
320,192,68578,1,0,0:0:0:0:
320,192,68710,1,0,0:0:0:0:
320,192,68974,1,8,0:0:0:0:
320,192,69239,1,8,0:0:0:0:
320,192,69371,1,8,0:0:0:0:
192,96,69503,1,0,0:0:0:0:
320,192,69767,1,0,0:0:0:0:
320,192,69899,1,8,0:0:0:0:
320,192,70164,1,8,0:0:0:0:
320,192,70296,1,0,0:0:0:0:
320,192,70428,1,0,0:0:0:0:
320,192,70560,1,8,0:0:0:0:
224,192,70692,1,0,0:0:0:0:
352,192,70957,1,0,0:0:0:0:
352,192,71089,1,8,0:0:0:0:
352,192,71353,1,0,0:0:0:0:
256,192,71617,1,0,0:0:0:0:
256,192,71882,1,0,0:0:0:0:
256,192,72014,1,0,0:0:0:0:
256,192,72146,1,8,0:0:0:0:
256,160,72278,1,0,0:0:0:0:
256,160,72410,1,8,0:0:0:0:
256,160,72675,1,0,0:0:0:0:
256,160,72939,1,8,0:0:0:0:
256,160,73071,1,0,0:0:0:0:
256,160,73203,1,8,0:0:0:0:
256,160,73468,1,8,0:0:0:0:
256,160,73732,1,0,0:0:0:0:
256,160,73996,1,8,0:0:0:0:
256,160,74128,1,0,0:0:0:0:
256,160,74393,1,0,0:0:0:0:
256,160,74525,1,8,0:0:0:0:
256,160,74657,1,0,0:0:0:0:
256,160,74789,1,0,0:0:0:0:
256,160,75053,1,8,0:0:0:0:
256,160,75186,1,0,0:0:0:0:
256,160,75318,1,8,0:0:0:0:
256,224,75384,1,8,0:0:0:0:
256,160,75450,1,8,0:0:0:0:
256,160,75582,1,0,0:0:0:0:
288,192,75714,1,4,0:0:0:0:
288,192,75979,1,0,0:0:0:0:
288,192,76111,1,8,0:0:0:0:
288,192,76243,1,0,0:0:0:0:
288,192,76309,1,0,0:0:0:0:
288,192,76375,1,0,0:0:0:0:
288,192,76507,1,0,0:0:0:0:
288,192,76639,1,8,0:0:0:0:
288,192,76772,1,0,0:0:0:0:
256,192,76904,1,0,0:0:0:0:
256,192,77036,1,0,0:0:0:0:
256,192,77102,1,0,0:0:0:0:
256,192,77168,1,8,0:0:0:0:
256,192,77300,1,0,0:0:0:0:
256,192,77432,1,8,0:0:0:0:
256,192,77565,1,8,0:0:0:0:
256,192,77697,1,0,0:0:0:0:
288,192,77829,1,4,0:0:0:0:
288,192,78093,1,0,0:0:0:0:
288,192,78225,1,8,0:0:0:0:
288,192,78357,1,8,0:0:0:0:
288,192,78424,1,8,0:0:0:0:
288,192,78490,1,0,0:0:0:0:
288,192,78622,1,0,0:0:0:0:
288,192,78754,1,8,0:0:0:0:
288,192,78886,1,0,0:0:0:0:
288,192,79018,1,8,0:0:0:0:
288,192,79084,1,8,0:0:0:0:
288,192,79150,1,0,0:0:0:0:
288,192,79216,1,0,0:0:0:0:
288,192,79283,1,8,0:0:0:0:
288,192,79415,1,0,0:0:0:0:
288,192,79547,1,0,0:0:0:0:
288,192,79679,1,8,0:0:0:0:
288,192,79811,1,0,0:0:0:0:
288,192,79943,1,4,0:0:0:0:
256,160,80208,1,0,0:0:0:0:
256,160,80274,1,0,0:0:0:0:
256,160,80340,1,8,0:0:0:0:
256,160,80472,1,0,0:0:0:0:
256,160,80604,1,8,0:0:0:0:
256,160,80736,1,8,0:0:0:0:
256,160,80868,1,0,0:0:0:0:
256,160,81001,1,8,0:0:0:0:
320,192,81133,1,0,0:0:0:0:
320,192,81265,1,0,0:0:0:0:
320,192,81397,1,8,0:0:0:0:
320,192,81529,1,0,0:0:0:0:
320,192,81595,1,0,0:0:0:0:
320,192,81661,1,8,0:0:0:0:
320,192,81727,1,0,0:0:0:0:
320,192,81794,1,0,0:0:0:0:
320,192,81926,1,8,0:0:0:0:
288,192,82058,1,0,0:0:0:0:
288,192,82190,1,4,0:0:0:0:
288,192,82454,1,4,0:0:0:0:
320,224,82719,1,4,0:0:0:0:
320,224,82983,1,4,0:0:0:0:
320,224,83115,1,12,0:0:0:0:
256,160,83379,1,0,0:0:0:0:
256,160,83512,1,8,0:0:0:0:
384,320,83644,1,8,0:0:0:0:
256,160,83710,1,8,0:0:0:0:
256,160,83776,1,0,0:0:0:0:
256,160,83842,1,8,0:0:0:0:
256,160,83908,1,8,0:0:0:0:
256,160,83974,1,8,0:0:0:0:
256,160,84040,1,0,0:0:0:0:
256,160,84106,1,8,0:0:0:0:
256,160,84172,1,0,0:0:0:0:
256,160,84238,1,0,0:0:0:0:
256,160,84304,1,8,0:0:0:0:
256,192,84437,1,0,0:0:0:0:
256,192,84503,1,0,0:0:0:0:
256,192,84569,1,8,0:0:0:0:
256,192,84701,1,0,0:0:0:0:
256,160,84833,1,8,0:0:0:0:
256,160,84899,1,0,0:0:0:0:
256,160,84965,1,0,0:0:0:0:
256,160,85031,1,0,0:0:0:0:
256,160,85098,1,8,0:0:0:0:
256,160,85230,1,8,0:0:0:0:
256,160,85296,1,8,0:0:0:0:
256,160,85362,1,0,0:0:0:0:
256,160,85494,1,0,0:0:0:0:
256,160,85626,1,8,0:0:0:0:
256,160,85758,1,8,0:0:0:0:
256,160,85824,1,8,0:0:0:0:
256,160,85890,1,0,0:0:0:0:
256,160,85957,1,8,0:0:0:0:
256,160,86023,1,0,0:0:0:0:
256,160,86089,1,0,0:0:0:0:
256,160,86155,1,8,0:0:0:0:
256,160,86287,1,0,0:0:0:0:
256,160,86419,1,8,0:0:0:0:
256,160,86485,1,8,0:0:0:0:
256,160,86551,1,0,0:0:0:0:
256,160,86617,1,0,0:0:0:0:
256,160,86683,1,8,0:0:0:0:
256,160,86816,1,0,0:0:0:0:
256,160,86882,1,0,0:0:0:0:
256,160,86948,1,8,0:0:0:0:
256,160,87080,1,0,0:0:0:0:
256,160,87212,1,8,0:0:0:0:
256,160,87344,1,8,0:0:0:0:
256,160,87410,1,8,0:0:0:0:
256,160,87476,1,0,0:0:0:0:
256,160,87609,1,0,0:0:0:0:
256,160,87740,1,8,0:0:0:0:
256,160,87873,1,8,0:0:0:0:
256,160,87939,1,8,0:0:0:0:
256,192,88005,1,0,0:0:0:0:
256,192,88071,1,0,0:0:0:0:
256,160,88137,1,8,0:0:0:0:
256,192,88203,1,8,0:0:0:0:
192,192,88270,1,8,0:0:0:0:
256,192,88402,1,0,0:0:0:0:
256,192,88534,1,8,0:0:0:0:
256,192,88600,1,8,0:0:0:0:
256,192,88666,1,0,0:0:0:0:
256,192,88798,1,8,0:0:0:0:
256,192,88930,1,0,0:0:0:0:
256,192,88996,1,0,0:0:0:0:
256,192,89062,1,8,0:0:0:0:
256,192,89194,1,0,0:0:0:0:
256,192,89327,1,8,0:0:0:0:
288,192,89459,1,0,0:0:0:0:
288,192,89525,1,0,0:0:0:0:
288,192,89591,1,8,0:0:0:0:
288,192,89657,1,8,0:0:0:0:
288,192,89723,1,8,0:0:0:0:
288,192,89789,1,8,0:0:0:0:
288,192,89855,1,0,0:0:0:0:
320,224,89921,1,0,0:0:0:0:
320,224,89987,1,8,0:0:0:0:
320,224,90053,1,8,0:0:0:0:
320,224,90120,1,8,0:0:0:0:
320,224,90186,1,8,0:0:0:0:
320,224,90252,1,0,0:0:0:0:
320,224,90318,1,0,0:0:0:0:
320,224,90384,1,8,0:0:0:0:
320,224,90516,1,0,0:0:0:0:
320,224,90648,1,0,0:0:0:0:
320,224,90714,1,0,0:0:0:0:
352,256,90780,1,0,0:0:0:0:
352,256,90913,1,8,0:0:0:0:
352,256,91045,1,0,0:0:0:0:
256,192,91177,1,8,0:0:0:0:
256,192,91243,1,8,0:0:0:0:
256,192,91309,1,0,0:0:0:0:
256,192,91441,1,8,0:0:0:0:
288,192,91573,1,4,0:0:0:0:
288,192,91838,1,0,0:0:0:0:
288,192,91970,1,8,0:0:0:0:
288,192,92102,1,8,0:0:0:0:
288,192,92168,1,8,0:0:0:0:
288,192,92234,1,0,0:0:0:0:
288,192,92366,1,0,0:0:0:0:
288,192,92432,1,0,0:0:0:0:
288,192,92498,1,8,0:0:0:0:
288,192,92565,1,8,0:0:0:0:
288,192,92631,1,0,0:0:0:0:
288,192,92697,1,0,0:0:0:0:
288,192,92763,1,8,0:0:0:0:
288,192,92895,1,0,0:0:0:0:
288,192,92961,1,0,0:0:0:0:
288,192,93027,1,8,0:0:0:0:
288,192,93159,1,0,0:0:0:0:
288,160,93291,1,8,0:0:0:0:
288,160,93357,1,0,0:0:0:0:
288,160,93424,1,0,0:0:0:0:
288,160,93490,1,0,0:0:0:0:
288,160,93556,1,8,0:0:0:0:
288,160,93688,1,0,0:0:0:0:
288,160,93754,1,0,0:0:0:0:
288,160,93820,1,0,0:0:0:0:
288,160,93952,1,8,0:0:0:0:
288,160,94084,1,8,0:0:0:0:
288,160,94216,1,8,0:0:0:0:
288,160,94283,1,8,0:0:0:0:
288,160,94349,1,0,0:0:0:0:
288,160,94415,1,0,0:0:0:0:
288,160,94481,1,8,0:0:0:0:
288,160,94547,1,0,0:0:0:0:
288,160,94613,1,8,0:0:0:0:
288,160,94745,1,0,0:0:0:0:
288,160,94811,1,0,0:0:0:0:
288,160,94877,1,8,0:0:0:0:
288,160,95009,1,0,0:0:0:0:
288,160,95142,1,8,0:0:0:0:
288,160,95274,1,8,0:0:0:0:
288,160,95340,1,8,0:0:0:0:
288,160,95406,1,0,0:0:0:0:
288,160,95472,1,0,0:0:0:0:
288,160,95538,1,0,0:0:0:0:
288,160,95604,1,0,0:0:0:0:
288,160,95670,1,8,0:0:0:0:
288,160,95802,1,8,0:0:0:0:
288,160,95868,1,8,0:0:0:0:
288,160,95935,1,0,0:0:0:0:
288,160,96067,1,0,0:0:0:0:
288,160,96199,1,8,0:0:0:0:
288,160,96331,1,8,0:0:0:0:
288,160,96397,1,8,0:0:0:0:
288,160,96463,1,0,0:0:0:0:
288,160,96529,1,8,0:0:0:0:
288,160,96595,1,0,0:0:0:0:
288,160,96661,1,0,0:0:0:0:
288,160,96727,1,8,0:0:0:0:
288,160,96860,1,0,0:0:0:0:
192,160,96992,1,8,0:0:0:0:
224,160,97058,1,8,0:0:0:0:
224,160,97124,1,0,0:0:0:0:
224,160,97190,1,0,0:0:0:0:
224,160,97256,1,8,0:0:0:0:
224,160,97388,1,0,0:0:0:0:
224,160,97454,1,0,0:0:0:0:
224,160,97520,1,8,0:0:0:0:
224,160,97653,1,0,0:0:0:0:
224,160,97785,1,8,0:0:0:0:
320,160,97917,1,8,0:0:0:0:
320,160,98049,1,0,0:0:0:0:
320,160,98181,1,0,0:0:0:0:
320,160,98247,1,0,0:0:0:0:
320,160,98313,1,8,0:0:0:0:
320,160,98446,1,0,0:0:0:0:
320,160,98578,1,8,0:0:0:0:
320,160,98644,1,0,0:0:0:0:
320,160,98710,1,0,0:0:0:0:
320,160,98776,1,0,0:0:0:0:
320,160,98842,1,8,0:0:0:0:
320,160,98974,1,0,0:0:0:0:
352,256,99106,1,8,0:0:0:0:
352,256,99172,1,8,0:0:0:0:
288,192,99239,1,8,0:0:0:0:
288,192,99305,1,8,0:0:0:0:
288,192,99371,1,0,0:0:0:0:
288,192,99503,1,8,0:0:0:0:
288,192,99635,1,8,0:0:0:0:
352,256,99701,1,8,0:0:0:0:
288,192,99767,1,0,0:0:0:0:
288,192,99899,1,8,0:0:0:0:
288,192,100031,1,0,0:0:0:0:
224,160,100164,1,0,0:0:0:0:
256,160,100230,1,0,0:0:0:0:
256,160,100296,1,0,0:0:0:0:
256,160,100362,1,0,0:0:0:0:
256,160,100428,1,8,0:0:0:0:
160,160,100560,1,8,0:0:0:0:
160,160,100626,1,8,0:0:0:0:
160,160,100692,1,8,0:0:0:0:
160,160,100758,1,8,0:0:0:0:
160,160,100824,1,0,0:0:0:0:
160,160,100890,1,0,0:0:0:0:
256,192,100957,1,8,0:0:0:0:
160,160,101022,1,8,0:0:0:0:
224,192,101088,1,0,0:0:0:0:
160,160,101155,1,0,0:0:0:0:
160,160,101221,1,8,0:0:0:0:
256,192,101353,1,0,0:0:0:0:
256,192,101419,1,0,0:0:0:0:
256,192,101485,1,8,0:0:0:0:
256,192,101617,1,0,0:0:0:0:
256,192,101750,1,8,0:0:0:0:
256,192,101882,1,8,0:0:0:0:
256,192,102014,1,0,0:0:0:0:
224,192,102080,1,0,0:0:0:0:
256,192,102146,1,8,0:0:0:0:
224,192,102212,1,8,0:0:0:0:
256,192,102278,1,0,0:0:0:0:
256,192,102410,1,0,0:0:0:0:
256,192,102542,1,8,0:0:0:0:
256,192,102675,1,0,0:0:0:0:
256,192,102807,1,8,0:0:0:0:
256,192,102873,1,8,0:0:0:0:
256,192,102939,1,0,0:0:0:0:
256,192,103005,1,0,0:0:0:0:
256,192,103071,1,8,0:0:0:0:
256,192,103203,1,0,0:0:0:0:
256,192,103269,1,0,0:0:0:0:
256,192,103335,1,8,0:0:0:0:
256,192,103468,1,0,0:0:0:0:
256,192,103600,1,8,0:0:0:0:
288,192,103732,1,8,0:0:0:0:
288,192,103798,1,0,0:0:0:0:
288,192,103864,1,0,0:0:0:0:
256,192,103996,1,0,0:0:0:0:
256,192,104128,1,8,0:0:0:0:
256,192,104261,1,8,0:0:0:0:
256,192,104327,1,8,0:0:0:0:
256,192,104393,1,0,0:0:0:0:
256,192,104525,1,0,0:0:0:0:
256,192,104657,1,8,0:0:0:0:
256,160,104789,1,0,0:0:0:0:
256,160,104855,1,0,0:0:0:0:
256,160,104921,1,8,0:0:0:0:
256,160,104987,1,0,0:0:0:0:
256,160,105053,1,0,0:0:0:0:
256,160,105186,1,8,0:0:0:0:
256,160,105318,1,0,0:0:0:0:
320,192,105450,1,8,0:0:0:0:
320,192,105516,1,8,0:0:0:0:
320,192,105582,1,0,0:0:0:0:
320,192,105648,1,0,0:0:0:0:
320,192,105714,1,8,0:0:0:0:
320,192,105846,1,0,0:0:0:0:
320,192,105979,1,8,0:0:0:0:
320,192,106111,1,8,0:0:0:0:
320,192,106243,1,0,0:0:0:0:
320,192,106375,1,0,0:0:0:0:
320,192,106507,1,8,0:0:0:0:
320,192,106639,1,0,0:0:0:0:
320,192,106705,1,0,0:0:0:0:
320,192,106772,1,8,0:0:0:0:
320,192,106904,1,0,0:0:0:0:
320,192,107036,1,8,0:0:0:0:
320,192,107102,1,8,0:0:0:0:
320,192,107168,1,0,0:0:0:0:
320,192,107234,1,8,0:0:0:0:
320,192,107300,1,0,0:0:0:0:
320,192,107432,1,0,0:0:0:0:
320,192,107565,1,8,0:0:0:0:
320,192,107697,1,0,0:0:0:0:
320,192,107829,1,8,0:0:0:0:
320,192,107961,1,8,0:0:0:0:
320,192,108093,1,0,0:0:0:0:
320,192,108159,1,0,0:0:0:0:
256,192,108225,1,8,0:0:0:0:
256,192,108291,1,0,0:0:0:0:
320,192,108357,1,8,0:0:0:0:
288,192,108490,1,12,0:0:0:0:
320,192,108754,1,0,0:0:0:0:
320,192,108820,1,0,0:0:0:0:
320,192,108886,1,8,0:0:0:0:
352,192,109018,1,0,0:0:0:0:
352,192,109084,1,0,0:0:0:0:
352,192,109150,1,8,0:0:0:0:
352,192,109216,1,8,0:0:0:0:
352,192,109283,1,8,0:0:0:0:
352,192,109349,1,8,0:0:0:0:
352,192,109415,1,0,0:0:0:0:
352,192,109481,1,0,0:0:0:0:
352,192,109547,1,8,0:0:0:0:
352,192,109679,1,4,0:0:0:0:
256,224,110736,1,4,0:0:0:0:
256,224,111133,1,4,0:0:0:0:
256,224,111529,1,4,0:0:0:0:
256,224,111794,1,4,0:0:0:0:
288,192,112851,1,12,0:0:0:0:
288,192,112983,1,0,0:0:0:0:
288,192,113115,1,0,0:0:0:0:
288,192,113247,1,12,0:0:0:0:
256,224,113379,1,0,0:0:0:0:
352,192,113512,1,0,0:0:0:0:
352,192,113644,1,8,0:0:0:0:
352,192,113710,1,8,0:0:0:0:
352,192,113776,1,0,0:0:0:0:
352,192,113842,1,0,0:0:0:0:
352,192,113908,1,8,0:0:0:0:
288,192,114172,1,0,0:0:0:0:
288,192,114437,1,8,0:0:0:0:
288,192,114701,1,0,0:0:0:0:
288,192,114965,1,8,0:0:0:0:
288,192,115230,1,0,0:0:0:0:
288,192,115494,1,8,0:0:0:0:
320,192,115758,1,0,0:0:0:0:
320,160,116023,1,8,0:0:0:0:
320,160,116287,1,0,0:0:0:0:
320,160,116551,1,8,0:0:0:0:
320,160,116816,1,8,0:0:0:0:
320,192,116948,1,4,0:0:0:0:
288,192,117609,1,8,0:0:0:0:
288,192,117675,1,0,0:0:0:0:
288,192,117741,1,0,0:0:0:0:
288,192,117807,1,0,0:0:0:0:
288,192,117873,1,8,0:0:0:0:
320,224,118137,1,4,0:0:0:0:
320,224,118402,1,8,0:0:0:0:
320,224,118534,1,8,0:0:0:0:
320,224,118666,1,0,0:0:0:0:
320,224,118798,1,0,0:0:0:0:
320,224,118930,1,8,0:0:0:0:
288,160,119062,1,0,0:0:0:0:
288,160,119194,1,8,0:0:0:0:
288,160,119459,1,8,0:0:0:0:
288,160,119591,1,0,0:0:0:0:
288,160,119855,1,0,0:0:0:0:
288,160,119987,1,8,0:0:0:0:
288,160,120120,1,8,0:0:0:0:
288,160,120252,1,0,0:0:0:0:
192,192,120384,1,0,0:0:0:0:
288,160,120516,1,8,0:0:0:0:
288,160,120648,1,0,0:0:0:0:
288,160,120780,1,0,0:0:0:0:
288,160,120913,1,0,0:0:0:0:
288,160,121045,1,8,0:0:0:0:
288,160,121177,1,8,0:0:0:0:
288,160,121309,1,0,0:0:0:0:
288,160,121573,1,8,0:0:0:0:
288,160,121705,1,0,0:0:0:0:
288,160,121970,1,0,0:0:0:0:
288,160,122102,1,8,0:0:0:0:
288,160,122234,1,8,0:0:0:0:
288,160,122366,1,0,0:0:0:0:
320,160,122631,1,8,0:0:0:0:
320,160,122763,1,8,0:0:0:0:
320,160,122895,1,0,0:0:0:0:
320,160,123027,1,0,0:0:0:0:
320,160,123159,1,8,0:0:0:0:
320,160,123291,1,0,0:0:0:0:
320,160,123424,1,0,0:0:0:0:
352,160,123556,1,0,0:0:0:0:
352,160,123688,1,8,0:0:0:0:
352,160,123820,1,0,0:0:0:0:
352,160,123952,1,8,0:0:0:0:
352,192,124084,1,8,0:0:0:0:
352,192,124216,1,0,0:0:0:0:
320,160,124349,1,8,0:0:0:0:
320,160,124613,1,0,0:0:0:0:
320,160,124745,1,8,0:0:0:0:
320,160,124877,1,0,0:0:0:0:
320,160,125009,1,8,0:0:0:0:
320,160,125142,1,8,0:0:0:0:
320,160,125274,1,0,0:0:0:0:
320,192,125406,1,8,0:0:0:0:
192,192,125472,1,8,0:0:0:0:
192,192,125538,1,0,0:0:0:0:
320,192,125670,1,8,0:0:0:0:
352,192,125736,1,8,0:0:0:0:
352,192,125802,1,8,0:0:0:0:
352,192,125935,1,0,0:0:0:0:
352,192,126067,1,8,0:0:0:0:
352,192,126133,1,8,0:0:0:0:
352,192,126199,1,8,0:0:0:0:
352,192,126265,1,8,0:0:0:0:
352,192,126331,1,0,0:0:0:0:
352,192,126397,1,0,0:0:0:0:
352,192,126463,1,8,0:0:0:0:
352,192,126529,1,8,0:0:0:0:
352,192,126595,1,0,0:0:0:0:
288,160,126860,1,0,0:0:0:0:
288,160,127124,1,8,0:0:0:0:
288,160,127653,1,0,0:0:0:0:
320,160,127785,1,8,0:0:0:0:
288,160,127917,1,0,0:0:0:0:
288,160,128181,1,8,0:0:0:0:
320,160,128446,1,8,0:0:0:0:
320,160,128578,1,8,0:0:0:0:
320,160,128710,1,0,0:0:0:0:
320,160,128974,1,0,0:0:0:0:
288,192,129239,1,8,0:0:0:0:
288,160,129503,1,0,0:0:0:0:
288,160,129767,1,0,0:0:0:0:
288,160,129899,1,8,0:0:0:0:
288,160,130031,1,0,0:0:0:0:
288,160,130164,1,0,0:0:0:0:
288,160,130296,1,8,0:0:0:0:
256,192,130560,1,8,0:0:0:0:
256,192,130692,1,8,0:0:0:0:
256,192,130824,1,0,0:0:0:0:
256,192,131089,1,0,0:0:0:0:
256,192,131353,1,8,0:0:0:0:
224,192,131617,1,0,0:0:0:0:
224,160,131882,1,0,0:0:0:0:
224,160,132014,1,8,0:0:0:0:
224,160,132146,1,0,0:0:0:0:
224,160,132410,1,8,0:0:0:0:
224,160,132675,1,8,0:0:0:0:
224,160,132807,1,8,0:0:0:0:
224,128,132939,1,0,0:0:0:0:
288,160,133203,1,0,0:0:0:0:
288,160,133468,1,8,0:0:0:0:
288,160,133732,1,0,0:0:0:0:
288,160,133996,1,0,0:0:0:0:
288,160,134261,1,0,0:0:0:0:
224,192,134392,1,0,0:0:0:0:
288,160,134525,1,8,0:0:0:0:
288,160,134591,1,8,0:0:0:0:
288,160,134657,1,0,0:0:0:0:
288,160,134789,1,8,0:0:0:0:
288,160,134921,1,4,0:0:0:0:
320,192,135186,1,0,0:0:0:0:
320,192,135318,1,8,0:0:0:0:
320,192,135450,1,0,0:0:0:0:
320,192,135516,1,0,0:0:0:0:
320,192,135582,1,0,0:0:0:0:
320,192,135714,1,0,0:0:0:0:
320,192,135846,1,8,0:0:0:0:
320,192,135979,1,0,0:0:0:0:
320,192,136111,1,8,0:0:0:0:
320,192,136243,1,8,0:0:0:0:
320,192,136375,1,0,0:0:0:0:
320,192,136507,1,8,0:0:0:0:
320,192,136573,1,8,0:0:0:0:
320,192,136639,1,0,0:0:0:0:
320,192,136705,1,0,0:0:0:0:
320,192,136772,1,8,0:0:0:0:
320,192,136904,1,8,0:0:0:0:
320,192,137036,1,4,0:0:0:0:
384,256,137300,1,0,0:0:0:0:
384,256,137432,1,8,0:0:0:0:
320,192,137565,1,0,0:0:0:0:
320,192,137631,1,0,0:0:0:0:
320,192,137697,1,8,0:0:0:0:
320,192,137829,1,0,0:0:0:0:
320,192,137961,1,8,0:0:0:0:
192,160,138093,1,0,0:0:0:0:
320,192,138225,1,8,0:0:0:0:
320,192,138291,1,8,0:0:0:0:
320,192,138357,1,8,0:0:0:0:
160,192,138489,1,0,0:0:0:0:
192,192,138622,1,8,0:0:0:0:
320,192,138688,1,8,0:0:0:0:
320,192,138754,1,0,0:0:0:0:
320,192,138886,1,0,0:0:0:0:
320,192,138952,1,0,0:0:0:0:
320,192,139018,1,8,0:0:0:0:
288,192,139150,1,4,0:0:0:0:
320,160,139415,1,0,0:0:0:0:
320,160,139547,1,12,0:0:0:0:
288,128,139679,1,0,0:0:0:0:
288,128,139745,1,0,0:0:0:0:
288,128,139811,1,8,0:0:0:0:
288,128,139943,1,8,0:0:0:0:
288,128,140076,1,8,0:0:0:0:
288,160,140208,1,4,0:0:0:0:
288,160,140472,1,0,0:0:0:0:
256,192,140604,1,12,0:0:0:0:
320,192,140736,1,0,0:0:0:0:
320,192,140802,1,0,0:0:0:0:
320,192,140868,1,8,0:0:0:0:
320,192,141001,1,0,0:0:0:0:
320,192,141133,1,0,0:0:0:0:
320,192,141265,1,8,0:0:0:0:
320,192,141397,1,4,0:0:0:0:
320,192,141661,1,4,0:0:0:0:
352,224,141926,1,4,0:0:0:0:
352,224,142190,1,4,0:0:0:0:
288,192,142454,1,12,0:0:0:0:
288,192,142719,1,12,0:0:0:0:
288,192,142851,1,0,0:0:0:0:
288,192,142917,1,0,0:0:0:0:
288,192,142983,1,8,0:0:0:0:
288,192,143049,1,0,0:0:0:0:
288,192,143115,1,0,0:0:0:0:
288,192,143181,1,0,0:0:0:0:
288,192,143247,1,8,0:0:0:0:
288,192,143313,1,8,0:0:0:0:
288,192,143379,1,0,0:0:0:0:
288,192,143445,1,0,0:0:0:0:
288,192,143511,1,8,0:0:0:0:
288,192,143644,1,0,0:0:0:0:
288,192,143776,1,8,0:0:0:0:
288,192,143908,1,8,0:0:0:0:
288,192,143974,1,8,0:0:0:0:
288,192,144040,1,0,0:0:0:0:
288,192,144172,1,0,0:0:0:0:
288,192,144305,1,8,0:0:0:0:
288,160,144437,1,0,0:0:0:0:
288,160,144503,1,0,0:0:0:0:
288,160,144569,1,0,0:0:0:0:
288,160,144701,1,0,0:0:0:0:
288,160,144767,1,0,0:0:0:0:
288,160,144833,1,8,0:0:0:0:
288,160,144965,1,0,0:0:0:0:
288,160,145098,1,8,0:0:0:0:
288,160,145164,1,0,0:0:0:0:
288,160,145230,1,0,0:0:0:0:
288,160,145296,1,0,0:0:0:0:
288,160,145362,1,8,0:0:0:0:
288,160,145494,1,0,0:0:0:0:
288,160,145560,1,0,0:0:0:0:
288,160,145626,1,8,0:0:0:0:
288,160,145758,1,0,0:0:0:0:
288,160,145890,1,8,0:0:0:0:
288,160,146023,1,8,0:0:0:0:
288,160,146089,1,8,0:0:0:0:
288,160,146155,1,0,0:0:0:0:
288,160,146221,1,0,0:0:0:0:
288,160,146287,1,0,0:0:0:0:
288,160,146419,1,8,0:0:0:0:
288,160,146551,1,8,0:0:0:0:
288,160,146617,1,8,0:0:0:0:
288,160,146683,1,0,0:0:0:0:
288,160,146816,1,8,0:0:0:0:
256,160,146948,1,8,0:0:0:0:
288,160,147080,1,8,0:0:0:0:
288,160,147146,1,8,0:0:0:0:
288,160,147212,1,0,0:0:0:0:
288,160,147278,1,8,0:0:0:0:
288,160,147344,1,0,0:0:0:0:
288,160,147410,1,0,0:0:0:0:
288,160,147476,1,8,0:0:0:0:
288,160,147609,1,0,0:0:0:0:
256,192,147675,1,0,0:0:0:0:
256,192,147741,1,8,0:0:0:0:
352,192,147873,1,0,0:0:0:0:
352,192,148005,1,8,0:0:0:0:
352,192,148137,1,8,0:0:0:0:
352,192,148203,1,0,0:0:0:0:
352,192,148269,1,0,0:0:0:0:
352,192,148402,1,0,0:0:0:0:
352,192,148534,1,8,0:0:0:0:
352,192,148666,1,0,0:0:0:0:
352,192,148798,1,8,0:0:0:0:
352,192,148864,1,8,0:0:0:0:
352,192,148930,1,8,0:0:0:0:
352,192,148996,1,8,0:0:0:0:
352,192,149062,1,0,0:0:0:0:
352,192,149128,1,0,0:0:0:0:
352,192,149194,1,8,0:0:0:0:
352,192,149261,1,8,0:0:0:0:
352,192,149327,1,8,0:0:0:0:
352,192,149393,1,8,0:0:0:0:
352,192,149459,1,0,0:0:0:0:
352,192,149525,1,0,0:0:0:0:
352,192,149591,1,8,0:0:0:0:
352,192,149657,1,8,0:0:0:0:
320,224,149723,1,8,0:0:0:0:
320,224,149789,1,8,0:0:0:0:
320,224,149855,1,0,0:0:0:0:
320,224,149987,1,0,0:0:0:0:
320,224,150053,1,0,0:0:0:0:
320,224,150120,1,8,0:0:0:0:
352,224,150252,1,8,0:0:0:0:
352,224,150318,1,8,0:0:0:0:
352,224,150384,1,0,0:0:0:0:
352,224,150516,1,0,0:0:0:0:
352,224,150648,1,8,0:0:0:0:
352,224,150780,1,4,0:0:0:0:
352,224,151045,1,0,0:0:0:0:
352,224,151177,1,8,0:0:0:0:
352,224,151243,1,8,0:0:0:0:
352,224,151309,1,0,0:0:0:0:
352,224,151375,1,0,0:0:0:0:
352,224,151441,1,8,0:0:0:0:
352,224,151573,1,8,0:0:0:0:
352,224,151639,1,8,0:0:0:0:
352,224,151705,1,0,0:0:0:0:
320,192,151772,1,0,0:0:0:0:
352,224,151838,1,0,0:0:0:0:
352,224,151904,1,0,0:0:0:0:
352,224,151970,1,8,0:0:0:0:
320,192,152102,1,0,0:0:0:0:
320,192,152234,1,8,0:0:0:0:
320,192,152366,1,8,0:0:0:0:
320,192,152432,1,8,0:0:0:0:
320,192,152498,1,0,0:0:0:0:
320,192,152631,1,0,0:0:0:0:
320,192,152763,1,8,0:0:0:0:
320,192,152895,1,8,0:0:0:0:
320,192,152961,1,8,0:0:0:0:
320,192,153027,1,0,0:0:0:0:
320,192,153093,1,0,0:0:0:0:
320,192,153159,1,8,0:0:0:0:
320,192,153291,1,8,0:0:0:0:
320,192,153424,1,8,0:0:0:0:
320,192,153490,1,8,0:0:0:0:
320,192,153556,1,0,0:0:0:0:
320,192,153622,1,8,0:0:0:0:
320,192,153688,1,0,0:0:0:0:
320,192,153754,1,0,0:0:0:0:
320,192,153820,1,8,0:0:0:0:
320,192,153886,1,8,0:0:0:0:
320,192,153952,1,0,0:0:0:0:
320,192,154084,1,8,0:0:0:0:
320,192,154150,1,8,0:0:0:0:
320,192,154216,1,0,0:0:0:0:
320,192,154349,1,8,0:0:0:0:
320,192,154481,1,0,0:0:0:0:
320,192,154613,1,8,0:0:0:0:
320,192,154679,1,8,0:0:0:0:
320,192,154745,1,0,0:0:0:0:
320,192,154811,1,0,0:0:0:0:
320,192,154877,1,8,0:0:0:0:
320,192,155009,1,0,0:0:0:0:
320,192,155076,1,0,0:0:0:0:
320,192,155142,1,0,0:0:0:0:
320,192,155274,1,8,0:0:0:0:
320,192,155406,1,8,0:0:0:0:
256,192,155538,1,0,0:0:0:0:
256,192,155604,1,0,0:0:0:0:
256,192,155670,1,8,0:0:0:0:
256,192,155736,1,8,0:0:0:0:
320,192,155802,1,0,0:0:0:0:
320,192,155935,1,8,0:0:0:0:
320,192,156067,1,0,0:0:0:0:
288,192,156199,1,8,0:0:0:0:
288,192,156265,1,8,0:0:0:0:
288,192,156331,1,0,0:0:0:0:
288,192,156463,1,8,0:0:0:0:
288,192,156595,1,0,0:0:0:0:
288,192,156661,1,0,0:0:0:0:
288,192,156727,1,8,0:0:0:0:
288,192,156860,1,0,0:0:0:0:
288,192,156992,1,8,0:0:0:0:
288,192,157058,1,0,0:0:0:0:
288,192,157124,1,0,0:0:0:0:
288,192,157190,1,0,0:0:0:0:
288,192,157256,1,8,0:0:0:0:
288,192,157388,1,8,0:0:0:0:
288,192,157454,1,8,0:0:0:0:
288,192,157520,1,0,0:0:0:0:
288,192,157653,1,0,0:0:0:0:
288,192,157785,1,8,0:0:0:0:
288,192,157851,1,8,0:0:0:0:
288,192,157917,1,0,0:0:0:0:
288,192,158049,1,8,0:0:0:0:
288,192,158115,1,0,0:0:0:0:
288,192,158181,1,8,0:0:0:0:
288,192,158247,1,8,0:0:0:0:
288,192,158313,1,0,0:0:0:0:
256,192,158446,1,0,0:0:0:0:
224,192,158511,1,0,0:0:0:0:
256,192,158578,1,8,0:0:0:0:
256,192,158710,1,0,0:0:0:0:
256,192,158776,1,0,0:0:0:0:
256,192,158842,1,0,0:0:0:0:
256,192,158974,1,0,0:0:0:0:
256,192,159106,1,8,0:0:0:0:
256,192,159239,1,0,0:0:0:0:
320,192,159371,1,8,0:0:0:0:
320,192,159437,1,8,0:0:0:0:
320,192,159503,1,0,0:0:0:0:
320,192,159569,1,0,0:0:0:0:
320,192,159635,1,8,0:0:0:0:
288,160,159767,1,8,0:0:0:0:
288,160,159833,1,8,0:0:0:0:
288,160,159899,1,8,0:0:0:0:
288,160,159965,1,8,0:0:0:0:
288,160,160031,1,0,0:0:0:0:
288,160,160098,1,0,0:0:0:0:
288,160,160163,1,8,0:0:0:0:
288,160,160296,1,8,0:0:0:0:
320,192,160428,1,4,0:0:0:0:
320,192,160692,1,8,0:0:0:0:
320,192,160824,1,8,0:0:0:0:
320,192,160890,1,8,0:0:0:0:
320,192,160957,1,0,0:0:0:0:
320,192,161089,1,0,0:0:0:0:
320,192,161221,1,8,0:0:0:0:
320,192,161287,1,0,0:0:0:0:
320,192,161353,1,0,0:0:0:0:
320,192,161419,1,0,0:0:0:0:
320,192,161485,1,8,0:0:0:0:
320,192,161750,1,8,0:0:0:0:
320,192,161882,1,8,0:0:0:0:
320,192,162014,1,0,0:0:0:0:
320,192,162080,1,0,0:0:0:0:
320,192,162146,1,8,0:0:0:0:
320,192,162212,1,0,0:0:0:0:
320,192,162278,1,8,0:0:0:0:
320,192,162410,1,8,0:0:0:0:
320,192,162542,1,0,0:0:0:0:
320,192,162807,1,8,0:0:0:0:
320,192,162939,1,0,0:0:0:0:
320,192,163071,1,0,0:0:0:0:
320,192,163203,1,8,0:0:0:0:
320,192,163269,1,8,0:0:0:0:
320,192,163335,1,0,0:0:0:0:
320,192,163468,1,8,0:0:0:0:
320,192,163600,1,0,0:0:0:0:
352,192,163732,1,8,0:0:0:0:
352,192,163798,1,8,0:0:0:0:
352,192,163864,1,0,0:0:0:0:
352,192,163930,1,0,0:0:0:0:
352,192,163996,1,8,0:0:0:0:
352,192,164261,1,8,0:0:0:0:
352,192,164393,1,8,0:0:0:0:
352,192,164525,1,0,0:0:0:0:
288,160,164657,1,0,0:0:0:0:
288,160,164723,1,0,0:0:0:0:
288,160,164789,1,8,0:0:0:0:
288,160,164921,1,8,0:0:0:0:
288,160,165053,1,0,0:0:0:0:
288,160,165186,1,8,0:0:0:0:
288,160,165252,1,0,0:0:0:0:
288,160,165318,1,0,0:0:0:0:
288,160,165450,1,8,0:0:0:0:
288,160,165582,1,0,0:0:0:0:
288,160,165714,1,8,0:0:0:0:
288,160,165846,1,8,0:0:0:0:
288,160,165979,1,0,0:0:0:0:
288,160,166111,1,8,0:0:0:0:
288,160,166243,1,0,0:0:0:0:
288,160,166375,1,0,0:0:0:0:
288,160,166441,1,0,0:0:0:0:
288,160,166507,1,8,0:0:0:0:
288,160,166639,1,0,0:0:0:0:
288,192,166772,1,8,0:0:0:0:
288,192,166904,1,8,0:0:0:0:
288,192,167036,1,0,0:0:0:0:
288,192,167168,1,8,0:0:0:0:
320,192,167300,1,0,0:0:0:0:
320,192,167366,1,0,0:0:0:0:
320,192,167432,1,0,0:0:0:0:
320,192,167498,1,0,0:0:0:0:
320,192,167565,1,8,0:0:0:0:
320,192,167697,1,0,0:0:0:0:
320,192,167829,1,0,0:0:0:0:
320,192,167961,1,8,0:0:0:0:
320,192,168027,1,8,0:0:0:0:
320,192,168093,1,0,0:0:0:0:
320,192,168159,1,0,0:0:0:0:
320,192,168225,1,8,0:0:0:0:
352,192,168490,1,8,0:0:0:0:
352,192,168622,1,8,0:0:0:0:
352,192,168754,1,0,0:0:0:0:
256,192,168886,1,4,0:0:0:0:
288,160,169018,1,8,0:0:0:0:
288,160,169150,1,8,0:0:0:0:
288,160,169283,1,0,0:0:0:0:
288,160,169415,1,8,0:0:0:0:
288,160,169547,1,8,0:0:0:0:
288,160,169679,1,0,0:0:0:0:
320,192,169811,1,12,0:0:0:0:
288,160,170076,1,0,0:0:0:0:
288,160,170208,1,8,0:0:0:0:
288,160,170340,1,0,0:0:0:0:
288,160,170406,1,0,0:0:0:0:
288,160,170472,1,8,0:0:0:0:
288,160,170604,1,0,0:0:0:0:
288,160,170736,1,8,0:0:0:0:
288,192,170868,1,0,0:0:0:0:
256,192,171001,1,4,0:0:0:0:
288,192,171133,1,8,0:0:0:0:
288,192,171199,1,8,0:0:0:0:
288,192,171265,1,0,0:0:0:0:
288,192,171397,1,0,0:0:0:0:
288,192,171529,1,8,0:0:0:0:
288,192,171661,1,0,0:0:0:0:
288,192,171794,1,8,0:0:0:0:
288,192,171926,1,12,0:0:0:0:
352,160,172190,1,0,0:0:0:0:
352,160,172322,1,8,0:0:0:0:
352,160,172388,1,0,0:0:0:0:
352,160,172454,1,0,0:0:0:0:
352,160,172587,1,8,0:0:0:0:
288,192,172719,1,8,0:0:0:0:
352,160,172851,1,8,0:0:0:0:
352,160,172983,1,0,0:0:0:0:
320,224,173115,1,12,0:0:0:0:
320,192,173247,1,0,0:0:0:0:
320,192,173313,1,0,0:0:0:0:
320,192,173379,1,8,0:0:0:0:
320,192,173512,1,0,0:0:0:0:
256,160,173644,1,8,0:0:0:0:
256,192,173776,1,0,0:0:0:0:
256,192,173908,1,8,0:0:0:0:
352,224,174040,1,4,0:0:0:0:
256,192,174305,1,0,0:0:0:0:
256,192,174437,1,8,0:0:0:0:
256,192,174503,1,8,0:0:0:0:
256,192,174569,1,0,0:0:0:0:
256,192,174701,1,8,0:0:0:0:
256,192,174833,1,0,0:0:0:0:
256,192,174899,1,0,0:0:0:0:
256,192,174965,1,8,0:0:0:0:
256,192,175098,1,0,0:0:0:0:
288,192,175230,1,4,0:0:0:0:
288,192,175362,1,0,0:0:0:0:
288,192,175494,1,8,0:0:0:0:
256,160,175626,1,0,0:0:0:0:
256,160,175692,1,0,0:0:0:0:
256,160,175758,1,0,0:0:0:0:
256,160,175890,1,8,0:0:0:0:
256,160,176023,1,0,0:0:0:0:
256,160,176089,1,0,0:0:0:0:
256,160,176155,1,8,0:0:0:0:
256,160,176287,1,0,0:0:0:0:
256,160,176419,1,0,0:0:0:0:
320,224,176551,1,8,0:0:0:0:
320,192,176683,1,0,0:0:0:0:
320,192,176816,1,8,0:0:0:0:
320,192,176882,1,8,0:0:0:0:
320,192,176948,1,0,0:0:0:0:
320,192,177080,1,8,0:0:0:0:
320,192,177212,1,0,0:0:0:0:
288,160,177344,1,8,0:0:0:0:
288,160,177476,1,8,0:0:0:0:
288,160,177609,1,0,0:0:0:0:
288,160,177741,1,0,0:0:0:0:
288,192,177873,1,4,0:0:0:0:
288,192,178137,1,4,0:0:0:0:
288,192,178402,1,8,0:0:0:0:
320,224,178930,1,8,0:0:0:0:
320,224,179459,1,0,0:0:0:0:
288,192,181045,1,0,0:0:0:0:
224,192,181573,1,8,0:0:0:0:
288,160,183159,1,8,0:0:0:0:
256,160,183688,1,8,0:0:0:0:
256,160,184745,1,8,0:0:0:0:
256,160,185142,1,8,0:0:0:0:
320,192,185538,1,0,0:0:0:0:
320,192,186067,1,8,0:0:0:0:
320,192,186331,1,8,0:0:0:0:
288,192,186595,1,8,0:0:0:0:
256,192,186727,1,0,0:0:0:0:
256,160,186860,1,0,0:0:0:0:
256,160,186992,1,8,0:0:0:0:
256,160,187124,1,8,0:0:0:0:
256,160,187256,1,0,0:0:0:0:
256,160,187388,1,8,0:0:0:0:
256,160,187520,1,8,0:0:0:0:
256,160,187653,1,0,0:0:0:0:
288,224,187785,1,0,0:0:0:0:
288,224,187917,1,12,0:0:0:0:
288,160,188181,1,0,0:0:0:0:
288,160,188313,1,8,0:0:0:0:
256,160,188578,1,0,0:0:0:0:
256,192,188710,1,0,0:0:0:0:
288,192,188974,1,0,0:0:0:0:
352,224,189239,1,0,0:0:0:0:
352,224,189371,1,0,0:0:0:0:
288,224,189503,1,8,0:0:0:0:
288,192,189635,1,0,0:0:0:0:
384,256,190031,1,8,0:0:0:0:
288,192,190296,1,0,0:0:0:0:
288,192,190428,1,8,0:0:0:0:
288,192,190692,1,8,0:0:0:0:
288,192,190824,1,0,0:0:0:0:
288,192,191353,1,0,0:0:0:0:
288,192,191617,1,8,0:0:0:0:
352,192,191882,1,0,0:0:0:0:
320,256,192014,1,0,0:0:0:0:
352,192,192146,1,0,0:0:0:0:
320,160,192410,1,0,0:0:0:0:
320,160,192542,1,8,0:0:0:0:
320,160,192807,1,8,0:0:0:0:
320,160,192939,1,0,0:0:0:0:
288,192,193203,1,0,0:0:0:0:
288,192,193335,1,8,0:0:0:0:
288,192,193468,1,0,0:0:0:0:
288,192,193600,1,0,0:0:0:0:
288,192,193732,1,8,0:0:0:0:
288,192,193996,1,8,0:0:0:0:
288,192,194261,1,0,0:0:0:0:
288,192,194525,1,0,0:0:0:0:
288,192,194657,1,8,0:0:0:0:
288,192,194921,1,8,0:0:0:0:
320,192,195053,1,0,0:0:0:0:
320,192,195318,1,12,0:0:0:0:
320,192,195582,1,0,0:0:0:0:
320,192,195846,1,12,0:0:0:0:
256,160,196904,1,8,0:0:0:0:
256,160,196992,1,8,0:0:0:0:
256,160,197080,1,8,0:0:0:0:
256,160,197168,1,0,0:0:0:0:
256,160,197256,1,0,0:0:0:0:
256,160,197344,1,0,0:0:0:0:
256,160,197432,1,8,0:0:0:0:
352,224,197565,1,0,0:0:0:0:
352,224,197631,1,0,0:0:0:0:
352,224,197697,1,8,0:0:0:0:
352,224,197829,1,0,0:0:0:0:
352,224,197895,1,0,0:0:0:0:
352,224,197961,1,0,0:0:0:0:
352,224,198093,1,0,0:0:0:0:
352,224,198225,1,8,0:0:0:0:
352,224,198357,1,8,0:0:0:0:
352,224,198424,1,8,0:0:0:0:
352,224,198490,1,0,0:0:0:0:
352,224,198622,1,8,0:0:0:0:
352,224,198754,1,8,0:0:0:0:
352,224,198886,1,8,0:0:0:0:
352,224,198952,1,8,0:0:0:0:
352,224,199018,1,0,0:0:0:0:
352,224,199084,1,8,0:0:0:0:
352,224,199150,1,0,0:0:0:0:
352,224,199216,1,0,0:0:0:0:
352,224,199283,1,8,0:0:0:0:
352,224,199415,1,8,0:0:0:0:
352,224,199481,1,8,0:0:0:0:
352,224,199547,1,0,0:0:0:0:
352,224,199679,1,0,0:0:0:0:
352,224,199811,1,8,0:0:0:0:
352,224,199943,1,0,0:0:0:0:
352,224,200009,1,0,0:0:0:0:
352,224,200076,1,0,0:0:0:0:
352,224,200208,1,8,0:0:0:0:
352,224,200274,1,0,0:0:0:0:
352,224,200340,1,8,0:0:0:0:
256,160,200472,1,8,0:0:0:0:
256,160,200538,1,8,0:0:0:0:
256,160,200604,1,8,0:0:0:0:
256,160,200670,1,8,0:0:0:0:
256,160,200736,1,0,0:0:0:0:
256,160,200802,1,0,0:0:0:0:
256,160,200868,1,8,0:0:0:0:
256,160,201001,1,0,0:0:0:0:
256,160,201067,1,0,0:0:0:0:
256,160,201133,1,8,0:0:0:0:
256,160,201199,1,0,0:0:0:0:
256,160,201265,1,0,0:0:0:0:
288,160,201331,1,0,0:0:0:0:
288,160,201397,1,8,0:0:0:0:
256,160,201463,1,8,0:0:0:0:
256,160,201529,1,0,0:0:0:0:
256,160,201595,1,0,0:0:0:0:
256,160,201661,1,8,0:0:0:0:
256,192,201794,1,0,0:0:0:0:
256,192,201926,1,8,0:0:0:0:
288,192,202058,1,0,0:0:0:0:
288,192,202190,1,0,0:0:0:0:
288,192,202256,1,0,0:0:0:0:
288,192,202322,1,8,0:0:0:0:
288,192,202454,1,8,0:0:0:0:
288,192,202587,1,0,0:0:0:0:
288,192,202719,1,8,0:0:0:0:
288,192,202785,1,8,0:0:0:0:
288,192,202851,1,8,0:0:0:0:
288,192,202917,1,8,0:0:0:0:
288,192,202983,1,0,0:0:0:0:
256,192,203049,1,0,0:0:0:0:
288,192,203115,1,8,0:0:0:0:
288,192,203181,1,8,0:0:0:0:
256,192,203247,1,8,0:0:0:0:
256,192,203313,1,8,0:0:0:0:
256,192,203379,1,0,0:0:0:0:
256,192,203446,1,0,0:0:0:0:
256,192,203512,1,8,0:0:0:0:
256,192,203578,1,0,0:0:0:0:
256,192,203644,1,0,0:0:0:0:
256,192,203710,1,0,0:0:0:0:
256,192,203776,1,8,0:0:0:0:
288,192,203908,1,0,0:0:0:0:
288,192,203974,1,0,0:0:0:0:
288,192,204040,1,8,0:0:0:0:
288,192,204172,1,8,0:0:0:0:
288,192,204305,1,8,0:0:0:0:
288,192,204371,1,8,0:0:0:0:
288,192,204437,1,0,0:0:0:0:
288,192,204503,1,0,0:0:0:0:
288,192,204569,1,0,0:0:0:0:
288,192,204701,1,12,0:0:0:0:
288,192,204965,1,0,0:0:0:0:
288,192,205031,1,0,0:0:0:0:
288,192,205098,1,8,0:0:0:0:
288,192,205230,1,8,0:0:0:0:
288,192,205296,1,8,0:0:0:0:
288,192,205362,1,0,0:0:0:0:
288,192,205428,1,8,0:0:0:0:
288,192,205494,1,0,0:0:0:0:
288,192,205560,1,0,0:0:0:0:
288,192,205626,1,8,0:0:0:0:
288,192,205692,1,8,0:0:0:0:
288,192,205758,1,0,0:0:0:0:
288,192,205824,1,0,0:0:0:0:
288,192,205890,1,8,0:0:0:0:
320,256,206023,1,0,0:0:0:0:
320,256,206089,1,0,0:0:0:0:
320,256,206155,1,8,0:0:0:0:
320,256,206287,1,0,0:0:0:0:
320,256,206353,1,0,0:0:0:0:
320,256,206419,1,0,0:0:0:0:
320,256,206551,1,0,0:0:0:0:
320,256,206683,1,8,0:0:0:0:
320,256,206816,1,8,0:0:0:0:
320,256,206882,1,8,0:0:0:0:
320,256,206948,1,0,0:0:0:0:
320,256,207014,1,0,0:0:0:0:
320,256,207080,1,8,0:0:0:0:
320,256,207212,1,8,0:0:0:0:
320,256,207344,1,8,0:0:0:0:
320,256,207410,1,8,0:0:0:0:
320,256,207476,1,0,0:0:0:0:
320,256,207542,1,8,0:0:0:0:
320,256,207609,1,0,0:0:0:0:
320,256,207741,1,8,0:0:0:0:
320,256,207807,1,0,0:0:0:0:
320,256,207873,1,0,0:0:0:0:
320,256,207939,1,0,0:0:0:0:
320,256,208005,1,8,0:0:0:0:
320,256,208137,1,0,0:0:0:0:
320,256,208269,1,8,0:0:0:0:
320,256,208402,1,8,0:0:0:0:
320,256,208468,1,8,0:0:0:0:
320,256,208534,1,0,0:0:0:0:
320,256,208600,1,0,0:0:0:0:
320,256,208666,1,0,0:0:0:0:
320,256,208732,1,0,0:0:0:0:
320,256,208798,1,8,0:0:0:0:
320,256,208930,1,8,0:0:0:0:
320,256,208996,1,8,0:0:0:0:
320,256,209062,1,0,0:0:0:0:
320,256,209194,1,8,0:0:0:0:
320,256,209327,1,8,0:0:0:0:
320,256,209459,1,0,0:0:0:0:
320,256,209525,1,0,0:0:0:0:
320,256,209591,1,8,0:0:0:0:
320,256,209657,1,0,0:0:0:0:
320,256,209723,1,0,0:0:0:0:
320,256,209789,1,0,0:0:0:0:
320,256,209855,1,8,0:0:0:0:
320,256,209987,1,0,0:0:0:0:
288,192,210120,1,8,0:0:0:0:
288,192,210186,1,8,0:0:0:0:
288,192,210252,1,0,0:0:0:0:
288,192,210318,1,0,0:0:0:0:
288,192,210384,1,8,0:0:0:0:
288,192,210516,1,0,0:0:0:0:
288,192,210582,1,0,0:0:0:0:
288,192,210648,1,8,0:0:0:0:
288,192,210780,1,0,0:0:0:0:
288,192,210913,1,8,0:0:0:0:
288,192,210979,1,8,0:0:0:0:
288,192,211045,1,8,0:0:0:0:
288,192,211111,1,8,0:0:0:0:
288,192,211177,1,0,0:0:0:0:
288,224,211309,1,0,0:0:0:0:
288,224,211375,1,0,0:0:0:0:
288,224,211441,1,8,0:0:0:0:
288,224,211573,1,0,0:0:0:0:
320,192,211705,1,0,0:0:0:0:
320,192,211772,1,0,0:0:0:0:
320,192,211838,1,8,0:0:0:0:
320,192,211904,1,8,0:0:0:0:
320,192,211970,1,8,0:0:0:0:
320,192,212102,1,8,0:0:0:0:
320,192,212234,1,0,0:0:0:0:
320,192,212300,1,0,0:0:0:0:
288,192,212366,1,0,0:0:0:0:
288,192,212432,1,0,0:0:0:0:
192,192,212498,1,8,0:0:0:0:
160,224,212630,1,0,0:0:0:0:
320,192,212762,1,8,0:0:0:0:
320,192,212828,1,8,0:0:0:0:
320,192,212894,1,0,0:0:0:0:
320,192,212960,1,0,0:0:0:0:
320,192,213026,1,8,0:0:0:0:
320,192,213159,1,0,0:0:0:0:
320,192,213291,1,8,0:0:0:0:
320,192,213357,1,8,0:0:0:0:
320,192,213424,1,8,0:0:0:0:
320,192,213490,1,8,0:0:0:0:
320,192,213556,1,0,0:0:0:0:
320,192,213688,1,8,0:0:0:0:
352,224,213754,1,8,0:0:0:0:
352,224,213820,1,8,0:0:0:0:
352,224,213886,1,8,0:0:0:0:
352,224,213952,1,0,0:0:0:0:
352,224,214018,1,0,0:0:0:0:
352,224,214084,1,8,0:0:0:0:
352,224,214150,1,0,0:0:0:0:
384,256,214216,1,0,0:0:0:0:
384,256,214282,1,0,0:0:0:0:
384,256,214348,1,8,0:0:0:0:
384,256,214481,1,0,0:0:0:0:
384,256,214547,1,0,0:0:0:0:
384,256,214613,1,8,0:0:0:0:
384,256,214745,1,0,0:0:0:0:
384,256,214877,1,8,0:0:0:0:
384,256,215009,1,8,0:0:0:0:
384,256,215142,1,0,0:0:0:0:
384,256,215208,1,0,0:0:0:0:
384,256,215274,1,0,0:0:0:0:
384,256,215340,1,0,0:0:0:0:
384,256,215406,1,8,0:0:0:0:
384,256,215538,1,0,0:0:0:0:
384,256,215670,1,8,0:0:0:0:
352,224,215802,1,0,0:0:0:0:
352,224,215868,1,0,0:0:0:0:
352,224,215935,1,8,0:0:0:0:
352,224,216001,1,0,0:0:0:0:
352,224,216067,1,0,0:0:0:0:
352,224,216133,1,0,0:0:0:0:
352,224,216199,1,8,0:0:0:0:
352,224,216331,1,0,0:0:0:0:
352,224,216463,1,8,0:0:0:0:
352,224,216529,1,8,0:0:0:0:
352,224,216595,1,0,0:0:0:0:
352,224,216727,1,8,0:0:0:0:
352,224,216860,1,8,0:0:0:0:
352,224,216992,1,0,0:0:0:0:
352,224,217124,1,0,0:0:0:0:
352,224,217256,1,8,0:0:0:0:
352,224,217322,1,8,0:0:0:0:
352,224,217388,1,0,0:0:0:0:
352,224,217454,1,0,0:0:0:0:
352,224,217520,1,8,0:0:0:0:
352,224,217653,1,8,0:0:0:0:
352,224,217719,1,8,0:0:0:0:
352,224,217785,1,0,0:0:0:0:
352,224,217917,1,0,0:0:0:0:
352,224,218049,1,8,0:0:0:0:
352,224,218115,1,0,0:0:0:0:
352,224,218181,1,0,0:0:0:0:
352,224,218247,1,0,0:0:0:0:
352,224,218313,1,8,0:0:0:0:
352,224,218379,1,0,0:0:0:0:
352,224,218446,1,8,0:0:0:0:
352,224,218512,1,8,0:0:0:0:
352,224,218578,1,0,0:0:0:0:
384,224,218710,1,0,0:0:0:0:
384,224,218842,1,8,0:0:0:0:
384,224,218974,1,8,0:0:0:0:
384,224,219040,1,8,0:0:0:0:
384,224,219106,1,0,0:0:0:0:
384,224,219172,1,0,0:0:0:0:
384,224,219239,1,8,0:0:0:0:
384,224,219371,1,8,0:0:0:0:
384,224,219503,1,0,0:0:0:0:
384,224,219635,1,8,0:0:0:0:
384,224,219701,1,0,0:0:0:0:
384,224,219767,1,0,0:0:0:0:
384,224,219833,1,0,0:0:0:0:
384,224,219899,1,8,0:0:0:0:
384,224,219965,1,8,0:0:0:0:
384,224,220031,1,0,0:0:0:0:
384,224,220164,1,8,0:0:0:0:
384,224,220296,1,0,0:0:0:0:
384,224,220362,1,0,0:0:0:0:
384,224,220428,1,8,0:0:0:0:
384,224,220560,1,0,0:0:0:0:
352,192,220692,1,8,0:0:0:0:
352,192,220758,1,8,0:0:0:0:
352,192,220824,1,0,0:0:0:0:
352,192,220890,1,0,0:0:0:0:
352,192,220957,1,8,0:0:0:0:
352,192,221089,1,0,0:0:0:0:
352,192,221155,1,0,0:0:0:0:
352,192,221221,1,8,0:0:0:0:
352,192,221353,1,8,0:0:0:0:
352,192,221485,1,0,0:0:0:0:
256,224,221617,1,8,0:0:0:0:
256,224,221683,1,8,0:0:0:0:
224,160,221749,1,8,0:0:0:0:
224,160,221815,1,8,0:0:0:0:
352,192,221882,1,0,0:0:0:0:
352,192,221948,1,0,0:0:0:0:
352,192,222014,1,8,0:0:0:0:
352,192,222146,1,8,0:0:0:0:
352,192,222212,1,8,0:0:0:0:
352,192,222278,1,8,0:0:0:0:
352,192,222410,1,0,0:0:0:0:
352,192,222542,1,8,0:0:0:0:
352,192,222609,1,0,0:0:0:0:
352,192,222675,1,0,0:0:0:0:
288,160,222807,1,12,0:0:0:0:
288,160,222939,1,0,0:0:0:0:
288,160,223005,1,0,0:0:0:0:
288,160,223071,1,8,0:0:0:0:
288,160,223203,1,8,0:0:0:0:
288,160,223269,1,8,0:0:0:0:
288,160,223335,1,0,0:0:0:0:
288,160,223402,1,0,0:0:0:0:
288,160,223468,1,8,0:0:0:0:
288,160,223534,1,0,0:0:0:0:
288,160,223600,1,8,0:0:0:0:
288,160,223732,1,8,0:0:0:0:
288,160,223798,1,8,0:0:0:0:
288,160,223864,1,0,0:0:0:0:
288,160,223996,1,0,0:0:0:0:
288,160,224062,1,0,0:0:0:0:
288,160,224128,1,8,0:0:0:0:
288,160,224194,1,0,0:0:0:0:
288,160,224261,1,0,0:0:0:0:
288,160,224327,1,0,0:0:0:0:
288,160,224393,1,8,0:0:0:0:
288,160,224459,1,8,0:0:0:0:
288,160,224525,1,0,0:0:0:0:
288,160,224591,1,0,0:0:0:0:
288,160,224657,1,8,0:0:0:0:
288,160,224789,1,8,0:0:0:0:
288,160,224855,1,8,0:0:0:0:
288,160,224921,1,0,0:0:0:0:
288,160,225053,1,0,0:0:0:0:
288,160,225186,1,8,0:0:0:0:
288,160,225318,1,0,0:0:0:0:
288,160,225384,1,0,0:0:0:0:
288,160,225450,1,8,0:0:0:0:
288,160,225516,1,0,0:0:0:0:
288,160,225582,1,8,0:0:0:0:
288,160,225648,1,8,0:0:0:0:
288,160,225714,1,0,0:0:0:0:
288,160,225780,1,8,0:0:0:0:
288,160,225846,1,8,0:0:0:0:
288,160,225913,1,8,0:0:0:0:
288,160,225979,1,0,0:0:0:0:
352,160,226111,1,0,0:0:0:0:
352,160,226177,1,0,0:0:0:0:
352,160,226243,1,8,0:0:0:0:
352,160,226375,1,0,0:0:0:0:
352,160,226441,1,0,0:0:0:0:
352,160,226507,1,8,0:0:0:0:
352,160,226573,1,0,0:0:0:0:
352,160,226639,1,8,0:0:0:0:
352,160,226705,1,8,0:0:0:0:
352,160,226772,1,0,0:0:0:0:
352,160,226838,1,0,0:0:0:0:
352,160,226904,1,8,0:0:0:0:
352,160,226970,1,8,0:0:0:0:
352,160,227036,1,0,0:0:0:0:
320,192,227168,1,0,0:0:0:0:
320,192,227234,1,0,0:0:0:0:
320,192,227300,1,8,0:0:0:0:
320,192,227366,1,0,0:0:0:0:
320,192,227432,1,0,0:0:0:0:
320,192,227498,1,0,0:0:0:0:
320,192,227565,1,8,0:0:0:0:
320,192,227697,1,0,0:0:0:0:
320,192,227763,1,0,0:0:0:0:
320,192,227829,1,8,0:0:0:0:
320,192,227895,1,8,0:0:0:0:
320,192,227961,1,0,0:0:0:0:
320,192,228093,1,8,0:0:0:0:
320,192,228225,1,8,0:0:0:0:
320,192,228291,1,8,0:0:0:0:
320,192,228357,1,0,0:0:0:0:
320,192,228424,1,0,0:0:0:0:
320,192,228490,1,8,0:0:0:0:
320,192,228556,1,0,0:0:0:0:
320,192,228622,1,8,0:0:0:0:
320,192,228754,1,8,0:0:0:0:
320,192,228820,1,8,0:0:0:0:
320,192,228886,1,0,0:0:0:0:
320,192,228952,1,0,0:0:0:0:
320,192,229018,1,8,0:0:0:0:
320,224,229150,1,12,0:0:0:0:
352,224,229415,1,12,0:0:0:0:
352,256,229679,1,12,0:0:0:0:
288,160,229943,1,4,0:0:0:0:
288,160,230076,1,12,0:0:0:0:
288,192,230340,1,0,0:0:0:0:
288,192,230472,1,8,0:0:0:0:
288,192,230604,1,8,0:0:0:0:
288,192,230670,1,8,0:0:0:0:
288,192,230736,1,0,0:0:0:0:
288,192,230802,1,0,0:0:0:0:
288,192,230868,1,8,0:0:0:0:
288,192,230935,1,0,0:0:0:0:
288,192,231001,1,8,0:0:0:0:
288,192,231067,1,8,0:0:0:0:
288,192,231133,1,0,0:0:0:0:
288,192,231199,1,0,0:0:0:0:
288,192,231265,1,8,0:0:0:0:
