osu file format v14

[General]
AudioFilename: life.mp3
AudioLeadIn: 0
PreviewTime: 83722
Countdown: 0
SampleSet: Soft
StackLeniency: 0.7
Mode: 0
LetterboxInBreaks: 0
WidescreenStoryboard: 0

[Editor]
DistanceSpacing: 1.2
BeatDivisor: 2
GridSize: 32
TimelineZoom: 2.4

[Metadata]
Title:Sendan Life
TitleUnicode:センダンライフ
Artist:Remo Prototype[CV: Hanamori Yumiri]
ArtistUnicode:リモ Prototype[CV:花守ゆみり]
Creator:Settia
Version:Normal
Source:ガラスの花と壊す世界
Tags:vocaloid Chukka やしきん yashikin Glass no Hana to Kowasu Sekai GARAKOWA Restore the World Vitreous Flower Destroy the World D.backup
BeatmapID:965352
BeatmapSetID:394834

[Difficulty]
HPDrainRate:2
CircleSize:3
OverallDifficulty:3
ApproachRate:3
SliderMultiplier:0.6
SliderTickRate:1

[Events]
//Background and Video events
0,0,"nbg.jpg",0,0
//Break Periods
2,104043,108218
2,179438,186456
//Storyboard Layer 0 (Background)
//Storyboard Layer 1 (Fail)
//Storyboard Layer 2 (Pass)
//Storyboard Layer 3 (Foreground)
//Storyboard Sound Samples

[TimingPoints]
37764,264.31718061674,4,2,1,50,1,0
41993,-100,4,2,1,70,0,0
67367,-100,4,2,1,50,0,0
75693,-100,4,2,1,70,0,0
84283,-100,4,2,1,85,0,1
101200,-100,4,2,1,85,0,0
109658,-100,4,2,1,60,0,0
116926,-100,4,2,1,70,0,0
126574,-100,4,2,1,50,0,0
134900,-100,4,2,1,70,0,0
143490,-100,4,2,1,85,0,1
160407,-100,4,2,1,85,0,0
178380,-100,4,2,1,50,0,0
187896,-100,4,2,1,50,0,0
197411,-100,4,2,1,85,0,1
214327,-100,4,2,1,85,0,0

[Colours]
Combo1 : 109,198,255
Combo2 : 196,174,228
Combo3 : 255,169,136
Combo4 : 109,121,158

[HitObjects]
60,126,37763,6,0,B|118:150|118:150|182:128,1,120,8|2,0:0|0:0,0:0:0:0:
256,63,38689,2,0,P|320:47|380:63,1,120,8|8,0:0|0:0,0:0:0:0:
425,152,39614,1,8,0:0:0:0:
384,212,39878,6,0,B|324:200|324:200|248:220,1,120,8|2,0:0|0:0,0:0:0:0:
216,308,40803,2,0,P|168:260|172:168,1,150,8|8,0:0|0:0,0:0:0:0:
216,44,41993,6,0,P|280:28|352:56,1,120,6|2,0:0|0:0,0:0:0:0:
412,160,43050,2,0,B|426:222|426:222|393:292,1,120,2|2,0:0|0:0,0:0:0:0:
291,366,44107,6,0,P|263:290|287:238,1,120,2|2,0:0|0:0,0:0:0:0:
333,124,45164,2,0,B|277:112|277:112|197:128,1,120,2|2,0:0|0:0,0:0:0:0:
78,169,46222,6,0,P|98:229|150:265,1,120,2|2,0:0|0:0,0:0:0:0:
260,343,47279,2,0,B|276:282|276:282|256:203,1,120,2|2,0:0|0:0,0:0:0:0:
151,133,48336,6,0,P|195:89|271:81,1,120,2|2,0:0|0:0,0:0:0:0:
326,154,49261,2,0,P|402:178|486:150,1,150,6|10,0:0|0:0,0:0:0:0:
468,305,50451,6,0,B|408:289|408:289|345:307,1,120,6|0,0:0|0:0,0:0:0:0:
215,348,51508,2,0,P|155:360|87:336,1,120,2|0,0:0|0:0,0:0:0:0:
35,214,52565,5,2,0:0:0:0:
108,90,53094,1,0,0:0:0:0:
224,176,53623,2,0,B|286:160|286:160|364:180,1,120,2|0,0:0|0:0,0:0:0:0:
458,255,54680,5,2,0:0:0:0:
334,329,55208,1,0,0:0:0:0:
220,240,55737,2,0,P|200:184|232:120,1,120,2|0,0:0|0:0,0:0:0:0:
344,54,56794,5,2,0:0:0:0:
392,192,57323,1,0,0:0:0:0:
440,328,57852,2,0,B|381:311|381:311|306:331,1,120,0|4,0:0|0:0,0:0:0:0:
185,362,58909,6,0,P|209:310|193:230,1,120,6|0,0:0|0:0,0:0:0:0:
92,156,59966,2,0,P|155:173|225:154,1,120,2|0,0:0|0:0,0:0:0:0:
339,104,61023,5,2,0:0:0:0:
306,244,61552,1,0,0:0:0:0:
423,160,62081,2,0,P|442:103|420:39,1,120,2|0,0:0|0:0,0:0:0:0:
288,100,63138,6,0,L|144:96,1,120,2|0,0:0|0:0,0:0:0:0:
40,32,64195,1,2,0:0:0:0:
36,176,64724,2,0,P|28:248|52:296,1,120,0|2,0:0|0:0,0:0:0:0:
172,220,65781,5,0,0:0:0:0:
252,292,66178,2,0,B|333:315|333:315|408:292,1,150,6|8,0:0|0:0,0:0:0:0:
410,152,67367,6,0,P|347:151|299:194,1,120,6|0,0:0|0:0,0:0:0:0:
396,296,68424,1,0,0:0:0:0:
261,348,68953,1,8,0:0:0:0:
132,281,69482,6,0,L|136:157,1,120,2|0,0:0|0:0,0:0:0:0:
237,58,70539,1,0,0:0:0:0:
93,58,71067,1,8,0:0:0:0:
16,180,71596,6,0,B|78:160|78:160|147:182,1,120,2|0,0:0|0:0,0:0:0:0:
238,272,72653,1,2,0:0:0:0:
328,160,73182,1,0,0:0:0:0:
334,303,73711,6,0,P|302:355|225:368,1,120,2|0,0:0|0:0,0:0:0:0:
130,288,74768,2,0,B|196:273|196:273|262:288,1,120,0|8,0:0|0:0,0:0:0:0:
347,325,75693,6,0,P|371:261|335:181,1,150,6|2,0:0|0:0,0:0:0:0:
198,200,76882,1,2,0:0:0:0:
308,107,77411,1,2,0:0:0:0:
200,116,77808,6,0,P|136:148|120:228,1,150,6|2,0:0|0:0,0:0:0:0:
220,324,78997,2,0,B|301:324|301:324|332:296,1,120,6|0,0:0|0:0,0:0:0:0:
280,200,79922,6,0,P|248:128|280:48,1,150,6|2,0:0|0:0,0:0:0:0:
400,120,81112,1,2,0:0:0:0:
492,232,81640,1,0,0:0:0:0:
408,348,82169,6,0,P|349:353|283:317,1,120,12|8,0:0|0:0,0:0:0:0:
189,351,83094,2,0,P|193:275|265:227,1,150,6|8,0:0|0:0,0:0:0:0:
384,188,84283,6,0,P|407:134|379:69,1,120,6|2,0:0|0:0,0:0:0:0:
288,136,85208,2,0,B|223:153|223:153|136:124,1,150,0|2,0:0|0:0,0:0:0:0:
52,238,86398,6,0,P|96:278|160:286,1,120,2|2,0:0|0:0,0:0:0:0:
254,326,87323,2,0,P|321:303|407:332,1,150,2|2,0:0|0:0,0:0:0:0:
329,195,88512,5,2,0:0:0:0:
450,117,89041,1,2,0:0:0:0:
305,111,89570,2,0,P|262:135|241:211,1,120,2|2,0:0|0:0,0:0:0:0:
366,266,90627,5,2,0:0:0:0:
248,336,91156,2,0,P|204:348|154:331,1,90,2|6,0:0|0:0,0:0:0:0:
83,262,91949,2,0,P|111:242|143:238,1,60,8|2,0:0|0:0,0:0:0:0:
224,117,92741,6,0,B|252:170|252:170|235:242,1,120,6|2,0:0|0:0,0:0:0:0:
168,312,93667,2,0,P|239:342|313:310,1,150,0|2,0:0|0:0,0:0:0:0:
425,239,94856,6,0,B|372:255|372:255|301:231,1,120,2|2,0:0|0:0,0:0:0:0:
202,226,95781,2,0,P|227:162|302:134,1,150,2|2,0:0|0:0,0:0:0:0:
434,183,96971,6,0,P|454:127|430:75,1,120,6|2,0:0|0:0,0:0:0:0:
298,134,98028,1,2,0:0:0:0:
358,264,98556,1,2,0:0:0:0:
236,187,99085,6,0,P|216:130|249:69,2,120,6|8|8,0:0|0:0|0:0,0:0:0:0:
257,329,100671,2,0,P|198:343|139:316,1,120,0|6,0:0|0:0,0:0:0:0:
256,192,101332,12,0,103843,0:0:0:0:
104,52,109658,5,6,0:0:0:0:
68,336,110715,2,0,P|112:348|160:336,1,90,10|10,0:0|0:0,0:0:0:0:
248,288,111508,2,0,P|256:312|252:352,1,60,10|4,0:0|0:0,0:0:0:0:
196,336,112830,6,0,P|244:348|292:336,1,90,8|2,0:0|0:0,0:0:0:0:
328,284,113490,2,0,L|328:220,1,60,2|0,0:0|0:0,0:0:0:0:
284,124,114151,6,0,B|228:110|228:110|157:127,1,120
58,219,115208,2,0,P|119:204|180:220,1,120
317,226,116266,6,0,P|365:186|369:94,1,150,0|8,0:0|0:0,0:0:0:0:
201,48,117587,6,0,B|193:76|193:76|201:112,1,60,8|6,0:0|0:0,0:0:0:0:
224,173,118116,6,0,P|240:237|212:293,1,120,6|0,0:0|0:0,0:0:0:0:
88,225,119173,2,0,B|67:169|67:169|95:103,1,120,2|0,0:0|0:0,0:0:0:0:
211,35,120230,5,2,0:0:0:0:
300,147,120759,1,0,0:0:0:0:
430,86,121288,2,0,P|448:145|422:210,1,120,2|0,0:0|0:0,0:0:0:0:
336,307,122345,6,0,P|276:299|236:251,1,120,2|0,0:0|0:0,0:0:0:0:
275,117,123402,2,0,P|215:101|159:125,1,120,2|0,0:0|0:0,0:0:0:0:
89,245,124460,5,2,0:0:0:0:
187,349,124988,1,0,0:0:0:0:
272,282,125385,2,0,P|284:234|272:186,1,90,6|2,0:0|0:0,0:0:0:0:
236,136,126045,2,0,B|228:108|228:108|240:68,1,60,8|8,0:0|0:0,0:0:0:0:
291,31,126574,6,0,B|354:18|354:18|424:35,1,120,6|8,0:0|0:0,0:0:0:0:
464,163,127631,2,0,L|332:159,1,120,0|8,0:0|0:0,0:0:0:0:
200,174,128689,6,0,P|224:114|212:54,1,120,2|8,0:0|0:0,0:0:0:0:
96,132,129746,2,0,B|82:196|82:196|107:250,1,120,0|8,0:0|0:0,0:0:0:0:
214,339,130803,6,0,P|274:319|334:343,1,120,2|8,0:0|0:0,0:0:0:0:
435,242,131860,2,0,B|435:108,1,120,2|8,0:0|0:0,0:0:0:0:
296,163,132918,6,0,P|244:179|176:155,1,120,2|8,0:0|0:0,0:0:0:0:
53,222,133975,2,0,P|81:214|121:222,1,60,2|0,0:0|0:0,0:0:0:0:
141,282,134504,2,0,P|189:294|233:282,1,90,8|6,0:0|0:0,0:0:0:0:
316,223,135297,5,8,0:0:0:0:
376,91,135825,1,8,0:0:0:0:
408,155,136089,2,0,P|428:199|416:271,1,120,2|2,0:0|0:0,0:0:0:0:
343,347,137015,6,0,B|271:327|271:327|191:343,1,150,6|2,0:0|0:0,0:0:0:0:
92,244,138204,2,0,B|152:259|152:259|211:246,1,120,6|0,0:0|0:0,0:0:0:0:
274,160,139129,6,0,P|354:136|422:156,1,150,6|8,0:0|0:0,0:0:0:0:
484,280,140319,2,0,B|427:265|427:265|361:281,1,120
240,347,141376,6,0,P|212:287|228:231,2,120,12|8|8,0:0|0:0|0:0,0:0:0:0:
311,221,142962,2,0,P|315:185|311:149,1,60,10|8,0:0|0:0,0:0:0:0:
268,104,143490,6,0,B|211:93|211:93|144:108,1,120,6|2,0:0|0:0,0:0:0:0:
60,166,144415,2,0,P|112:210|198:201,1,150,0|2,0:0|0:0,0:0:0:0:
311,283,145605,5,2,0:0:0:0:
383,158,146134,1,2,0:0:0:0:
467,225,146530,2,0,P|499:173|459:77,1,150,2|2,0:0|0:0,0:0:0:0:
336,56,147719,6,0,B|276:44|276:44|212:60,1,120,2|2,0:0|0:0,0:0:0:0:
106,148,148777,2,0,P|138:208|198:224,1,120,2|2,0:0|0:0,0:0:0:0:
316,164,149834,5,2,0:0:0:0:
300,307,150363,1,2,0:0:0:0:
404,280,150759,2,0,L|408:188,1,90,6|8,0:0|0:0,0:0:0:0:
419,121,151420,2,0,P|399:85|375:69,1,60,2|8,0:0|0:0,0:0:0:0:
347,135,151949,6,0,P|295:147|231:127,1,120,6|2,0:0|0:0,0:0:0:0:
144,72,152874,2,0,B|128:116|128:116|148:228,1,150,2|2,0:0|0:0,0:0:0:0:
172,360,154063,6,0,P|236:336|256:280,1,120,2|2,0:0|0:0,0:0:0:0:
304,196,154988,2,0,P|387:177|460:205,1,150,2|2,0:0|0:0,0:0:0:0:
458,340,156178,6,0,P|398:312|374:252,1,120,6|2,0:0|0:0,0:0:0:0:
437,135,157235,2,0,B|384:116|384:116|315:135,1,120,2|2,0:0|0:0,0:0:0:0:
228,242,158292,6,0,P|172:258|108:234,2,120,6|8|8,0:0|0:0|0:0,0:0:0:0:
348,324,159878,2,0,B|352:196,1,120,2|6,0:0|0:0,0:0:0:0:
285,75,160935,5,0,0:0:0:0:
176,170,161464,2,0,B|122:153|122:153|54:175,1,120,2|0,0:0|0:0,0:0:0:0:
124,302,162521,6,0,P|180:318|240:306,1,120,2|0,0:0|0:0,0:0:0:0:
360,228,163578,2,0,B|340:166|340:166|358:108,1,120,2|0,0:0|0:0,0:0:0:0:
446,226,164636,6,0,P|433:283|371:317,1,120,2|0,0:0|0:0,0:0:0:0:
247,354,165693,2,0,B|264:296|264:296|246:227,1,120,2|0,0:0|0:0,0:0:0:0:
106,256,166750,6,0,P|105:200|139:146,1,120,2|0,0:0|0:0,0:0:0:0:
248,239,167808,2,0,B|378:239,1,120,2|0,0:0|0:0,0:0:0:0:
385,96,168865,6,0,P|432:113|464:184,1,120,6|2,0:0|0:0,0:0:0:0:
358,196,169790,2,0,P|278:216|206:192,1,150,6|2,0:0|0:0,0:0:0:0:
97,108,170979,6,0,B|82:170|82:170|99:232,1,120,6|2,0:0|0:0,0:0:0:0:
55,324,171904,2,0,P|139:328|187:272,1,150,6|2,0:0|0:0,0:0:0:0:
260,160,173094,6,0,B|270:283,1,120,6|2,0:0|0:0,0:0:0:0:
308,380,174019,2,0,P|369:333|370:249,1,150,6|2,0:0|0:0,0:0:0:0:
288,149,175208,6,0,B|352:132|352:132|407:150,1,120,6|2,0:0|0:0,0:0:0:0:
287,235,176266,2,0,P|224:211|200:163,1,120,0|2,0:0|0:0,0:0:0:0:
104,64,177323,6,0,B|100:192,1,120,6|2,0:0|0:0,0:0:0:0:
73,251,178116,2,0,P|104:255|133:250,1,60,6|0,0:0|0:0,0:0:0:0:
84,124,187896,6,0,B|132:112|132:112|184:124,1,90,6|8,0:0|0:0,0:0:0:0:
264,176,188689,1,2,0:0:0:0:
356,64,189217,6,0,B|364:112|364:112|352:160,1,90,2|2,0:0|0:0,0:0:0:0:
396,252,190010,2,0,P|352:264|308:248,1,90,2|8,0:0|0:0,0:0:0:0:
232,324,190803,6,0,B|177:337|177:337|106:313,1,120,2|2,0:0|0:0,0:0:0:0:
78,255,191596,2,0,P|74:219|86:187,1,60,8|0,0:0|0:0,0:0:0:0:
88,124,192125,6,0,B|136:112|136:112|188:124,1,90,2|8,0:0|0:0,0:0:0:0:
270,171,192918,1,2,0:0:0:0:
348,50,193446,2,0,L|352:122,1,60,0|2,0:0|0:0,0:0:0:0:
357,181,193975,1,8,0:0:0:0:
366,252,194239,6,0,P|332:284|286:293,2,90,2|8|2,0:0|0:0|0:0,0:0:0:0:
430,219,195297,2,0,L|434:151,1,60,14|2,0:0|0:0,0:0:0:0:
440,87,195825,1,14,0:0:0:0:
303,340,196882,5,8,0:0:0:0:
236,212,197411,2,0,P|221:156|246:96,1,120,6|2,0:0|0:0,0:0:0:0:
308,40,198336,2,0,P|377:41|431:96,1,150,0|2,0:0|0:0,0:0:0:0:
489,228,199526,6,0,P|433:244|369:224,1,120,2|2,0:0|0:0,0:0:0:0:
295,154,200451,2,0,P|225:132|146:159,1,150,2|2,0:0|0:0,0:0:0:0:
42,62,201640,6,0,L|45:181,1,120,2|2,0:0|0:0,0:0:0:0:
100,320,202697,2,0,B|161:301|161:301|214:319,1,120,2|2,0:0|0:0,0:0:0:0:
298,201,203755,5,2,0:0:0:0:
401,300,204283,2,0,B|413:257|413:257|401:208,1,90,2|6,0:0|0:0,0:0:0:0:
368,110,205076,2,0,L|368:42,1,60,8|6,0:0|0:0,0:0:0:0:
288,170,205869,6,0,P|228:186|172:166,1,120,6|2,0:0|0:0,0:0:0:0:
91,98,206794,2,0,P|63:162|95:238,1,150,0|2,0:0|0:0,0:0:0:0:
196,332,207984,6,0,B|259:352|259:352|326:331,1,120,2|2,0:0|0:0,0:0:0:0:
418,338,208909,2,0,P|410:278|310:242,1,150,2|2,0:0|0:0,0:0:0:0:
263,112,210098,6,0,L|403:108,1,120,6|2,0:0|0:0,0:0:0:0:
267,195,211156,2,0,P|200:166|181:99,1,120,2|2,0:0|0:0,0:0:0:0:
58,51,212213,6,0,B|37:111|37:111|58:175,1,120,6|8,0:0|0:0,0:0:0:0:
147,274,213270,2,0,L|155:142,1,120,8|0,0:0|0:0,0:0:0:0:
262,58,214327,6,0,P|278:118|254:194,1,120,6|2,0:0|0:0,0:0:0:0:
166,278,215385,2,0,B|231:261|231:261|306:282,1,120,2|2,0:0|0:0,0:0:0:0:
411,338,216442,6,0,P|435:298|419:202,1,120,2|2,0:0|0:0,0:0:0:0:
310,149,217499,2,0,B|294:85|294:85|310:29,1,120,2|2,0:0|0:0,0:0:0:0:
400,144,218556,6,0,P|388:200|316:244,1,120,2|2,0:0|0:0,0:0:0:0:
230,331,219614,2,0,B|102:325,1,120,2|2,0:0|0:0,0:0:0:0:
44,197,220671,6,0,B|28:149|28:149|48:61,1,120,2|2,0:0|0:0,0:0:0:0:
139,130,221596,2,0,P|215:106|296:136,1,150,2|2,0:0|0:0,0:0:0:0:
384,225,222786,6,0,B|401:169|401:169|383:92,1,120,6|2,0:0|0:0,0:0:0:0:
305,180,223711,2,0,P|293:243|346:311,1,150,0|2,0:0|0:0,0:0:0:0:
200,339,224900,6,0,B|144:355|144:355|72:327,1,120,2|2,0:0|0:0,0:0:0:0:
46,194,225957,2,0,B|54:54,1,120,2|2,0:0|0:0,0:0:0:0:
183,136,227015,6,0,P|248:156|313:132,1,120,6|2,0:0|0:0,0:0:0:0:
362,56,227940,2,0,P|394:100|390:192,1,150,2|2,0:0|0:0,0:0:0:0:
465,315,229129,6,0,B|408:298|408:298|327:317,1,120,6|8,0:0|0:0,0:0:0:0:
249,353,230054,2,0,P|205:365|157:345,1,90,6|2,0:0|0:0,0:0:0:0:
118,295,230715,2,0,L|122:215,1,60,14|10,0:0|0:0,0:0:0:0:
127,163,231244,5,4,0:0:0:0:
