osu file format v14

[General]
AudioFilename: life.mp3
AudioLeadIn: 0
PreviewTime: 83722
Countdown: 0
SampleSet: Soft
StackLeniency: 0.7
Mode: 0
LetterboxInBreaks: 0
WidescreenStoryboard: 0

[Editor]
DistanceSpacing: 0.7
BeatDivisor: 2
GridSize: 32
TimelineZoom: 1.4

[Metadata]
Title:Sendan Life
TitleUnicode:センダンライフ
Artist:Remo Prototype[CV: Hanamori Yumiri]
ArtistUnicode:リモ Prototype[CV:花守ゆみり]
Creator:Settia
Version:Melia
Source:ガラスの花と壊す世界
Tags:vocaloid Chukka やしきん yashikin Glass no Hana to Kowasu Sekai GARAKOWA Restore the World Vitreous Flower Destroy the World D.backup
BeatmapID:939072
BeatmapSetID:394834

[Difficulty]
HPDrainRate:6
CircleSize:4
OverallDifficulty:9.5
ApproachRate:9.8
SliderMultiplier:2
SliderTickRate:1

[Events]
//Background and Video events
0,0,"nbg.jpg",0,0
//Break Periods
2,104043,109179
2,179638,187417
//Storyboard Layer 0 (Background)
//Storyboard Layer 1 (Fail)
//Storyboard Layer 2 (Pass)
//Storyboard Layer 3 (Foreground)
//Storyboard Sound Samples

[TimingPoints]
37764,264.31718061674,4,2,1,50,1,0
39812,-100,4,2,1,5,0,0
39878,-100,4,2,1,50,0,0
41993,-90.9090909090909,4,2,1,70,0,0
50451,-100,4,2,1,70,0,0
58314,-100,4,2,1,5,0,0
58380,-100,4,2,1,70,0,0
58578,-100,4,2,1,5,0,0
58645,-100,4,2,1,70,0,0
67367,-166.666666666667,4,2,1,50,0,0
69217,-200,4,2,1,50,0,0
71067,-166.666666666667,4,2,1,50,0,0
74768,-200,4,2,1,50,0,0
75693,-90.9090909090909,4,2,1,70,0,0
84283,-90.9090909090909,4,2,1,85,0,1
84482,-90.9090909090909,4,2,1,5,0,1
84548,-90.9090909090909,4,2,1,85,0,1
101200,-90.9090909090909,4,2,1,85,0,0
109658,-125,4,2,1,60,0,0
112830,-100,4,2,1,60,0,0
117852,-83.3333333333333,4,2,1,70,0,0
118116,-90.9090909090909,4,2,1,70,0,0
126574,-133.333333333333,4,2,1,50,0,0
134900,-100,4,2,1,70,0,0
142631,-100,4,2,1,5,0,0
142697,-100,4,2,1,70,0,0
143490,-90.9090909090909,4,2,1,85,0,1
160407,-90.9090909090909,4,2,1,85,0,0
178050,-90.9090909090909,4,2,1,5,0,0
178116,-90.9090909090909,4,2,1,85,0,0
178380,-153.846153846153,4,2,1,50,0,0
196882,-100,4,2,1,70,0,0
197411,-90.9090909090909,4,2,1,85,0,1
197609,-90.9090909090909,4,2,1,5,0,1
197675,-90.9090909090909,4,2,1,85,0,1
214327,-90.9090909090909,4,2,1,85,0,0
222786,-83.3333333333333,4,2,1,85,0,0

[Colours]
Combo1 : 255,128,128
Combo2 : 255,128,255
Combo3 : 128,255,128
Combo4 : 0,128,255

[HitObjects]
152,64,37367,6,0,L|200:56,11,25
128,92,37763,6,0,L|132:196,1,100,8|0,0:0|0:0,0:0:0:0:
256,288,38028,2,0,L|264:180,1,100,8|0,0:0|0:0,0:0:0:0:
356,36,38292,1,2,0:0:0:0:
224,123,38424,2,0,P|276:113|326:138,1,100,8|0,0:0|0:0,0:0:0:0:
472,252,38689,6,0,B|424:240|424:240|368:252,1,100,8|0,0:0|0:0,0:0:0:0:
204,356,38953,2,0,P|264:372|324:348,1,100,8|0,0:0|0:0,0:0:0:0:
472,252,39217,2,0,P|488:208|460:136,1,100,8|0,0:0|0:0,0:0:0:0:
264,176,39482,1,2,0:0:0:0:
456,351,39614,2,0,P|396:327|384:227,1,150,8|0,0:0|0:0,0:0:0:0:
477,60,39878,6,0,B|489:112|489:112|469:180,1,100,8|0,0:0|0:0,0:0:0:0:
240,152,40142,2,0,B|293:136|293:136|352:156,1,100,8|0,0:0|0:0,0:0:0:0:
472,252,40407,1,2,0:0:0:0:
216,344,40539,2,0,P|204:296|224:232,1,100,8|0,0:0|0:0,0:0:0:0:
288,56,40803,6,0,P|298:104|286:152,1,100,8|0,0:0|0:0,0:0:0:0:
74,150,41067,2,0,B|122:134|122:134|190:151,1,100,8|0,0:0|0:0,0:0:0:0:
296,344,41332,1,8,0:0:0:0:
396,152,41464,5,8,0:0:0:0:
496,340,41596,1,2,0:0:0:0:
296,344,41728,2,0,L|344:344,6,25,12|0|0|0|0|0|0,0:0|0:0|0:0|0:0|0:0|0:0|0:0,0:0:0:0:
276,348,41993,6,0,P|224:360|164:336,1,110.000003356934,6|0,0:0|0:0,0:0:0:0:
312,224,42257,1,8,0:0:0:0:
400,348,42389,1,0,0:0:0:0:
370,142,42521,2,0,P|318:127|256:147,1,110.000003356934,2|2,0:0|0:0,0:0:0:0:
19,166,42786,1,8,0:0:0:0:
164,254,42918,1,0,0:0:0:0:
155,57,43050,6,0,L|160:185,1,110.000003356934,2|0,0:0|0:0,0:0:0:0:
340,309,43314,1,8,0:0:0:0:
266,141,43446,1,0,0:0:0:0:
175,363,43578,1,2,0:0:0:0:
403,226,43711,1,2,0:0:0:0:
159,166,43843,2,0,L|38:166,1,110.000003356934,8|0,0:0|0:0,0:0:0:0:
254,333,44107,5,2,0:0:0:0:
428,239,44239,1,0,0:0:0:0:
160,187,44371,1,8,0:0:0:0:
268,361,44504,1,0,0:0:0:0:
375,174,44636,2,0,B|374:61,1,110.000003356934,2|2,0:0|0:0,0:0:0:0:
186,362,44900,1,8,0:0:0:0:
395,255,45032,1,0,0:0:0:0:
71,186,45164,5,2,0:0:0:0:
186,362,45297,1,0,0:0:0:0:
196,132,45429,1,8,0:0:0:0:
56,325,45561,1,0,0:0:0:0:
196,132,45693,2,0,P|253:115|303:133,1,110.000003356934,2|2,0:0|0:0,0:0:0:0:
463,259,45957,1,8,0:0:0:0:
250,209,46089,1,0,0:0:0:0:
387,33,46222,5,2,0:0:0:0:
353,240,46354,1,0,0:0:0:0:
299,130,46486,1,8,0:0:0:0:
396,333,46618,1,0,0:0:0:0:
480,143,46750,2,0,L|479:26,1,110.000003356934,2|2,0:0|0:0,0:0:0:0:
231,72,47015,1,8,0:0:0:0:
463,259,47147,1,0,0:0:0:0:
169,343,47279,6,0,B|149:286|149:286|174:228,1,110.000003356934,2|0,0:0|0:0,0:0:0:0:
384,354,47543,1,8,0:0:0:0:
302,156,47675,1,0,0:0:0:0:
243,379,47808,1,2,0:0:0:0:
307,126,47940,1,2,0:0:0:0:
384,244,48072,2,0,L|384:354,1,110.000003356934,8|0,0:0|0:0,0:0:0:0:
225,123,48336,6,0,L|225:11,1,110.000003356934,2|0,0:0|0:0,0:0:0:0:
264,304,48601,1,8,0:0:0:0:
132,123,48733,1,0,0:0:0:0:
74,371,48865,1,2,0:0:0:0:
293,194,48997,1,2,0:0:0:0:
43,92,49129,1,8,0:0:0:0:
9,240,49261,6,0,B|125:187|125:281|229:230,1,220.000006713867,6|2,0:0|0:0,0:0:0:0:
416,138,49658,1,0,0:0:0:0:
222,234,49790,1,2,0:0:0:0:
222,234,49856,1,2,0:0:0:0:
222,234,49922,1,10,0:0:0:0:
413,338,50054,1,8,0:0:0:0:
303,86,50186,1,8,0:0:0:0:
168,338,50319,1,8,0:0:0:0:
476,256,50451,6,0,P|431:233|368:244,1,100,6|0,0:0|0:0,0:0:0:0:
168,338,50715,1,8,0:0:0:0:
303,86,50847,1,2,0:0:0:0:
93,234,50979,1,0,0:0:0:0:
304,234,51112,2,0,L|304:124,1,100,2|8,0:0|0:0,0:0:0:0:
180,30,51376,1,0,0:0:0:0:
29,133,51508,6,0,B|136:88|136:168|228:128,1,200,2|8,0:0|0:0,0:0:0:0:
377,32,51904,2,0,B|377:78|377:78|393:101|393:101|393:249,1,200,2|2,0:0|0:0,0:0:0:0:
170,354,52301,1,8,0:0:0:0:
170,354,52433,6,0,P|156:307|178:247,1,100,0|2,0:0|0:0,0:0:0:0:
393,226,52697,1,0,0:0:0:0:
222,130,52830,1,8,0:0:0:0:
286,304,52962,1,2,0:0:0:0:
438,122,53094,2,0,P|390:107|333:133,1,100,0|2,0:0|0:0,0:0:0:0:
170,354,53358,1,8,0:0:0:0:
228,99,53490,1,0,0:0:0:0:
480,315,53623,6,0,B|394:315|394:315|378:330|378:330|266:330,1,200,2|8,0:0|0:0,0:0:0:0:
77,182,54019,2,0,P|125:106|257:118,1,200,2|2,0:0|0:0,0:0:0:0:
322,193,54415,1,8,0:0:0:0:
384,29,54548,1,0,0:0:0:0:
461,292,54680,6,0,B|461:192,1,100,2|0,0:0|0:0,0:0:0:0:
184,277,54944,2,0,P|167:323|179:371,1,100,8|2,0:0|0:0,0:0:0:0:
351,113,55208,1,0,0:0:0:0:
351,113,55341,1,2,0:0:0:0:
263,325,55473,1,8,0:0:0:0:
180,176,55605,1,0,0:0:0:0:
349,367,55737,6,0,P|360:319|344:272,1,100,2|0,0:0|0:0,0:0:0:0:
262,143,56001,1,8,0:0:0:0:
454,120,56134,2,0,B|398:120|398:120|364:143|364:143|257:143,1,200,2|2,0:0|0:0,0:0:0:0:
95,350,56530,2,0,B|97:240,1,100,8|0,0:0|0:0,0:0:0:0:
261,48,56794,5,2,0:0:0:0:
261,48,56926,2,0,P|274:97|252:154,1,100,0|8,0:0|0:0,0:0:0:0:
96,250,57191,1,2,0:0:0:0:
36,99,57323,2,0,L|163:99,1,100,0|2,0:0|0:0,0:0:0:0:
258,311,57587,1,8,0:0:0:0:
389,72,57719,6,0,B|390:113|390:113|401:137|401:137|401:278,1,200
185,203,58116,2,0,P|261:169|324:204,1,150,8|0,0:0|0:0,0:0:0:0:
482,333,58380,2,0,B|446:332|446:332|425:346|425:346|322:346,1,150,4|0,0:0|0:0,0:0:0:0:
251,347,58645,1,8,0:0:0:0:
447,192,58777,1,0,0:0:0:0:
251,347,58909,6,0,B|239:296|239:296|255:235,1,100,6|0,0:0|0:0,0:0:0:0:
321,122,59173,1,8,0:0:0:0:
482,333,59305,1,2,0:0:0:0:
406,81,59438,2,0,P|327:37|234:84,1,200,0|8,0:0|0:0,0:0:0:0:
112,280,59834,1,0,0:0:0:0:
63,100,59966,6,0,L|63:202,1,100,2|0,0:0|0:0,0:0:0:0:
152,366,60230,1,8,0:0:0:0:
232,204,60363,2,0,P|287:190|336:207,1,100,2|0,0:0|0:0,0:0:0:0:
482,351,60627,2,0,P|427:365|378:348,1,100,2|8,0:0|0:0,0:0:0:0:
425,81,60891,1,0,0:0:0:0:
425,81,61023,6,0,L|425:187,1,100,2|0,0:0|0:0,0:0:0:0:
279,379,61288,2,0,L|279:273,1,100,8|2,0:0|0:0,0:0:0:0:
215,98,61552,1,0,0:0:0:0:
279,280,61684,1,2,0:0:0:0:
299,63,61816,1,8,0:0:0:0:
146,226,61949,1,0,0:0:0:0:
402,169,62081,6,0,P|358:157|296:180,1,100,2|0,0:0|0:0,0:0:0:0:
158,327,62345,1,8,0:0:0:0:
133,135,62477,2,0,L|125:32,1,100,2|0,0:0|0:0,0:0:0:0:
279,379,62741,1,2,0:0:0:0:
402,169,62874,1,8,0:0:0:0:
235,296,63006,1,0,0:0:0:0:
448,363,63138,6,0,B|447:249,1,100,2|0,0:0|0:0,0:0:0:0:
139,291,63402,2,0,P|189:306|246:288,1,100,8|2,0:0|0:0,0:0:0:0:
269,72,63667,1,0,0:0:0:0:
393,288,63799,1,0,0:0:0:0:
190,222,63931,2,0,L|190:111,1,100,8|0,0:0|0:0,0:0:0:0:
362,95,64195,6,0,B|362:158|362:158|393:220|393:220|393:287,1,200,2|8,0:0|0:0,0:0:0:0:
36,297,64592,2,0,P|109:213|198:227,1,200,2|2,0:0|0:0,0:0:0:0:
344,352,64988,1,8,0:0:0:0:
271,72,65120,1,0,0:0:0:0:
151,350,65252,5,2,0:0:0:0:
151,350,65385,1,0,0:0:0:0:
433,188,65517,2,0,B|387:178|387:178|335:189,1,100,8|2,0:0|0:0,0:0:0:0:
151,350,65781,1,0,0:0:0:0:
385,350,65913,2,0,P|397:298|379:242,1,100,2|8,0:0|0:0,0:0:0:0:
252,56,66178,6,0,B|284:164|208:144|256:256,1,200,6|2,0:0|0:0,0:0:0:0:
253,250,66574,1,2,0:0:0:0:
136,96,66706,1,0,0:0:0:0:
136,96,66772,1,0,0:0:0:0:
136,96,66838,5,8,0:0:0:0:
324,188,66971,1,8,0:0:0:0:
88,264,67103,1,8,0:0:0:0:
252,56,67235,1,8,0:0:0:0:
449,337,67367,6,0,B|361:287|361:370|249:325,2,179.999994506836,6|8|2,0:0|0:0|0:0,0:0:0:0:
315,253,68424,2,0,L|322:168,2,59.9999981689454,0|2|0,0:0|0:0|0:0,0:0:0:0:
204,359,68953,6,0,P|200:327|212:291,1,59.9999981689454,8|0,0:0|0:0,0:0:0:0:
346,166,69217,2,0,P|339:229|298:259,2,100,2|2|0,0:0|0:0|0:0,0:0:0:0:
266,178,69878,2,0,P|266:128|297:91,1,100,2|0,0:0|0:0,0:0:0:0:
395,83,70275,1,2,0:0:0:0:
440,170,70539,6,0,P|392:181|345:165,1,100
268,87,71067,2,0,L|205:87,1,59.9999981689454,8|0,0:0|0:0,0:0:0:0:
119,87,71332,1,2,0:0:0:0:
332,320,71596,6,0,P|271:309|238:264,1,119.999996337891,2|0,0:0|0:0,0:0:0:0:
408,187,71993,2,0,P|372:233|314:242,1,119.999996337891,8|0,0:0|0:0,0:0:0:0:
328,163,72389,1,2,0:0:0:0:
486,246,72653,6,0,B|505:173|505:173|484:122,1,119.999996337891,2|0,0:0|0:0,0:0:0:0:
406,30,73050,2,0,B|387:103|387:103|408:154,1,119.999996337891,8|0,0:0|0:0,0:0:0:0:
486,246,73446,1,2,0:0:0:0:
265,79,73711,6,0,P|210:64|141:93,1,119.999996337891,2|0,0:0|0:0,0:0:0:0:
93,178,74107,2,0,P|148:193|217:164,1,119.999996337891,8|0,0:0|0:0,0:0:0:0:
265,79,74504,1,2,0:0:0:0:
203,360,74768,5,0,0:0:0:0:
203,360,74900,1,2,0:0:0:0:
203,360,75032,2,0,L|188:296,1,50
88,312,75297,5,8,0:0:0:0:
80,288,75429,1,2,0:0:0:0:
72,264,75561,1,8,0:0:0:0:
215,171,75693,6,0,B|336:128|336:212|440:164,1,220.000006713867,6|0,0:0|0:0,0:0:0:0:
207,84,76089,2,0,P|159:101|127:156,1,110.000003356934,8|0,0:0|0:0,0:0:0:0:
434,273,76354,2,0,P|446:225|426:165,2,110.000003356934,2|2|8,0:0|0:0|0:0,0:0:0:0:
215,171,76750,1,0,0:0:0:0:
290,356,76882,6,0,B|306:304|306:304|279:235,1,110.000003356934,2|2,0:0|0:0,0:0:0:0:
207,84,77147,1,8,0:0:0:0:
51,304,77279,2,0,P|105:320|157:306,1,110.000003356934,0|2,0:0|0:0,0:0:0:0:
215,171,77543,1,2,0:0:0:0:
388,291,77675,1,8,0:0:0:0:
392,56,77808,6,0,P|296:56|224:172,1,220.000006713867,6|2,0:0|0:0,0:0:0:0:
51,304,78204,1,8,0:0:0:0:
156,90,78336,1,0,0:0:0:0:
267,359,78468,2,0,L|267:241,1,110.000003356934,2|2,0:0|0:0,0:0:0:0:
156,90,78733,1,8,0:0:0:0:
267,249,78865,1,0,0:0:0:0:
363,56,78997,6,0,L|253:56,1,110.000003356934,6|0,0:0|0:0,0:0:0:0:
355,282,79261,1,8,0:0:0:0:
425,133,79393,2,0,B|425:220|425:220|445:249|445:249|445:362,1,220.000006713867,0|2,0:0|0:0,0:0:0:0:
173,213,79790,1,8,0:0:0:0:
266,353,79922,6,0,P|281:302|259:237,1,110.000003356934,6|0,0:0|0:0,0:0:0:0:
77,176,80186,1,2,0:0:0:0:
200,295,80319,1,8,0:0:0:0:
222,93,80451,1,0,0:0:0:0:
90,295,80583,2,0,L|205:295,1,110.000003356934,2|2,0:0|0:0,0:0:0:0:
434,229,80847,1,8,0:0:0:0:
358,354,80979,1,0,0:0:0:0:
266,199,81112,6,0,P|254:146|273:82,1,110.000003356934,2|2,0:0|0:0,0:0:0:0:
411,141,81376,1,8,0:0:0:0:
443,342,81508,2,0,B|338:304|338:382|226:345,1,220.000006713867,0|2,0:0|0:0,0:0:0:0:
411,141,81904,1,8,0:0:0:0:
276,277,82037,1,2,0:0:0:0:
145,66,82169,6,0,B|201:51|201:51|262:66,1,110.000003356934,12|0,0:0|0:0,0:0:0:0:
480,188,82433,2,0,B|424:203|424:203|363:188,1,110.000003356934,8|0,0:0|0:0,0:0:0:0:
423,36,82697,1,8,0:0:0:0:
271,230,82830,1,2,0:0:0:0:
480,188,82962,1,8,0:0:0:0:
241,144,83094,6,0,P|181:236|261:321,1,220.000006713867,6|2,0:0|0:0,0:0:0:0:
373,190,83490,1,8,0:0:0:0:
494,377,83623,1,2,0:0:0:0:
494,377,83689,1,2,0:0:0:0:
494,377,83755,2,0,B|509:320|509:320|491:262,1,110.000003356934,8|8,0:0|0:0,0:0:0:0:
449,109,84019,1,8,0:0:0:0:
288,266,84151,1,8,0:0:0:0:
165,56,84283,6,0,B|256:22|256:92|351:55,1,165.000005035401,6|0,0:0|0:0,0:0:0:0:
441,195,84548,2,0,P|387:178|330:193,1,110.000003356934,8|0,0:0|0:0,0:0:0:0:
87,316,84812,1,2,0:0:0:0:
212,136,84944,1,2,0:0:0:0:
316,349,85076,1,8,0:0:0:0:
87,316,85208,6,0,B|206:314,1,110.000003356934,0|2,0:0|0:0,0:0:0:0:
308,127,85473,1,0,0:0:0:0:
396,349,85605,1,8,0:0:0:0:
152,225,85737,1,0,0:0:0:0:
152,225,85803,1,0,0:0:0:0:
152,225,85869,1,2,0:0:0:0:
441,195,86001,1,2,0:0:0:0:
281,349,86134,2,0,L|281:230,1,110.000003356934,8|0,0:0|0:0,0:0:0:0:
367,27,86398,6,0,P|384:78|369:129,1,110.000003356934,2|0,0:0|0:0,0:0:0:0:
196,314,86662,1,8,0:0:0:0:
441,195,86794,1,0,0:0:0:0:
196,314,86926,1,2,0:0:0:0:
303,84,87059,1,2,0:0:0:0:
395,263,87191,1,8,0:0:0:0:
186,228,87323,6,0,B|272:228|272:228|316:262|316:262|405:263,1,220.000006713867,2|2,0:0|0:0,0:0:0:0:
67,270,87719,1,8,0:0:0:0:
273,79,87852,1,0,0:0:0:0:
273,79,87918,1,0,0:0:0:0:
273,79,87984,1,2,0:0:0:0:
273,378,88116,1,2,0:0:0:0:
67,270,88248,2,0,P|51:218|83:157,1,110.000003356934,8|0,0:0|0:0,0:0:0:0:
325,166,88512,6,0,P|275:182|217:162,1,110.000003356934,2|0,0:0|0:0,0:0:0:0:
444,56,88777,1,8,0:0:0:0:
360,288,88909,1,0,0:0:0:0:
273,79,89041,1,2,0:0:0:0:
409,360,89173,1,2,0:0:0:0:
428,165,89305,2,0,P|378:149|320:169,1,110.000003356934,8|0,0:0|0:0,0:0:0:0:
63,346,89570,6,0,B|188:305|170:389|287:346,1,220.000006713867,2|8,0:0|0:0,0:0:0:0:
233,196,89966,1,0,0:0:0:0:
409,360,90098,1,2,0:0:0:0:
217,181,90230,1,2,0:0:0:0:
409,360,90363,2,0,P|424:306|398:251,1,110.000003356934,8|0,0:0|0:0,0:0:0:0:
29,271,90627,5,2,0:0:0:0:
151,124,90759,1,0,0:0:0:0:
12,295,90891,2,0,P|68:312|134:287,1,110.000003356934,8|0,0:0|0:0,0:0:0:0:
413,184,91156,5,2,0:0:0:0:
214,344,91288,1,2,0:0:0:0:
317,50,91420,1,8,0:0:0:0:
509,188,91552,2,0,P|447:280|343:257,1,220.000006713867,6|2,0:0|0:0,0:0:0:0:
126,278,91949,5,8,0:0:0:0:
304,33,92081,1,8,0:0:0:0:
304,336,92213,5,2,0:0:0:0:
126,91,92345,1,8,0:0:0:0:
413,184,92477,5,8,0:0:0:0:
126,278,92609,1,0,0:0:0:0:
366,106,92741,6,0,B|421:92|421:92|472:106,1,110.000003356934,6|0,0:0|0:0,0:0:0:0:
360,304,93006,1,8,0:0:0:0:
215,225,93138,1,0,0:0:0:0:
427,257,93270,2,0,P|419:363|301:361,1,220.000006713867,2|8,0:0|0:0,0:0:0:0:
110,228,93667,6,0,P|170:212|221:228,1,110.000003356934,0|2,0:0|0:0,0:0:0:0:
360,304,93931,1,0,0:0:0:0:
242,110,94063,1,8,0:0:0:0:
165,341,94195,1,0,0:0:0:0:
165,341,94261,1,0,0:0:0:0:
165,341,94327,1,2,0:0:0:0:
368,62,94460,1,2,0:0:0:0:
427,257,94592,2,0,L|428:133,1,110.000003356934,8|0,0:0|0:0,0:0:0:0:
241,6,94856,6,0,P|257:62|232:121,1,110.000003356934,2|0,0:0|0:0,0:0:0:0:
115,256,95120,1,8,0:0:0:0:
76,64,95252,1,0,0:0:0:0:
62,334,95385,2,0,P|115:353|171:331,1,110.000003356934,2|2,0:0|0:0,0:0:0:0:
223,126,95649,1,8,0:0:0:0:
291,359,95781,6,0,L|291:221,1,110.000003356934,2|0,0:0|0:0,0:0:0:0:
395,104,96045,1,2,0:0:0:0:
448,271,96178,1,8,0:0:0:0:
291,249,96310,1,0,0:0:0:0:
400,71,96442,1,2,0:0:0:0:
365,345,96574,1,2,0:0:0:0:
126,252,96706,2,0,P|151:204|211:182,1,110.000003356934,8|0,0:0|0:0,0:0:0:0:
424,264,96971,6,0,B|320:222|320:302|206:262,1,220.000006713867,6|8,0:0|0:0,0:0:0:0:
44,344,97367,1,0,0:0:0:0:
88,68,97499,2,0,B|72:128|72:128|92:176,1,110.000003356934,2|2,0:0|0:0,0:0:0:0:
161,344,97763,1,8,0:0:0:0:
249,111,97896,1,0,0:0:0:0:
265,367,98028,5,2,0:0:0:0:
265,367,98160,1,0,0:0:0:0:
39,192,98292,2,0,P|100:173|159:199,1,110.000003356934,8|0,0:0|0:0,0:0:0:0:
265,367,98556,1,2,0:0:0:0:
353,128,98689,1,2,0:0:0:0:
458,280,98821,1,8,0:0:0:0:
341,104,98953,1,0,0:0:0:0:
209,264,99085,6,0,B|268:247|268:247|327:266,1,110.000003356934,6|0,0:0|0:0,0:0:0:0:
158,93,99349,5,8,0:0:0:0:
431,292,99482,1,2,0:0:0:0:
312,23,99614,5,8,0:0:0:0:
276,360,99746,1,2,0:0:0:0:
449,122,99878,5,8,0:0:0:0:
139,261,100010,1,2,0:0:0:0:
431,292,100142,5,8,0:0:0:0:
208,176,100275,1,0,0:0:0:0:
208,176,100341,1,0,0:0:0:0:
208,176,100407,1,2,0:0:0:0:
456,304,100539,1,6,0:0:0:0:
136,344,100671,5,0,0:0:0:0:
136,344,100737,1,0,0:0:0:0:
136,344,100803,2,0,L|140:280,1,55.0000016784668,2|0,0:0|0:0,0:0:0:0:
242,83,100935,5,8,0:0:0:0:
277,114,101001,1,0,0:0:0:0:
298,159,101067,1,8,0:0:0:0:
295,209,101133,1,0,0:0:0:0:
273,252,101199,1,6,0:0:0:0:
256,192,101266,12,0,103843,0:0:0:0:
84,196,109658,5,6,0:0:0:0:
84,196,110715,5,10,0:0:0:0:
93,173,111112,1,10,0:0:0:0:
101,150,111508,1,10,0:0:0:0:
233,204,111772,6,0,L|72:195,1,150.000005722046,4|0,0:0|0:0,0:0:0:0:
452,224,112697,5,2,0:0:0:0:
452,224,112763,1,2,0:0:0:0:
452,224,112830,2,0,L|340:216,1,100,8|2,0:0|0:0,0:0:0:0:
372,104,113094,1,2,0:0:0:0:
316,308,113226,2,0,P|272:276|252:212,1,100,2|0,0:0|0:0,0:0:0:0:
380,88,113490,1,2,0:0:0:0:
459,323,113623,2,0,L|451:223,1,100,8|0,0:0|0:0,0:0:0:0:
288,44,113887,5,2,0:0:0:0:
322,138,114151,1,0,0:0:0:0:
224,121,114415,1,0,0:0:0:0:
288,44,114680,1,0,0:0:0:0:
292,164,114944,5,2,0:0:0:0:
201,88,115208,1,0,0:0:0:0:
313,46,115472,1,0,0:0:0:0:
292,164,115737,1,0,0:0:0:0:
199,42,116001,5,2,0:0:0:0:
337,65,116265,1,0,0:0:0:0:
247,172,116529,1,0,0:0:0:0:
199,42,116794,1,0,0:0:0:0:
448,232,116926,5,8,0:0:0:0:
448,232,117587,5,8,0:0:0:0:
448,232,117719,1,2,0:0:0:0:
448,232,117852,2,0,B|364:193|364:260|264:228,1,179.999994506836,6|0,0:0|0:0,0:0:0:0:
246,320,118116,6,0,P|202:291|182:227,1,110.000003356934,6|0,0:0|0:0,0:0:0:0:
258,68,118380,2,0,P|302:97|322:161,1,110.000003356934,8|0,0:0|0:0,0:0:0:0:
56,288,118645,1,0,0:0:0:0:
232,155,118777,1,2,0:0:0:0:
156,359,118909,1,8,0:0:0:0:
109,130,119041,1,0,0:0:0:0:
259,310,119173,6,0,P|311:326|375:306,1,110.000003356934,2|0,0:0|0:0,0:0:0:0:
232,155,119438,1,8,0:0:0:0:
424,378,119570,2,0,P|448:284|351:230,1,220.000006713867,2|2,0:0|0:0,0:0:0:0:
156,359,119966,2,0,B|156:230,1,110.000003356934,8|0,0:0|0:0,0:0:0:0:
185,101,120230,5,2,0:0:0:0:
260,310,120363,1,0,0:0:0:0:
333,66,120495,1,8,0:0:0:0:
156,249,120627,1,0,0:0:0:0:
359,194,120759,2,0,B|481:194,1,110.000003356934,0|2,0:0|0:0,0:0:0:0:
90,200,121023,1,8,0:0:0:0:
260,310,121156,1,0,0:0:0:0:
258,137,121288,6,0,B|258:17,1,110.000003356934,2|0,0:0|0:0,0:0:0:0:
162,360,121552,1,8,0:0:0:0:
446,285,121684,2,0,P|463:233|448:181,1,110.000003356934,2|0,0:0|0:0,0:0:0:0:
359,332,121948,2,0,P|394:372|447:385,1,110.000003356934,2|8,0:0|0:0,0:0:0:0:
348,235,122213,2,0,P|295:246|260:286,1,110.000003356934,0|2,0:0|0:0,0:0:0:0:
158,151,122477,5,0,0:0:0:0:
162,360,122609,2,0,L|162:240,1,110.000003356934,8|2,0:0|0:0,0:0:0:0:
33,117,122874,2,0,B|125:117|125:117|154:151|154:151|251:151,1,220.000006713867,0|8,0:0|0:0,0:0:0:0:
281,360,123270,1,0,0:0:0:0:
397,227,123402,6,0,B|397:113,1,110.000003356934,2|0,0:0|0:0,0:0:0:0:
465,312,123667,1,8,0:0:0:0:
306,92,123799,2,0,P|390:31|484:90,1,220.000006713867,2|2,0:0|0:0,0:0:0:0:
240,240,124195,1,8,0:0:0:0:
397,117,124327,1,0,0:0:0:0:
364,332,124460,5,2,0:0:0:0:
147,225,124592,2,0,P|171:172|231:149,1,110.000003356934,0|8,0:0|0:0,0:0:0:0:
84,65,124856,1,2,0:0:0:0:
93,328,124988,2,0,P|147:349|210:322,1,110.000003356934,0|2,0:0|0:0,0:0:0:0:
240,240,125252,1,8,0:0:0:0:
48,208,125385,5,6,0:0:0:0:
48,208,125517,1,0,0:0:0:0:
273,91,125649,1,2,0:0:0:0:
273,362,125781,1,2,0:0:0:0:
208,20,125913,1,0,0:0:0:0:
136,236,126045,5,8,0:0:0:0:
376,196,126178,1,8,0:0:0:0:
208,20,126310,1,8,0:0:0:0:
273,362,126442,1,8,0:0:0:0:
472,204,126574,6,0,P|444:132|364:108,2,150.000005722046,6|2|8,0:0|0:0|0:0,0:0:0:0:
356,306,127367,1,0,0:0:0:0:
356,306,127631,2,0,L|192:298,1,150.000005722046,0|2,0:0|0:0,0:0:0:0:
272,168,128160,1,8,0:0:0:0:
112,337,128424,6,0,P|116:265|180:213,2,150.000005722046,0|2|2,0:0|0:0|0:0,0:0:0:0:
177,133,129217,1,8,0:0:0:0:
206,298,129482,1,0,0:0:0:0:
35,138,129746,6,0,P|123:114|199:150,1,150.000005722046,0|2,0:0|0:0,0:0:0:0:
271,177,130275,1,8,0:0:0:0:
377,94,130539,1,0,0:0:0:0:
377,94,130803,6,0,B|400:139|400:139|369:274,2,150.000005722046,2|2|8,0:0|0:0|0:0,0:0:0:0:
341,23,131596,1,0,0:0:0:0:
271,177,131860,6,0,P|325:135|403:147,1,150.000005722046,2|2,0:0|0:0,0:0:0:0:
368,324,132389,1,8,0:0:0:0:
207,94,132653,1,0,0:0:0:0:
333,236,132918,6,0,P|265:263|188:217,2,150.000005722046,2|2|8,0:0|0:0|0:0,0:0:0:0:
333,236,133711,1,0,0:0:0:0:
434,370,133975,6,0,B|453:322|453:322|430:206,1,150.000005722046,2|0,0:0|0:0,0:0:0:0:
271,177,134504,5,8,0:0:0:0:
271,177,134636,1,2,0:0:0:0:
349,365,134768,1,8,0:0:0:0:
377,116,134900,6,0,P|319:44|215:59,1,200,6|2,0:0|0:0,0:0:0:0:
12,285,135297,2,0,B|122:284,1,100,8|0,0:0|0:0,0:0:0:0:
273,146,135561,1,2,0:0:0:0:
226,354,135693,1,2,0:0:0:0:
273,146,135825,1,8,0:0:0:0:
426,315,135957,1,0,0:0:0:0:
176,153,136089,6,0,B|232:136|232:136|298:152,1,100,2|2,0:0|0:0,0:0:0:0:
342,262,136354,1,8,0:0:0:0:
426,115,136486,2,0,L|426:15,1,100,0|2,0:0|0:0,0:0:0:0:
426,315,136750,1,2,0:0:0:0:
273,146,136882,1,8,0:0:0:0:
512,273,137015,6,0,P|442:224|334:276,1,200,6|2,0:0|0:0,0:0:0:0:
122,320,137411,1,8,0:0:0:0:
273,146,137543,1,0,0:0:0:0:
323,377,137675,1,2,0:0:0:0:
165,72,137808,1,2,0:0:0:0:
386,230,137940,1,8,0:0:0:0:
122,320,138072,1,0,0:0:0:0:
356,146,138204,6,0,L|466:146,1,100,6|2,0:0|0:0,0:0:0:0:
275,17,138468,1,8,0:0:0:0:
122,320,138601,2,0,P|172:234|121:156,1,200,2|2,0:0|0:0,0:0:0:0:
34,238,138997,1,8,0:0:0:0:
298,376,139129,6,0,L|298:257,1,100,6|0,0:0|0:0,0:0:0:0:
403,47,139393,1,2,0:0:0:0:
458,170,139526,2,0,P|472:222|454:268,1,100,6|0,0:0|0:0,0:0:0:0:
105,171,139790,5,8,0:0:0:0:
321,132,139922,1,8,0:0:0:0:
172,292,140053,1,8,0:0:0:0:
200,73,140186,1,6,0:0:0:0:
298,276,140319,6,0,P|298:342|265:376,1,100
403,47,140583,1,6,0:0:0:0:
488,128,140715,2,0,P|408:176|312:116,1,200
105,171,141112,2,0,B|89:225|89:225|113:289,1,100,2|2,0:0|0:0,0:0:0:0:
246,352,141376,5,12,0:0:0:0:
299,110,141508,1,0,0:0:0:0:
460,258,141640,5,8,0:0:0:0:
210,46,141772,1,0,0:0:0:0:
104,265,141904,5,8,0:0:0:0:
380,182,142037,1,2,0:0:0:0:
64,96,142169,5,8,0:0:0:0:
327,369,142301,1,2,0:0:0:0:
466,132,142433,6,0,P|394:84|310:116,1,150,8|0,0:0|0:0,0:0:0:0:
247,182,142697,2,0,L|136:182,1,100,4|0,0:0|0:0,0:0:0:0:
147,182,142896,1,0,0:0:0:0:
147,182,142962,5,10,0:0:0:0:
380,182,143094,1,8,0:0:0:0:
64,182,143226,1,8,0:0:0:0:
307,11,143358,1,8,0:0:0:0:
203,270,143490,6,0,P|163:238|155:150,1,110.000003356934,6|0,0:0|0:0,0:0:0:0:
335,95,143755,1,8,0:0:0:0:
335,357,143887,1,0,0:0:0:0:
512,184,144019,2,0,B|393:184,1,110.000003356934,2|0,0:0|0:0,0:0:0:0:
247,182,144283,1,8,0:0:0:0:
484,259,144415,6,0,P|489:123|402:91,1,220.000006713867
203,270,144812,1,8,0:0:0:0:
420,355,144944,2,0,L|486:354,2,55.0000016784668,0|0|2,0:0|0:0|0:0,0:0:0:0:
182,265,145208,1,2,0:0:0:0:
402,184,145341,1,8,0:0:0:0:
99,129,145473,1,0,0:0:0:0:
183,369,145605,6,0,P|167:318|195:248,1,110.000003356934,2|0,0:0|0:0,0:0:0:0:
256,127,145869,1,8,0:0:0:0:
341,344,146001,1,0,0:0:0:0:
247,99,146134,1,2,0:0:0:0:
508,146,146266,1,2,0:0:0:0:
341,344,146398,1,8,0:0:0:0:
169,140,146530,6,0,B|287:94|287:183|394:133,1,220.000006713867,2|2,0:0|0:0,0:0:0:0:
229,261,146926,1,8,0:0:0:0:
332,62,147059,2,0,L|332:3,2,55.0000016784668,0|0|2,0:0|0:0|0:0,0:0:0:0:
341,344,147323,1,2,0:0:0:0:
146,229,147455,2,0,B|30:230,1,110.000003356934,8|0,0:0|0:0,0:0:0:0:
341,344,147719,6,0,P|389:320|413:240,1,110.000003356934,2|0,0:0|0:0,0:0:0:0:
289,141,147984,1,8,0:0:0:0:
200,352,148116,1,0,0:0:0:0:
332,62,148248,1,2,0:0:0:0:
413,271,148380,1,2,0:0:0:0:
503,137,148512,2,0,L|504:17,1,110.000003356934,8|0,0:0|0:0,0:0:0:0:
437,356,148777,6,0,P|342:314|374:196,1,220.000006713867,2|8,0:0|0:0,0:0:0:0:
509,266,149173,1,0,0:0:0:0:
247,222,149305,1,2,0:0:0:0:
437,356,149438,1,2,0:0:0:0:
402,144,149570,2,0,P|354:129|296:148,1,110.000003356934,8|0,0:0|0:0,0:0:0:0:
71,355,149834,5,2,0:0:0:0:
154,56,149966,1,0,0:0:0:0:
247,332,150098,2,0,L|247:213,1,110.000003356934,8|0,0:0|0:0,0:0:0:0:
45,142,150363,1,2,0:0:0:0:
247,222,150495,1,2,0:0:0:0:
0,289,150627,1,8,0:0:0:0:
222,121,150759,6,0,P|324:133|346:256,1,220.000006713867,6|0,0:0|0:0,0:0:0:0:
440,80,151156,1,8,0:0:0:0:
403,349,151288,1,8,0:0:0:0:
247,222,151420,1,2,0:0:0:0:
497,222,151552,1,8,0:0:0:0:
221,222,151684,2,0,L|108:222,1,110.000003356934,8|8,0:0|0:0,0:0:0:0:
403,349,151949,6,0,B|403:287|403:287|384:259|384:259|384:116,1,220.000006713867,6|8,0:0|0:0,0:0:0:0:
284,28,152345,1,0,0:0:0:0:
157,311,152477,2,0,P|106:324|54:306,2,110.000003356934,2|2|8,0:0|0:0|0:0,0:0:0:0:
384,134,152874,6,0,P|284:117|222:231,1,220.000006713867,2|2,0:0|0:0,0:0:0:0:
403,349,153270,1,8,0:0:0:0:
80,316,153402,1,0,0:0:0:0:
324,222,153534,1,2,0:0:0:0:
168,384,153667,1,2,0:0:0:0:
128,117,153799,2,0,L|143:241,1,110.000003356934,8|0,0:0|0:0,0:0:0:0:
307,365,154063,6,0,L|322:241,1,110.000003356934,2|0,0:0|0:0,0:0:0:0:
334,33,154327,1,8,0:0:0:0:
436,208,154460,1,0,0:0:0:0:
147,253,154592,1,2,0:0:0:0:
220,33,154724,1,2,0:0:0:0:
220,364,154856,1,8,0:0:0:0:
41,200,154988,6,0,P|118:129|227:167,1,220.000006713867,2|2,0:0|0:0,0:0:0:0:
384,328,155385,1,8,0:0:0:0:
440,52,155517,1,0,0:0:0:0:
440,52,155583,1,0,0:0:0:0:
440,52,155649,1,2,0:0:0:0:
378,354,155781,1,2,0:0:0:0:
302,156,155913,2,0,B|302:32,1,110.000003356934,8|0,0:0|0:0,0:0:0:0:
384,328,156178,6,0,B|279:289|279:376|157:325,1,220.000006713867,6|8,0:0|0:0,0:0:0:0:
159,140,156574,1,0,0:0:0:0:
51,377,156706,2,0,P|35:326|59:262,1,110.000003356934,2|2,0:0|0:0,0:0:0:0:
211,54,156971,1,8,0:0:0:0:
328,260,157103,1,0,0:0:0:0:
60,112,157235,6,0,P|128:116|168:152,1,110.000003356934,2|0,0:0|0:0,0:0:0:0:
328,260,157499,1,8,0:0:0:0:
308,56,157631,1,0,0:0:0:0:
226,260,157763,1,2,0:0:0:0:
316,28,157896,1,2,0:0:0:0:
401,198,158028,1,8,0:0:0:0:
159,140,158160,1,0,0:0:0:0:
480,180,158292,6,0,P|480:216|432:272,1,110.000003356934,6|0,0:0|0:0,0:0:0:0:
161,335,158556,5,8,0:0:0:0:
371,117,158689,1,2,0:0:0:0:
82,221,158821,5,8,0:0:0:0:
434,270,158953,1,2,0:0:0:0:
216,22,159085,5,8,0:0:0:0:
311,380,159217,1,2,0:0:0:0:
28,143,159349,6,0,P|85:123|148:151,1,110.000003356934,8|2,0:0|0:0,0:0:0:0:
283,263,159614,1,2,0:0:0:0:
275,83,159746,1,2,0:0:0:0:
215,332,159878,5,2,0:0:0:0:
241,289,159944,1,2,0:0:0:0:
283,263,160010,1,2,0:0:0:0:
332,255,160076,1,2,0:0:0:0:
380,267,160142,6,0,L|392:189,1,55.0000016784668,8|0,0:0|0:0,0:0:0:0:
453,109,160275,2,0,L|463:172,1,55.0000016784668,8|0,0:0|0:0,0:0:0:0:
512,364,160407,6,0,B|460:376|460:376|404:360,1,110.000003356934,6|0,0:0|0:0,0:0:0:0:
305,162,160671,1,8,0:0:0:0:
215,332,160803,2,0,B|169:293|169:293|169:111,1,220.000006713867
275,43,161200,1,8,0:0:0:0:
332,255,161332,1,0,0:0:0:0:
81,187,161464,6,0,P|123:142|183:135,1,110.000003356934,2|0,0:0|0:0,0:0:0:0:
253,291,161728,1,8,0:0:0:0:
40,302,161860,2,0,B|158:255|158:337|261:288,1,220.000006713867,2|2,0:0|0:0,0:0:0:0:
376,220,162257,1,8,0:0:0:0:
280,369,162389,1,0,0:0:0:0:
376,220,162521,6,0,L|376:110,1,110.000003356934,2|0,0:0|0:0,0:0:0:0:
472,320,162786,1,8,0:0:0:0:
473,84,162918,2,0,P|392:15|290:55,1,220.000006713867,2|2,0:0|0:0,0:0:0:0:
161,219,163314,1,8,0:0:0:0:
376,110,163446,1,0,0:0:0:0:
161,59,163578,6,0,B|42:59,1,110.000003356934,2|0,0:0|0:0,0:0:0:0:
282,148,163843,1,8,0:0:0:0:
195,342,163975,2,0,B|195:165|195:165|162:220,1,220.000006713867,2|2,0:0|0:0,0:0:0:0:
85,334,164371,1,8,0:0:0:0:
253,118,164504,1,8,0:0:0:0:
296,343,164636,6,0,P|247:361|182:328,2,110.000003356934,2|0|8,0:0|0:0|0:0,0:0:0:0:
511,195,165032,2,0,P|474:118|348:116,1,220.000006713867,2|2,0:0|0:0,0:0:0:0:
248,274,165429,1,8,0:0:0:0:
411,185,165561,1,0,0:0:0:0:
144,168,165693,6,0,L|16:168,1,110.000003356934,2|0,0:0|0:0,0:0:0:0:
248,274,165957,1,8,0:0:0:0:
248,54,166089,2,0,L|248:277,1,220.000006713867,2|2,0:0|0:0,0:0:0:0:
410,341,166486,2,0,P|427:288|397:229,1,110.000003356934,8|0,0:0|0:0,0:0:0:0:
141,256,166750,5,2,0:0:0:0:
336,288,166882,1,0,0:0:0:0:
68,339,167015,1,8,0:0:0:0:
84,140,167147,2,0,B|203:79|203:177|315:123,1,220.000006713867,2|2,0:0|0:0,0:0:0:0:
300,31,167543,2,0,P|278:81|308:142,1,110.000003356934,8|0,0:0|0:0,0:0:0:0:
450,313,167808,6,0,P|490:265|490:215,1,110.000003356934,2|0,0:0|0:0,0:0:0:0:
240,228,168072,1,8,0:0:0:0:
386,85,168204,2,0,B|386:142|386:142|363:182|363:182|363:309,1,220.000006713867,2|2,0:0|0:0,0:0:0:0:
295,130,168601,1,12,0:0:0:0:
162,334,168733,1,0,0:0:0:0:
396,232,168865,5,6,0:0:0:0:
188,140,168997,1,0,0:0:0:0:
360,32,169129,1,8,0:0:0:0:
368,249,169261,5,0,0:0:0:0:
190,107,169393,1,2,0:0:0:0:
385,47,169525,1,2,0:0:0:0:
348,260,169658,1,8,0:0:0:0:
100,76,169790,6,0,P|202:20|282:80,1,220.000006713867,6|2,0:0|0:0,0:0:0:0:
193,349,170186,1,8,0:0:0:0:
190,107,170319,1,0,0:0:0:0:
300,211,170451,2,0,B|430:211,1,110.000003356934,2|2,0:0|0:0,0:0:0:0:
116,304,170715,2,0,B|2:304,1,110.000003356934,8|0,0:0|0:0,0:0:0:0:
382,304,170979,5,6,0:0:0:0:
196,265,171112,1,0,0:0:0:0:
463,280,171244,1,8,0:0:0:0:
193,349,171377,1,0,0:0:0:0:
396,144,171508,5,2,0:0:0:0:
375,382,171640,1,2,0:0:0:0:
398,105,171772,1,8,0:0:0:0:
119,205,171904,6,0,P|234:176|292:266,1,220.000006713867,6|2,0:0|0:0,0:0:0:0:
15,359,172301,2,0,B|15:247,1,110.000003356934,8|0,0:0|0:0,0:0:0:0:
201,65,172565,2,0,P|220:115|195:178,1,110.000003356934,2|2,0:0|0:0,0:0:0:0:
15,249,172830,1,8,0:0:0:0:
115,13,172962,1,8,0:0:0:0:
196,265,173094,5,6,0:0:0:0:
65,120,173226,1,0,0:0:0:0:
138,354,173358,1,8,0:0:0:0:
281,150,173490,1,0,0:0:0:0:
103,276,173623,5,2,0:0:0:0:
316,352,173755,1,2,0:0:0:0:
280,128,173887,1,8,0:0:0:0:
239,350,174019,6,0,P|354:308|339:228,1,220.000006713867,6|2,0:0|0:0,0:0:0:0:
397,116,174415,1,8,0:0:0:0:
316,352,174548,1,0,0:0:0:0:
344,32,174680,1,2,0:0:0:0:
476,254,174812,1,2,0:0:0:0:
204,219,174944,2,0,B|81:219,1,110.000003356934,8|0,0:0|0:0,0:0:0:0:
315,351,175208,6,0,P|372:368|423:346,1,110.000003356934,6|0,0:0|0:0,0:0:0:0:
153,117,175473,1,8,0:0:0:0:
203,328,175605,2,0,B|204:207,1,110.000003356934,0|2,0:0|0:0,0:0:0:0:
436,62,175869,2,0,P|453:114|422:177,1,110.000003356934,0|8,0:0|0:0,0:0:0:0:
153,117,176134,6,0,B|271:68|271:163|385:117,1,220.000006713867
203,218,176530,1,8,0:0:0:0:
323,41,176662,1,0,0:0:0:0:
395,345,176794,1,2,0:0:0:0:
154,293,176926,1,2,0:0:0:0:
323,41,177059,1,8,0:0:0:0:
323,379,177191,1,0,0:0:0:0:
99,223,177323,6,0,P|157:204|214:227,1,110.000003356934,6|0,0:0|0:0,0:0:0:0:
472,60,177587,1,8,0:0:0:0:
438,255,177719,1,8,0:0:0:0:
264,124,177852,6,0,P|352:124|412:184,1,165.000005035401,2|0,0:0|0:0,0:0:0:0:
438,255,178116,1,6,0:0:0:0:
438,255,178380,5,0,0:0:0:0:
412,264,178909,5,0,0:0:0:0:
388,272,179438,5,0,0:0:0:0:
56,208,187896,6,0,P|92:168|176:152,1,129.999994049073,6|2,0:0|0:0,0:0:0:0:
240,252,188292,2,0,L|372:248,1,129.999994049073,8|8,0:0|0:0,0:0:0:0:
160,332,188689,1,2,0:0:0:0:
236,187,188953,6,0,L|240:271,2,64.9999970245363,0|8|2,0:0|0:0|0:0,0:0:0:0:
276,44,189482,1,8,0:0:0:0:
348,112,189614,2,0,B|400:95|400:95|484:108,1,129.999994049073,2|0,0:0|0:0,0:0:0:0:
492,208,190010,6,0,P|496:260|440:328,1,129.999994049073,2|2,0:0|0:0,0:0:0:0:
392,248,190407,2,0,P|320:224|248:240,1,129.999994049073,8|0,0:0|0:0,0:0:0:0:
184,340,190803,2,0,B|160:272|160:272|176:188,1,129.999994049073,2|0,0:0|0:0,0:0:0:0:
272,48,191200,5,0,0:0:0:0:
272,48,191332,2,0,B|280:84|280:84|272:124,1,64.9999970245363,2|0,0:0|0:0,0:0:0:0:
170,215,191596,1,8,0:0:0:0:
170,215,191860,1,0,0:0:0:0:
16,224,192125,6,0,L|92:220,1,64.9999970245363,2|0,0:0|0:0,0:0:0:0:
170,215,192389,1,2,0:0:0:0:
256,276,192521,2,0,P|276:244|276:196,1,64.9999970245363,8|0,0:0|0:0,0:0:0:0:
189,130,192786,1,0,0:0:0:0:
120,344,192918,2,0,L|192:340,1,64.9999970245363,2|0,0:0|0:0,0:0:0:0:
279,217,193182,5,2,0:0:0:0:
376,332,193314,2,0,L|384:176,1,129.999994049073,8|0,0:0|0:0,0:0:0:0:
388,96,193711,1,2,0:0:0:0:
388,96,193975,1,8,0:0:0:0:
491,258,194239,6,0,P|447:214|363:206,1,129.999994049073,2|2,0:0|0:0,0:0:0:0:
382,201,194636,1,8,0:0:0:0:
476,128,194900,1,0,0:0:0:0:
408,352,195032,2,0,L|412:280,1,64.9999970245363,2|0,0:0|0:0,0:0:0:0:
360,72,195297,5,14,0:0:0:0:
304,260,195561,1,2,0:0:0:0:
476,128,195825,1,14,0:0:0:0:
256,192,195957,12,0,196750,0:0:0:0:
444,312,196882,6,0,P|412:316|372:304,1,66.6666666666667,8|8,0:0|0:0,0:0:0:0:
387,175,197059,6,0,P|407:202|416:234,1,66.6666666666667,8|8,0:0|0:0,0:0:0:0:
291,296,197235,6,0,P|305:265|328:241,1,66.6666666666667,8|8,0:0|0:0,0:0:0:0:
466,136,197411,6,0,P|408:92|322:114,1,165.000005035401,6|0,0:0|0:0,0:0:0:0:
215,195,197675,2,0,B|92:195,1,110.000003356934,8|0,0:0|0:0,0:0:0:0:
291,296,197940,1,2,0:0:0:0:
323,112,198072,1,2,0:0:0:0:
172,314,198204,1,8,0:0:0:0:
415,374,198336,6,0,L|415:253,1,110.000003356934,0|2,0:0|0:0,0:0:0:0:
416,55,198601,1,0,0:0:0:0:
291,296,198733,1,8,0:0:0:0:
171,112,198865,1,0,0:0:0:0:
171,112,198931,1,0,0:0:0:0:
171,112,198997,1,2,0:0:0:0:
415,264,199129,1,2,0:0:0:0:
197,366,199261,2,0,L|86:366,1,110.000003356934,8|0,0:0|0:0,0:0:0:0:
417,366,199526,6,0,B|435:314|435:314|409:250,1,110.000003356934,2|0,0:0|0:0,0:0:0:0:
156,208,199790,1,8,0:0:0:0:
383,111,199922,1,0,0:0:0:0:
133,221,200054,1,2,0:0:0:0:
335,12,200186,1,2,0:0:0:0:
414,263,200319,1,8,0:0:0:0:
171,112,200451,6,0,B|285:64|285:152|388:110,1,220.000006713867,2|2,0:0|0:0,0:0:0:0:
227,259,200847,1,8,0:0:0:0:
81,77,200979,2,0,L|81:6,2,55.0000016784668,0|0|2,0:0|0:0|0:0,0:0:0:0:
84,364,201244,1,2,0:0:0:0:
280,196,201376,2,0,P|232:178|165:204,1,110.000003356934,8|0,0:0|0:0,0:0:0:0:
54,362,201640,6,0,L|187:361,1,110.000003356934,2|0,0:0|0:0,0:0:0:0:
280,196,201904,1,8,0:0:0:0:
97,241,202037,1,0,0:0:0:0:
316,185,202169,1,2,0:0:0:0:
164,94,202301,1,2,0:0:0:0:
259,384,202433,2,0,P|239:333|263:272,1,110.000003356934,8|0,0:0|0:0,0:0:0:0:
411,65,202697,6,0,B|411:117|411:117|429:143|429:143|429:296,1,220.000006713867,2|8,0:0|0:0,0:0:0:0:
320,333,203094,1,0,0:0:0:0:
274,84,203226,1,2,0:0:0:0:
429,279,203358,1,2,0:0:0:0:
192,236,203490,2,0,B|82:236,1,110.000003356934,8|0,0:0|0:0,0:0:0:0:
326,153,203755,5,2,0:0:0:0:
134,72,203887,1,0,0:0:0:0:
178,347,204019,2,0,B|288:347,1,110.000003356934,8|0,0:0|0:0,0:0:0:0:
416,356,204283,5,2,0:0:0:0:
60,265,204415,1,2,0:0:0:0:
312,4,204548,1,8,0:0:0:0:
264,340,204680,6,0,P|176:308|176:160,1,220.000006713867,6|0,0:0|0:0,0:0:0:0:
449,87,205076,1,8,0:0:0:0:
256,233,205208,1,8,0:0:0:0:
475,337,205341,5,2,0:0:0:0:
446,51,205473,1,8,0:0:0:0:
154,193,205605,5,8,0:0:0:0:
457,207,205737,1,2,0:0:0:0:
253,124,205869,6,0,L|257:258,1,110.000003356934,6|0,0:0|0:0,0:0:0:0:
104,344,206134,1,8,0:0:0:0:
376,148,206266,1,0,0:0:0:0:
307,312,206398,2,0,P|206:305|177:195,1,220.000006713867,2|8,0:0|0:0,0:0:0:0:
121,53,206794,6,0,P|181:35|236:59,1,110.000003356934,0|2,0:0|0:0,0:0:0:0:
307,312,207059,1,0,0:0:0:0:
430,88,207191,1,8,0:0:0:0:
468,340,207323,1,0,0:0:0:0:
468,340,207389,1,0,0:0:0:0:
468,340,207455,1,2,0:0:0:0:
324,136,207587,1,2,0:0:0:0:
461,230,207719,2,0,L|469:362,1,110.000003356934,8|0,0:0|0:0,0:0:0:0:
324,136,207984,6,0,L|316:4,1,110.000003356934,2|0,0:0|0:0,0:0:0:0:
344,372,208248,1,8,0:0:0:0:
188,96,208380,1,0,0:0:0:0:
64,320,208512,1,2,0:0:0:0:
324,136,208645,1,2,0:0:0:0:
64,64,208777,1,8,0:0:0:0:
172,272,208909,6,0,B|288:232|288:320|389:274,1,220.000006713867,2|2,0:0|0:0,0:0:0:0:
336,104,209305,1,8,0:0:0:0:
228,352,209438,1,0,0:0:0:0:
228,352,209504,1,0,0:0:0:0:
228,352,209570,1,2,0:0:0:0:
345,77,209702,1,2,0:0:0:0:
468,238,209834,2,0,B|468:365,1,110.000003356934,8|0,0:0|0:0,0:0:0:0:
148,152,210098,6,0,P|200:71|328:91,1,220.000006713867,6|8,0:0|0:0,0:0:0:0:
384,275,210495,1,0,0:0:0:0:
248,152,210627,1,2,0:0:0:0:
468,348,210759,1,2,0:0:0:0:
249,271,210891,1,8,0:0:0:0:
424,103,211023,1,0,0:0:0:0:
249,381,211156,6,0,L|249:263,1,110.000003356934,2|0,0:0|0:0,0:0:0:0:
200,53,211420,1,8,0:0:0:0:
72,177,211552,1,0,0:0:0:0:
248,152,211684,1,2,0:0:0:0:
91,68,211816,1,2,0:0:0:0:
170,229,211949,2,0,L|170:347,1,110.000003356934,8|0,0:0|0:0,0:0:0:0:
327,29,212213,5,6,0:0:0:0:
327,29,212345,1,0,0:0:0:0:
420,338,212478,5,8,0:0:0:0:
32,235,212610,1,2,0:0:0:0:
420,128,212742,5,8,0:0:0:0:
103,338,212874,1,2,0:0:0:0:
486,235,213006,5,8,0:0:0:0:
98,128,213138,1,2,0:0:0:0:
420,338,213270,5,8,0:0:0:0:
327,29,213402,1,2,0:0:0:0:
327,29,213468,1,0,0:0:0:0:
327,29,213534,1,8,0:0:0:0:
103,301,213667,1,6,0:0:0:0:
36,112,213799,5,0,0:0:0:0:
81,87,213865,1,0,0:0:0:0:
131,76,213931,1,8,0:0:0:0:
182,84,213997,1,0,0:0:0:0:
229,107,214063,1,2,0:0:0:0:
275,131,214129,1,0,0:0:0:0:
326,140,214195,1,2,0:0:0:0:
376,131,214261,1,0,0:0:0:0:
424,112,214327,5,6,0:0:0:0:
327,29,214460,1,0,0:0:0:0:
405,236,214592,2,0,L|405:358,1,110.000003356934,8|0,0:0|0:0,0:0:0:0:
158,277,214856,1,2,0:0:0:0:
405,236,214988,1,2,0:0:0:0:
159,166,215120,1,8,0:0:0:0:
435,229,215252,1,0,0:0:0:0:
252,356,215385,6,0,L|252:245,1,110.000003356934,2|0,0:0|0:0,0:0:0:0:
209,54,215649,1,8,0:0:0:0:
83,235,215781,1,0,0:0:0:0:
292,127,215913,1,2,0:0:0:0:
65,127,216045,1,2,0:0:0:0:
318,128,216178,1,8,0:0:0:0:
111,19,216310,1,0,0:0:0:0:
59,241,216442,6,0,B|171:241,1,110.000003356934,2|0,0:0|0:0,0:0:0:0:
364,241,216706,1,8,0:0:0:0:
201,135,216838,1,0,0:0:0:0:
379,253,216971,1,2,0:0:0:0:
199,316,217103,1,2,0:0:0:0:
374,131,217235,2,0,L|374:18,1,110.000003356934,8|0,0:0|0:0,0:0:0:0:
325,316,217499,6,0,P|383:335|439:310,1,110.000003356934,2|0,0:0|0:0,0:0:0:0:
201,135,217763,1,8,0:0:0:0:
132,365,217896,1,0,0:0:0:0:
376,219,218028,1,2,0:0:0:0:
97,223,218160,1,2,0:0:0:0:
397,219,218292,2,0,B|527:219,1,110.000003356934,8|0,0:0|0:0,0:0:0:0:
164,58,218556,5,2,0:0:0:0:
224,344,218689,1,0,0:0:0:0:
295,165,218821,1,8,0:0:0:0:
97,223,218953,1,0,0:0:0:0:
344,344,219085,1,2,0:0:0:0:
278,77,219217,1,2,0:0:0:0:
174,260,219349,2,0,L|291:259,1,110.000003356934,8|0,0:0|0:0,0:0:0:0:
435,115,219614,5,2,0:0:0:0:
344,344,219746,1,0,0:0:0:0:
353,35,219878,1,8,0:0:0:0:
496,255,220010,1,0,0:0:0:0:
295,165,220142,2,0,B|170:165,1,110.000003356934,2|2,0:0|0:0,0:0:0:0:
344,344,220407,1,8,0:0:0:0:
280,64,220539,1,0,0:0:0:0:
109,283,220671,5,2,0:0:0:0:
295,165,220803,1,0,0:0:0:0:
79,303,220935,1,8,0:0:0:0:
351,298,221067,1,0,0:0:0:0:
116,107,221200,1,2,0:0:0:0:
224,345,221332,1,2,0:0:0:0:
362,106,221464,1,8,0:0:0:0:
62,202,221596,6,0,B|181:161|181:252|296:201,1,220.000006713867,2|2,0:0|0:0,0:0:0:0:
277,209,221926,1,0,0:0:0:0:
277,209,221993,1,8,0:0:0:0:
384,320,222125,1,0,0:0:0:0:
368,80,222257,5,2,0:0:0:0:
185,233,222389,1,2,0:0:0:0:
384,320,222521,1,8,0:0:0:0:
368,80,222653,1,8,0:0:0:0:
185,233,222786,6,0,P|247:253|297:231,2,119.999996337891,6|0|8,0:0|0:0|0:0,0:0:0:0:
93,69,223182,1,0,0:0:0:0:
87,346,223314,1,2,0:0:0:0:
242,153,223446,1,0,0:0:0:0:
39,236,223578,1,10,0:0:0:0:
326,350,223711,6,0,B|326:283|326:283|344:254|344:254|344:108,1,239.999992675781
102,28,224107,1,8,0:0:0:0:
162,277,224239,1,0,0:0:0:0:
208,142,224371,2,0,P|149:126|86:153,2,119.999996337891,2|0|8,0:0|0:0|0:0,0:0:0:0:
345,258,224768,1,0,0:0:0:0:
344,115,224900,6,0,L|345:252,1,119.999996337891,2|0,0:0|0:0,0:0:0:0:
255,345,225164,1,8,0:0:0:0:
457,234,225297,6,0,P|398:216|335:242,1,119.999996337891,0|2,0:0|0:0,0:0:0:0:
236,354,225561,1,0,0:0:0:0:
98,159,225693,6,0,L|97:24,1,119.999996337891,8|0,0:0|0:0,0:0:0:0:
98,353,225957,1,2,0:0:0:0:
39,178,226089,6,0,P|102:159|168:188,1,119.999996337891,0|10,0:0|0:0,0:0:0:0:
236,354,226354,1,0,0:0:0:0:
398,144,226486,6,0,L|398:20,1,119.999996337891,2|0,0:0|0:0,0:0:0:0:
275,261,226750,1,12,0:0:0:0:
475,264,226882,1,0,0:0:0:0:
217,97,227015,5,6,0:0:0:0:
331,354,227147,1,2,0:0:0:0:
398,144,227279,1,10,0:0:0:0:
236,354,227411,1,2,0:0:0:0:
398,144,227543,2,0,P|342:127|278:148,1,119.999996337891,2|2,0:0|0:0,0:0:0:0:
145,354,227808,1,10,0:0:0:0:
358,227,227940,6,0,B|307:227|307:227|276:248|276:248|123:248,1,239.999992675781,2|2,0:0|0:0,0:0:0:0:
331,354,228336,1,10,0:0:0:0:
392,43,228468,1,2,0:0:0:0:
480,229,228601,1,2,0:0:0:0:
209,248,228733,1,2,0:0:0:0:
303,26,228865,1,10,0:0:0:0:
332,350,228997,1,2,0:0:0:0:
135,150,229129,6,0,P|189:123|254:135,1,119.999996337891,6|2,0:0|0:0,0:0:0:0:
443,331,229393,2,0,P|389:358|323:345,1,119.999996337891,14|2,0:0|0:0,0:0:0:0:
347,36,229658,5,8,0:0:0:0:
167,258,229790,1,2,0:0:0:0:
443,331,229922,1,8,0:0:0:0:
184,22,230054,6,0,B|184:86|184:86|167:119|167:119|167:267,1,239.999992675781,6|0,0:0|0:0,0:0:0:0:
428,185,230451,1,2,0:0:0:0:
86,288,230583,1,8,0:0:0:0:
86,288,230649,1,8,0:0:0:0:
86,288,230715,5,14,0:0:0:0:
443,331,230847,1,8,0:0:0:0:
285,87,230979,1,10,0:0:0:0:
149,347,231112,1,10,0:0:0:0:
324,14,231244,5,4,0:0:0:0:
