osu file format v14

[General]
AudioFilename: life.mp3
AudioLeadIn: 0
PreviewTime: 83722
Countdown: 0
SampleSet: Soft
StackLeniency: 0.7
Mode: 0
LetterboxInBreaks: 0
WidescreenStoryboard: 1

[Editor]
DistanceSpacing: 1.4
BeatDivisor: 4
GridSize: 32
TimelineZoom: 2.4

[Metadata]
Title:Sendan Life
TitleUnicode:センダンライフ
Artist:Remo Prototype[CV: Hanamori Yumiri]
ArtistUnicode:リモ Prototype[CV:花守ゆみり]
Creator:Settia
Version:Light Insane
Source:ガラスの花と壊す世界
Tags:vocaloid Chukka やしきん yashikin Glass no Hana to Kowasu Sekai GARAKOWA Restore the World Vitreous Flower Destroy the World D.backup
BeatmapID:1119755
BeatmapSetID:394834

[Difficulty]
HPDrainRate:4
CircleSize:4
OverallDifficulty:7
ApproachRate:8.5
SliderMultiplier:1.4
SliderTickRate:1

[Events]
//Background and Video events
0,0,"nbg.jpg",0,0
//Break Periods
2,104043,108983
2,179638,187221
2,196025,196736
//Storyboard Layer 0 (Background)
//Storyboard Layer 1 (Fail)
//Storyboard Layer 2 (Pass)
//Storyboard Layer 3 (Foreground)
//Storyboard Sound Samples

[TimingPoints]
37764,264.31718061674,4,2,1,50,1,0
41993,-100,4,2,1,70,0,0
67367,-111.111111111111,4,2,1,50,0,0
75693,-100,4,2,1,70,0,0
84283,-100,4,2,1,85,0,1
101200,-100,4,2,1,70,0,0
109658,-100,4,2,1,60,0,0
118116,-100,4,2,1,70,0,0
126574,-111.111111111111,4,2,1,50,0,0
134900,-100,4,2,1,70,0,0
143490,-100,4,2,1,85,0,1
160407,-100,4,2,1,85,0,0
178380,-100,4,2,1,50,0,0
187896,-111.111111111111,4,2,1,70,0,0
197411,-100,4,2,1,85,0,1
214327,-100,4,2,1,85,0,0

[Colours]
Combo1 : 109,198,255
Combo2 : 196,174,228
Combo3 : 255,169,136
Combo4 : 109,121,158

[HitObjects]
323,47,37367,6,0,P|256:88|274:173,1,175,0|0,0:0|0:0,0:0:0:0:
316,194,37763,6,0,B|374:194|374:194|396:211|396:211|466:211,2,140,8|8|2,0:0|0:0|0:0,0:0:0:0:
245,263,38424,2,0,P|205:236|189:186,1,70,8|0,0:0|0:0,0:0:0:0:
106,82,38689,2,0,L|110:225,2,140,8|8|8,0:0|0:0|0:0,0:0:0:0:
106,82,39482,1,2,0:0:0:0:
27,140,39614,2,0,P|61:180|127:189,1,105,8|0,0:0|0:0,0:0:0:0:
148,161,39878,6,0,L|240:161,1,70,8|0,0:0|0:0,0:0:0:0:
301,212,40142,2,0,P|307:248|297:289,1,70,8|0,0:0|0:0,0:0:0:0:
232,351,40407,1,2,0:0:0:0:
166,277,40539,2,0,P|201:257|235:254,1,70,8|0,0:0|0:0,0:0:0:0:
372,320,40803,2,0,B|398:278|398:278|381:169,2,140,8|8|8,0:0|0:0|0:0,0:0:0:0:
278,351,41464,1,8,0:0:0:0:
278,351,41596,1,2,0:0:0:0:
230,253,41728,2,0,L|219:138,1,105,12|0,0:0|0:0,0:0:0:0:
215,98,41993,6,0,P|186:92|131:108,1,70,6|0,0:0|0:0,0:0:0:0:
68,41,42257,2,0,P|48:63|34:118,1,70,8|0,0:0|0:0,0:0:0:0:
93,179,42521,1,2,0:0:0:0:
131,269,42653,1,2,0:0:0:0:
72,348,42786,2,0,P|41:297|39:266,1,70,8|0,0:0|0:0,0:0:0:0:
131,269,43050,6,0,B|209:239|209:298|276:264,1,140,2|8,0:0|0:0,0:0:0:0:
339,333,43446,1,0,0:0:0:0:
351,235,43578,2,0,L|357:156,1,70,2|2,0:0|0:0,0:0:0:0:
398,76,43843,2,0,P|430:99|455:149,1,70,8|0,0:0|0:0,0:0:0:0:
351,235,44107,6,0,L|281:229,1,70,2|0,0:0|0:0,0:0:0:0:
225,148,44371,1,8,0:0:0:0:
225,148,44504,1,0,0:0:0:0:
184,237,44636,2,0,L|177:314,1,70,2|2,0:0|0:0,0:0:0:0:
95,360,44900,2,0,L|88:283,1,70,8|0,0:0|0:0,0:0:0:0:
83,192,45164,6,0,P|115:147|206:138,1,140,2|8,0:0|0:0,0:0:0:0:
273,74,45561,1,0,0:0:0:0:
321,159,45693,2,0,L|398:153,1,70,2|2,0:0|0:0,0:0:0:0:
467,214,45957,2,0,P|433:241|383:243,1,70,8|0,0:0|0:0,0:0:0:0:
340,318,46222,6,0,P|311:276|308:250,1,70,2|0,0:0|0:0,0:0:0:0:
321,159,46486,1,8,0:0:0:0:
321,159,46618,1,0,0:0:0:0:
237,209,46750,2,0,L|161:204,1,70,2|2,0:0|0:0,0:0:0:0:
66,265,47015,2,0,L|56:346,1,70,8|0,0:0|0:0,0:0:0:0:
154,343,47279,6,0,L|167:201,1,140,2|8,0:0|0:0,0:0:0:0:
129,113,47675,1,0,0:0:0:0:
129,113,47808,2,0,P|165:105|206:110,1,70,2|2,0:0|0:0,0:0:0:0:
276,166,48072,2,0,L|295:94,1,70,8|0,0:0|0:0,0:0:0:0:
362,28,48336,6,0,L|381:100,1,70,2|0,0:0|0:0,0:0:0:0:
464,145,48601,2,0,P|432:177|396:185,1,70,8|0,0:0|0:0,0:0:0:0:
334,246,48865,1,2,0:0:0:0:
334,246,48997,1,2,0:0:0:0:
276,166,49129,1,8,0:0:0:0:
294,329,49261,6,0,P|359:337|415:290,1,140,6|2,0:0|0:0,0:0:0:0:
334,246,49658,2,0,L|246:246,1,70,0|2,0:0|0:0,0:0:0:0:
177,292,49922,1,10,0:0:0:0:
141,200,50054,1,8,0:0:0:0:
177,292,50186,2,0,P|146:300|87:290,1,70,8|8,0:0|0:0,0:0:0:0:
61,177,50451,6,0,P|88:133|174:122,1,140,6|8,0:0|0:0,0:0:0:0:
253,171,50847,1,2,0:0:0:0:
306,88,50979,1,0,0:0:0:0:
306,88,51112,2,0,L|450:88,1,140,2|0,0:0|0:0,0:0:0:0:
473,181,51508,6,0,P|416:208|389:299,1,140,2|8,0:0|0:0,0:0:0:0:
317,344,51904,2,0,B|254:322|254:322|171:348,1,140,2|2,0:0|0:0,0:0:0:0:
87,365,52301,1,8,0:0:0:0:
87,365,52433,6,0,L|99:281,1,70,0|2,0:0|0:0,0:0:0:0:
182,247,52697,1,0,0:0:0:0:
182,247,52830,2,0,L|170:163,1,70,8|2,0:0|0:0,0:0:0:0:
129,89,53094,1,0,0:0:0:0:
129,89,53226,1,2,0:0:0:0:
129,89,53358,2,0,P|171:78|215:83,1,70,8|0,0:0|0:0,0:0:0:0:
276,137,53623,6,0,B|291:178|291:178|263:298,1,140,2|8,0:0|0:0,0:0:0:0:
233,362,54019,2,0,P|179:312|187:228,1,140,2|2,0:0|0:0,0:0:0:0:
143,157,54415,2,0,L|67:150,1,70,8|0,0:0|0:0,0:0:0:0:
37,237,54680,6,0,L|181:249,1,140,2|8,0:0|0:0,0:0:0:0:
269,271,55076,1,2,0:0:0:0:
358,311,55208,2,0,L|352:386,1,70,0|2,0:0|0:0,0:0:0:0:
269,271,55473,2,0,L|275:196,1,70,8|0,0:0|0:0,0:0:0:0:
281,103,55737,6,0,P|344:126|368:212,1,140,2|8,0:0|0:0,0:0:0:0:
274,201,56134,2,0,P|211:178|187:92,1,140,2|2,0:0|0:0,0:0:0:0:
106,54,56530,2,0,L|95:131,1,70,8|0,0:0|0:0,0:0:0:0:
80,219,56794,5,2,0:0:0:0:
80,219,56926,2,0,P|122:217|149:228,1,70,0|8,0:0|0:0,0:0:0:0:
168,323,57191,1,2,0:0:0:0:
168,323,57323,2,0,P|210:325|237:314,1,70,0|2,0:0|0:0,0:0:0:0:
305,246,57587,1,8,0:0:0:0:
387,298,57719,6,0,L|380:371,1,70,0|0,0:0|0:0,0:0:0:0:
476,346,57984,1,0,0:0:0:0:
425,205,58116,2,0,P|350:204|298:258,2,140,8|4|8,0:0|0:0|0:0,0:0:0:0:
257,308,58909,6,0,B|225:265|225:265|245:157,1,140,6|8,0:0|0:0,0:0:0:0:
257,83,59305,1,2,0:0:0:0:
257,83,59438,2,0,L|333:73,2,70,0|0|8,0:0|0:0|0:0,0:0:0:0:
162,110,59834,1,0,0:0:0:0:
81,54,59966,6,0,P|111:28|213:26,1,140,2|8,0:0|0:0,0:0:0:0:
268,100,60363,2,0,L|259:251,1,140,2|2,0:0|0:0,0:0:0:0:
197,315,60759,1,8,0:0:0:0:
133,240,60891,6,0,P|100:231|56:232,1,70,0|2,0:0|0:0,0:0:0:0:
68,132,61156,1,0,0:0:0:0:
68,132,61288,2,0,L|150:127,1,70,8|2,0:0|0:0,0:0:0:0:
218,72,61552,1,0,0:0:0:0:
218,72,61684,1,2,0:0:0:0:
284,143,61816,1,8,0:0:0:0:
284,143,61949,1,0,0:0:0:0:
335,59,62081,6,0,P|374:111|348:201,1,140,2|8,0:0|0:0,0:0:0:0:
285,240,62477,2,0,L|290:335,1,70,2|0,0:0|0:0,0:0:0:0:
216,375,62741,1,2,0:0:0:0:
140,312,62874,2,0,P|136:278|143:236,1,70,8|0,0:0|0:0,0:0:0:0:
88,160,63138,6,0,B|138:138|138:138|229:159,1,140,2|8,0:0|0:0,0:0:0:0:
315,183,63534,1,2,0:0:0:0:
315,183,63667,2,0,L|306:261,1,70,0|0,0:0|0:0,0:0:0:0:
381,316,63931,2,0,L|390:238,1,70,8|0,0:0|0:0,0:0:0:0:
401,149,64195,6,0,P|350:97|275:100,1,140,2|8,0:0|0:0,0:0:0:0:
215,163,64592,2,0,L|209:259,1,70,2|0,0:0|0:0,0:0:0:0:
199,330,64856,1,2,0:0:0:0:
123,267,64988,2,0,L|131:189,1,70,8|0,0:0|0:0,0:0:0:0:
142,100,65252,5,2,0:0:0:0:
142,100,65385,2,0,P|181:73|209:68,1,70,0|8,0:0|0:0,0:0:0:0:
292,29,65649,1,2,0:0:0:0:
292,29,65781,2,0,L|286:119,1,70,0|2,0:0|0:0,0:0:0:0:
281,196,66045,1,8,0:0:0:0:
365,145,66178,6,0,P|437:125|505:157,2,140,6|2|0,0:0|0:0|0:0,0:0:0:0:
281,196,66838,1,8,0:0:0:0:
281,196,66971,1,8,0:0:0:0:
365,244,67103,1,8,0:0:0:0:
365,244,67235,1,8,0:0:0:0:
278,289,67367,6,0,L|139:289,1,125.999996154785,6|0,0:0|0:0,0:0:0:0:
76,334,67764,2,0,P|71:262|108:212,1,125.999996154785,8|0,0:0|0:0,0:0:0:0:
186,206,68160,2,0,L|191:136,1,62.9999980773926,2|0,0:0|0:0,0:0:0:0:
199,55,68424,5,0,0:0:0:0:
199,55,68689,1,0,0:0:0:0:
315,30,68953,1,8,0:0:0:0:
315,30,69217,6,0,L|310:182,1,125.999996154785,2|2,0:0|0:0,0:0:0:0:
406,304,69746,2,0,P|360:273|276:275,1,125.999996154785,0|0,0:0|0:0,0:0:0:0:
228,348,70275,1,2,0:0:0:0:
228,348,70539,6,0,P|201:312|207:223,1,125.999996154785,0|0,0:0|0:0,0:0:0:0:
310,155,71067,1,8,0:0:0:0:
310,155,71332,1,2,0:0:0:0:
200,91,71596,6,0,L|68:91,1,125.999996154785,2|0,0:0|0:0,0:0:0:0:
114,169,71993,2,0,P|142:228|116:308,1,125.999996154785,8|0,0:0|0:0,0:0:0:0:
75,354,72389,1,2,0:0:0:0:
227,265,72653,6,0,B|276:246|276:246|366:272,1,125.999996154785,2|0,0:0|0:0,0:0:0:0:
419,316,73050,2,0,L|433:172,1,125.999996154785,8|0,0:0|0:0,0:0:0:0:
440,102,73446,1,2,0:0:0:0:
272,157,73711,6,0,B|212:141|212:141|130:167,1,125.999996154785,2|0,0:0|0:0,0:0:0:0:
86,220,74107,2,0,P|65:166|97:94,1,125.999996154785,8|0,0:0|0:0,0:0:0:0:
168,68,74504,1,2,0:0:0:0:
168,68,74768,6,0,L|167:214,1,125.999996154785,0|0,0:0|0:0,0:0:0:0:
168,314,75297,1,8,0:0:0:0:
168,314,75429,1,2,0:0:0:0:
168,314,75561,1,8,0:0:0:0:
168,314,75693,6,0,P|238:286|310:323,1,140,6|0,0:0|0:0,0:0:0:0:
379,357,76089,2,0,L|392:279,1,70,8|0,0:0|0:0,0:0:0:0:
318,220,76354,2,0,L|306:150,2,70,2|2|8,0:0|0:0|0:0,0:0:0:0:
390,287,76750,1,0,0:0:0:0:
418,193,76882,6,0,P|478:225|495:299,1,140,2|8,0:0|0:0,0:0:0:0:
379,357,77279,2,0,L|306:352,1,70,0|2,0:0|0:0,0:0:0:0:
211,344,77543,1,2,0:0:0:0:
211,344,77675,1,8,0:0:0:0:
211,344,77808,6,0,L|225:204,1,140,6|2,0:0|0:0,0:0:0:0:
197,110,78204,2,0,P|156:136|137:165,1,70,8|0,0:0|0:0,0:0:0:0:
93,237,78468,2,0,L|71:160,1,70,2|2,0:0|0:0,0:0:0:0:
41,76,78733,1,8,0:0:0:0:
41,76,78865,1,0,0:0:0:0:
41,76,78997,6,0,P|107:52|182:81,1,140,6|8,0:0|0:0,0:0:0:0:
247,133,79393,2,0,L|323:126,1,70,0|0,0:0|0:0,0:0:0:0:
405,82,79658,2,0,P|415:118|404:164,1,70,2|8,0:0|0:0,0:0:0:0:
371,240,79922,6,0,P|326:205|318:121,1,140,6|2,0:0|0:0,0:0:0:0:
320,27,80319,1,8,0:0:0:0:
320,27,80451,1,0,0:0:0:0:
405,82,80583,2,0,L|480:76,1,70,2|2,0:0|0:0,0:0:0:0:
503,169,80847,1,8,0:0:0:0:
503,169,80979,1,0,0:0:0:0:
503,169,81112,6,0,L|499:248,1,70,2|2,0:0|0:0,0:0:0:0:
456,326,81376,1,8,0:0:0:0:
375,270,81508,2,0,P|312:251|237:278,1,140,0|2,0:0|0:0,0:0:0:0:
170,338,81904,2,0,P|147:293|146:255,1,70,8|2,0:0|0:0,0:0:0:0:
96,188,82169,6,0,L|178:178,1,70,12|0,0:0|0:0,0:0:0:0:
227,104,82433,2,0,L|233:27,1,70,8|0,0:0|0:0,0:0:0:0:
314,86,82697,2,0,L|308:155,2,70,8|2|8,0:0|0:0|0:0,0:0:0:0:
403,43,83094,6,0,L|394:204,1,140,6|2,0:0|0:0,0:0:0:0:
356,272,83490,2,0,P|322:266|269:278,1,70,8|2,0:0|0:0,0:0:0:0:
208,329,83755,1,8,0:0:0:0:
208,329,83887,1,8,0:0:0:0:
208,329,84019,2,0,L|198:254,1,70,8|8,0:0|0:0,0:0:0:0:
131,188,84283,6,0,P|198:163|273:193,1,140,6|8,0:0|0:0,0:0:0:0:
344,235,84680,1,0,0:0:0:0:
341,137,84812,2,0,L|341:59,1,70,2|2,0:0|0:0,0:0:0:0:
427,113,85076,1,8,0:0:0:0:
425,250,85208,6,0,P|385:302|310:306,2,140,0|0|0,0:0|0:0|0:0,0:0:0:0:
490,166,85869,2,0,L|416:156,1,70,2|2,0:0|0:0,0:0:0:0:
391,62,86134,2,0,P|357:64|318:84,1,70,8|0,0:0|0:0,0:0:0:0:
250,143,86398,6,0,B|251:203|251:203|268:223|268:223|268:296,1,140,2|8,0:0|0:0,0:0:0:0:
206,352,86794,1,0,0:0:0:0:
136,283,86926,2,0,P|129:247|139:204,2,70,2|2|8,0:0|0:0|0:0,0:0:0:0:
206,352,87323,6,0,B|161:352|161:352|130:373|130:373|53:373,2,140,2|2|0,0:0|0:0|0:0,0:0:0:0:
302,374,87984,2,0,L|315:294,1,70,2|2,0:0|0:0,0:0:0:0:
398,256,88248,2,0,L|385:176,1,70,8|0,0:0|0:0,0:0:0:0:
327,108,88512,6,0,P|388:83|461:119,1,140,2|8,0:0|0:0,0:0:0:0:
490,201,88909,1,0,0:0:0:0:
483,298,89041,2,0,P|454:333|415:352,1,70,2|2,0:0|0:0,0:0:0:0:
398,256,89305,2,0,P|369:221|330:202,1,70,8|0,0:0|0:0,0:0:0:0:
308,298,89570,6,0,L|156:292,1,140,2|8,0:0|0:0,0:0:0:0:
76,259,89966,2,0,P|109:212|213:205,1,140,0|2,0:0|0:0,0:0:0:0:
268,140,90363,2,0,L|263:65,1,70,8|0,0:0|0:0,0:0:0:0:
174,29,90627,6,0,L|179:105,1,70,2|0,0:0|0:0,0:0:0:0:
186,194,90891,2,0,P|236:237|324:226,1,140,8|2,0:0|0:0,0:0:0:0:
382,171,91288,1,2,0:0:0:0:
382,171,91420,1,8,0:0:0:0:
443,246,91552,6,0,L|438:330,1,70,6|0,0:0|0:0,0:0:0:0:
351,360,91816,1,2,0:0:0:0:
351,360,91949,2,0,P|314:354|260:358,1,70,8|8,0:0|0:0,0:0:0:0:
185,375,92213,1,2,0:0:0:0:
185,375,92345,1,8,0:0:0:0:
104,319,92477,2,0,L|96:224,1,70,8|0,0:0|0:0,0:0:0:0:
64,157,92741,6,0,P|138:155|194:223,1,140,6|8,0:0|0:0,0:0:0:0:
257,263,93138,1,0,0:0:0:0:
320,337,93270,2,0,P|345:307|350:267,1,70,2|0,0:0|0:0,0:0:0:0:
312,187,93534,1,8,0:0:0:0:
242,117,93667,6,0,P|309:89|382:118,2,140,0|0|0,0:0|0:0|0:0,0:0:0:0:
184,196,94327,1,2,0:0:0:0:
129,113,94460,1,2,0:0:0:0:
90,203,94592,2,0,L|93:282,1,70,8|0,0:0|0:0,0:0:0:0:
159,344,94856,6,0,P|214:329|233:333,1,70,2|0,0:0|0:0,0:0:0:0:
312,376,95120,2,0,L|326:301,1,70,8|0,0:0|0:0,0:0:0:0:
349,211,95385,1,2,0:0:0:0:
349,211,95517,1,2,0:0:0:0:
256,243,95649,1,8,0:0:0:0:
324,307,95781,6,0,P|395:303|448:237,2,140,2|2|0,0:0|0:0|0:0,0:0:0:0:
237,354,96442,2,0,L|161:348,1,70,2|2,0:0|0:0,0:0:0:0:
99,278,96706,2,0,P|94:246|111:195,1,70,8|0,0:0|0:0,0:0:0:0:
145,121,96971,6,0,L|304:121,1,140,6|8,0:0|0:0,0:0:0:0:
360,183,97367,2,0,B|386:143|386:143|368:36,1,140,0|2,0:0|0:0,0:0:0:0:
275,51,97763,2,0,L|287:135,1,70,8|0,0:0|0:0,0:0:0:0:
262,216,98028,5,2,0:0:0:0:
262,216,98160,1,0,0:0:0:0:
240,311,98292,2,0,L|162:308,1,70,8|0,0:0|0:0,0:0:0:0:
79,346,98556,2,0,P|72:308|92:258,1,70,2|2,0:0|0:0,0:0:0:0:
30,192,98821,6,0,P|105:177|168:226,1,140,8|6,0:0|0:0,0:0:0:0:
170,308,99217,1,0,0:0:0:0:
237,237,99349,2,0,L|247:162,1,70,8|2,0:0|0:0,0:0:0:0:
321,104,99614,2,0,L|331:179,1,70,8|2,0:0|0:0,0:0:0:0:
339,270,99878,2,0,P|378:259|410:230,1,70,8|2,0:0|0:0,0:0:0:0:
466,168,100142,5,8,0:0:0:0:
466,168,100275,1,0,0:0:0:0:
504,257,100407,1,2,0:0:0:0:
504,257,100540,1,6,0:0:0:0:
467,349,100671,2,0,P|417:315|406:224,2,140,0|8|6,0:0|0:0|0:0,0:0:0:0:
256,192,101332,12,0,103843,0:0:0:0:
120,86,109658,5,6,0:0:0:0:
120,86,110715,1,10,0:0:0:0:
120,86,111112,1,10,0:0:0:0:
120,86,111508,1,10,0:0:0:0:
210,162,111772,6,0,P|279:141|351:164,1,140,4|0,0:0|0:0,0:0:0:0:
342,158,112697,1,2,0:0:0:0:
412,227,112830,6,0,B|439:185|439:185|413:81,1,140,8|2,0:0|0:0,0:0:0:0:
329,53,113226,2,0,L|246:62,1,70,2|0,0:0|0:0,0:0:0:0:
163,77,113490,1,2,0:0:0:0:
230,148,113623,2,0,P|236:181|225:224,1,70,8|0,0:0|0:0,0:0:0:0:
173,297,113887,5,2,0:0:0:0:
173,297,114151,1,0,0:0:0:0:
91,156,114415,1,0,0:0:0:0:
91,156,114679,1,0,0:0:0:0:
52,349,114944,5,2,0:0:0:0:
52,349,115208,1,0,0:0:0:0:
130,227,115473,1,0,0:0:0:0:
130,227,115737,1,0,0:0:0:0:
13,251,116001,5,2,0:0:0:0:
13,251,116265,1,0,0:0:0:0:
173,297,116530,1,0,0:0:0:0:
173,297,116794,1,0,0:0:0:0:
130,227,116926,5,8,0:0:0:0:
130,227,117587,2,0,P|161:217|206:221,1,70,8|2,0:0|0:0,0:0:0:0:
284,265,117852,2,0,P|335:261|379:195,1,105,6|0,0:0|0:0,0:0:0:0:
351,179,118116,6,0,L|351:88,1,70,6|0,0:0|0:0,0:0:0:0:
276,45,118380,2,0,P|335:13|422:40,1,140,8|0,0:0|0:0,0:0:0:0:
474,95,118777,1,2,0:0:0:0:
492,196,118909,2,0,L|492:281,1,70,8|0,0:0|0:0,0:0:0:0:
427,339,119173,6,0,P|390:322|356:320,1,70,2|0,0:0|0:0,0:0:0:0:
266,345,119438,1,8,0:0:0:0:
195,277,119570,2,0,L|200:201,1,70,2|0,0:0|0:0,0:0:0:0:
285,160,119834,2,0,L|280:84,1,70,2|8,0:0|0:0,0:0:0:0:
196,39,120098,6,0,P|131:21|57:49,1,140,0|0,0:0|0:0,0:0:0:0:
37,138,120495,1,8,0:0:0:0:
37,138,120627,1,0,0:0:0:0:
119,190,120759,2,0,P|123:221|116:265,1,70,0|2,0:0|0:0,0:0:0:0:
50,329,121023,2,0,P|81:350|124:355,1,70,8|0,0:0|0:0,0:0:0:0:
198,307,121288,6,0,P|268:282|332:305,1,140,2|8,0:0|0:0,0:0:0:0:
416,344,121684,2,0,L|431:275,1,70,2|0,0:0|0:0,0:0:0:0:
457,180,121949,1,2,0:0:0:0:
365,213,122081,2,0,L|288:202,1,70,8|0,0:0|0:0,0:0:0:0:
216,145,122345,6,0,P|289:106|361:122,1,140,2|8,0:0|0:0,0:0:0:0:
435,80,122741,1,2,0:0:0:0:
457,180,122874,2,0,L|450:264,1,70,0|0,0:0|0:0,0:0:0:0:
416,344,123138,2,0,P|376:329|354:304,1,70,8|0,0:0|0:0,0:0:0:0:
277,253,123402,6,0,B|211:233|211:233|129:261,1,140,2|8,0:0|0:0,0:0:0:0:
53,296,123799,2,0,P|47:255|61:215,1,70,2|0,0:0|0:0,0:0:0:0:
119,155,124063,1,2,0:0:0:0:
119,155,124195,2,0,L|112:78,1,70,8|0,0:0|0:0,0:0:0:0:
192,27,124460,5,2,0:0:0:0:
253,103,124592,2,0,P|290:109|341:101,1,70,0|8,0:0|0:0,0:0:0:0:
410,63,124856,1,2,0:0:0:0:
446,153,124988,2,0,L|443:237,1,70,0|2,0:0|0:0,0:0:0:0:
379,297,125252,1,8,0:0:0:0:
281,284,125385,6,0,P|299:229|380:200,2,140,6|2|0,0:0|0:0|0:0,0:0:0:0:
209,350,126045,2,0,L|133:345,1,70,8|8,0:0|0:0,0:0:0:0:
40,336,126310,1,8,0:0:0:0:
40,336,126442,1,8,0:0:0:0:
40,336,126574,6,0,P|26:277|56:209,1,125.999996154785,6|2,0:0|0:0,0:0:0:0:
111,138,127103,1,8,0:0:0:0:
111,138,127367,1,0,0:0:0:0:
163,223,127631,2,0,L|291:218,1,125.999996154785,0|2,0:0|0:0,0:0:0:0:
373,274,128160,1,8,0:0:0:0:
381,173,128424,6,0,P|338:131|256:134,2,125.999996154785,0|2|2,0:0|0:0|0:0,0:0:0:0:
373,274,129217,1,8,0:0:0:0:
296,339,129482,1,0,0:0:0:0:
197,315,129746,2,0,L|195:172,1,125.999996154785,0|2,0:0|0:0,0:0:0:0:
195,87,130275,1,8,0:0:0:0:
195,87,130539,1,0,0:0:0:0:
98,127,130803,6,0,P|128:172|206:186,2,125.999996154785,2|2|8,0:0|0:0|0:0,0:0:0:0:
110,26,131596,1,0,0:0:0:0:
195,87,131860,2,0,B|261:69|261:69|332:90,1,125.999996154785,2|2,0:0|0:0,0:0:0:0:
412,116,132389,1,8,0:0:0:0:
334,180,132653,1,0,0:0:0:0:
411,245,132918,6,0,P|428:303|399:369,1,125.999996154785,2|2,0:0|0:0,0:0:0:0:
321,306,133446,2,0,L|175:298,1,125.999996154785,8|0,0:0|0:0,0:0:0:0:
117,233,133975,2,0,B|94:274|94:274|106:364,1,125.999996154785,2|0,0:0|0:0,0:0:0:0:
195,299,134504,2,0,L|205:208,1,62.9999980773926,8|2,0:0|0:0,0:0:0:0:
212,136,134768,1,8,0:0:0:0:
221,38,134900,6,0,P|144:64|111:133,1,140,6|2,0:0|0:0,0:0:0:0:
47,183,135297,2,0,P|78:209|124:218,1,70,8|0,0:0|0:0,0:0:0:0:
201,236,135561,2,0,L|210:161,1,70,2|2,0:0|0:0,0:0:0:0:
285,105,135825,1,8,0:0:0:0:
285,105,135957,1,0,0:0:0:0:
332,190,136089,6,0,L|317:342,1,140,2|8,0:0|0:0,0:0:0:0:
229,373,136486,2,0,P|171:338|97:357,1,140,0|2,0:0|0:0,0:0:0:0:
28,288,136882,1,8,0:0:0:0:
28,288,137015,6,0,L|33:187,1,70,6|0,0:0|0:0,0:0:0:0:
104,153,137279,1,2,0:0:0:0:
104,153,137411,2,0,L|109:254,1,70,8|0,0:0|0:0,0:0:0:0:
112,320,137675,1,2,0:0:0:0:
112,320,137808,1,2,0:0:0:0:
189,260,137940,2,0,P|224:253|267:264,1,70,8|0,0:0|0:0,0:0:0:0:
331,323,138204,6,0,B|354:278|354:278|339:171,1,140,6|8,0:0|0:0,0:0:0:0:
293,103,138601,2,0,P|228:82|148:121,2,140,2|2|6,0:0|0:0|0:0,0:0:0:0:
231,180,139393,5,2,0:0:0:0:
231,180,139526,2,0,L|225:253,1,70,6|0,0:0|0:0,0:0:0:0:
173,333,139790,1,8,0:0:0:0:
173,333,139922,1,8,0:0:0:0:
173,333,140054,2,0,P|141:303|130:262,1,70,8|6,0:0|0:0,0:0:0:0:
40,241,140319,6,0,P|86:191|176:189,1,140,0|6,0:0|0:0,0:0:0:0:
225,249,140715,2,0,L|304:244,1,70,0|0,0:0|0:0,0:0:0:0:
377,192,140979,1,0,0:0:0:0:
377,192,141112,2,0,L|372:117,1,70,2|2,0:0|0:0,0:0:0:0:
308,47,141376,6,0,P|285:80|280:116,1,70,12|0,0:0|0:0,0:0:0:0:
220,187,141640,2,0,P|212:153|191:125,1,70,8|0,0:0|0:0,0:0:0:0:
130,48,141904,1,8,0:0:0:0:
130,48,142037,1,2,0:0:0:0:
72,127,142169,1,8,0:0:0:0:
72,127,142301,1,2,0:0:0:0:
130,205,142433,6,0,L|130:284,1,70,8|0,0:0|0:0,0:0:0:0:
92,365,142697,2,0,P|151:375|202:347,1,105,4|0,0:0|0:0,0:0:0:0:
222,318,142962,2,0,L|227:239,1,70,10|8,0:0|0:0,0:0:0:0:
306,191,143226,2,0,L|311:270,1,70,8|8,0:0|0:0,0:0:0:0:
337,354,143490,6,0,P|385:325|395:231,1,140,6|8,0:0|0:0,0:0:0:0:
389,149,143887,1,0,0:0:0:0:
330,70,144019,2,0,L|241:70,1,70,2|0,0:0|0:0,0:0:0:0:
178,123,144283,1,8,0:0:0:0:
87,85,144415,6,0,P|118:41|207:25,2,140,0|0|0,0:0|0:0|0:0,0:0:0:0:
90,183,145076,2,0,L|93:270,1,70,2|2,0:0|0:0,0:0:0:0:
124,346,145341,2,0,P|169:315|179:294,1,70,8|0,0:0|0:0,0:0:0:0:
213,212,145605,6,0,P|258:243|268:264,1,70,2|0,0:0|0:0,0:0:0:0:
341,315,145869,2,0,L|356:241,1,70,8|0,0:0|0:0,0:0:0:0:
367,148,146134,2,0,P|323:154|293:176,2,70,2|2|8,0:0|0:0|0:0,0:0:0:0:
437,216,146530,6,0,B|463:178|463:178|440:59,2,140,2|2|0,0:0|0:0|0:0,0:0:0:0:
372,290,147191,1,2,0:0:0:0:
372,290,147323,1,2,0:0:0:0:
372,290,147455,2,0,L|284:290,1,70,8|0,0:0|0:0,0:0:0:0:
221,346,147719,6,0,P|200:279|235:210,1,140,2|8,0:0|0:0,0:0:0:0:
138,173,148116,1,0,0:0:0:0:
65,106,148248,2,0,P|96:82|142:76,1,70,2|2,0:0|0:0,0:0:0:0:
219,47,148512,2,0,L|221:126,1,70,8|0,0:0|0:0,0:0:0:0:
226,217,148777,6,0,B|304:190|304:244|371:215,1,140,2|8,0:0|0:0,0:0:0:0:
455,188,149173,2,0,P|417:135|330:131,1,140,0|2,0:0|0:0,0:0:0:0:
362,218,149570,2,0,L|369:295,1,70,8|0,0:0|0:0,0:0:0:0:
290,347,149834,6,0,P|255:352|214:340,1,70,2|0,0:0|0:0,0:0:0:0:
142,286,150098,2,0,L|137:205,1,70,8|0,0:0|0:0,0:0:0:0:
193,134,150363,1,2,0:0:0:0:
193,134,150495,1,2,0:0:0:0:
248,214,150627,1,8,0:0:0:0:
269,118,150759,6,0,P|241:76|133:82,1,140,6|0,0:0|0:0,0:0:0:0:
71,113,151156,1,8,0:0:0:0:
71,113,151288,1,8,0:0:0:0:
71,113,151420,2,0,L|66:192,1,70,2|8,0:0|0:0,0:0:0:0:
157,219,151684,2,0,L|162:298,1,70,8|8,0:0|0:0,0:0:0:0:
74,335,151949,6,0,P|117:376|207:371,1,140,6|8,0:0|0:0,0:0:0:0:
265,310,152345,1,0,0:0:0:0:
265,310,152477,2,0,L|273:229,1,70,2|2,0:0|0:0,0:0:0:0:
286,143,152741,1,8,0:0:0:0:
374,169,152874,6,0,P|344:222|262:238,2,140,2|2|0,0:0|0:0|0:0,0:0:0:0:
360,72,153534,2,0,L|277:65,1,70,2|2,0:0|0:0,0:0:0:0:
205,116,153799,2,0,L|202:43,1,70,8|0,0:0|0:0,0:0:0:0:
104,43,154063,6,0,L|107:116,1,70,2|0,0:0|0:0,0:0:0:0:
144,203,154327,1,8,0:0:0:0:
144,203,154460,1,0,0:0:0:0:
111,295,154592,2,0,P|148:302|193:288,1,70,2|2,0:0|0:0,0:0:0:0:
261,347,154856,1,8,0:0:0:0:
315,266,154988,6,0,L|319:119,2,140,2|2|0,0:0|0:0|0:0,0:0:0:0:
409,295,155649,2,0,L|407:364,1,70,2|2,0:0|0:0,0:0:0:0:
310,352,155913,2,0,P|267:337|242:307,1,70,8|0,0:0|0:0,0:0:0:0:
167,374,156178,6,0,B|139:334|139:334|170:228,1,140,6|8,0:0|0:0,0:0:0:0:
247,195,156574,2,0,P|201:157|110:176,1,140,0|2,0:0|0:0,0:0:0:0:
41,217,156971,2,0,P|29:177|40:135,1,70,8|0,0:0|0:0,0:0:0:0:
87,68,157235,5,2,0:0:0:0:
87,68,157367,1,0,0:0:0:0:
177,30,157499,2,0,L|266:31,1,70,8|0,0:0|0:0,0:0:0:0:
321,94,157763,2,0,P|313:128|323:176,1,70,2|2,0:0|0:0,0:0:0:0:
402,212,158028,6,0,P|364:250|267:245,1,140,8|6,0:0|0:0,0:0:0:0:
207,189,158424,1,0,0:0:0:0:
207,189,158556,2,0,L|201:269,1,70,8|2,0:0|0:0,0:0:0:0:
174,353,158821,2,0,L|107:307,1,70,8|2,0:0|0:0,0:0:0:0:
49,241,159085,2,0,L|121:206,1,70,8|2,0:0|0:0,0:0:0:0:
207,189,159349,6,0,P|231:124|183:53,1,140,8|2,0:0|0:0,0:0:0:0:
104,70,159746,1,2,0:0:0:0:
104,70,159878,2,0,L|112:219,1,140,2|8,0:0|0:0,0:0:0:0:
114,308,160275,1,8,0:0:0:0:
200,353,160407,6,0,P|235:357|277:351,1,70,6|0,0:0|0:0,0:0:0:0:
361,319,160671,1,8,0:0:0:0:
393,226,160803,2,0,P|328:219|268:282,1,140,0|0,0:0|0:0,0:0:0:0:
207,189,161200,2,0,L|211:96,1,70,8|0,0:0|0:0,0:0:0:0:
131,60,161464,6,0,L|127:153,1,70,2|0,0:0|0:0,0:0:0:0:
123,227,161728,1,8,0:0:0:0:
116,324,161860,2,0,P|48:296|35:209,1,140,2|2,0:0|0:0,0:0:0:0:
62,147,162257,2,0,P|92:132|131:130,1,70,8|0,0:0|0:0,0:0:0:0:
207,189,162521,6,0,L|282:188,1,70,2|0,0:0|0:0,0:0:0:0:
360,135,162786,1,8,0:0:0:0:
356,232,162918,2,0,P|328:303|364:365,1,140,2|2,0:0|0:0,0:0:0:0:
424,289,163314,2,0,P|440:259|439:211,1,70,8|0,0:0|0:0,0:0:0:0:
389,140,163578,5,2,0:0:0:0:
389,140,163711,1,0,0:0:0:0:
423,48,163843,1,8,0:0:0:0:
423,48,163975,2,0,B|356:17|356:70|282:46,1,140,2|2,0:0|0:0,0:0:0:0:
203,97,164371,2,0,L|209:188,1,70,8|8,0:0|0:0,0:0:0:0:
207,265,164636,6,0,L|129:265,1,70,2|0,0:0|0:0,0:0:0:0:
80,345,164900,1,8,0:0:0:0:
39,255,165032,2,0,P|21:188|61:118,1,140,2|2,0:0|0:0,0:0:0:0:
128,67,165429,2,0,L|216:67,1,70,8|0,0:0|0:0,0:0:0:0:
278,123,165693,6,0,L|297:45,1,70,2|0,0:0|0:0,0:0:0:0:
388,26,165957,1,8,0:0:0:0:
440,108,166089,2,0,P|456:177|420:252,1,140,2|2,0:0|0:0,0:0:0:0:
373,319,166486,2,0,P|346:287|338:249,1,70,8|0,0:0|0:0,0:0:0:0:
264,196,166750,6,0,P|253:228|229:254,1,70,2|0,0:0|0:0,0:0:0:0:
151,315,167015,1,8,0:0:0:0:
97,233,167147,2,0,L|99:91,1,140,2|2,0:0|0:0,0:0:0:0:
192,64,167543,2,0,L|192:155,1,70,8|0,0:0|0:0,0:0:0:0:
264,196,167808,6,0,P|302:204|357:190,1,70,2|0,0:0|0:0,0:0:0:0:
412,256,168072,1,8,0:0:0:0:
419,158,168204,2,0,P|372:113|293:112,1,140,2|2,0:0|0:0,0:0:0:0:
264,196,168601,2,0,L|271:274,1,70,12|0,0:0|0:0,0:0:0:0:
215,346,168865,6,0,P|182:349|130:339,1,70,6|0,0:0|0:0,0:0:0:0:
66,287,169129,1,8,0:0:0:0:
39,192,169261,2,0,L|45:118,1,70,0|2,0:0|0:0,0:0:0:0:
101,41,169526,1,2,0:0:0:0:
171,109,169658,1,8,0:0:0:0:
171,109,169790,6,0,P|242:87|310:111,1,140,6|2,0:0|0:0,0:0:0:0:
388,152,170186,2,0,L|396:63,1,70,8|0,0:0|0:0,0:0:0:0:
484,42,170451,2,0,L|476:131,1,70,2|2,0:0|0:0,0:0:0:0:
456,207,170715,2,0,P|414:239|380:244,1,70,8|0,0:0|0:0,0:0:0:0:
329,313,170979,5,6,0:0:0:0:
329,313,171112,1,0,0:0:0:0:
329,313,171244,2,0,P|308:279|304:237,1,70,8|0,0:0|0:0,0:0:0:0:
236,177,171508,2,0,L|241:94,2,70,2|2|8,0:0|0:0|0:0,0:0:0:0:
200,268,171904,6,0,P|145:299|67:276,1,140,6|2,0:0|0:0,0:0:0:0:
4,211,172301,2,0,P|33:191|71:184,1,70,8|0,0:0|0:0,0:0:0:0:
148,130,172565,2,0,L|156:54,1,70,2|2,0:0|0:0,0:0:0:0:
65,20,172830,2,0,L|67:96,1,70,8|8,0:0|0:0,0:0:0:0:
66,184,173094,6,0,P|99:211|136:218,1,70,6|0,0:0|0:0,0:0:0:0:
206,272,173358,2,0,L|197:353,1,70,8|0,0:0|0:0,0:0:0:0:
289,304,173623,2,0,L|298:223,1,70,2|2,0:0|0:0,0:0:0:0:
241,153,173887,1,8,0:0:0:0:
234,55,174019,6,0,P|314:72|330:150,1,140,6|2,0:0|0:0,0:0:0:0:
400,192,174415,2,0,L|477:186,1,70,8|0,0:0|0:0,0:0:0:0:
475,285,174680,1,2,0:0:0:0:
475,285,174812,1,2,0:0:0:0:
475,285,174944,2,0,L|398:279,1,70,8|0,0:0|0:0,0:0:0:0:
320,230,175208,6,0,P|306:267|309:302,1,70,6|0,0:0|0:0,0:0:0:0:
230,358,175473,1,8,0:0:0:0:
172,279,175605,2,0,B|172:225|172:225|191:202|191:202|191:136,2,140,0|0|0,0:0|0:0|0:0,0:0:0:0:
127,367,176266,5,0,0:0:0:0:
127,367,176398,1,0,0:0:0:0:
127,367,176530,2,0,L|43:361,1,70,8|0,0:0|0:0,0:0:0:0:
23,270,176794,1,2,0:0:0:0:
23,270,176926,1,2,0:0:0:0:
23,270,177059,2,0,P|20:229|29:187,1,70,8|0,0:0|0:0,0:0:0:0:
68,113,177323,6,0,P|138:85|212:124,1,140,6|8,0:0|0:0,0:0:0:0:
274,164,177719,1,8,0:0:0:0:
269,262,177852,2,0,P|232:255|203:228,1,70,2|0,0:0|0:0,0:0:0:0:
134,169,178116,1,6,0:0:0:0:
247,52,178380,5,0,0:0:0:0:
247,52,178909,5,0,0:0:0:0:
247,52,179438,5,0,0:0:0:0:
133,66,187896,6,0,P|95:114|110:192,1,125.999996154785,6|2,0:0|0:0,0:0:0:0:
152,246,188292,2,0,L|283:241,1,125.999996154785,8|8,0:0|0:0,0:0:0:0:
339,305,188689,2,0,B|367:266|367:266|356:164,1,125.999996154785,2|0,0:0|0:0,0:0:0:0:
350,101,189085,1,8,0:0:0:0:
350,101,189217,2,0,L|283:110,1,62.9999980773926,2|0,0:0|0:0,0:0:0:0:
210,153,189482,1,8,0:0:0:0:
210,153,189614,2,0,P|170:121|79:130,1,125.999996154785,2|0,0:0|0:0,0:0:0:0:
57,198,190010,6,0,L|70:339,1,125.999996154785,2|2,0:0|0:0,0:0:0:0:
149,285,190407,2,0,B|193:267|193:267|291:284,1,125.999996154785,8|0,0:0|0:0,0:0:0:0:
318,354,190803,2,0,P|352:316|343:233,1,125.999996154785,2|0,0:0|0:0,0:0:0:0:
272,200,191200,1,0,0:0:0:0:
272,200,191332,2,0,L|277:125,1,62.9999980773926,2|0,0:0|0:0,0:0:0:0:
358,118,191596,2,0,L|348:258,1,125.999996154785,8|0,0:0|0:0,0:0:0:0:
318,354,192125,6,0,L|247:345,1,62.9999980773926,2|0,0:0|0:0,0:0:0:0:
168,334,192389,1,2,0:0:0:0:
103,273,192521,2,0,P|86:204|129:137,1,125.999996154785,8|0,0:0|0:0,0:0:0:0:
177,102,192918,1,2,0:0:0:0:
177,102,193182,2,0,L|248:111,1,62.9999980773926,2|8,0:0|0:0,0:0:0:0:
297,176,193446,2,0,P|323:129|296:36,2,125.999996154785,0|2|8,0:0|0:0|0:0,0:0:0:0:
222,267,194239,6,0,L|374:264,1,125.999996154785,2|2,0:0|0:0,0:0:0:0:
390,342,194636,2,0,P|433:287|424:229,1,125.999996154785,8|0,0:0|0:0,0:0:0:0:
361,174,195032,2,0,L|276:175,1,62.9999980773926,2|0,0:0|0:0,0:0:0:0:
209,175,195297,1,14,0:0:0:0:
361,86,195561,1,2,0:0:0:0:
209,175,195825,1,14,0:0:0:0:
91,93,197411,6,0,P|159:71|226:90,1,140,6|8,0:0|0:0,0:0:0:0:
292,158,197808,1,0,0:0:0:0:
292,158,197940,2,0,L|286:232,1,70,2|2,0:0|0:0,0:0:0:0:
266,323,198204,1,8,0:0:0:0:
173,284,198336,6,0,P|210:236|307:237,2,140,0|0|0,0:0|0:0|0:0,0:0:0:0:
97,347,198997,2,0,L|26:343,1,70,2|2,0:0|0:0,0:0:0:0:
12,246,199261,2,0,L|81:249,1,70,8|0,0:0|0:0,0:0:0:0:
173,284,199526,6,0,L|178:203,1,70,2|0,0:0|0:0,0:0:0:0:
95,160,199790,2,0,L|99:90,1,70,8|0,0:0|0:0,0:0:0:0:
184,42,200054,2,0,P|225:37|279:47,1,70,2|2,0:0|0:0,0:0:0:0:
329,102,200319,1,8,0:0:0:0:
391,177,200451,6,0,P|326:199|254:156,2,140,2|2|0,0:0|0:0|0:0,0:0:0:0:
469,117,201112,2,0,L|480:209,1,70,2|2,0:0|0:0,0:0:0:0:
493,283,201376,2,0,L|419:288,1,70,8|0,0:0|0:0,0:0:0:0:
349,351,201640,6,0,P|332:312|331:273,1,70,2|0,0:0|0:0,0:0:0:0:
252,225,201904,2,0,P|247:259|232:291,1,70,8|0,0:0|0:0,0:0:0:0:
154,351,202169,2,0,L|145:275,1,70,2|2,0:0|0:0,0:0:0:0:
83,205,202433,2,0,L|91:129,1,70,8|0,0:0|0:0,0:0:0:0:
51,45,202697,6,0,P|129:37|181:106,1,140,2|8,0:0|0:0,0:0:0:0:
234,151,203094,2,0,B|313:120|313:175|383:151,1,140,0|2,0:0|0:0,0:0:0:0:
443,219,203490,2,0,L|440:291,1,70,8|0,0:0|0:0,0:0:0:0:
365,352,203755,6,0,L|354:253,1,70,2|0,0:0|0:0,0:0:0:0:
278,224,204019,2,0,P|217:204|138:233,1,140,8|2,0:0|0:0,0:0:0:0:
72,289,204415,1,2,0:0:0:0:
72,289,204548,1,8,0:0:0:0:
72,289,204680,6,0,P|59:253|60:209,1,70,6|0,0:0|0:0,0:0:0:0:
93,130,204944,1,0,0:0:0:0:
93,130,205076,2,0,L|171:125,1,70,8|8,0:0|0:0,0:0:0:0:
223,47,205341,1,6,0:0:0:0:
223,47,205473,1,8,0:0:0:0:
223,47,205605,2,0,P|247:81|256:121,1,70,8|0,0:0|0:0,0:0:0:0:
216,197,205869,6,0,P|193:267|222:334,1,140,6|8,0:0|0:0,0:0:0:0:
308,359,206266,1,0,0:0:0:0:
394,313,206398,2,0,L|399:243,1,70,2|0,0:0|0:0,0:0:0:0:
409,145,206662,1,8,0:0:0:0:
348,67,206794,6,0,P|285:47|215:74,2,140,0|0|0,0:0|0:0|0:0,0:0:0:0:
284,142,207455,2,0,P|275:180|280:228,1,70,2|2,0:0|0:0,0:0:0:0:
279,308,207719,2,0,L|209:303,1,70,8|0,0:0|0:0,0:0:0:0:
126,356,207984,6,0,B|100:317|100:317|126:206,1,140,2|8,0:0|0:0,0:0:0:0:
67,144,208380,1,0,0:0:0:0:
65,46,208512,2,0,L|154:43,1,70,2|2,0:0|0:0,0:0:0:0:
218,96,208777,1,8,0:0:0:0:
286,165,208909,6,0,L|277:322,2,140,2|2|0,0:0|0:0|0:0,0:0:0:0:
325,74,209570,2,0,P|368:67|410:79,1,70,2|2,0:0|0:0,0:0:0:0:
463,140,209834,2,0,L|457:232,1,70,8|0,0:0|0:0,0:0:0:0:
481,304,210098,6,0,P|414:281|343:312,1,140,6|8,0:0|0:0,0:0:0:0:
274,365,210495,2,0,L|267:218,1,140,0|2,0:0|0:0,0:0:0:0:
185,171,210891,2,0,L|189:273,1,70,8|0,0:0|0:0,0:0:0:0:
145,330,211156,5,2,0:0:0:0:
145,330,211288,1,0,0:0:0:0:
145,330,211420,2,0,P|109:297|99:274,1,70,8|0,0:0|0:0,0:0:0:0:
41,200,211684,2,0,L|49:118,1,70,2|2,0:0|0:0,0:0:0:0:
116,59,211949,6,0,P|185:36|259:77,1,140,8|6,0:0|0:0,0:0:0:0:
320,122,212345,1,0,0:0:0:0:
320,122,212477,2,0,L|336:46,1,70,8|2,0:0|0:0,0:0:0:0:
407,118,212741,2,0,L|423:194,1,70,8|2,0:0|0:0,0:0:0:0:
413,284,213006,2,0,P|377:274|351:245,1,70,8|2,0:0|0:0,0:0:0:0:
275,194,213270,6,0,B|248:240|248:240|265:336,1,140,8|8,0:0|0:0,0:0:0:0:
172,364,213667,1,6,0:0:0:0:
172,364,213799,2,0,L|149:208,1,140,0|2,0:0|0:0,0:0:0:0:
91,148,214195,1,2,0:0:0:0:
91,148,214327,6,0,L|99:68,1,70,6|0,0:0|0:0,0:0:0:0:
182,27,214592,2,0,L|190:107,1,70,8|0,0:0|0:0,0:0:0:0:
239,180,214856,1,2,0:0:0:0:
239,180,214988,1,2,0:0:0:0:
297,101,215120,2,0,L|377:101,1,70,8|0,0:0|0:0,0:0:0:0:
421,183,215385,6,0,P|441:248|403:331,1,140,2|8,0:0|0:0,0:0:0:0:
334,368,215781,1,0,0:0:0:0:
259,304,215913,2,0,P|230:298|181:309,1,70,2|2,0:0|0:0,0:0:0:0:
110,362,216178,2,0,L|99:278,1,70,8|0,0:0|0:0,0:0:0:0:
42,214,216442,6,0,P|79:198|126:197,1,70,2|0,0:0|0:0,0:0:0:0:
202,219,216706,1,8,0:0:0:0:
202,219,216838,1,0,0:0:0:0:
158,130,216971,2,0,L|153:53,1,70,2|2,0:0|0:0,0:0:0:0:
244,23,217235,2,0,L|249:100,1,70,8|0,0:0|0:0,0:0:0:0:
295,178,217499,6,0,P|364:154|447:187,1,140,2|8,0:0|0:0,0:0:0:0:
464,262,217896,1,0,0:0:0:0:
464,262,218028,2,0,L|460:349,1,70,2|2,0:0|0:0,0:0:0:0:
365,353,218292,2,0,L|295:348,1,70,8|0,0:0|0:0,0:0:0:0:
263,255,218556,6,0,L|193:250,1,70,2|0,0:0|0:0,0:0:0:0:
124,321,218821,2,0,P|108:280|107:251,1,70,8|0,0:0|0:0,0:0:0:0:
151,167,219085,1,2,0:0:0:0:
151,167,219217,1,2,0:0:0:0:
222,99,219349,2,0,L|319:98,1,70,8|0,0:0|0:0,0:0:0:0:
371,156,219614,6,0,B|399:116|399:116|389:10,1,140,2|8,0:0|0:0,0:0:0:0:
285,28,220010,1,0,0:0:0:0:
285,28,220142,2,0,L|293:110,1,70,2|2,0:0|0:0,0:0:0:0:
306,195,220407,2,0,P|336:224|375:235,1,70,8|0,0:0|0:0,0:0:0:0:
458,251,220671,6,0,L|451:336,1,70,2|0,0:0|0:0,0:0:0:0:
375,381,220935,2,0,L|368:296,1,70,8|0,0:0|0:0,0:0:0:0:
275,279,221200,2,0,P|246:271|196:283,1,70,2|2,0:0|0:0,0:0:0:0:
121,323,221464,1,8,0:0:0:0:
121,323,221596,6,0,B|95:259|95:259|125:179,1,140,2|2,0:0|0:0,0:0:0:0:
173,109,221993,1,8,0:0:0:0:
173,109,222125,1,0,0:0:0:0:
173,109,222257,2,0,P|213:103|251:108,1,70,2|2,0:0|0:0,0:0:0:0:
288,191,222521,2,0,P|328:197|366:192,1,70,8|8,0:0|0:0,0:0:0:0:
451,164,222786,6,0,P|378:105|321:119,1,140,6|8,0:0|0:0,0:0:0:0:
288,191,223182,1,0,0:0:0:0:
248,280,223314,2,0,L|244:359,1,70,2|0,0:0|0:0,0:0:0:0:
148,367,223578,1,10,0:0:0:0:
148,367,223711,6,0,L|158:219,1,140,0|0,0:0|0:0,0:0:0:0:
81,165,224107,2,0,L|100:94,1,70,10|0,0:0|0:0,0:0:0:0:
179,42,224371,1,2,0:0:0:0:
179,42,224504,1,0,0:0:0:0:
179,42,224636,2,0,L|198:113,1,70,8|0,0:0|0:0,0:0:0:0:
245,194,224900,6,0,P|312:167|388:201,1,140,2|10,0:0|0:0,0:0:0:0:
446,120,225297,2,0,P|455:91|446:46,1,70,0|2,0:0|0:0,0:0:0:0:
358,89,225561,1,0,0:0:0:0:
373,187,225693,6,0,L|385:332,1,140,10|2,0:0|0:0,0:0:0:0:
290,353,226089,2,0,P|254:348|205:359,1,70,0|10,0:0|0:0,0:0:0:0:
125,327,226354,1,0,0:0:0:0:
44,270,226486,2,0,L|46:197,1,70,2|0,0:0|0:0,0:0:0:0:
142,187,226750,2,0,P|148:155|137:103,1,70,12|0,0:0|0:0,0:0:0:0:
51,81,227015,6,0,P|78:41|173:22,1,140,6|10,0:0|0:0,0:0:0:0:
227,93,227411,1,2,0:0:0:0:
227,93,227543,2,0,L|311:89,1,70,2|2,0:0|0:0,0:0:0:0:
372,26,227808,1,10,0:0:0:0:
391,121,227940,6,0,P|360:171|259:180,1,140,2|2,0:0|0:0,0:0:0:0:
186,191,228336,2,0,L|195:272,1,70,10|2,0:0|0:0,0:0:0:0:
107,308,228601,2,0,L|116:227,2,70,2|2|10,0:0|0:0|0:0,0:0:0:0:
21,355,228997,1,2,0:0:0:0:
21,355,229129,6,0,L|30:270,1,70,6|2,0:0|0:0,0:0:0:0:
114,238,229393,2,0,L|105:153,1,70,14|2,0:0|0:0,0:0:0:0:
40,94,229658,2,0,L|49:9,1,70,8|2,0:0|0:0,0:0:0:0:
138,60,229922,1,8,0:0:0:0:
138,60,230054,6,0,B|194:60|194:60|223:83|223:83|286:83,1,140,6|0,0:0|0:0,0:0:0:0:
365,107,230451,1,2,0:0:0:0:
434,175,230583,1,8,0:0:0:0:
471,265,230715,2,0,P|440:272|394:262,1,70,14|8,0:0|0:0,0:0:0:0:
334,196,230979,2,0,P|303:188|257:199,1,70,10|10,0:0|0:0,0:0:0:0:
196,265,231244,1,4,0:0:0:0:
