osu file format v14

[General]
AudioFilename: life.mp3
AudioLeadIn: 0
PreviewTime: 83722
Countdown: 0
SampleSet: Soft
StackLeniency: 0.7
Mode: 0
LetterboxInBreaks: 0
WidescreenStoryboard: 0

[Editor]
DistanceSpacing: 1.7
BeatDivisor: 4
GridSize: 32
TimelineZoom: 2.4

[Metadata]
Title:Sendan Life
TitleUnicode:センダンライフ
Artist:Remo Prototype[CV: Hanamori Yumiri]
ArtistUnicode:リモ Prototype[CV:花守ゆみり]
Creator:Settia
Version:Hard
Source:ガラスの花と壊す世界
Tags:vocaloid Chukka やしきん yashikin Glass no Hana to Kowasu Sekai GARAKOWA Restore the World Vitreous Flower Destroy the World D.backup
BeatmapID:944803
BeatmapSetID:394834

[Difficulty]
HPDrainRate:4
CircleSize:3.5
OverallDifficulty:6
ApproachRate:7.5
SliderMultiplier:1.1
SliderTickRate:1

[Events]
//Background and Video events
0,0,"nbg.jpg",0,0
//Break Periods
2,104043,108833
2,179638,187071
//Storyboard Layer 0 (Background)
//Storyboard Layer 1 (Fail)
//Storyboard Layer 2 (Pass)
//Storyboard Layer 3 (Foreground)
//Storyboard Sound Samples

[TimingPoints]
37764,264.31718061674,4,2,1,50,1,0
41993,-100,4,2,1,70,0,0
67367,-133.333333333333,4,2,1,50,0,0
75693,-100,4,2,1,70,0,0
84283,-90.9090909090909,4,2,1,85,0,1
101200,-90.9090909090909,4,2,1,70,0,0
109658,-111.111111111111,4,2,1,60,0,0
116926,-133.333333333333,4,2,1,70,0,0
117852,-100,4,2,1,70,0,0
126574,-111.111111111111,4,2,1,50,0,0
134900,-100,4,2,1,70,0,0
142631,-100,4,2,1,5,0,0
142697,-100,4,2,1,70,0,0
142896,-100,4,2,1,5,0,0
142962,-100,4,2,1,70,0,0
143490,-90.9090909090909,4,2,1,85,0,1
160407,-90.9090909090909,4,2,1,85,0,0
178380,-90.9090909090909,4,2,1,50,0,0
187896,-111.111111111111,4,2,1,50,0,0
195825,-100,4,2,1,60,0,0
196882,-100,4,2,1,70,0,0
197411,-90.9090909090909,4,2,1,85,0,1
214327,-100,4,2,1,85,0,0
222786,-90.9090909090909,4,2,1,85,0,0

[Colours]
Combo1 : 109,198,255
Combo2 : 196,174,228
Combo3 : 255,169,136
Combo4 : 109,121,158

[HitObjects]
99,119,37763,6,0,P|156:101|218:128,1,110,8|8,0:0|0:0,0:0:0:0:
149,295,38292,1,2,0:0:0:0:
149,295,38424,2,0,L|152:172,1,110,8|8,0:0|0:0,0:0:0:0:
265,35,38953,1,8,0:0:0:0:
265,35,39217,1,8,0:0:0:0:
450,61,39482,1,2,0:0:0:0:
379,122,39614,2,0,P|364:161|384:213,1,82.5,8|0,0:0|0:0,0:0:0:0:
413,223,39878,6,0,L|279:222,1,110,8|8,0:0|0:0,0:0:0:0:
162,346,40407,1,2,0:0:0:0:
162,346,40539,2,0,L|160:270,1,55,8|0,0:0|0:0,0:0:0:0:
99,220,40803,2,0,P|82:169|111:109,2,110,8|8|8,0:0|0:0|0:0,0:0:0:0:
160,291,41464,1,8,0:0:0:0:
211,213,41596,1,2,0:0:0:0:
255,294,41728,2,0,B|307:294|307:294|342:276,1,82.5,12|0,0:0|0:0,0:0:0:0:
328,233,41993,6,0,P|311:177|339:114,1,110,6|8,0:0|0:0,0:0:0:0:
389,61,42389,1,0,0:0:0:0:
467,111,42521,2,0,L|463:173,1,55,2|2,0:0|0:0,0:0:0:0:
459,259,42786,2,0,L|455:321,1,55,8|0,0:0|0:0,0:0:0:0:
377,364,43050,6,0,B|305:363|305:363|268:342,1,110,2|8,0:0|0:0,0:0:0:0:
194,292,43446,1,0,0:0:0:0:
123,230,43578,2,0,P|117:200|129:155,1,55,2|2,0:0|0:0,0:0:0:0:
185,107,43843,2,0,B|192:81|192:81|182:40,1,55,8|0,0:0|0:0,0:0:0:0:
98,89,44107,6,0,P|43:123|29:178,1,110,2|8,0:0|0:0,0:0:0:0:
55,253,44504,1,0,0:0:0:0:
109,328,44636,2,0,P|140:333|181:324,1,55,2|2,0:0|0:0,0:0:0:0:
220,256,44900,2,0,P|251:251|292:260,1,55,8|0,0:0|0:0,0:0:0:0:
341,318,45164,6,0,B|359:255|359:255|343:194,1,110,2|8,0:0|0:0,0:0:0:0:
332,119,45561,1,0,0:0:0:0:
372,34,45693,2,0,P|405:27|439:40,1,55,2|2,0:0|0:0,0:0:0:0:
483,104,45957,2,0,L|479:172,1,55,8|0,0:0|0:0,0:0:0:0:
432,240,46222,6,0,B|359:253|359:253|312:238,1,110,2|8,0:0|0:0,0:0:0:0:
238,207,46618,1,0,0:0:0:0:
174,275,46750,2,0,L|99:274,1,55,2|2,0:0|0:0,0:0:0:0:
89,184,47015,2,0,L|164:183,1,55,8|0,0:0|0:0,0:0:0:0:
218,127,47279,6,0,P|279:128|314:168,1,110,2|8,0:0|0:0,0:0:0:0:
350,245,47675,1,0,0:0:0:0:
390,160,47808,2,0,L|393:88,1,55,2|2,0:0|0:0,0:0:0:0:
482,82,48072,2,0,L|479:154,1,55,8|0,0:0|0:0,0:0:0:0:
486,230,48336,6,0,L|364:241,1,110,2|8,0:0|0:0,0:0:0:0:
314,310,48733,1,0,0:0:0:0:
234,359,48865,2,0,P|207:364|167:350,1,55,2|2,0:0|0:0,0:0:0:0:
118,288,49129,1,8,0:0:0:0:
210,278,49261,6,0,B|223:200|223:200|213:158,1,110,6|2,0:0|0:0,0:0:0:0:
149,103,49658,2,0,P|134:120|123:159,1,55,0|2,0:0|0:0,0:0:0:0:
52,211,49922,2,0,L|35:147,1,55,10|8,0:0|0:0,0:0:0:0:
66,69,50186,1,8,0:0:0:0:
66,69,50319,1,8,0:0:0:0:
149,103,50451,6,0,L|268:104,1,110,6|8,0:0|0:0,0:0:0:0:
352,103,50847,1,2,0:0:0:0:
352,103,50979,2,0,L|356:173,1,55,0|2,0:0|0:0,0:0:0:0:
442,192,51244,2,0,L|438:262,1,55,8|0,0:0|0:0,0:0:0:0:
371,312,51508,6,0,B|304:327|304:327|242:315,1,110,2|8,0:0|0:0,0:0:0:0:
185,371,51904,2,0,P|168:312|194:256,1,110,2|2,0:0|0:0,0:0:0:0:
267,225,52301,1,8,0:0:0:0:
267,225,52433,6,0,L|266:158,1,55,0|2,0:0|0:0,0:0:0:0:
221,87,52697,1,0,0:0:0:0:
221,87,52830,2,0,P|197:108|180:144,1,55,8|2,0:0|0:0,0:0:0:0:
120,195,53094,2,0,P|99:168|94:141,1,55,0|2,0:0|0:0,0:0:0:0:
123,59,53358,1,8,0:0:0:0:
123,59,53490,1,0,0:0:0:0:
185,127,53623,6,0,P|241:113|303:135,1,110,2|8,0:0|0:0,0:0:0:0:
347,200,54019,2,0,P|405:217|460:191,1,110,2|2,0:0|0:0,0:0:0:0:
490,116,54415,2,0,L|484:50,1,55,8|0,0:0|0:0,0:0:0:0:
391,74,54680,6,0,L|397:140,1,55,2|0,0:0|0:0,0:0:0:0:
449,200,54944,2,0,L|454:275,1,55,8|2,0:0|0:0,0:0:0:0:
397,330,55208,2,0,B|350:344|350:344|286:326,1,110,0|8,0:0|0:0,0:0:0:0:
210,278,55605,1,0,0:0:0:0:
210,278,55737,6,0,P|195:224|226:163,1,110,2|8,0:0|0:0,0:0:0:0:
260,93,56134,2,0,L|128:88,1,110,2|2,0:0|0:0,0:0:0:0:
72,140,56530,2,0,L|73:205,1,55,8|0,0:0|0:0,0:0:0:0:
49,285,56794,5,2,0:0:0:0:
49,285,56926,2,0,P|80:290|109:281,1,55,0|8,0:0|0:0,0:0:0:0:
179,230,57191,1,2,0:0:0:0:
179,230,57323,2,0,P|210:225|239:234,1,55,0|2,0:0|0:0,0:0:0:0:
304,290,57587,1,8,0:0:0:0:
304,290,57719,6,0,B|312:224|312:224|294:165,1,110,0|0,0:0|0:0,0:0:0:0:
278,90,58116,2,0,L|332:82,1,55,8|0,0:0|0:0,0:0:0:0:
418,119,58380,2,0,L|423:247,1,110,4|8,0:0|0:0,0:0:0:0:
293,364,58909,6,0,P|244:338|234:268,1,110,6|8,0:0|0:0,0:0:0:0:
262,201,59305,1,2,0:0:0:0:
314,122,59438,2,0,L|313:45,1,55,0|0,0:0|0:0,0:0:0:0:
219,66,59702,2,0,L|220:143,1,55,8|0,0:0|0:0,0:0:0:0:
160,193,59966,6,0,B|91:212|91:212|30:193,1,110,2|8,0:0|0:0,0:0:0:0:
35,292,60363,2,0,B|88:310|88:310|150:294,1,110,2|2,0:0|0:0,0:0:0:0:
229,270,60759,2,0,L|237:336,1,55,8|0,0:0|0:0,0:0:0:0:
320,363,61023,6,0,L|311:299,1,55,2|0,0:0|0:0,0:0:0:0:
305,214,61288,1,8,0:0:0:0:
305,214,61420,1,2,0:0:0:0:
327,123,61552,2,0,P|356:98|389:92,1,55,0|2,0:0|0:0,0:0:0:0:
441,155,61816,2,0,P|412:180|379:186,1,55,8|0,0:0|0:0,0:0:0:0:
305,214,62081,6,0,B|275:194|275:194|177:195,1,110,2|8,0:0|0:0,0:0:0:0:
124,247,62477,2,0,P|107:197|142:131,1,110,2|2,0:0|0:0,0:0:0:0:
204,92,62874,2,0,L|278:91,1,55,8|0,0:0|0:0,0:0:0:0:
342,133,63138,6,0,L|417:133,1,55,2|0,0:0|0:0,0:0:0:0:
468,72,63402,2,0,B|489:106|489:106|479:191,1,110,8|0,0:0|0:0,0:0:0:0:
474,269,63799,1,0,0:0:0:0:
451,359,63931,2,0,L|391:358,1,55,8|0,0:0|0:0,0:0:0:0:
318,305,64195,6,0,P|286:283|210:288,1,110,2|8,0:0|0:0,0:0:0:0:
170,366,64592,2,0,L|58:361,1,110,2|2,0:0|0:0,0:0:0:0:
26,274,64988,2,0,P|22:243|41:202,1,55,8|0,0:0|0:0,0:0:0:0:
76,140,65252,5,2,0:0:0:0:
76,140,65385,1,0,0:0:0:0:
76,140,65517,2,0,L|149:136,1,55,8|2,0:0|0:0,0:0:0:0:
209,187,65781,1,0,0:0:0:0:
211,93,65913,2,0,L|213:32,1,55,2|8,0:0|0:0,0:0:0:0:
303,14,66178,6,0,L|301:137,1,110,6|2,0:0|0:0,0:0:0:0:
354,200,66574,2,0,P|386:209|428:203,1,55,2|0,0:0|0:0,0:0:0:0:
486,158,66838,2,0,P|506:217|480:269,1,110,8|8,0:0|0:0,0:0:0:0:
437,337,67235,1,8,0:0:0:0:
437,337,67367,6,0,L|301:331,1,123.750004720688,6|8,0:0|0:0,0:0:0:0:
132,222,68160,2,0,P|202:206|261:234,1,123.750004720688,2|2,0:0|0:0,0:0:0:0:
248,223,68953,1,8,0:0:0:0:
248,223,69217,1,2,0:0:0:0:
374,162,69482,6,0,L|377:30,1,123.750004720688,2|2,0:0|0:0,0:0:0:0:
489,216,70275,2,0,P|461:273|388:290,1,123.750004720688,2|0,0:0|0:0,0:0:0:0:
407,292,71067,1,8,0:0:0:0:
407,292,71332,1,2,0:0:0:0:
277,346,71596,6,0,L|275:209,1,123.750004720688,2|8,0:0|0:0,0:0:0:0:
275,222,72389,1,2,0:0:0:0:
227,90,72653,2,0,P|174:75|106:100,1,123.750004720688,2|8,0:0|0:0,0:0:0:0:
110,96,73446,1,2,0:0:0:0:
67,229,73711,6,0,L|201:223,1,123.750004720688,2|8,0:0|0:0,0:0:0:0:
190,223,74504,1,2,0:0:0:0:
285,325,74768,2,0,L|291:228,1,82.5000031471254,0|0,0:0|0:0,0:0:0:0:
296,102,75297,1,8,0:0:0:0:
296,102,75429,1,2,0:0:0:0:
296,102,75561,1,8,0:0:0:0:
296,102,75693,6,0,P|353:86|416:114,1,110,6|0,0:0|0:0,0:0:0:0:
462,170,76089,2,0,L|466:249,1,55,8|0,0:0|0:0,0:0:0:0:
383,271,76354,2,0,L|380:203,2,55,2|2|8,0:0|0:0|0:0,0:0:0:0:
389,364,76750,1,0,0:0:0:0:
389,364,76882,6,0,L|260:364,1,110,2|8,0:0|0:0,0:0:0:0:
196,319,77279,2,0,B|179:256|179:256|199:202,1,110,0|2,0:0|0:0,0:0:0:0:
252,140,77675,1,8,0:0:0:0:
252,140,77808,6,0,P|209:122|142:137,1,110,6|2,0:0|0:0,0:0:0:0:
92,208,78204,2,0,L|95:287,1,55,8|0,0:0|0:0,0:0:0:0:
101,356,78468,1,2,0:0:0:0:
101,356,78601,1,2,0:0:0:0:
173,296,78733,2,0,L|253:293,1,55,8|0,0:0|0:0,0:0:0:0:
303,239,78997,6,0,L|310:367,1,110,6|8,0:0|0:0,0:0:0:0:
401,359,79393,2,0,L|394:245,1,110,0|2,0:0|0:0,0:0:0:0:
359,161,79790,1,8,0:0:0:0:
359,161,79922,6,0,L|241:154,1,110,6|2,0:0|0:0,0:0:0:0:
177,93,80319,2,0,P|173:61|181:27,1,55,8|0,0:0|0:0,0:0:0:0:
266,65,80583,1,2,0:0:0:0:
266,65,80715,1,2,0:0:0:0:
249,154,80847,2,0,L|240:234,1,55,8|0,0:0|0:0,0:0:0:0:
203,294,81112,6,0,B|244:313|244:313|329:312,1,110,2|8,0:0|0:0,0:0:0:0:
384,367,81508,2,0,P|402:299|381:256,1,110,0|2,0:0|0:0,0:0:0:0:
327,193,81904,2,0,L|328:134,1,55,8|2,0:0|0:0,0:0:0:0:
375,56,82169,6,0,P|350:45|302:44,1,55,12|0,0:0|0:0,0:0:0:0:
250,100,82433,2,0,P|225:111|177:112,1,55,8|0,0:0|0:0,0:0:0:0:
128,51,82697,2,0,P|103:40|55:39,1,55,8|2,0:0|0:0,0:0:0:0:
26,116,82962,1,8,0:0:0:0:
26,116,83094,6,0,L|29:251,1,110,6|2,0:0|0:0,0:0:0:0:
78,304,83490,1,8,0:0:0:0:
78,304,83623,1,2,0:0:0:0:
128,225,83755,2,0,L|203:221,1,55,8|8,0:0|0:0,0:0:0:0:
234,299,84019,2,0,L|309:295,1,55,8|8,0:0|0:0,0:0:0:0:
378,347,84283,6,0,P|397:278|362:216,1,121.000003692627,6|8,0:0|0:0,0:0:0:0:
318,150,84680,1,0,0:0:0:0:
235,89,84812,2,0,L|108:89,1,121.000003692627,2|8,0:0|0:0,0:0:0:0:
41,161,85208,6,0,P|67:181|108:192,1,60.5000018463135,0|2,0:0|0:0,0:0:0:0:
116,290,85473,2,0,P|144:279|167:260,1,60.5000018463135,0|8,0:0|0:0,0:0:0:0:
249,198,85737,1,0,0:0:0:0:
249,198,85869,2,0,L|249:332,1,121.000003692627,2|8,0:0|0:0,0:0:0:0:
346,353,86266,5,0,0:0:0:0:
346,353,86398,2,0,L|346:271,1,60.5000018463135,2|0,0:0|0:0,0:0:0:0:
441,254,86662,2,0,P|431:225|388:195,1,60.5000018463135,8|0,0:0|0:0,0:0:0:0:
475,125,86926,2,0,P|451:104|399:100,1,60.5000018463135,2|2,0:0|0:0,0:0:0:0:
338,156,87191,1,8,0:0:0:0:
290,64,87323,6,0,B|260:65|260:65|237:75|237:75|149:75,2,121.000003692627,2|2|0,0:0|0:0|0:0,0:0:0:0:
338,156,87984,1,2,0:0:0:0:
338,156,88116,1,2,0:0:0:0:
269,232,88248,2,0,L|269:313,1,60.5000018463135,8|0,0:0|0:0,0:0:0:0:
190,359,88512,6,0,P|135:337|119:255,1,121.000003692627,2|8,0:0|0:0,0:0:0:0:
84,183,88909,1,0,0:0:0:0:
84,183,89041,2,0,L|1:183,1,60.5000018463135,2|2,0:0|0:0,0:0:0:0:
86,101,89305,2,0,P|128:110|154:134,1,60.5000018463135,8|0,0:0|0:0,0:0:0:0:
205,201,89570,6,0,P|187:149|223:84,1,121.000003692627,2|8,0:0|0:0,0:0:0:0:
296,152,89966,2,0,L|296:286,1,121.000003692627,0|2,0:0|0:0,0:0:0:0:
362,352,90363,2,0,P|394:322|400:295,1,60.5000018463135,8|0,0:0|0:0,0:0:0:0:
382,205,90627,5,2,0:0:0:0:
224,337,90891,2,0,P|164:354|99:327,1,121.000003692627,8|2,0:0|0:0,0:0:0:0:
70,240,91288,1,2,0:0:0:0:
70,240,91420,1,8,0:0:0:0:
168,268,91552,6,0,B|168:227|168:227|177:203|177:203|177:123,1,121.000003692627,6|2,0:0|0:0,0:0:0:0:
107,71,91949,1,8,0:0:0:0:
107,71,92081,1,8,0:0:0:0:
107,71,92213,2,0,P|129:54|176:44,1,60.5000018463135,2|8,0:0|0:0,0:0:0:0:
246,99,92477,2,0,P|268:116|315:126,1,60.5000018463135,8|0,0:0|0:0,0:0:0:0:
381,64,92741,6,0,P|406:129|369:194,1,121.000003692627,6|8,0:0|0:0,0:0:0:0:
339,265,93138,1,0,0:0:0:0:
339,265,93270,2,0,L|258:260,1,60.5000018463135,2|0,0:0|0:0,0:0:0:0:
176,252,93534,1,8,0:0:0:0:
252,321,93667,6,0,P|279:263|260:183,2,121.000003692627,0|0|0,0:0|0:0|0:0,0:0:0:0:
153,349,94327,2,0,P|114:331|93:298,1,60.5000018463135,2|2,0:0|0:0,0:0:0:0:
66,221,94592,2,0,P|62:178|80:143,1,60.5000018463135,8|0,0:0|0:0,0:0:0:0:
118,72,94856,6,0,L|268:68,1,121.000003692627,2|8,0:0|0:0,0:0:0:0:
329,118,95252,1,0,0:0:0:0:
329,118,95385,2,0,L|338:43,1,60.5000018463135,2|2,0:0|0:0,0:0:0:0:
436,33,95649,1,8,0:0:0:0:
436,33,95781,6,0,L|415:172,1,121.000003692627,2|2,0:0|0:0,0:0:0:0:
376,247,96178,2,0,P|351:237|308:239,1,60.5000018463135,8|0,0:0|0:0,0:0:0:0:
231,292,96442,1,2,0:0:0:0:
231,292,96574,1,2,0:0:0:0:
231,292,96706,2,0,L|143:286,1,60.5000018463135,8|0,0:0|0:0,0:0:0:0:
92,356,96971,6,0,P|70:302|87:232,1,121.000003692627,6|8,0:0|0:0,0:0:0:0:
135,155,97367,2,0,B|235:145|235:145|224:174,1,121.000003692627,0|2,0:0|0:0,0:0:0:0:
234,266,97763,2,0,P|290:248|320:186,1,121.000003692627,8|2,0:0|0:0,0:0:0:0:
308,93,98160,1,0,0:0:0:0:
308,93,98292,2,0,L|377:90,1,60.5000018463135,8|0,0:0|0:0,0:0:0:0:
456,142,98556,2,0,P|464:190|460:210,1,60.5000018463135,2|2,0:0|0:0,0:0:0:0:
443,302,98821,6,0,B|408:318|408:318|302:290,1,121.000003692627,8|6,0:0|0:0,0:0:0:0:
128,347,99349,2,0,L|142:281,1,60.5000018463135,8|2,0:0|0:0,0:0:0:0:
43,250,99614,2,0,L|57:184,1,60.5000018463135,8|2,0:0|0:0,0:0:0:0:
157,199,99878,2,0,L|171:133,1,60.5000018463135,8|2,0:0|0:0,0:0:0:0:
112,54,100142,6,0,P|166:29|230:45,1,121.000003692627,8|2,0:0|0:0,0:0:0:0:
282,126,100539,1,6,0:0:0:0:
282,126,100671,2,0,L|355:122,1,60.5000018463135,0|2,0:0|0:0,0:0:0:0:
431,174,100935,2,0,P|441:220|437:246,1,60.5000018463135,8|8,0:0|0:0,0:0:0:0:
388,325,101200,1,6,0:0:0:0:
256,192,101332,12,0,103843,0:0:0:0:
107,99,109658,5,6,0:0:0:0:
107,99,110715,2,0,P|176:75|253:102,2,148.49999546814,10|10|10,0:0|0:0|0:0,0:0:0:0:
179,251,111772,5,4,0:0:0:0:
179,251,112830,2,0,L|285:251,1,98.9999969787599,8|2,0:0|0:0,0:0:0:0:
333,313,113226,2,0,P|356:277|355:215,1,98.9999969787599,2|2,0:0|0:0,0:0:0:0:
289,171,113623,1,8,0:0:0:0:
182,300,113887,5,2,0:0:0:0:
182,300,114151,1,0,0:0:0:0:
29,228,114415,1,0,0:0:0:0:
29,228,114680,1,0,0:0:0:0:
188,175,114944,5,2,0:0:0:0:
188,175,115208,1,0,0:0:0:0:
35,102,115473,1,0,0:0:0:0:
35,102,115737,1,0,0:0:0:0:
32,270,116001,5,2,0:0:0:0:
32,270,116266,1,0,0:0:0:0:
171,175,116530,1,0,0:0:0:0:
177,342,116794,1,0,0:0:0:0:
177,342,116926,1,8,0:0:0:0:
177,342,117587,6,0,L|235:343,1,41.2500015735627,8|2,0:0|0:0,0:0:0:0:
309,366,117852,2,0,L|309:264,1,82.5,6|0,0:0|0:0,0:0:0:0:
269,259,118116,6,0,P|253:205|279:147,1,110,6|8,0:0|0:0,0:0:0:0:
334,87,118512,1,2,0:0:0:0:
334,87,118645,2,0,P|278:69|209:88,1,110,0|8,0:0|0:0,0:0:0:0:
138,103,119041,1,0,0:0:0:0:
138,103,119173,6,0,L|145:24,1,55,2|0,0:0|0:0,0:0:0:0:
49,34,119438,1,8,0:0:0:0:
49,34,119570,2,0,L|39:162,1,110,2|2,0:0|0:0,0:0:0:0:
24,329,120098,6,0,B|84:311|84:311|147:334,1,110,0|0,0:0|0:0,0:0:0:0:
214,364,120495,2,0,L|217:283,1,55,8|0,0:0|0:0,0:0:0:0:
293,256,120759,2,0,L|296:337,1,55,0|2,0:0|0:0,0:0:0:0:
374,360,121023,2,0,L|377:279,1,55,8|0,0:0|0:0,0:0:0:0:
384,211,121288,6,0,P|340:170|269:166,1,110,2|8,0:0|0:0,0:0:0:0:
240,83,121684,2,0,P|206:122|202:198,1,110,2|2,0:0|0:0,0:0:0:0:
202,272,122081,2,0,L|123:268,1,55,8|0,0:0|0:0,0:0:0:0:
79,333,122345,6,0,B|56:296|56:296|64:209,1,110,2|8,0:0|0:0,0:0:0:0:
70,136,122741,1,2,0:0:0:0:
123,58,122874,2,0,L|191:56,1,55,0|0,0:0|0:0,0:0:0:0:
252,113,123138,2,0,L|255:186,1,55,8|0,0:0|0:0,0:0:0:0:
230,258,123402,6,0,P|188:235|164:168,1,110,2|8,0:0|0:0,0:0:0:0:
254,167,123799,2,0,L|386:164,1,110,2|2,0:0|0:0,0:0:0:0:
450,199,124195,2,0,L|446:274,1,55,8|0,0:0|0:0,0:0:0:0:
411,340,124460,5,2,0:0:0:0:
411,340,124592,2,0,L|347:334,1,55,0|8,0:0|0:0,0:0:0:0:
290,269,124856,1,2,0:0:0:0:
290,269,124988,2,0,L|226:275,1,55,0|2,0:0|0:0,0:0:0:0:
169,340,125252,1,8,0:0:0:0:
136,252,125385,6,0,P|186:244|240:282,1,110,6|2,0:0|0:0,0:0:0:0:
169,340,125781,1,2,0:0:0:0:
58,335,126045,6,0,L|48:259,1,55,8|8,0:0|0:0,0:0:0:0:
122,219,126310,2,0,L|132:143,1,55,8|8,0:0|0:0,0:0:0:0:
139,71,126574,6,0,P|83:86|51:125,2,98.9999969787599,6|2|8,0:0|0:0|0:0,0:0:0:0:
139,71,127367,1,0,0:0:0:0:
246,200,127631,2,0,L|253:82,1,98.9999969787599,0|2,0:0|0:0,0:0:0:0:
254,63,128160,1,8,0:0:0:0:
254,63,128424,1,0,0:0:0:0:
340,198,128689,6,0,P|292:211|230:189,2,98.9999969787599,2|2|8,0:0|0:0|0:0,0:0:0:0:
340,198,129482,1,0,0:0:0:0:
437,334,129746,2,0,L|441:218,1,98.9999969787599,0|2,0:0|0:0,0:0:0:0:
447,66,130275,1,8,0:0:0:0:
447,66,130539,1,0,0:0:0:0:
447,66,130803,6,0,P|400:50|333:66,2,98.9999969787599,2|2|8,0:0|0:0|0:0,0:0:0:0:
380,221,131596,1,0,0:0:0:0:
231,142,131860,2,0,B|285:127|285:127|342:145,1,98.9999969787599,2|2,0:0|0:0,0:0:0:0:
325,139,132389,1,8,0:0:0:0:
270,297,132653,1,0,0:0:0:0:
140,189,132918,6,0,P|131:141|148:88,2,98.9999969787599,2|2|8,0:0|0:0|0:0,0:0:0:0:
140,189,133711,1,0,0:0:0:0:
43,326,133975,2,0,B|96:312|96:312|151:326,1,98.9999969787599,2|0,0:0|0:0,0:0:0:0:
252,198,134504,2,0,L|252:270,1,49.4999984893799,8|2,0:0|0:0,0:0:0:0:
251,331,134768,1,8,0:0:0:0:
328,278,134900,6,0,B|368:262|368:262|442:279,1,110,6|2,0:0|0:0,0:0:0:0:
498,345,135297,2,0,P|514:314|517:272,1,55,8|0,0:0|0:0,0:0:0:0:
485,206,135561,1,2,0:0:0:0:
485,206,135693,1,2,0:0:0:0:
485,206,135825,2,0,L|477:127,1,55,8|0,0:0|0:0,0:0:0:0:
395,110,136089,6,0,L|403:228,1,110,2|8,0:0|0:0,0:0:0:0:
365,306,136486,2,0,B|315:288|315:288|241:313,1,110,0|2,0:0|0:0,0:0:0:0:
170,328,136882,1,8,0:0:0:0:
170,233,137015,6,0,P|222:242|258:288,1,110,6|2,0:0|0:0,0:0:0:0:
170,328,137411,2,0,L|93:328,1,55,8|0,0:0|0:0,0:0:0:0:
32,283,137675,1,2,0:0:0:0:
32,283,137808,1,2,0:0:0:0:
32,283,137940,2,0,L|32:208,1,55,8|0,0:0|0:0,0:0:0:0:
32,134,138204,6,0,P|81:90|141:87,1,110,6|8,0:0|0:0,0:0:0:0:
197,141,138601,2,0,L|209:31,1,110,2|2,0:0|0:0,0:0:0:0:
300,11,138997,1,8,0:0:0:0:
300,11,139129,6,0,L|294:83,1,55,6|0,0:0|0:0,0:0:0:0:
290,159,139393,1,2,0:0:0:0:
370,111,139526,2,0,L|434:106,1,55,6|0,0:0|0:0,0:0:0:0:
465,190,139790,2,0,L|401:195,1,55,8|8,0:0|0:0,0:0:0:0:
374,280,140054,2,0,P|346:263|327:228,1,55,8|6,0:0|0:0,0:0:0:0:
266,179,140319,6,0,B|246:215|246:215|256:304,1,110,0|6,0:0|0:0,0:0:0:0:
171,327,140715,2,0,L|159:207,1,110,0|0,0:0|0:0,0:0:0:0:
151,123,141112,1,2,0:0:0:0:
151,123,141376,6,0,P|175:100|203:88,1,55,12|0,0:0|0:0,0:0:0:0:
274,43,141640,2,0,L|280:123,1,55,8|0,0:0|0:0,0:0:0:0:
362,138,141904,2,0,L|356:58,1,55,8|2,0:0|0:0,0:0:0:0:
451,72,142169,2,0,L|457:152,1,55,8|2,0:0|0:0,0:0:0:0:
423,214,142433,6,0,P|397:226|357:231,1,55,8|0,0:0|0:0,0:0:0:0:
295,285,142697,2,0,L|282:157,1,110,4|10,0:0|0:0,0:0:0:0:
271,82,143094,1,8,0:0:0:0:
271,82,143226,2,0,L|202:77,1,55,8|8,0:0|0:0,0:0:0:0:
114,64,143490,6,0,B|88:105|88:105|105:199,1,121.000003692627,6|8,0:0|0:0,0:0:0:0:
128,276,143887,1,0,0:0:0:0:
128,276,144019,2,0,B|178:276|178:276|201:295|201:295|258:295,1,121.000003692627,2|8,0:0|0:0,0:0:0:0:
329,349,144415,6,0,B|350:308|350:308|330:212,2,121.000003692627,0|0|0,0:0|0:0|0:0,0:0:0:0:
242,295,145076,2,0,L|228:209,1,60.5000018463135,2|2,0:0|0:0,0:0:0:0:
177,147,145341,2,0,P|207:134|258:133,1,60.5000018463135,8|0,0:0|0:0,0:0:0:0:
312,196,145605,6,0,P|373:214|444:187,1,121.000003692627,2|8,0:0|0:0,0:0:0:0:
370,112,146001,1,0,0:0:0:0:
289,47,146134,2,0,L|200:47,1,60.5000018463135,2|2,0:0|0:0,0:0:0:0:
125,51,146398,1,8,0:0:0:0:
172,137,146530,6,0,P|219:107|225:37,2,121.000003692627,2|2|0,0:0|0:0|0:0,0:0:0:0:
95,206,147191,2,0,L|99:288,1,60.5000018463135,2|2,0:0|0:0,0:0:0:0:
166,342,147455,2,0,P|199:347|242:336,1,60.5000018463135,8|0,0:0|0:0,0:0:0:0:
285,259,147719,6,0,B|325:241|325:241|411:262,1,121.000003692627,2|8,0:0|0:0,0:0:0:0:
500,285,148116,1,0,0:0:0:0:
465,188,148248,2,0,L|447:105,1,60.5000018463135,2|2,0:0|0:0,0:0:0:0:
385,50,148512,2,0,L|367:133,1,60.5000018463135,8|0,0:0|0:0,0:0:0:0:
339,207,148777,6,0,P|296:170|211:174,1,121.000003692627,2|8,0:0|0:0,0:0:0:0:
143,213,149173,2,0,L|156:81,1,121.000003692627,0|2,0:0|0:0,0:0:0:0:
70,32,149570,2,0,L|59:111,1,60.5000018463135,8|0,0:0|0:0,0:0:0:0:
47,193,149834,6,0,P|44:229|58:270,1,60.5000018463135,2|0,0:0|0:0,0:0:0:0:
110,335,150098,2,0,P|166:302|246:310,1,121.000003692627,8|2,0:0|0:0,0:0:0:0:
316,339,150495,1,2,0:0:0:0:
316,339,150627,1,8,0:0:0:0:
316,339,150759,6,0,L|322:207,1,121.000003692627,6|0,0:0|0:0,0:0:0:0:
359,121,151156,2,0,P|335:112|290:112,1,60.5000018463135,8|8,0:0|0:0,0:0:0:0:
202,140,151420,2,0,L|206:57,1,60.5000018463135,2|8,0:0|0:0,0:0:0:0:
112,35,151684,2,0,L|108:118,1,60.5000018463135,8|8,0:0|0:0,0:0:0:0:
104,198,151949,6,0,P|149:247|200:258,1,121.000003692627,6|8,0:0|0:0,0:0:0:0:
282,319,152345,1,0,0:0:0:0:
357,249,152477,2,0,L|360:176,1,60.5000018463135,2|2,0:0|0:0,0:0:0:0:
420,105,152741,1,8,0:0:0:0:
468,202,152874,6,0,P|418:217|354:182,2,121.000003692627,2|2|0,0:0|0:0|0:0,0:0:0:0:
506,297,153534,1,2,0:0:0:0:
506,297,153667,1,2,0:0:0:0:
506,297,153799,2,0,L|501:370,1,60.5000018463135,8|0,0:0|0:0,0:0:0:0:
399,363,154063,6,0,L|333:357,1,60.5000018463135,2|0,0:0|0:0,0:0:0:0:
282,271,154327,2,0,P|256:268|216:277,1,60.5000018463135,8|0,0:0|0:0,0:0:0:0:
159,356,154592,2,0,P|128:319|129:242,1,121.000003692627,2|8,0:0|0:0,0:0:0:0:
197,174,154988,6,0,P|151:146|65:164,2,121.000003692627,2|2|0,0:0|0:0|0:0,0:0:0:0:
267,249,155649,2,0,L|335:243,1,60.5000018463135,2|2,0:0|0:0,0:0:0:0:
384,158,155913,2,0,L|389:87,1,60.5000018463135,8|0,0:0|0:0,0:0:0:0:
458,21,156178,6,0,B|482:59|482:59|476:157,1,121.000003692627,6|8,0:0|0:0,0:0:0:0:
471,237,156574,2,0,P|429:207|346:209,1,121.000003692627,0|2,0:0|0:0,0:0:0:0:
276,262,156971,2,0,P|256:200|288:129,2,121.000003692627,8|2|8,0:0|0:0|0:0,0:0:0:0:
314,357,157631,1,0,0:0:0:0:
314,357,157763,2,0,L|244:353,1,60.5000018463135,2|2,0:0|0:0,0:0:0:0:
150,350,158028,6,0,L|156:207,1,121.000003692627,8|6,0:0|0:0,0:0:0:0:
76,39,158556,6,0,L|67:123,1,60.5000018463135,8|2,0:0|0:0,0:0:0:0:
163,142,158821,2,0,L|154:58,1,60.5000018463135,8|2,0:0|0:0,0:0:0:0:
249,39,159085,2,0,L|240:123,1,60.5000018463135,8|2,0:0|0:0,0:0:0:0:
314,172,159349,6,0,P|335:217|322:290,1,121.000003692627,8|2,0:0|0:0,0:0:0:0:
252,360,159746,1,2,0:0:0:0:
252,360,159878,2,0,L|113:355,1,121.000003692627,2|8,0:0|0:0,0:0:0:0:
69,272,160275,1,8,0:0:0:0:
69,272,160407,6,0,L|73:198,1,60.5000018463135,6|0,0:0|0:0,0:0:0:0:
136,131,160671,1,8,0:0:0:0:
109,31,160803,2,0,P|51:63|35:135,1,121.000003692627,0|0,0:0|0:0,0:0:0:0:
136,131,161200,2,0,L|214:128,1,60.5000018463135,8|0,0:0|0:0,0:0:0:0:
289,84,161464,6,0,L|284:151,1,60.5000018463135,2|0,0:0|0:0,0:0:0:0:
281,247,161728,1,8,0:0:0:0:
244,342,161860,2,0,P|192:297|184:242,1,121.000003692627,2|2,0:0|0:0,0:0:0:0:
281,247,162257,2,0,L|356:243,1,60.5000018463135,8|0,0:0|0:0,0:0:0:0:
420,308,162521,6,0,L|427:230,1,60.5000018463135,2|0,0:0|0:0,0:0:0:0:
432,144,162786,1,8,0:0:0:0:
408,43,162918,2,0,P|353:69|332:140,1,121.000003692627,2|2,0:0|0:0,0:0:0:0:
330,224,163314,2,0,L|329:302,1,60.5000018463135,8|0,0:0|0:0,0:0:0:0:
241,337,163578,6,0,L|243:248,2,60.5000018463135,2|0|8,0:0|0:0|0:0,0:0:0:0:
144,373,163975,2,0,L|150:227,1,121.000003692627,2|2,0:0|0:0,0:0:0:0:
156,149,164371,1,8,0:0:0:0:
156,149,164504,1,8,0:0:0:0:
156,149,164636,6,0,L|80:146,1,60.5000018463135,2|0,0:0|0:0,0:0:0:0:
21,75,164900,1,8,0:0:0:0:
108,20,165032,2,0,P|123:83|92:144,1,121.000003692627,2|2,0:0|0:0,0:0:0:0:
53,224,165429,2,0,L|53:293,1,60.5000018463135,8|0,0:0|0:0,0:0:0:0:
132,349,165693,6,0,L|207:343,1,60.5000018463135,2|0,0:0|0:0,0:0:0:0:
256,263,165957,1,8,0:0:0:0:
315,346,166089,2,0,P|347:307|346:230,1,121.000003692627,2|2,0:0|0:0,0:0:0:0:
256,263,166486,2,0,L|176:256,1,60.5000018463135,8|0,0:0|0:0,0:0:0:0:
156,162,166750,6,0,L|243:167,1,60.5000018463135,2|0,0:0|0:0,0:0:0:0:
306,114,167015,1,8,0:0:0:0:
300,11,167147,2,0,P|232:35|208:96,1,121.000003692627,2|2,0:0|0:0,0:0:0:0:
305,114,167543,2,0,L|374:112,1,60.5000018463135,8|0,0:0|0:0,0:0:0:0:
455,162,167808,6,0,L|451:229,1,60.5000018463135,2|0,0:0|0:0,0:0:0:0:
448,325,168072,1,8,0:0:0:0:
359,272,168204,2,0,P|308:249|240:258,1,121.000003692627,2|2,0:0|0:0,0:0:0:0:
171,329,168601,2,0,L|99:326,1,60.5000018463135,12|0,0:0|0:0,0:0:0:0:
59,237,168865,6,0,L|136:240,2,60.5000018463135,6|0|8,0:0|0:0|0:0,0:0:0:0:
60,134,169261,2,0,L|-16:136,2,60.5000018463135,0|2|2,0:0|0:0|0:0,0:0:0:0:
163,132,169658,1,8,0:0:0:0:
141,31,169790,6,0,P|85:55|62:122,1,121.000003692627,6|2,0:0|0:0,0:0:0:0:
163,132,170186,2,0,L|226:126,1,60.5000018463135,8|0,0:0|0:0,0:0:0:0:
326,122,170451,2,0,L|299:179,1,60.5000018463135,2|2,0:0|0:0,0:0:0:0:
253,268,170715,2,0,L|216:216,1,60.5000018463135,8|0,0:0|0:0,0:0:0:0:
163,132,170979,5,6,0:0:0:0:
163,132,171112,1,0,0:0:0:0:
105,217,171244,2,0,L|105:295,1,60.5000018463135,8|0,0:0|0:0,0:0:0:0:
27,346,171508,2,0,L|27:270,2,60.5000018463135,2|2|8,0:0|0:0|0:0,0:0:0:0:
123,381,171904,6,0,P|161:344|241:338,1,121.000003692627,6|2,0:0|0:0,0:0:0:0:
321,374,172301,2,0,L|330:294,1,60.5000018463135,8|0,0:0|0:0,0:0:0:0:
261,235,172565,2,0,L|254:174,1,60.5000018463135,2|2,0:0|0:0,0:0:0:0:
245,71,172830,1,8,0:0:0:0:
245,71,172962,1,8,0:0:0:0:
245,71,173094,6,0,L|164:68,2,60.5000018463135,6|0|8,0:0|0:0|0:0,0:0:0:0:
338,113,173490,1,0,0:0:0:0:
254,174,173623,2,0,L|173:172,1,60.5000018463135,2|2,0:0|0:0,0:0:0:0:
98,133,173887,1,8,0:0:0:0:
103,235,174019,6,0,L|111:363,1,121.000003692627,6|2,0:0|0:0,0:0:0:0:
210,378,174415,2,0,P|250:375|279:367,1,60.5000018463135,8|0,0:0|0:0,0:0:0:0:
341,295,174680,1,2,0:0:0:0:
341,295,174812,1,2,0:0:0:0:
341,295,174944,2,0,L|417:295,1,60.5000018463135,8|0,0:0|0:0,0:0:0:0:
344,209,175208,6,0,P|281:228|249:287,1,121.000003692627,6|8,0:0|0:0,0:0:0:0:
193,358,175605,2,0,L|63:354,2,121.000003692627,0|0|0,0:0|0:0|0:0,0:0:0:0:
151,263,176266,5,0,0:0:0:0:
151,263,176398,1,0,0:0:0:0:
151,263,176530,2,0,L|158:183,1,60.5000018463135,8|0,0:0|0:0,0:0:0:0:
123,105,176794,1,2,0:0:0:0:
123,105,176926,1,2,0:0:0:0:
123,105,177059,2,0,P|162:101|194:104,1,60.5000018463135,8|0,0:0|0:0,0:0:0:0:
275,148,177323,6,0,L|272:293,1,121.000003692627,6|8,0:0|0:0,0:0:0:0:
333,351,177719,1,8,0:0:0:0:
333,351,177852,2,0,P|305:362|266:366,1,60.5000018463135,2|0,0:0|0:0,0:0:0:0:
180,329,178116,2,0,P|201:291|280:270,1,121.000003692627,6|0,0:0|0:0,0:0:0:0:
271,268,178909,5,0,0:0:0:0:
271,268,179438,5,0,0:0:0:0:
97,73,187896,6,0,L|105:187,1,98.9999969787599,6|2,0:0|0:0,0:0:0:0:
108,255,188292,1,8,0:0:0:0:
233,143,188556,1,8,0:0:0:0:
233,143,188689,2,0,P|291:130|342:145,1,98.9999969787599,2|0,0:0|0:0,0:0:0:0:
447,257,189217,6,0,B|400:239|400:239|344:261,1,98.9999969787599,2|8,0:0|0:0,0:0:0:0:
304,325,189614,2,0,L|189:320,1,98.9999969787599,2|0,0:0|0:0,0:0:0:0:
132,363,190010,2,0,B|119:317|119:317|143:256,1,98.9999969787599,2|2,0:0|0:0,0:0:0:0:
217,240,190407,2,0,P|197:206|145:180,1,98.9999969787599,8|0,0:0|0:0,0:0:0:0:
62,166,190803,6,0,L|73:51,1,98.9999969787599,2|0,0:0|0:0,0:0:0:0:
75,28,191200,1,0,0:0:0:0:
75,28,191332,1,2,0:0:0:0:
145,180,191596,2,0,L|138:297,1,98.9999969787599,8|0,0:0|0:0,0:0:0:0:
56,324,192125,6,0,P|91:291|139:278,1,98.9999969787599,2|2,0:0|0:0,0:0:0:0:
197,337,192521,2,0,B|249:354|249:354|303:337,1,98.9999969787599,8|0,0:0|0:0,0:0:0:0:
372,317,192918,1,2,0:0:0:0:
372,317,193182,6,0,L|376:209,1,98.9999969787599,2|0,0:0|0:0,0:0:0:0:
261,93,193711,2,0,L|259:210,1,98.9999969787599,2|8,0:0|0:0,0:0:0:0:
252,360,194239,6,0,P|210:323|153:323,1,98.9999969787599,2|2,0:0|0:0,0:0:0:0:
87,343,194636,2,0,L|94:225,1,98.9999969787599,8|0,0:0|0:0,0:0:0:0:
101,160,195032,1,2,0:0:0:0:
101,160,195297,6,0,L|211:157,2,98.9999969787599,14|2|14,0:0|0:0|0:0,0:0:0:0:
256,192,195957,12,0,196882,0:0:0:0:
88,82,197411,6,0,P|149:63|204:79,1,121.000003692627,6|8,0:0|0:0,0:0:0:0:
285,139,197808,1,0,0:0:0:0:
285,139,197940,2,0,L|278:199,1,60.5000018463135,2|2,0:0|0:0,0:0:0:0:
263,300,198204,1,8,0:0:0:0:
168,341,198336,6,0,P|159:280|198:218,2,121.000003692627,0|0|0,0:0|0:0|0:0,0:0:0:0:
263,300,198997,2,0,L|334:296,1,60.5000018463135,2|2,0:0|0:0,0:0:0:0:
409,352,199261,2,0,L|412:271,1,60.5000018463135,8|0,0:0|0:0,0:0:0:0:
399,191,199526,6,0,L|269:199,1,121.000003692627,2|8,0:0|0:0,0:0:0:0:
183,238,199922,1,0,0:0:0:0:
125,153,200054,2,0,L|125:83,1,60.5000018463135,2|2,0:0|0:0,0:0:0:0:
215,41,200319,1,8,0:0:0:0:
115,14,200451,6,0,P|47:72|51:125,2,121.000003692627,2|2|0,0:0|0:0|0:0,0:0:0:0:
205,64,201112,2,0,L|290:64,1,60.5000018463135,2|2,0:0|0:0,0:0:0:0:
355,114,201376,2,0,P|359:144|350:194,1,60.5000018463135,8|0,0:0|0:0,0:0:0:0:
298,259,201640,6,0,P|264:222|266:148,1,121.000003692627,2|8,0:0|0:0,0:0:0:0:
205,64,202037,1,0,0:0:0:0:
152,152,202169,2,0,L|84:148,1,60.5000018463135,2|2,0:0|0:0,0:0:0:0:
33,233,202433,2,0,L|101:237,1,60.5000018463135,8|0,0:0|0:0,0:0:0:0:
117,336,202697,6,0,P|179:283|184:236,1,121.000003692627,2|8,0:0|0:0,0:0:0:0:
152,152,203094,2,0,B|216:134|216:134|283:156,1,121.000003692627,0|2,0:0|0:0,0:0:0:0:
355,204,203490,2,0,L|363:117,1,60.5000018463135,8|0,0:0|0:0,0:0:0:0:
454,99,203755,6,0,L|446:220,1,121.000003692627,2|8,0:0|0:0,0:0:0:0:
396,309,204151,1,0,0:0:0:0:
396,309,204283,2,0,L|327:304,1,60.5000018463135,2|2,0:0|0:0,0:0:0:0:
238,341,204548,1,8,0:0:0:0:
156,278,204680,6,0,P|210:233|276:244,1,121.000003692627,6|0,0:0|0:0,0:0:0:0:
335,304,205076,1,8,0:0:0:0:
335,304,205208,1,8,0:0:0:0:
335,304,205341,2,0,L|346:235,1,60.5000018463135,6|8,0:0|0:0,0:0:0:0:
290,157,205605,2,0,L|279:88,1,60.5000018463135,8|0,0:0|0:0,0:0:0:0:
220,13,205869,6,0,P|186:66|186:132,1,121.000003692627,6|8,0:0|0:0,0:0:0:0:
164,224,206266,1,0,0:0:0:0:
87,155,206398,2,0,L|87:70,1,60.5000018463135,2|0,0:0|0:0,0:0:0:0:
183,122,206662,1,8,0:0:0:0:
164,224,206794,6,0,P|129:252|35:248,2,121.000003692627,0|0|0,0:0|0:0|0:0,0:0:0:0:
238,296,207455,2,0,L|324:296,1,60.5000018463135,2|2,0:0|0:0,0:0:0:0:
396,325,207719,2,0,P|400:292|388:244,1,60.5000018463135,8|0,0:0|0:0,0:0:0:0:
312,204,207984,6,0,L|316:82,1,121.000003692627,2|8,0:0|0:0,0:0:0:0:
395,18,208380,1,0,0:0:0:0:
401,122,208512,2,0,L|399:200,1,60.5000018463135,2|2,0:0|0:0,0:0:0:0:
483,242,208777,1,8,0:0:0:0:
478,338,208909,6,0,P|423:318|395:244,2,121.000003692627,2|2|0,0:0|0:0|0:0,0:0:0:0:
483,242,209570,2,0,L|486:155,1,60.5000018463135,2|2,0:0|0:0,0:0:0:0:
482,78,209834,2,0,L|409:67,1,60.5000018463135,8|0,0:0|0:0,0:0:0:0:
367,151,210098,6,0,P|314:117|239:120,1,121.000003692627,6|8,0:0|0:0,0:0:0:0:
172,173,210495,2,0,L|178:41,1,121.000003692627,0|2,0:0|0:0,0:0:0:0:
87,101,210891,6,0,L|81:225,2,121.000003692627,8|2|8,0:0|0:0|0:0,0:0:0:0:
88,9,211684,1,2,0:0:0:0:
88,9,211816,1,2,0:0:0:0:
177,52,211949,6,0,B|241:36|241:36|303:53,1,121.000003692627,8|6,0:0|0:0,0:0:0:0:
425,87,212477,6,0,L|419:170,1,60.5000018463135,8|2,0:0|0:0,0:0:0:0:
447,246,212741,2,0,L|366:243,1,60.5000018463135,8|2,0:0|0:0,0:0:0:0:
302,304,213006,2,0,P|268:306|227:293,1,60.5000018463135,8|2,0:0|0:0,0:0:0:0:
159,239,213270,6,0,P|202:198|278:202,1,121.000003692627,8|8,0:0|0:0,0:0:0:0:
242,300,213667,1,6,0:0:0:0:
148,341,213799,2,0,L|24:341,1,121.000003692627,0|2,0:0|0:0,0:0:0:0:
36,238,214195,1,2,0:0:0:0:
36,238,214327,6,0,L|45:123,1,110,6|8,0:0|0:0,0:0:0:0:
131,93,214724,1,0,0:0:0:0:
131,93,214856,2,0,L|126:165,1,55,2|2,0:0|0:0,0:0:0:0:
209,192,215120,2,0,L|214:120,1,55,8|0,0:0|0:0,0:0:0:0:
300,102,215385,6,0,L|293:232,1,110,2|8,0:0|0:0,0:0:0:0:
293,305,215781,1,0,0:0:0:0:
369,252,215913,2,0,L|373:177,1,55,2|2,0:0|0:0,0:0:0:0:
458,160,216178,2,0,L|457:217,1,55,8|0,0:0|0:0,0:0:0:0:
459,308,216442,6,0,P|417:353|350:359,1,110,2|8,0:0|0:0,0:0:0:0:
293,305,216838,1,0,0:0:0:0:
225,371,216971,2,0,L|159:365,1,55,2|2,0:0|0:0,0:0:0:0:
148,275,217235,2,0,L|213:280,1,55,8|0,0:0|0:0,0:0:0:0:
293,305,217499,6,0,B|310:251|310:251|290:187,1,110,2|8,0:0|0:0,0:0:0:0:
256,113,217896,1,0,0:0:0:0:
199,187,218028,2,0,L|127:182,1,55,2|2,0:0|0:0,0:0:0:0:
54,208,218292,2,0,P|53:172|69:132,1,55,8|0,0:0|0:0,0:0:0:0:
120,85,218556,6,0,P|152:140|142:186,1,110,2|8,0:0|0:0,0:0:0:0:
118,273,218953,1,0,0:0:0:0:
86,360,219085,2,0,P|121:364|162:355,1,55,2|2,0:0|0:0,0:0:0:0:
207,297,219349,2,0,L|271:297,1,55,8|0,0:0|0:0,0:0:0:0:
338,351,219614,6,0,L|347:231,1,110,2|8,0:0|0:0,0:0:0:0:
303,158,220010,1,0,0:0:0:0:
353,79,220142,2,0,P|375:96|389:120,1,55,2|2,0:0|0:0,0:0:0:0:
422,206,220407,2,0,P|436:182|457:165,1,55,8|0,0:0|0:0,0:0:0:0:
480,78,220671,6,0,P|422:83|382:141,1,110,2|8,0:0|0:0,0:0:0:0:
303,158,221067,1,0,0:0:0:0:
260,73,221200,2,0,L|182:72,1,55,2|2,0:0|0:0,0:0:0:0:
111,69,221464,1,8,0:0:0:0:
149,158,221596,6,0,P|182:136|203:59,1,110,2|2,0:0|0:0,0:0:0:0:
111,69,221993,1,8,0:0:0:0:
111,69,222125,1,0,0:0:0:0:
111,69,222257,2,0,L|34:69,1,55,2|2,0:0|0:0,0:0:0:0:
24,157,222521,2,0,L|26:221,1,55,8|8,0:0|0:0,0:0:0:0:
80,299,222786,6,0,P|132:264|203:261,1,121.000003692627,6|8,0:0|0:0,0:0:0:0:
282,301,223182,1,0,0:0:0:0:
270,198,223314,2,0,L|266:127,1,60.5000018463135,2|0,0:0|0:0,0:0:0:0:
179,83,223578,1,10,0:0:0:0:
269,33,223711,6,0,P|316:46|353:113,1,121.000003692627,0|0,0:0|0:0,0:0:0:0:
423,179,224107,2,0,L|418:257,1,60.5000018463135,10|0,0:0|0:0,0:0:0:0:
413,341,224371,1,2,0:0:0:0:
413,341,224504,1,0,0:0:0:0:
413,341,224636,2,0,L|340:332,1,60.5000018463135,8|0,0:0|0:0,0:0:0:0:
261,379,224900,6,0,B|241:337|241:337|260:245,1,121.000003692627,2|10,0:0|0:0,0:0:0:0:
261,160,225297,2,0,P|195:176|159:230,1,121.000003692627,0|0,0:0|0:0,0:0:0:0:
75,268,225693,2,0,L|90:136,1,121.000003692627,10|2,0:0|0:0,0:0:0:0:
24,67,226089,2,0,P|79:43|145:58,1,121.000003692627,0|0,0:0|0:0,0:0:0:0:
204,132,226486,6,0,L|282:132,1,60.5000018463135,2|0,0:0|0:0,0:0:0:0:
354,81,226750,2,0,L|349:154,1,60.5000018463135,12|0,0:0|0:0,0:0:0:0:
298,231,227015,6,0,P|279:288|311:353,1,121.000003692627,6|10,0:0|0:0,0:0:0:0:
384,283,227411,1,2,0:0:0:0:
384,283,227543,2,0,L|456:278,1,60.5000018463135,2|2,0:0|0:0,0:0:0:0:
511,199,227808,1,10,0:0:0:0:
511,199,227940,6,0,B|453:180|453:180|393:202,1,121.000003692627,2|2,0:0|0:0,0:0:0:0:
298,231,228336,2,0,L|218:227,1,60.5000018463135,10|2,0:0|0:0,0:0:0:0:
164,300,228601,2,0,P|146:264|145:227,1,60.5000018463135,2|2,0:0|0:0,0:0:0:0:
180,148,228865,1,10,0:0:0:0:
180,148,228997,1,2,0:0:0:0:
180,148,229129,6,0,L|183:70,1,60.5000018463135,6|2,0:0|0:0,0:0:0:0:
81,107,229393,2,0,L|78:185,1,60.5000018463135,14|2,0:0|0:0,0:0:0:0:
143,244,229658,2,0,L|146:322,1,60.5000018463135,8|2,0:0|0:0,0:0:0:0:
61,364,229922,1,8,0:0:0:0:
145,304,230054,6,0,P|205:283|276:313,1,121.000003692627,6|0,0:0|0:0,0:0:0:0:
345,353,230451,1,2,0:0:0:0:
345,353,230583,1,8,0:0:0:0:
345,353,230715,2,0,L|357:273,1,60.5000018463135,14|8,0:0|0:0,0:0:0:0:
437,233,230979,2,0,L|425:153,1,60.5000018463135,10|10,0:0|0:0,0:0:0:0:
374,84,231244,5,4,0:0:0:0:
