osu file format v14

[General]
AudioFilename: life.mp3
AudioLeadIn: 0
PreviewTime: 83722
Countdown: 0
SampleSet: Soft
StackLeniency: 0.7
Mode: 0
LetterboxInBreaks: 0
WidescreenStoryboard: 0

[Editor]
DistanceSpacing: 1
BeatDivisor: 2
GridSize: 32
TimelineZoom: 2.4

[Metadata]
Title:Sendan Life
TitleUnicode:センダンライフ
Artist:Remo Prototype[CV: Hanamori Yumiri]
ArtistUnicode:リモ Prototype[CV:花守ゆみり]
Creator:Settia
Version:Expert
Source:ガラスの花と壊す世界
Tags:vocaloid Chukka やしきん yashikin Glass no Hana to Kowasu Sekai GARAKOWA Restore the World Vitreous Flower Destroy the World D.backup
BeatmapID:900544
BeatmapSetID:394834

[Difficulty]
HPDrainRate:5
CircleSize:4
OverallDifficulty:8.5
ApproachRate:9.4
SliderMultiplier:1.8
SliderTickRate:1

[Events]
//Background and Video events
0,0,"nbg.jpg",0,0
//Break Periods
2,104043,109118
2,179638,187356
//Storyboard Layer 0 (Background)
//Storyboard Layer 1 (Fail)
//Storyboard Layer 2 (Pass)
//Storyboard Layer 3 (Foreground)
//Storyboard Sound Samples

[TimingPoints]
37764,264.31718061674,4,2,1,50,1,0
39812,-100,4,2,1,5,0,0
39878,-100,4,2,1,50,0,0
41728,-71.4285714285714,4,2,1,50,0,0
41926,-71.4285714285714,4,2,1,5,0,0
41993,-100,4,2,1,70,0,0
67367,-133.333333333333,4,2,1,50,0,0
75693,-100,4,2,1,70,0,0
84283,-90.9090909090909,4,2,1,85,0,1
101200,-90.9090909090909,4,2,1,85,0,0
109658,-133.333333333333,4,2,1,60,0,0
116926,-133.333333333333,4,2,1,70,0,0
117852,-76.9230769230769,4,2,1,70,0,0
118050,-100,4,2,1,5,0,0
118116,-100,4,2,1,70,0,0
126574,-133.333333333333,4,2,1,50,0,0
134900,-100,4,2,1,70,0,0
142697,-76.9230769230769,4,2,1,70,0,0
142896,-100,4,2,1,5,0,0
142962,-100,4,2,1,70,0,0
143490,-90.9090909090909,4,2,1,85,0,1
160407,-90.9090909090909,4,2,1,85,0,0
178380,-90.9090909090909,4,2,1,50,0,0
187896,-166.666666666667,4,2,1,50,0,0
196882,-100,4,2,1,70,0,0
197411,-90.9090909090909,4,2,1,85,0,1
197609,-90.9090909090909,4,2,1,5,0,1
197675,-90.9090909090909,4,2,1,85,0,1
214327,-100,4,2,1,85,0,0

[Colours]
Combo1 : 109,198,255
Combo2 : 196,174,228
Combo3 : 255,169,136
Combo4 : 109,121,158

[HitObjects]
44,176,37367,6,0,L|4:176,11,22.5,0|0|0|0|0|0|0|0|0|0|0|0,0:0|0:0|0:0|0:0|0:0|0:0|0:0|0:0|0:0|0:0|0:0|0:0,0:0:0:0:
64,200,37763,6,0,B|116:212|116:212|176:192,1,90,8|0,0:0|0:0,0:0:0:0:
228,68,38028,2,0,L|236:172,1,90,8|0,0:0|0:0,0:0:0:0:
248,296,38292,1,2,0:0:0:0:
321,158,38424,2,0,B|269:146|269:146|209:166,1,90,8|0,0:0|0:0,0:0:0:0:
54,344,38689,6,0,P|98:356|146:344,1,90,8|0,0:0|0:0,0:0:0:0:
150,200,38953,2,0,P|117:232|104:279,1,90,8|0,0:0|0:0,0:0:0:0:
238,356,39217,2,0,P|226:311|192:276,1,90,8|0,0:0|0:0,0:0:0:0:
76,144,39482,1,2,0:0:0:0:
236,197,39614,2,0,P|268:139|252:76,1,135,8|0,0:0|0:0,0:0:0:0:
64,120,39878,6,0,B|116:112|116:112|164:120,1,90,8|0,0:0|0:0,0:0:0:0:
348,296,40142,2,0,P|340:248|360:196,1,90,8|0,0:0|0:0,0:0:0:0:
404,116,40407,1,2,0:0:0:0:
512,256,40539,2,0,B|468:264|468:264|412:252,1,90,8|0,0:0|0:0,0:0:0:0:
236,197,40803,6,0,B|224:152|224:152|240:97,1,90,8|0,0:0|0:0,0:0:0:0:
404,29,41067,2,0,B|416:74|416:74|400:129,1,90,8|0,0:0|0:0,0:0:0:0:
348,296,41332,1,8,0:0:0:0:
144,204,41464,1,8,0:0:0:0:
308,153,41596,1,2,0:0:0:0:
107,286,41728,6,0,P|184:286|232:178,1,188.999994232178,12|0,0:0|0:0,0:0:0:0:
104,52,41993,6,0,P|88:100|104:148,1,90,6|0,0:0|0:0,0:0:0:0:
316,96,42257,1,8,0:0:0:0:
144,204,42389,1,0,0:0:0:0:
228,98,42521,2,0,B|277:86|277:86|341:102,1,90,2|2,0:0|0:0,0:0:0:0:
444,336,42786,2,0,P|456:288|432:232,1,90,8|0,0:0|0:0,0:0:0:0:
280,275,43050,5,2,0:0:0:0:
445,151,43182,1,0,0:0:0:0:
280,275,43314,2,0,P|269:231|280:188,1,90,8|0,0:0|0:0,0:0:0:0:
104,232,43578,2,0,B|152:220|152:220|208:232,1,90,2|2,0:0|0:0,0:0:0:0:
146,322,43843,1,8,0:0:0:0:
69,157,43975,1,0,0:0:0:0:
0,322,44107,6,0,L|18:221,1,90,2|0,0:0|0:0,0:0:0:0:
214,61,44371,2,0,P|225:104|208:153,1,90,8|0,0:0|0:0,0:0:0:0:
104,232,44636,1,2,0:0:0:0:
104,232,44768,1,2,0:0:0:0:
38,108,44900,2,0,P|85:95|127:106,1,90,8|0,0:0|0:0,0:0:0:0:
289,187,45164,6,0,P|333:199|376:192,1,90,2|0,0:0|0:0,0:0:0:0:
464,260,45429,1,8,0:0:0:0:
336,120,45561,1,0,0:0:0:0:
464,260,45693,2,0,L|471:170,1,90,2|2,0:0|0:0,0:0:0:0:
265,73,45957,2,0,P|252:115|261:161,1,90,8|0,0:0|0:0,0:0:0:0:
512,95,46222,6,0,B|470:85|470:85|407:100,1,90,2|0,0:0|0:0,0:0:0:0:
269,285,46486,1,8,0:0:0:0:
336,120,46618,1,0,0:0:0:0:
394,289,46750,2,0,B|291:286,1,90,2|2,0:0|0:0,0:0:0:0:
104,340,47015,2,0,P|84:292|104:236,1,90,8|0,0:0|0:0,0:0:0:0:
212,120,47279,5,2,0:0:0:0:
172,268,47411,1,0,0:0:0:0:
128,93,47543,2,0,P|164:45|208:33,1,90,8|0,0:0|0:0,0:0:0:0:
292,144,47808,2,0,B|338:155|338:155|399:143,1,90,2|2,0:0|0:0,0:0:0:0:
483,129,48072,1,8,0:0:0:0:
344,60,48204,1,0,0:0:0:0:
485,214,48336,6,0,P|496:169|473:116,1,90,2|0,0:0|0:0,0:0:0:0:
380,267,48601,2,0,B|379:364,1,90,8|0,0:0|0:0,0:0:0:0:
292,144,48865,1,2,0:0:0:0:
292,144,48997,1,2,0:0:0:0:
380,267,49129,1,8,0:0:0:0:
204,356,49261,6,0,B|312:320|292:388|400:352,1,180,6|2,0:0|0:0,0:0:0:0:
292,144,49658,1,0,0:0:0:0:
456,224,49790,1,2,0:0:0:0:
456,224,49856,1,2,0:0:0:0:
456,224,49922,2,0,P|468:176|448:128,1,90,10|8,0:0|0:0,0:0:0:0:
285,54,50186,2,0,L|293:158,1,90,8|8,0:0|0:0,0:0:0:0:
304,236,50451,6,0,B|248:236|248:236|200:208|200:208|128:208,1,180,6|8,0:0|0:0,0:0:0:0:
160,335,50847,1,2,0:0:0:0:
54,245,50979,2,0,P|45:195|74:145,2,90,0|2|8,0:0|0:0|0:0,0:0:0:0:
160,335,51376,1,0,0:0:0:0:
240,144,51508,6,0,P|324:108|412:148,1,180,2|8,0:0|0:0,0:0:0:0:
464,266,51904,2,0,B|381:233|381:302|272:266,1,180,2|2,0:0|0:0,0:0:0:0:
196,336,52301,1,8,0:0:0:0:
196,336,52433,6,0,P|168:296|168:236,1,90,0|2,0:0|0:0,0:0:0:0:
132,76,52697,2,0,P|125:120|99:155,1,90,0|8,0:0|0:0,0:0:0:0:
288,270,52962,1,2,0:0:0:0:
360,144,53094,1,0,0:0:0:0:
376,336,53226,1,2,0:0:0:0:
272,155,53358,2,0,P|280:103|312:71,1,90,8|0,0:0|0:0,0:0:0:0:
464,132,53623,6,0,P|444:212|344:240,1,180,2|8,0:0|0:0,0:0:0:0:
192,320,54019,2,0,P|228:280|356:280,1,180,2|2,0:0|0:0,0:0:0:0:
392,352,54415,2,0,P|348:364|296:344,1,90,8|0,0:0|0:0,0:0:0:0:
148,172,54680,6,0,B|156:215|156:215|138:279,1,90,2|0,0:0|0:0,0:0:0:0:
51,315,54944,2,0,B|43:272|43:272|61:208,1,90,8|2,0:0|0:0,0:0:0:0:
188,84,55208,1,0,0:0:0:0:
188,84,55341,1,2,0:0:0:0:
280,164,55473,2,0,B|324:156|324:156|376:164,1,90,8|0,0:0|0:0,0:0:0:0:
420,248,55737,6,0,P|468:208|428:88,1,180,2|8,0:0|0:0,0:0:0:0:
276,52,56134,2,0,L|284:244,1,180,2|2,0:0|0:0,0:0:0:0:
328,328,56530,2,0,P|284:340|228:316,1,90,8|0,0:0|0:0,0:0:0:0:
120,216,56794,5,2,0:0:0:0:
120,216,56926,2,0,B|76:208|76:208|16:220,1,90,0|8,0:0|0:0,0:0:0:0:
76,304,57191,1,2,0:0:0:0:
117,126,57323,2,0,B|120:228,1,90,0|2,0:0|0:0,0:0:0:0:
174,350,57587,1,8,0:0:0:0:
240,188,57719,6,0,B|352:152|328:216|420:184,1,180,0|0,0:0|0:0,0:0:0:0:
465,337,58116,2,0,P|467:293|441:258,1,90,8|0,0:0|0:0,0:0:0:0:
414,185,58380,2,0,P|375:204|357:244,1,90,4|0,0:0|0:0,0:0:0:0:
307,301,58645,2,0,P|344:325|404:309,1,90,8|0,0:0|0:0,0:0:0:0:
448,104,58909,6,0,L|244:104,1,180,6|8,0:0|0:0,0:0:0:0:
120,184,59305,1,2,0:0:0:0:
172,32,59438,2,0,B|184:84|184:84|172:132,1,90,0|0,0:0|0:0,0:0:0:0:
56,244,59702,1,8,0:0:0:0:
100,82,59834,1,0,0:0:0:0:
20,168,59966,6,0,P|80:160|144:272,1,180,2|8,0:0|0:0,0:0:0:0:
100,344,60363,2,0,L|292:340,1,180,2|2,0:0|0:0,0:0:0:0:
320,260,60759,1,8,0:0:0:0:
380,356,60891,1,0,0:0:0:0:
400,240,61023,6,0,P|368:192|332:176,1,90,2|0,0:0|0:0,0:0:0:0:
112,153,61288,2,0,P|144:201|180:217,1,90,8|2,0:0|0:0,0:0:0:0:
320,260,61552,1,0,0:0:0:0:
159,308,61684,1,2,0:0:0:0:
200,136,61816,1,8,0:0:0:0:
255,342,61949,1,0,0:0:0:0:
340,178,62081,6,0,P|392:222|356:328,1,180,2|8,0:0|0:0,0:0:0:0:
232,263,62477,2,0,B|276:251|276:251|336:263,1,90,2|0,0:0|0:0,0:0:0:0:
485,265,62741,1,2,0:0:0:0:
367,320,62874,1,8,0:0:0:0:
506,257,63006,1,0,0:0:0:0:
296,360,63138,6,0,P|284:320|308:256,1,90,2|0,0:0|0:0,0:0:0:0:
352,104,63402,2,0,B|397:95|397:95|441:103,1,90,8|2,0:0|0:0,0:0:0:0:
294,273,63667,1,0,0:0:0:0:
398,171,63799,1,0,0:0:0:0:
252,145,63931,2,0,L|160:141,1,90,8|0,0:0|0:0,0:0:0:0:
40,50,64195,6,0,P|112:54|156:166,1,180,2|8,0:0|0:0,0:0:0:0:
72,299,64592,2,0,B|134:267|134:267|264:291,1,180,2|2,0:0|0:0,0:0:0:0:
416,204,64988,2,0,B|372:196|372:196|304:216,1,90,8|0,0:0|0:0,0:0:0:0:
242,287,65252,5,2,0:0:0:0:
376,373,65385,2,0,P|388:321|368:281,1,90,0|8,0:0|0:0,0:0:0:0:
212,153,65649,1,2,0:0:0:0:
201,352,65781,2,0,P|242:366|285:353,1,90,0|2,0:0|0:0,0:0:0:0:
328,208,66045,1,8,0:0:0:0:
180,144,66178,6,0,L|172:256,1,90,6|0,0:0|0:0,0:0:0:0:
64,343,66442,1,2,0:0:0:0:
64,343,66574,2,0,L|74:242,1,90,2|0,0:0|0:0,0:0:0:0:
180,144,66838,5,8,0:0:0:0:
167,323,66971,1,8,0:0:0:0:
79,174,67104,1,8,0:0:0:0:
248,245,67236,1,8,0:0:0:0:
72,298,67367,6,0,P|126:235|189:236,1,135.000005149842,6|0,0:0|0:0,0:0:0:0:
228,320,67764,2,0,B|320:340|320:340|368:316,1,135.000005149842,8|0,0:0|0:0,0:0:0:0:
444,248,68160,6,0,B|352:228|352:228|304:252,1,135.000005149842,2|0,0:0|0:0,0:0:0:0:
315,246,68689,1,0,0:0:0:0:
428,88,68953,2,0,L|436:160,1,67.5000025749208,8|0,0:0|0:0,0:0:0:0:
444,248,69217,1,2,0:0:0:0:
328,152,69482,6,0,P|276:128|184:148,1,135.000005149842,2|0,0:0|0:0,0:0:0:0:
144,204,69878,2,0,B|92:184|92:184|-8:204,1,135.000005149842,2|0,0:0|0:0,0:0:0:0:
76,336,70275,2,0,L|84:260,1,67.5000025749208,2|0,0:0|0:0,0:0:0:0:
104,104,70539,5,0,0:0:0:0:
104,104,70803,1,0,0:0:0:0:
232,220,71067,2,0,P|272:228|308:216,1,67.5000025749208,8|0,0:0|0:0,0:0:0:0:
324,208,71332,1,2,0:0:0:0:
404,100,71596,6,0,L|412:236,1,135.000005149842,2|0,0:0|0:0,0:0:0:0:
484,344,71993,2,0,P|440:320|344:336,1,135.000005149842,8|0,0:0|0:0,0:0:0:0:
357,327,72389,1,2,0:0:0:0:
128,264,72653,6,0,B|212:248|212:248|256:272,1,135.000005149842,2|0,0:0|0:0,0:0:0:0:
92,340,73050,2,0,P|56:308|64:208,1,135.000005149842,8|0,0:0|0:0,0:0:0:0:
120,176,73446,1,2,0:0:0:0:
324,72,73711,6,0,L|176:68,1,135.000005149842,2|0,0:0|0:0,0:0:0:0:
101,156,74107,2,0,P|164:125|189:56,1,135.000005149842,8|0,0:0|0:0,0:0:0:0:
92,64,74504,1,2,0:0:0:0:
36,264,74768,6,0,L|184:260,1,135.000005149842,0|0,0:0|0:0,0:0:0:0:
256,360,75297,6,0,L|264:280,1,67.5000025749208,8|2,0:0|0:0,0:0:0:0:
280,112,75561,1,8,0:0:0:0:
408,200,75693,6,0,B|316:168|332:240|212:200,1,180,6|0,0:0|0:0,0:0:0:0:
99,121,76089,2,0,P|147:109|195:117,1,90,8|0,0:0|0:0,0:0:0:0:
368,272,76354,1,2,0:0:0:0:
280,112,76486,1,2,0:0:0:0:
190,272,76618,2,0,B|190:373,1,90,8|0,0:0|0:0,0:0:0:0:
386,355,76882,6,0,P|434:323|446:279,1,90,2|2,0:0|0:0,0:0:0:0:
328,168,77147,1,8,0:0:0:0:
278,272,77279,2,0,L|368:272,1,90,0|2,0:0|0:0,0:0:0:0:
190,272,77543,5,2,0:0:0:0:
328,168,77675,1,8,0:0:0:0:
142,354,77808,2,0,P|98:294|150:198,1,180,6|2,0:0|0:0,0:0:0:0:
236,88,78204,2,0,P|248:136|228:188,1,90,8|0,0:0|0:0,0:0:0:0:
190,272,78468,6,0,L|290:272,1,90,2|2,0:0|0:0,0:0:0:0:
359,362,78733,1,8,0:0:0:0:
412,168,78865,1,0,0:0:0:0:
459,274,78997,6,0,P|415:286|355:258,1,90,6|0,0:0|0:0,0:0:0:0:
237,174,79261,1,8,0:0:0:0:
404,78,79393,2,0,L|412:178,1,90,0|0,0:0|0:0,0:0:0:0:
359,362,79658,1,2,0:0:0:0:
359,362,79790,1,8,0:0:0:0:
233,271,79922,6,0,L|133:267,1,90,6|0,0:0|0:0,0:0:0:0:
40,196,80186,1,2,0:0:0:0:
24,377,80319,2,0,B|32:273,1,90,8|0,0:0|0:0,0:0:0:0:
162,75,80583,2,0,L|154:171,1,90,2|2,0:0|0:0,0:0:0:0:
134,360,80847,1,8,0:0:0:0:
134,360,80979,1,0,0:0:0:0:
216,264,81112,6,0,B|276:264|276:264|332:236|332:236|392:236,1,180,2|8,0:0|0:0,0:0:0:0:
368,324,81508,2,0,P|324:288|336:168,1,180,0|2,0:0|0:0,0:0:0:0:
424,72,81904,2,0,L|428:176,1,90,8|2,0:0|0:0,0:0:0:0:
475,234,82169,6,0,P|435:246|379:230,1,90,12|0,0:0|0:0,0:0:0:0:
240,76,82433,2,0,L|232:188,1,90,8|0,0:0|0:0,0:0:0:0:
120,352,82697,2,0,L|112:240,1,90,8|2,0:0|0:0,0:0:0:0:
233,165,82962,1,8,0:0:0:0:
24,256,83094,6,0,P|56:200|168:196,1,180,6|2,0:0|0:0,0:0:0:0:
288,280,83490,1,8,0:0:0:0:
396,132,83623,1,2,0:0:0:0:
396,132,83689,1,2,0:0:0:0:
396,132,83755,2,0,L|284:128,1,90,8|8,0:0|0:0,0:0:0:0:
192,56,84019,2,0,L|304:52,1,90,8|8,0:0|0:0,0:0:0:0:
440,200,84283,6,0,P|476:152|396:44,1,198.000006042481,6|8,0:0|0:0,0:0:0:0:
306,128,84680,1,0,0:0:0:0:
396,268,84812,2,0,P|448:284|496:264,1,99.0000030212403,2|2,0:0|0:0,0:0:0:0:
396,132,85076,1,8,0:0:0:0:
309,242,85208,6,0,L|317:354,1,99.0000030212403,0|2,0:0|0:0,0:0:0:0:
202,152,85473,2,0,L|194:40,1,99.0000030212403,0|8,0:0|0:0,0:0:0:0:
105,356,85737,1,0,0:0:0:0:
58,233,85869,2,0,P|104:218|151:228,2,99.0000030212403,2|2|8,0:0|0:0|0:0,0:0:0:0:
215,344,86266,1,0,0:0:0:0:
277,213,86398,6,0,B|328:198|328:198|384:213,1,99.0000030212403,2|0,0:0|0:0,0:0:0:0:
456,296,86662,1,8,0:0:0:0:
329,341,86794,1,0,0:0:0:0:
462,170,86926,2,0,L|457:278,1,99.0000030212403,2|2,0:0|0:0,0:0:0:0:
329,341,87191,1,8,0:0:0:0:
195,234,87323,6,0,P|219:150|319:138,1,198.000006042481,2|2,0:0|0:0,0:0:0:0:
462,170,87719,1,8,0:0:0:0:
277,213,87852,1,0,0:0:0:0:
462,170,87984,1,2,0:0:0:0:
327,39,88116,1,2,0:0:0:0:
277,213,88248,2,0,L|277:325,1,99.0000030212403,8|0,0:0|0:0,0:0:0:0:
132,383,88512,6,0,B|95:339|95:339|101:185,1,198.000006042481,2|8,0:0|0:0,0:0:0:0:
202,63,88909,1,0,0:0:0:0:
277,213,89041,2,0,P|229:227|176:206,1,99.0000030212403,2|2,0:0|0:0,0:0:0:0:
108,62,89305,2,0,P|156:48|209:69,1,99.0000030212403,8|0,0:0|0:0,0:0:0:0:
328,303,89570,6,0,P|276:223|330:147,1,198.000006042481,2|8,0:0|0:0,0:0:0:0:
431,41,89966,2,0,B|422:106|422:106|446:140|446:140|436:245,1,198.000006042481,0|2,0:0|0:0,0:0:0:0:
376,365,90363,2,0,P|331:378|270:353,1,99.0000030212403,8|0,0:0|0:0,0:0:0:0:
183,212,90627,6,0,L|303:212,1,99.0000030212403,2|0,0:0|0:0,0:0:0:0:
428,303,90891,2,0,P|393:369|265:341,1,198.000006042481,8|2,0:0|0:0,0:0:0:0:
275,138,91288,1,2,0:0:0:0:
345,300,91420,1,8,0:0:0:0:
460,102,91552,6,0,B|393:102|393:102|349:138|349:138|256:138,1,198.000006042481,6|2,0:0|0:0,0:0:0:0:
136,268,91949,1,8,0:0:0:0:
174,88,92081,1,8,0:0:0:0:
48,224,92213,1,2,0:0:0:0:
232,282,92345,1,8,0:0:0:0:
48,224,92477,2,0,P|33:277|47:325,1,99.0000030212403,8|0,0:0|0:0,0:0:0:0:
225,376,92741,6,0,B|242:334|242:334|229:268,1,99.0000030212403,6|0,0:0|0:0,0:0:0:0:
109,155,93006,1,8,0:0:0:0:
232,282,93138,1,0,0:0:0:0:
313,135,93270,2,0,P|244:170|237:290,1,198.000006042481,2|8,0:0|0:0,0:0:0:0:
438,334,93667,6,0,L|431:217,1,99.0000030212403,0|2,0:0|0:0,0:0:0:0:
308,36,93931,2,0,L|313:139,1,99.0000030212403,0|8,0:0|0:0,0:0:0:0:
320,316,94195,1,0,0:0:0:0:
479,169,94327,2,0,P|429:158|376:179,1,99.0000030212403,2|2,0:0|0:0,0:0:0:0:
225,319,94592,2,0,P|275:330|328:309,1,99.0000030212403,8|0,0:0|0:0,0:0:0:0:
123,104,94856,6,0,B|92:162|92:162|122:323,1,198.000006042481,2|8,0:0|0:0,0:0:0:0:
140,384,95252,1,0,0:0:0:0:
271,245,95385,2,0,L|271:139,1,99.0000030212403,2|2,0:0|0:0,0:0:0:0:
324,368,95649,1,8,0:0:0:0:
225,319,95781,6,0,P|267:251|384:263,1,198.000006042481,2|2,0:0|0:0,0:0:0:0:
478,315,96178,2,0,P|489:266|477:218,1,99.0000030212403,8|0,0:0|0:0,0:0:0:0:
400,104,96442,1,2,0:0:0:0:
375,255,96574,1,2,0:0:0:0:
408,76,96706,2,0,L|300:72,1,99.0000030212403,8|0,0:0|0:0,0:0:0:0:
44,168,96971,6,0,B|151:121|151:210|252:164,1,198.000006042481,6|8,0:0|0:0,0:0:0:0:
105,260,97367,1,0,0:0:0:0:
200,88,97499,1,2,0:0:0:0:
200,88,97631,1,2,0:0:0:0:
287,260,97763,2,0,L|182:259,1,99.0000030212403,8|0,0:0|0:0,0:0:0:0:
46,323,98028,6,0,P|127:342|187:254,1,198.000006042481,2|8,0:0|0:0,0:0:0:0:
376,320,98424,1,0,0:0:0:0:
278,130,98556,2,0,B|286:242,1,99.0000030212403,2|2,0:0|0:0,0:0:0:0:
438,378,98821,6,0,B|472:326|472:326|455:176,1,198.000006042481,8|6,0:0|0:0,0:0:0:0:
298,28,99217,1,0,0:0:0:0:
363,194,99349,5,8,0:0:0:0:
408,22,99482,1,2,0:0:0:0:
270,132,99614,5,8,0:0:0:0:
446,123,99746,1,2,0:0:0:0:
298,28,99878,5,8,0:0:0:0:
363,194,100010,1,2,0:0:0:0:
408,22,100142,6,0,P|362:68|366:197,1,198.000006042481,8|2,0:0|0:0,0:0:0:0:
469,346,100539,1,6,0:0:0:0:
511,260,100671,6,0,B|418:221|418:316|304:259,1,198.000006042481,0|8,0:0|0:0,0:0:0:0:
364,193,101067,1,8,0:0:0:0:
364,193,101200,1,6,0:0:0:0:
256,192,101332,12,0,103843,0:0:0:0:
124,92,109658,5,6,0:0:0:0:
224,204,110715,5,10,0:0:0:0:
240,220,111112,1,10,0:0:0:0:
256,236,111508,1,10,0:0:0:0:
318,128,111772,6,0,P|259:98|189:117,1,135.000005149842,4|0,0:0|0:0,0:0:0:0:
64,224,112697,1,2,0:0:0:0:
64,224,112763,1,2,0:0:0:0:
64,224,112830,6,0,L|146:224,1,67.5000025749208,8|2,0:0|0:0,0:0:0:0:
208,300,113094,1,2,0:0:0:0:
208,300,113226,2,0,P|276:330|340:290,1,135.000005149842,2|2,0:0|0:0,0:0:0:0:
275,170,113623,2,0,P|267:206|283:254,1,67.5000025749208,8|0,0:0|0:0,0:0:0:0:
404,352,113887,5,2,0:0:0:0:
404,352,114151,1,0,0:0:0:0:
436,192,114415,1,0,0:0:0:0:
496,272,114680,1,0,0:0:0:0:
309,221,114944,5,2,0:0:0:0:
309,221,115208,1,0,0:0:0:0:
372,84,115473,1,0,0:0:0:0:
436,192,115737,1,0,0:0:0:0:
252,148,116001,5,2,0:0:0:0:
252,148,116266,1,0,0:0:0:0:
396,8,116530,1,0,0:0:0:0:
436,192,116794,1,0,0:0:0:0:
228,140,116926,5,8,0:0:0:0:
80,236,117587,5,8,0:0:0:0:
56,352,117719,1,2,0:0:0:0:
88,212,117852,2,0,P|176:176|243:230,1,175.499991966248,6|0,0:0|0:0,0:0:0:0:
296,300,118116,6,0,L|404:296,1,90,6|0,0:0|0:0,0:0:0:0:
300,152,118380,1,8,0:0:0:0:
160,261,118512,1,2,0:0:0:0:
327,73,118645,2,0,P|382:139|355:221,1,180,0|8,0:0|0:0,0:0:0:0:
236,217,119041,1,0,0:0:0:0:
195,113,119173,6,0,B|195:15,1,90,2|0,0:0|0:0,0:0:0:0:
296,300,119438,1,8,0:0:0:0:
61,215,119570,2,0,B|162:171|162:251|249:211,1,180,2|2,0:0|0:0,0:0:0:0:
352,368,119966,1,8,0:0:0:0:
400,160,120098,1,0,0:0:0:0:
454,275,120230,6,0,P|410:287|358:271,1,90,2|0,0:0|0:0,0:0:0:0:
352,80,120495,2,0,P|396:68|448:84,1,90,8|0,0:0|0:0,0:0:0:0:
237,217,120759,1,0,0:0:0:0:
400,160,120891,1,2,0:0:0:0:
237,217,121023,1,8,0:0:0:0:
400,160,121156,1,0,0:0:0:0:
238,92,121288,6,0,L|238:201,1,90,2|0,0:0|0:0,0:0:0:0:
392,300,121552,1,8,0:0:0:0:
239,346,121684,2,0,B|199:355|199:355|151:341,1,90,2|0,0:0|0:0,0:0:0:0:
316,169,121949,1,2,0:0:0:0:
392,300,122081,2,0,L|396:196,1,90,8|0,0:0|0:0,0:0:0:0:
465,25,122345,6,0,P|479:73|452:133,1,90,2|0,0:0|0:0,0:0:0:0:
316,169,122609,1,8,0:0:0:0:
392,72,122741,1,2,0:0:0:0:
485,209,122874,2,0,L|379:209,1,90,0|0,0:0|0:0,0:0:0:0:
309,339,123138,2,0,P|318:295|302:234,1,90,8|0,0:0|0:0,0:0:0:0:
140,220,123402,6,0,B|204:220|204:220|252:252|252:252|328:252,1,180,2|8,0:0|0:0,0:0:0:0:
94,342,123799,2,0,P|52:354|3:338,1,90,2|0,0:0|0:0,0:0:0:0:
155,195,124063,1,2,0:0:0:0:
52,272,124195,2,0,B|52:182,1,90,8|0,0:0|0:0,0:0:0:0:
212,344,124460,5,2,0:0:0:0:
212,344,124592,1,0,0:0:0:0:
280,152,124724,2,0,L|280:46,1,90,8|2,0:0|0:0,0:0:0:0:
352,256,124988,1,0,0:0:0:0:
190,152,125120,2,0,L|297:152,1,90,2|8,0:0|0:0,0:0:0:0:
428,295,125385,6,0,P|392:264|320:263,1,90,6|0,0:0|0:0,0:0:0:0:
355,357,125649,1,2,0:0:0:0:
444,192,125781,2,0,L|444:86,1,90,2|0,0:0|0:0,0:0:0:0:
272,256,126045,5,8,0:0:0:0:
444,192,126178,1,8,0:0:0:0:
355,357,126310,1,8,0:0:0:0:
355,357,126442,1,8,0:0:0:0:
200,204,126574,6,0,P|248:172|332:188,2,135.000005149842,6|2|8,0:0|0:0|0:0,0:0:0:0:
78,320,127367,1,0,0:0:0:0:
78,320,127631,2,0,B|128:296|128:296|219:320,1,135.000005149842,0|2,0:0|0:0,0:0:0:0:
339,340,128160,1,8,0:0:0:0:
339,340,128424,1,0,0:0:0:0:
359,219,128689,6,0,P|373:284|339:340,2,135.000005149842,2|2|8,0:0|0:0|0:0,0:0:0:0:
264,168,129482,1,0,0:0:0:0:
135,266,129746,2,0,P|200:290|277:262,1,135.000005149842,0|2,0:0|0:0,0:0:0:0:
339,340,130275,1,8,0:0:0:0:
412,160,130539,1,0,0:0:0:0:
480,328,130803,6,0,B|503:285|503:285|476:188,2,135.000005149842,2|2|8,0:0|0:0|0:0,0:0:0:0:
412,160,131596,1,0,0:0:0:0:
349,230,131860,2,0,P|282:250|207:215,1,135.000005149842,2|2,0:0|0:0,0:0:0:0:
156,161,132389,1,8,0:0:0:0:
156,326,132653,1,0,0:0:0:0:
77,217,132918,6,0,P|57:161|97:85,2,135.000005149842,2|2|8,0:0|0:0|0:0,0:0:0:0:
156,326,133711,1,0,0:0:0:0:
216,204,133975,2,0,L|356:204,1,135.000005149842,2|0,0:0|0:0,0:0:0:0:
416,348,134504,6,0,L|412:264,1,67.5000025749208,8|2,0:0|0:0,0:0:0:0:
404,100,134768,1,8,0:0:0:0:
500,243,134900,6,0,P|452:191|336:219,1,180,6|2,0:0|0:0,0:0:0:0:
284,264,135297,2,0,L|184:264,1,90,8|0,0:0|0:0,0:0:0:0:
264,172,135561,1,2,0:0:0:0:
241,353,135693,1,2,0:0:0:0:
270,146,135825,2,0,P|282:103|272:59,1,90,8|0,0:0|0:0,0:0:0:0:
92,44,136089,6,0,B|92:100|92:100|120:148|120:148|120:232,1,180,2|8,0:0|0:0,0:0:0:0:
420,105,136486,2,0,P|330:90|262:174,1,180,0|2,0:0|0:0,0:0:0:0:
194,264,136882,1,8,0:0:0:0:
366,360,137015,6,0,L|358:168,1,180,6|2,0:0|0:0,0:0:0:0:
108,261,137411,2,0,P|154:274|202:258,1,90,8|0,0:0|0:0,0:0:0:0:
358,180,137675,1,2,0:0:0:0:
152,120,137808,1,2,0:0:0:0:
380,193,137940,1,8,0:0:0:0:
193,263,138072,1,0,0:0:0:0:
368,102,138204,6,0,L|368:198,1,90,6|2,0:0|0:0,0:0:0:0:
272,312,138468,1,8,0:0:0:0:
445,304,138601,2,0,B|361:264|361:351|253:304,2,180,2|2|6,0:0|0:0|0:0,0:0:0:0:
161,192,139393,5,2,0:0:0:0:
73,332,139526,2,0,B|58:290|58:290|76:232,1,90,6|0,0:0|0:0,0:0:0:0:
178,166,139790,1,8,0:0:0:0:
211,356,139922,1,8,0:0:0:0:
312,237,140054,2,0,P|324:197|304:137,1,90,8|6,0:0|0:0,0:0:0:0:
256,74,140319,6,0,B|357:35|357:112|447:73,1,180,0|6,0:0|0:0,0:0:0:0:
246,187,140715,2,0,B|186:187|186:187|152:217|152:217|62:217,1,180,0|0,0:0|0:0,0:0:0:0:
228,363,141112,2,0,L|220:263,1,90,2|2,0:0|0:0,0:0:0:0:
48,112,141376,5,12,0:0:0:0:
220,64,141508,1,0,0:0:0:0:
23,119,141640,5,8,0:0:0:0:
220,273,141772,1,0,0:0:0:0:
220,64,141904,6,0,P|177:54|117:73,1,90,8|2,0:0|0:0,0:0:0:0:
220,273,142169,2,0,P|263:283|323:264,1,90,8|2,0:0|0:0,0:0:0:0:
400,160,142433,6,0,L|295:160,1,90,8|0,0:0|0:0,0:0:0:0:
165,360,142697,2,0,P|225:312|337:344,1,175.499991966248,4|0,0:0|0:0,0:0:0:0:
352,356,142962,6,0,L|452:356,1,90,10|8,0:0|0:0,0:0:0:0:
325,238,143226,1,8,0:0:0:0:
442,356,143358,1,8,0:0:0:0:
483,185,143490,6,0,L|482:76,1,99.0000030212403,6|0,0:0|0:0,0:0:0:0:
274,146,143755,2,0,P|320:132|376:147,1,99.0000030212403,8|0,0:0|0:0,0:0:0:0:
483,185,144019,1,2,0:0:0:0:
304,244,144151,1,0,0:0:0:0:
506,277,144283,1,8,0:0:0:0:
329,331,144415,6,0,P|269:328|221:213,1,198.000006042481,0|0,0:0|0:0,0:0:0:0:
323,44,144812,2,0,B|340:93|340:93|317:152,1,99.0000030212403,8|0,0:0|0:0,0:0:0:0:
304,244,145076,1,2,0:0:0:0:
304,244,145208,1,2,0:0:0:0:
150,91,145341,2,0,L|251:96,1,99.0000030212403,8|0,0:0|0:0,0:0:0:0:
298,338,145605,6,0,P|313:291|299:236,1,99.0000030212403,2|0,0:0|0:0,0:0:0:0:
85,39,145869,2,0,P|70:86|84:141,1,99.0000030212403,8|0,0:0|0:0,0:0:0:0:
303,243,146134,1,2,0:0:0:0:
156,219,146266,1,2,0:0:0:0:
248,95,146398,1,8,0:0:0:0:
196,302,146530,6,0,P|67:235|82:172,1,198.000006042481,2|2,0:0|0:0,0:0:0:0:
248,95,146926,1,8,0:0:0:0:
298,338,147059,1,0,0:0:0:0:
156,219,147191,2,0,L|270:219,1,99.0000030212403,2|2,0:0|0:0,0:0:0:0:
398,280,147455,2,0,P|410:234|395:178,1,99.0000030212403,8|0,0:0|0:0,0:0:0:0:
243,41,147719,6,0,L|251:149,1,99.0000030212403,2|0,0:0|0:0,0:0:0:0:
424,367,147984,2,0,B|360:367|360:367|317:336|317:336|233:336,1,198.000006042481,8|2,0:0|0:0,0:0:0:0:
84,335,148380,1,2,0:0:0:0:
177,179,148512,2,0,B|177:70,1,99.0000030212403,8|0,0:0|0:0,0:0:0:0:
27,260,148777,6,0,B|136:211|136:297|229:256,1,198.000006042481,2|8,0:0|0:0,0:0:0:0:
295,54,149173,2,0,P|176:142|186:211,1,198.000006042481,0|2,0:0|0:0,0:0:0:0:
342,374,149570,2,0,L|347:270,1,99.0000030212403,8|0,0:0|0:0,0:0:0:0:
353,122,149834,5,2,0:0:0:0:
346,275,149966,1,0,0:0:0:0:
425,165,150098,2,0,P|437:120|414:65,1,99.0000030212403,8|0,0:0|0:0,0:0:0:0:
210,55,150363,2,0,B|218:155,1,99.0000030212403,2|2,0:0|0:0,0:0:0:0:
133,355,150627,1,8,0:0:0:0:
74,253,150759,6,0,B|184:204|184:297|278:247,1,198.000006042481,6|0,0:0|0:0,0:0:0:0:
433,311,151156,5,8,0:0:0:0:
264,253,151288,1,8,0:0:0:0:
416,224,151420,5,2,0:0:0:0:
281,340,151552,1,8,0:0:0:0:
331,195,151684,5,8,0:0:0:0:
366,370,151816,1,8,0:0:0:0:
456,263,151949,6,0,B|387:263|387:263|357:294|357:294|261:294,1,198.000006042481,6|8,0:0|0:0,0:0:0:0:
200,156,152345,1,0,0:0:0:0:
330,101,152477,2,0,P|343:143|325:204,1,99.0000030212403,2|2,0:0|0:0,0:0:0:0:
173,294,152741,1,8,0:0:0:0:
64,151,152874,6,0,B|173:106|173:187|268:147,1,198.000006042481,2|2,0:0|0:0,0:0:0:0:
84,349,153270,2,0,B|70:299|70:299|89:237,1,99.0000030212403,8|0,0:0|0:0,0:0:0:0:
173,53,153534,1,2,0:0:0:0:
173,259,153667,1,2,0:0:0:0:
329,132,153799,2,0,B|231:133,1,99.0000030212403,8|0,0:0|0:0,0:0:0:0:
292,342,154063,6,0,P|304:290|276:230,1,99.0000030212403,2|0,0:0|0:0,0:0:0:0:
173,53,154327,1,8,0:0:0:0:
78,183,154460,1,0,0:0:0:0:
231,133,154592,1,2,0:0:0:0:
83,82,154724,1,2,0:0:0:0:
173,214,154856,1,8,0:0:0:0:
239,47,154988,6,0,P|173:73|181:201,1,198.000006042481,2|2,0:0|0:0,0:0:0:0:
317,363,155385,2,0,B|321:253,1,99.0000030212403,8|0,0:0|0:0,0:0:0:0:
488,68,155649,1,2,0:0:0:0:
422,264,155781,1,2,0:0:0:0:
275,134,155913,2,0,P|329:121|377:135,1,99.0000030212403,8|0,0:0|0:0,0:0:0:0:
317,363,156178,6,0,B|245:363|245:363|205:335|205:335|127:335,1,198.000006042481,6|8,0:0|0:0,0:0:0:0:
34,352,156574,2,0,P|64:262|157:245,1,198.000006042481,0|2,0:0|0:0,0:0:0:0:
60,54,156971,2,0,B|67:153,1,99.0000030212403,8|0,0:0|0:0,0:0:0:0:
127,335,157235,5,2,0:0:0:0:
127,335,157367,1,0,0:0:0:0:
266,95,157499,2,0,L|290:195,1,99.0000030212403,8|0,0:0|0:0,0:0:0:0:
219,359,157763,2,0,L|243:259,1,99.0000030212403,2|2,0:0|0:0,0:0:0:0:
434,254,158028,6,0,B|344:220|344:296|239:261,1,198.000006042481,8|6,0:0|0:0,0:0:0:0:
144,127,158424,1,0,0:0:0:0:
144,127,158556,6,0,B|163:182|163:182|143:250,1,99.0000030212403,8|2,0:0|0:0,0:0:0:0:
72,348,158821,6,0,B|53:293|53:293|73:225,1,99.0000030212403,8|2,0:0|0:0,0:0:0:0:
256,156,159085,5,8,0:0:0:0:
84,184,159217,1,2,0:0:0:0:
280,152,159349,6,0,L|388:140,1,99.0000030212403,8|2,0:0|0:0,0:0:0:0:
473,253,159614,6,0,L|365:241,1,99.0000030212403,2|2,0:0|0:0,0:0:0:0:
184,312,159878,6,0,B|260:312|260:312|304:344|304:344|388:344,1,198.000006042481,2|8,0:0|0:0,0:0:0:0:
440,272,160275,1,8,0:0:0:0:
468,176,160407,6,0,P|480:132|460:76,1,99.0000030212403,6|0,0:0|0:0,0:0:0:0:
508,344,160671,1,8,0:0:0:0:
275,174,160803,2,0,B|391:134|375:214|483:170,1,198.000006042481,0|0,0:0|0:0,0:0:0:0:
200,128,161200,2,0,B|184:180|184:180|204:236,1,99.0000030212403,8|0,0:0|0:0,0:0:0:0:
251,339,161464,5,2,0:0:0:0:
332,244,161596,1,0,0:0:0:0:
198,221,161728,1,8,0:0:0:0:
392,304,161860,2,0,P|408:204|320:160,1,198.000006042481,2|2,0:0|0:0,0:0:0:0:
198,221,162257,1,8,0:0:0:0:
332,244,162389,1,0,0:0:0:0:
53,323,162521,5,2,0:0:0:0:
112,192,162653,1,0,0:0:0:0:
192,312,162786,1,8,0:0:0:0:
20,188,162918,2,0,P|72:112|176:124,1,198.000006042481,2|2,0:0|0:0,0:0:0:0:
332,244,163314,1,8,0:0:0:0:
285,36,163446,1,0,0:0:0:0:
198,221,163578,6,0,P|251:235|302:220,2,99.0000030212403,2|0|8,0:0|0:0|0:0,0:0:0:0:
56,294,163975,2,0,B|128:294|128:294|175:334|175:334|254:334,1,198.000006042481,2|2,0:0|0:0,0:0:0:0:
346,384,164371,2,0,P|362:336|338:280,1,99.0000030212403,8|8,0:0|0:0,0:0:0:0:
198,221,164636,5,2,0:0:0:0:
414,241,164768,1,0,0:0:0:0:
239,334,164900,1,8,0:0:0:0:
346,105,165032,2,0,B|346:179|346:179|320:217|320:217|320:318,1,198.000006042481,2|2,0:0|0:0,0:0:0:0:
481,284,165429,2,0,P|496:231|456:166,1,99.0000030212403,8|0,0:0|0:0,0:0:0:0:
253,38,165693,6,0,L|253:152,1,99.0000030212403,2|0,0:0|0:0,0:0:0:0:
159,344,165957,1,8,0:0:0:0:
57,264,166089,2,0,P|127:200|239:234,1,198.000006042481,2|2,0:0|0:0,0:0:0:0:
287,340,166486,2,0,L|404:332,1,99.0000030212403,8|0,0:0|0:0,0:0:0:0:
221,217,166750,5,2,0:0:0:0:
159,344,166882,1,0,0:0:0:0:
287,340,167015,1,8,0:0:0:0:
153,134,167147,2,0,B|119:189|119:189|159:348,1,198.000006042481,2|2,0:0|0:0,0:0:0:0:
287,340,167543,2,0,P|280:288|311:228,1,99.0000030212403,8|0,0:0|0:0,0:0:0:0:
419,89,167808,6,0,P|426:141|395:201,1,99.0000030212403,2|0,0:0|0:0,0:0:0:0:
356,294,168072,1,8,0:0:0:0:
224,147,168204,2,0,B|295:147|295:147|342:184|342:184|420:183,1,198.000006042481,2|2,0:0|0:0,0:0:0:0:
246,276,168601,1,12,0:0:0:0:
409,183,168733,1,0,0:0:0:0:
359,374,168865,6,0,L|355:266,1,99.0000030212403,6|0,0:0|0:0,0:0:0:0:
246,113,169129,1,8,0:0:0:0:
429,177,169261,1,0,0:0:0:0:
317,19,169393,1,2,0:0:0:0:
314,211,169526,1,2,0:0:0:0:
429,57,169658,1,8,0:0:0:0:
314,211,169790,6,0,B|225:177|225:257|110:210,1,198.000006042481,6|2,0:0|0:0,0:0:0:0:
192,124,170186,2,0,P|182:171|148:206,1,99.0000030212403,8|0,0:0|0:0,0:0:0:0:
0,129,170451,2,0,P|46:114|93:126,1,99.0000030212403,2|2,0:0|0:0,0:0:0:0:
96,289,170715,2,0,P|56:251|47:199,1,99.0000030212403,8|0,0:0|0:0,0:0:0:0:
141,49,170979,5,6,0:0:0:0:
238,246,171112,1,0,0:0:0:0:
335,117,171244,2,0,B|439:117,1,99.0000030212403,8|0,0:0|0:0,0:0:0:0:
496,336,171508,2,0,P|449:348|385:320,2,99.0000030212403,2|2|8,0:0|0:0|0:0,0:0:0:0:
238,246,171904,6,0,B|326:246|326:246|358:226|358:226|430:226,1,198.000006042481,6|2,0:0|0:0,0:0:0:0:
222,67,172301,2,0,P|206:111|217:165,1,99.0000030212403,8|0,0:0|0:0,0:0:0:0:
434,117,172565,2,0,L|322:117,1,99.0000030212403,2|2,0:0|0:0,0:0:0:0:
231,340,172830,2,0,P|247:296|236:242,1,99.0000030212403,8|8,0:0|0:0,0:0:0:0:
108,197,173094,5,6,0:0:0:0:
47,378,173226,1,0,0:0:0:0:
108,197,173358,5,8,0:0:0:0:
231,340,173490,1,0,0:0:0:0:
59,137,173623,6,0,P|111:121|163:141,1,99.0000030212403,2|2,0:0|0:0,0:0:0:0:
394,272,173887,1,8,0:0:0:0:
320,361,174019,6,0,P|269:300|326:195,1,198.000006042481,6|2,0:0|0:0,0:0:0:0:
448,100,174415,2,0,B|465:152|465:152|440:212,1,99.0000030212403,8|0,0:0|0:0,0:0:0:0:
248,340,174680,1,2,0:0:0:0:
376,277,174812,1,2,0:0:0:0:
224,352,174944,2,0,B|176:364|176:364|112:344,1,99.0000030212403,8|0,0:0|0:0,0:0:0:0:
260,83,175208,6,0,P|274:130|249:195,1,99.0000030212403,6|0,0:0|0:0,0:0:0:0:
61,302,175473,1,8,0:0:0:0:
1,124,175605,2,0,B|112:84|112:171|209:128,2,198.000006042481,0|2|0,0:0|0:0|0:0,0:0:0:0:
133,347,176266,5,2,0:0:0:0:
207,200,176398,1,2,0:0:0:0:
55,203,176530,1,8,0:0:0:0:
133,347,176662,1,0,0:0:0:0:
207,200,176794,2,0,B|207:94,2,99.0000030212403,2|2|8,0:0|0:0|0:0,0:0:0:0:
207,380,177191,1,0,0:0:0:0:
304,351,177323,6,0,P|235:283|144:313,1,198.000006042481,6|8,0:0|0:0,0:0:0:0:
64,376,177719,1,8,0:0:0:0:
207,200,177852,1,2,0:0:0:0:
64,376,178116,5,6,0:0:0:0:
304,351,178380,5,0,0:0:0:0:
304,351,178909,5,0,0:0:0:0:
304,351,179438,5,0,0:0:0:0:
64,128,187896,6,0,P|120:112|176:132,1,107.999996704102,6|2,0:0|0:0,0:0:0:0:
188,144,188292,1,8,0:0:0:0:
264,68,188556,1,8,0:0:0:0:
284,180,188689,1,2,0:0:0:0:
392,120,188953,6,0,L|336:116,2,53.9999983520508,0|8|2,0:0|0:0|0:0,0:0:0:0:
456,60,189482,1,8,0:0:0:0:
464,220,189614,2,0,B|412:232|412:232|356:216,1,107.999996704102,2|0,0:0|0:0,0:0:0:0:
252,288,190010,6,0,L|372:320,1,107.999996704102,2|2,0:0|0:0,0:0:0:0:
384,324,190407,1,8,0:0:0:0:
276,192,190671,1,0,0:0:0:0:
240,316,190803,1,2,0:0:0:0:
144,236,191067,6,0,P|116:232|84:240,2,53.9999983520508,0|0|2,0:0|0:0|0:0,0:0:0:0:
240,316,191596,1,8,0:0:0:0:
284,160,191860,1,0,0:0:0:0:
388,248,192125,6,0,L|400:180,1,53.9999983520508,2|0,0:0|0:0,0:0:0:0:
468,120,192389,1,2,0:0:0:0:
468,120,192521,2,0,L|480:188,1,53.9999983520508,8|0,0:0|0:0,0:0:0:0:
484,200,192786,1,0,0:0:0:0:
360,128,192918,1,2,0:0:0:0:
334,248,193182,6,0,L|410:248,1,53.9999983520508,2|8,0:0|0:0,0:0:0:0:
416,248,193446,1,0,0:0:0:0:
260,328,193711,1,2,0:0:0:0:
260,328,193975,1,8,0:0:0:0:
340,216,194239,6,0,P|364:152|348:104,1,107.999996704102,2|2,0:0|0:0,0:0:0:0:
288,48,194636,2,0,P|264:112|280:160,1,107.999996704102,8|0,0:0|0:0,0:0:0:0:
340,216,195032,1,2,0:0:0:0:
156,192,195297,5,14,0:0:0:0:
320,308,195561,1,2,0:0:0:0:
156,192,195825,1,14,0:0:0:0:
256,192,195957,12,0,196750,0:0:0:0:
168,232,196882,6,0,L|135:181,1,60,8|8,0:0|0:0,0:0:0:0:
92,108,197059,6,0,L|151:104,1,60,8|8,0:0|0:0,0:0:0:0:
240,100,197235,6,0,L|213:153,1,60,8|8,0:0|0:0,0:0:0:0:
53,312,197411,6,0,B|136:278|136:341|209:308,1,148.50000453186,6|0,0:0|0:0,0:0:0:0:
293,351,197675,2,0,P|305:301|293:257,1,99.0000030212403,8|0,0:0|0:0,0:0:0:0:
240,100,197940,1,2,0:0:0:0:
168,232,198072,1,2,0:0:0:0:
343,151,198204,1,8,0:0:0:0:
239,99,198336,6,0,B|195:90|195:90|143:102,1,99.0000030212403,0|2,0:0|0:0,0:0:0:0:
354,177,198601,2,0,B|399:187|399:187|451:175,1,99.0000030212403,0|8,0:0|0:0,0:0:0:0:
168,232,198865,1,0,0:0:0:0:
360,280,198997,1,2,0:0:0:0:
140,224,199129,1,2,0:0:0:0:
366,378,199261,2,0,B|359:263,1,99.0000030212403,8|0,0:0|0:0,0:0:0:0:
239,99,199526,6,0,B|232:197,1,99.0000030212403,2|0,0:0|0:0,0:0:0:0:
38,375,199790,1,8,0:0:0:0:
134,143,199922,1,0,0:0:0:0:
186,296,200054,2,0,P|143:308|90:291,1,99.0000030212403,2|2,0:0|0:0,0:0:0:0:
27,214,200319,1,8,0:0:0:0:
186,296,200451,6,0,B|259:296|259:296|297:327|297:327|373:327,2,198.000006042481,2|2|0,0:0|0:0|0:0,0:0:0:0:
336,220,201112,1,2,0:0:0:0:
225,379,201244,1,2,0:0:0:0:
288,152,201376,2,0,P|341:138|388:157,1,99.0000030212403,8|0,0:0|0:0,0:0:0:0:
471,327,201640,6,0,L|355:327,1,99.0000030212403,2|0,0:0|0:0,0:0:0:0:
208,161,201904,2,0,P|214:112|247:77,1,99.0000030212403,8|0,0:0|0:0,0:0:0:0:
336,220,202169,1,2,0:0:0:0:
198,374,202301,1,2,0:0:0:0:
157,254,202433,2,0,B|205:238|205:238|253:256,1,99.0000030212403,8|0,0:0|0:0,0:0:0:0:
504,332,202697,6,0,B|412:292|412:368|296:324,1,198.000006042481,2|8,0:0|0:0,0:0:0:0:
82,263,203094,2,0,P|169:214|265:282,1,198.000006042481,0|2,0:0|0:0,0:0:0:0:
173,384,203490,2,0,B|153:336|153:336|173:276,1,99.0000030212403,8|0,0:0|0:0,0:0:0:0:
216,120,203755,5,2,0:0:0:0:
361,254,203887,1,0,0:0:0:0:
400,88,204019,2,0,B|325:88|325:88|294:120|294:120|206:120,1,198.000006042481,8|2,0:0|0:0,0:0:0:0:
118,54,204415,1,2,0:0:0:0:
167,291,204548,1,8,0:0:0:0:
48,188,204680,6,0,B|104:176|104:176|156:188,1,99.0000030212403,6|0,0:0|0:0,0:0:0:0:
269,288,204944,1,0,0:0:0:0:
215,120,205076,1,8,0:0:0:0:
279,320,205208,1,8,0:0:0:0:
371,167,205341,2,0,L|371:60,1,99.0000030212403,6|8,0:0|0:0,0:0:0:0:
474,266,205605,2,0,P|490:314|470:366,1,99.0000030212403,8|0,0:0|0:0,0:0:0:0:
321,107,205869,6,0,P|373:92|433:118,1,99.0000030212403,6|0,0:0|0:0,0:0:0:0:
260,229,206134,2,0,B|176:262|176:186|60:229,1,198.000006042481,8|2,0:0|0:0,0:0:0:0:
215,151,206530,1,0,0:0:0:0:
312,308,206662,1,8,0:0:0:0:
120,384,206794,6,0,P|107:333|124:282,1,99.0000030212403,0|2,0:0|0:0,0:0:0:0:
205,53,207059,2,0,L|217:165,1,99.0000030212403,0|8,0:0|0:0,0:0:0:0:
312,308,207323,1,0,0:0:0:0:
392,180,207455,1,2,0:0:0:0:
448,320,207587,1,2,0:0:0:0:
312,308,207719,2,0,L|213:297,1,99.0000030212403,8|0,0:0|0:0,0:0:0:0:
391,179,207984,6,0,B|439:166|439:166|487:178,1,99.0000030212403,2|0,0:0|0:0,0:0:0:0:
213,297,208248,1,8,0:0:0:0:
293,214,208380,1,0,0:0:0:0:
134,349,208512,2,0,P|122:299|144:239,1,99.0000030212403,2|2,0:0|0:0,0:0:0:0:
213,84,208777,1,8,0:0:0:0:
44,216,208909,6,0,B|124:216|124:216|156:244|156:244|244:244,2,198.000006042481,2|2|0,0:0|0:0|0:0,0:0:0:0:
188,156,209570,1,2,0:0:0:0:
88,300,209702,1,2,0:0:0:0:
20,128,209834,2,0,B|20:28,1,99.0000030212403,8|0,0:0|0:0,0:0:0:0:
224,64,210098,6,0,P|288:128|244:232,1,198.000006042481,6|8,0:0|0:0,0:0:0:0:
410,318,210495,1,0,0:0:0:0:
464,180,210627,2,0,B|412:168|412:168|356:188,1,99.0000030212403,2|2,0:0|0:0,0:0:0:0:
107,308,210891,6,0,B|228:268|204:344|300:312,1,198.000006042481,8|2,0:0|0:0,0:0:0:0:
188,156,211288,1,0,0:0:0:0:
32,360,211420,2,0,P|16:320|44:252,1,99.0000030212403,8|0,0:0|0:0,0:0:0:0:
196,140,211684,1,2,0:0:0:0:
107,308,211816,1,2,0:0:0:0:
16,148,211949,6,0,B|96:148|96:148|128:124|128:124|220:124,1,198.000006042481,8|6,0:0|0:0,0:0:0:0:
288,168,212345,1,0,0:0:0:0:
360,32,212477,6,0,B|380:88|380:88|360:136,1,99.0000030212403,8|2,0:0|0:0,0:0:0:0:
206,124,212741,6,0,B|244:78|244:78|283:73,1,99.0000030212403,8|2,0:0|0:0,0:0:0:0:
370,210,213006,6,0,B|311:199|311:199|287:167,1,99.0000030212403,8|2,0:0|0:0,0:0:0:0:
506,117,213270,5,8,0:0:0:0:
287,167,213402,1,2,0:0:0:0:
506,117,213534,5,8,0:0:0:0:
287,167,213667,1,6,0:0:0:0:
499,316,213799,6,0,B|514:267|514:267|495:209,1,99.0000030212403,0|8,0:0|0:0,0:0:0:0:
238,305,214063,1,2,0:0:0:0:
438,267,214195,1,2,0:0:0:0:
279,368,214327,6,0,P|235:379|179:355,1,90,6|0,0:0|0:0,0:0:0:0:
50,140,214592,1,8,0:0:0:0:
216,194,214724,1,0,0:0:0:0:
50,248,214856,1,2,0:0:0:0:
153,107,214988,1,2,0:0:0:0:
153,282,215120,1,8,0:0:0:0:
50,140,215252,1,0,0:0:0:0:
288,152,215385,6,0,L|296:256,1,90,2|0,0:0|0:0,0:0:0:0:
392,348,215649,2,0,L|400:244,1,90,8|0,0:0|0:0,0:0:0:0:
496,104,215913,1,2,0:0:0:0:
364,172,216045,2,0,P|407:163|449:178,2,90,2|8|0,0:0|0:0|0:0,0:0:0:0:
288,272,216442,6,0,B|248:280|248:280|185:268,1,90,2|0,0:0|0:0,0:0:0:0:
84,343,216706,1,8,0:0:0:0:
73,220,216838,1,0,0:0:0:0:
199,270,216971,1,2,0:0:0:0:
84,343,217103,1,2,0:0:0:0:
132,145,217235,2,0,L|132:39,1,90,8|0,0:0|0:0,0:0:0:0:
364,172,217499,6,0,P|324:184|272:168,1,90,2|0,0:0|0:0,0:0:0:0:
316,16,217763,2,0,B|332:68|332:68|316:120,1,90,8|0,0:0|0:0,0:0:0:0:
200,271,218028,1,2,0:0:0:0:
385,315,218160,2,0,L|482:315,1,90,2|8,0:0|0:0,0:0:0:0:
200,271,218424,1,0,0:0:0:0:
287,358,218556,6,0,P|300:313|281:256,1,90,2|0,0:0|0:0,0:0:0:0:
248,72,218821,1,8,0:0:0:0:
393,228,218953,1,0,0:0:0:0:
200,271,219085,1,2,0:0:0:0:
248,72,219217,1,2,0:0:0:0:
290,271,219349,2,0,L|197:271,1,90,8|0,0:0|0:0,0:0:0:0:
90,61,219614,6,0,P|57:113|60:159,1,90,2|0,0:0|0:0,0:0:0:0:
203,360,219878,2,0,L|199:248,1,90,8|0,0:0|0:0,0:0:0:0:
55,139,220142,1,2,0:0:0:0:
0,312,220275,2,0,P|48:324|96:308,1,90,2|8,0:0|0:0,0:0:0:0:
48,236,220539,1,0,0:0:0:0:
203,360,220671,6,0,B|312:360,1,90,2|0,0:0|0:0,0:0:0:0:
432,220,220935,2,0,B|385:206|385:206|329:222,1,90,8|0,0:0|0:0,0:0:0:0:
199,270,221200,1,2,0:0:0:0:
380,380,221332,2,0,L|384:288,1,90,2|8,0:0|0:0,0:0:0:0:
349,141,221596,6,0,P|277:189|313:285,1,180,2|2,0:0|0:0,0:0:0:0:
188,152,221993,2,0,L|180:44,1,90,8|0,0:0|0:0,0:0:0:0:
181,62,222191,1,0,0:0:0:0:
181,62,222257,1,2,0:0:0:0:
201,354,222389,1,2,0:0:0:0:
33,257,222521,2,0,B|81:245|81:245|145:261,1,90,8|8,0:0|0:0,0:0:0:0:
201,354,222786,5,6,0:0:0:0:
345,217,222918,1,0,0:0:0:0:
390,316,223050,2,0,P|342:328|290:308,1,90,8|0,0:0|0:0,0:0:0:0:
176,116,223314,2,0,P|218:103|262:114,2,90,2|0|10,0:0|0:0|0:0,0:0:0:0:
345,217,223711,6,0,B|345:149|345:149|372:104|372:104|372:24,1,180,0|0,0:0|0:0,0:0:0:0:
428,216,224107,2,0,L|428:328,1,90,10|0,0:0|0:0,0:0:0:0:
263,368,224371,1,2,0:0:0:0:
345,217,224504,1,0,0:0:0:0:
472,368,224636,2,0,P|432:380|368:356,1,90,8|0,0:0|0:0,0:0:0:0:
180,272,224900,6,0,P|220:260|284:284,1,90,2|0,0:0|0:0,0:0:0:0:
386,369,225164,1,10,0:0:0:0:
345,217,225297,2,0,L|344:109,1,90,0|2,0:0|0:0,0:0:0:0:
223,351,225561,1,0,0:0:0:0:
78,185,225693,2,0,L|181:185,1,90,10|0,0:0|0:0,0:0:0:0:
271,182,225957,5,2,0:0:0:0:
148,72,226089,2,0,P|136:116|156:168,1,90,0|10,0:0|0:0,0:0:0:0:
265,270,226354,1,0,0:0:0:0:
417,126,226486,2,0,L|321:126,1,90,2|0,0:0|0:0,0:0:0:0:
444,328,226750,2,0,B|462:282|462:282|444:216,1,90,12|0,0:0|0:0,0:0:0:0:
372,48,227015,5,6,0:0:0:0:
372,48,227147,1,2,0:0:0:0:
248,180,227279,2,0,P|236:132|260:76,1,90,10|2,0:0|0:0,0:0:0:0:
422,344,227543,2,0,B|384:356|384:356|336:344,1,90,2|2,0:0|0:0,0:0:0:0:
112,264,227808,1,10,0:0:0:0:
285,263,227940,6,0,B|208:299|208:223|109:265,1,180,2|2,0:0|0:0,0:0:0:0:
76,104,228336,2,0,B|60:152|60:152|76:204,1,90,10|2,0:0|0:0,0:0:0:0:
168,344,228601,1,2,0:0:0:0:
248,180,228733,1,2,0:0:0:0:
71,189,228865,1,10,0:0:0:0:
168,344,228997,1,2,0:0:0:0:
248,180,229129,6,0,L|257:90,1,90,6|2,0:0|0:0,0:0:0:0:
338,267,229393,2,0,L|347:356,1,90,14|2,0:0|0:0,0:0:0:0:
425,180,229658,2,0,L|434:90,1,90,8|2,0:0|0:0,0:0:0:0:
347,356,229922,1,8,0:0:0:0:
464,280,230054,6,0,B|404:280|404:280|360:252|360:252|260:252,1,180,6|0,0:0|0:0,0:0:0:0:
88,160,230451,2,0,B|136:148|136:148|192:164,1,90,2|8,0:0|0:0,0:0:0:0:
240,384,230715,1,14,0:0:0:0:
128,230,230847,1,8,0:0:0:0:
308,289,230979,1,10,0:0:0:0:
128,347,231112,1,10,0:0:0:0:
240,194,231244,5,4,0:0:0:0:
