osu file format v14

[General]
AudioFilename: life.mp3
AudioLeadIn: 0
PreviewTime: 83722
Countdown: 0
SampleSet: Soft
StackLeniency: 0.7
Mode: 0
LetterboxInBreaks: 0
WidescreenStoryboard: 0

[Editor]
DistanceSpacing: 1.2
BeatDivisor: 2
GridSize: 32
TimelineZoom: 2.4

[Metadata]
Title:Sendan Life
TitleUnicode:センダンライフ
Artist:Remo Prototype[CV: Hanamori Yumiri]
ArtistUnicode:リモ Prototype[CV:花守ゆみり]
Creator:Settia
Version:Advanced
Source:ガラスの花と壊す世界
Tags:vocaloid Chukka やしきん yashikin Glass no Hana to Kowasu Sekai GARAKOWA Restore the World Vitreous Flower Destroy the World D.backup
BeatmapID:904386
BeatmapSetID:394834

[Difficulty]
HPDrainRate:3
CircleSize:3.5
OverallDifficulty:4
ApproachRate:5
SliderMultiplier:1
SliderTickRate:1

[Events]
//Background and Video events
0,0,"nbg.jpg",0,0
//Break Periods
2,104043,108458
2,179638,186696
//Storyboard Layer 0 (Background)
//Storyboard Layer 1 (Fail)
//Storyboard Layer 2 (Pass)
//Storyboard Layer 3 (Foreground)
//Storyboard Sound Samples

[TimingPoints]
37764,264.31718061674,4,2,1,70,1,0
41993,-100,4,2,1,70,0,0
67235,-100,4,2,1,50,0,0
75693,-100,4,2,1,70,0,0
84283,-100,4,2,1,85,0,1
101200,-100,4,2,1,85,0,0
109658,-100,4,2,1,60,0,0
116926,-100,4,2,1,70,0,0
126574,-100,4,2,1,50,0,0
134900,-100,4,2,1,70,0,0
143490,-100,4,2,1,85,0,1
160407,-100,4,2,1,80,0,0
178380,-100,4,2,1,50,0,0
195825,-133.333333333333,4,2,1,60,0,0
197411,-100,4,2,1,85,0,1
214327,-100,4,2,1,85,0,0

[Colours]
Combo1 : 109,198,255
Combo2 : 196,174,228
Combo3 : 255,169,136
Combo4 : 109,121,158

[HitObjects]
110,81,37763,6,0,L|115:190,1,100,8|8,0:0|0:0,0:0:0:0:
124,300,38292,1,2,0:0:0:0:
124,300,38424,1,8,0:0:0:0:
219,227,38689,2,0,P|265:210|328:221,1,100,8|8,0:0|0:0,0:0:0:0:
383,311,39217,2,0,P|337:328|274:317,1,100,8|2,0:0|0:0,0:0:0:0:
231,346,39614,1,8,0:0:0:0:
219,227,39878,6,0,L|213:110,1,100,8|8,0:0|0:0,0:0:0:0:
278,25,40407,1,2,0:0:0:0:
278,25,40539,1,8,0:0:0:0:
326,134,40803,2,0,B|376:147|376:147|425:131,2,100,8|8|8,0:0|0:0|0:0,0:0:0:0:
326,134,41464,1,8,0:0:0:0:
243,220,41728,1,12,0:0:0:0:
194,109,41993,6,0,L|187:-3,1,100,6|8,0:0|0:0,0:0:0:0:
86,73,42521,2,0,L|93:185,1,100,2|8,0:0|0:0,0:0:0:0:
102,292,43050,1,2,0:0:0:0:
188,375,43314,1,8,0:0:0:0:
233,264,43578,2,0,P|280:250|332:266,1,100,2|8,0:0|0:0,0:0:0:0:
438,310,44107,5,2,0:0:0:0:
438,310,44371,1,8,0:0:0:0:
426,190,44636,2,0,L|419:87,1,100,2|8,0:0|0:0,0:0:0:0:
308,44,45164,2,0,L|317:157,1,100,2|8,0:0|0:0,0:0:0:0:
327,263,45693,2,0,P|268:252|228:214,1,100,2|8,0:0|0:0,0:0:0:0:
159,136,46222,5,2,0:0:0:0:
81,227,46486,1,8,0:0:0:0:
61,108,46750,2,0,L|61:7,1,100,2|8,0:0|0:0,0:0:0:0:
174,46,47279,2,0,P|224:63|252:115,1,100,2|8,0:0|0:0,0:0:0:0:
319,198,47808,1,2,0:0:0:0:
319,198,48072,1,8,0:0:0:0:
231,279,48336,6,0,B|216:228|216:228|236:173,1,100,2|8,0:0|0:0,0:0:0:0:
327,111,48865,2,0,P|378:95|430:115,1,100,2|8,0:0|0:0,0:0:0:0:
452,159,49261,2,0,L|449:272,1,100,6|2,0:0|0:0,0:0:0:0:
446,319,49658,1,0,0:0:0:0:
330,279,49922,2,0,L|216:278,1,100,10|8,0:0|0:0,0:0:0:0:
192,325,50319,1,8,0:0:0:0:
192,325,50451,6,0,P|172:273|188:225,1,100,6|8,0:0|0:0,0:0:0:0:
235,123,50979,1,0,0:0:0:0:
115,135,51244,1,8,0:0:0:0:
200,50,51508,2,0,P|256:44|309:79,2,100,2|8|0,0:0|0:0|0:0,0:0:0:0:
115,135,52301,1,8,0:0:0:0:
183,231,52565,6,0,B|236:216|236:216|305:235,1,100,2|8,0:0|0:0,0:0:0:0:
392,270,53094,1,0,0:0:0:0:
392,270,53358,1,8,0:0:0:0:
360,153,53623,2,0,P|344:100|372:43,1,100,2|8,0:0|0:0,0:0:0:0:
463,115,54151,2,0,L|462:223,1,100,0|8,0:0|0:0,0:0:0:0:
459,335,54680,5,2,0:0:0:0:
359,268,54944,2,0,P|319:250|256:257,1,100,8|0,0:0|0:0,0:0:0:0:
156,307,55473,1,8,0:0:0:0:
261,353,55737,2,0,L|264:244,1,100,2|8,0:0|0:0,0:0:0:0:
265,132,56266,1,0,0:0:0:0:
265,132,56530,1,8,0:0:0:0:
156,80,56794,6,0,P|141:124|162:185,2,100,2|8|0,0:0|0:0|0:0,0:0:0:0:
253,9,57587,1,8,0:0:0:0:
265,132,57852,1,0,0:0:0:0:
370,75,58116,2,0,B|387:110|387:110|377:190,1,100,8|4,0:0|0:0,0:0:0:0:
364,289,58645,1,8,0:0:0:0:
261,351,58909,6,0,L|265:241,1,100,6|8,0:0|0:0,0:0:0:0:
265,132,59438,2,0,P|220:123|161:138,1,100,0|8,0:0|0:0,0:0:0:0:
59,184,59966,1,2,0:0:0:0:
70,303,60230,2,0,P|127:283|158:236,1,100,8|0,0:0|0:0,0:0:0:0:
251,319,60759,1,8,0:0:0:0:
308,214,61023,6,0,L|419:215,1,100,2|8,0:0|0:0,0:0:0:0:
459,323,61552,1,0,0:0:0:0:
459,323,61816,1,8,0:0:0:0:
483,205,62081,2,0,P|452:152|410:137,1,100,2|8,0:0|0:0,0:0:0:0:
300,118,62609,1,0,0:0:0:0:
211,199,62874,1,8,0:0:0:0:
217,79,63138,6,0,P|256:37|310:27,2,100,2|8|0,0:0|0:0|0:0,0:0:0:0:
211,199,63931,1,8,0:0:0:0:
116,124,64195,2,0,B|69:113|69:113|16:130,1,100,2|8,0:0|0:0,0:0:0:0:
21,249,64724,1,0,0:0:0:0:
99,339,64988,1,8,0:0:0:0:
99,339,65252,6,0,L|107:234,1,100,2|8,0:0|0:0,0:0:0:0:
116,124,65781,1,0,0:0:0:0:
209,49,66045,1,8,0:0:0:0:
209,49,66178,2,0,P|231:93|212:164,2,100,6|2|0,0:0|0:0|0:0,0:0:0:0:
151,32,66838,2,0,P|98:28|43:57,1,100,8|8,0:0|0:0,0:0:0:0:
33,102,67235,1,8,0:0:0:0:
33,102,67367,6,0,L|40:214,1,100,6|0,0:0|0:0,0:0:0:0:
42,262,67764,2,0,P|111:223|195:242,1,150,8|2,0:0|0:0,0:0:0:0:
178,232,68556,1,2,0:0:0:0:
336,317,68953,2,0,B|288:332|288:332|214:308,1,100,8|2,0:0|0:0,0:0:0:0:
319,225,69482,6,0,P|386:236|425:313,1,150,2|2,0:0|0:0,0:0:0:0:
240,316,70275,2,0,B|219:269|219:269|239:152,1,150,2|0,0:0|0:0,0:0:0:0:
235,171,71067,1,8,0:0:0:0:
334,104,71332,1,2,0:0:0:0:
217,77,71596,6,0,P|150:120|142:208,1,150,2|8,0:0|0:0,0:0:0:0:
135,184,72389,1,2,0:0:0:0:
63,280,72653,2,0,B|136:305|136:305|209:279,1,150,2|8,0:0|0:0,0:0:0:0:
204,280,73446,1,2,0:0:0:0:
301,350,73711,6,0,L|314:198,1,150,2|8,0:0|0:0,0:0:0:0:
313,200,74504,1,2,0:0:0:0:
399,116,74768,2,0,P|334:81|245:101,1,150,0|0,0:0|0:0,0:0:0:0:
228,142,75297,2,0,L|156:142,1,50,8|2,0:0|0:0,0:0:0:0:
126,173,75561,1,8,0:0:0:0:
126,173,75693,6,0,P|156:102|110:30,1,150,6|8,0:0|0:0,0:0:0:0:
49,133,76354,2,0,P|39:186|65:243,1,100,2|8,0:0|0:0,0:0:0:0:
119,328,76882,1,2,0:0:0:0:
198,242,77147,1,8,0:0:0:0:
198,242,77279,2,0,B|251:226|251:226|311:245,1,100,0|2,0:0|0:0,0:0:0:0:
386,316,77808,6,0,L|391:188,1,100,6|2,0:0|0:0,0:0:0:0:
392,156,78204,1,8,0:0:0:0:
481,75,78468,2,0,P|437:39|369:43,1,100,2|8,0:0|0:0,0:0:0:0:
392,156,78997,2,0,L|278:150,1,100,6|8,0:0|0:0,0:0:0:0:
265,97,79393,2,0,P|235:145|251:204,1,100,0|2,0:0|0:0,0:0:0:0:
270,302,79922,6,0,B|229:279|229:279|105:299,1,150,6|8,0:0|0:0,0:0:0:0:
19,347,80583,1,2,0:0:0:0:
19,347,80847,1,8,0:0:0:0:
27,227,81112,2,0,L|35:115,1,100,2|8,0:0|0:0,0:0:0:0:
142,76,81640,2,0,L|137:185,1,100,0|8,0:0|0:0,0:0:0:0:
128,296,82169,5,12,0:0:0:0:
231,356,82433,1,8,0:0:0:0:
334,296,82697,1,8,0:0:0:0:
438,356,82962,1,8,0:0:0:0:
438,356,83094,2,0,P|459:290|407:203,1,150,6|8,0:0|0:0,0:0:0:0:
322,160,83755,2,0,L|334:293,1,100,8|8,0:0|0:0,0:0:0:0:
230,194,84283,6,0,L|223:82,2,100,6|8|2,0:0|0:0|0:0,0:0:0:0:
238,314,85076,1,8,0:0:0:0:
238,314,85341,2,0,P|190:300|129:307,1,100,2|8,0:0|0:0,0:0:0:0:
24,334,85869,2,0,L|20:383,2,50,2|2|8,0:0|0:0|0:0,0:0:0:0:
36,214,86398,6,0,L|44:98,1,100,2|8,0:0|0:0,0:0:0:0:
122,24,86926,1,2,0:0:0:0:
176,131,87191,1,8,0:0:0:0:
226,239,87455,2,0,P|271:208|287:137,1,100,0|8,0:0|0:0,0:0:0:0:
176,131,87984,2,0,L|105:131,2,50,2|2|8,0:0|0:0|0:0,0:0:0:0:
271,58,88512,6,0,B|321:45|321:45|380:61,1,100,2|8,0:0|0:0,0:0:0:0:
479,101,89041,1,2,0:0:0:0:
439,214,89305,1,8,0:0:0:0:
393,325,89570,2,0,P|332:268|336:179,2,150,2|0|8,0:0|0:0|0:0,0:0:0:0:
439,214,90627,5,2,0:0:0:0:
353,129,90891,2,0,B|304:117|304:117|248:135,1,100,8|2,0:0|0:0,0:0:0:0:
146,180,91420,1,8,0:0:0:0:
146,180,91552,2,0,P|179:111|146:38,1,150,6|8,0:0|0:0,0:0:0:0:
65,127,92213,2,0,B|51:176|51:176|68:243,1,100,2|8,0:0|0:0,0:0:0:0:
102,336,92741,6,0,L|213:333,1,100,6|8,0:0|0:0,0:0:0:0:
322,326,93270,1,2,0:0:0:0:
254,227,93534,1,8,0:0:0:0:
201,333,93799,2,0,P|156:294|141:242,1,100,2|8,0:0|0:0,0:0:0:0:
254,227,94327,2,0,L|323:227,2,50,2|2|8,0:0|0:0|0:0,0:0:0:0:
164,146,94856,6,0,L|55:146,1,100,2|8,0:0|0:0,0:0:0:0:
146,58,95385,2,0,P|204:62|240:95,1,100,2|8,0:0|0:0,0:0:0:0:
266,203,95913,1,0,0:0:0:0:
327,99,96178,1,8,0:0:0:0:
369,211,96442,2,0,L|369:275,2,50,2|2|8,0:0|0:0|0:0,0:0:0:0:
420,102,96971,6,0,B|450:140|450:140|450:253,2,150,6|0|8,0:0|0:0|0:0,0:0:0:0:
312,48,98028,1,2,0:0:0:0:
243,146,98292,2,0,P|192:158|130:137,1,100,8|2,0:0|0:0,0:0:0:0:
55,225,98821,1,8,0:0:0:0:
73,106,99085,6,0,P|113:72|176:69,1,100,6|8,0:0|0:0,0:0:0:0:
243,146,99614,2,0,L|234:261,1,100,8|8,0:0|0:0,0:0:0:0:
177,350,100142,1,8,0:0:0:0:
177,350,100407,1,2,0:0:0:0:
289,308,100671,2,0,P|343:295|401:318,1,100,0|8,0:0|0:0,0:0:0:0:
256,192,101200,12,0,103843,0:0:0:0:
92,132,109658,5,6,0:0:0:0:
92,132,110715,2,0,P|67:201|106:283,2,150,10|10|10,0:0|0:0|0:0,0:0:0:0:
178,47,111772,5,4,0:0:0:0:
178,47,112830,2,0,L|178:189,1,100,8|2,0:0|0:0,0:0:0:0:
219,190,113226,2,0,P|271:175|331:198,1,100,2|2,0:0|0:0,0:0:0:0:
360,224,113623,1,8,0:0:0:0:
330,340,113887,6,0,P|272:301|264:268,1,100,2|0,0:0|0:0,0:0:0:0:
178,359,114415,1,0,0:0:0:0:
178,359,114680,1,0,0:0:0:0:
81,287,114944,2,0,B|64:238|64:238|92:174,1,100,2|0,0:0|0:0,0:0:0:0:
148,93,115473,1,0,0:0:0:0:
148,93,115737,1,0,0:0:0:0:
219,189,116001,6,0,L|331:187,1,100,2|0,0:0|0:0,0:0:0:0:
390,283,116530,2,0,P|428:248|439:186,1,100,0|0,0:0|0:0,0:0:0:0:
438,142,116926,1,8,0:0:0:0:
438,142,117587,2,0,B|390:125|390:125|323:148,1,100,8|6,0:0|0:0,0:0:0:0:
297,251,118116,6,0,P|252:264|195:240,1,100,6|8,0:0|0:0,0:0:0:0:
115,329,118645,1,0,0:0:0:0:
67,218,118909,1,8,0:0:0:0:
93,105,119173,2,0,B|145:93|145:93|209:108,1,100,2|8,0:0|0:0,0:0:0:0:
292,167,119702,2,0,L|301:66,1,100,0|8,0:0|0:0,0:0:0:0:
418,43,120230,6,0,L|408:171,1,100,2|8,0:0|0:0,0:0:0:0:
379,259,120759,2,0,P|339:301|286:302,1,100,0|8,0:0|0:0,0:0:0:0:
188,352,121288,1,2,0:0:0:0:
188,352,121552,1,8,0:0:0:0:
101,268,121816,2,0,L|101:163,1,100,0|8,0:0|0:0,0:0:0:0:
169,68,122345,5,2,0:0:0:0:
215,178,122609,1,8,0:0:0:0:
297,90,122874,2,0,B|346:76|346:76|402:92,1,100,0|8,0:0|0:0,0:0:0:0:
434,202,123402,2,0,P|380:204|343:178,1,100,2|8,0:0|0:0,0:0:0:0:
280,281,123931,1,0,0:0:0:0:
215,178,124195,1,8,0:0:0:0:
198,297,124460,6,0,P|226:346|287:363,1,100,2|8,0:0|0:0,0:0:0:0:
381,339,124988,2,0,L|366:181,1,150,0|6,0:0|0:0,0:0:0:0:
366,189,125781,1,2,0:0:0:0:
291,95,126045,2,0,B|246:81|246:81|188:98,1,100,8|8,0:0|0:0,0:0:0:0:
96,164,126574,6,0,P|72:109|94:37,2,100,6|2|8,0:0|0:0|0:0,0:0:0:0:
184,245,127367,1,0,0:0:0:0:
138,355,127631,2,0,P|192:339|248:364,1,100,0|2,0:0|0:0,0:0:0:0:
349,377,128160,1,8,0:0:0:0:
302,266,128424,1,0,0:0:0:0:
418,294,128689,6,0,B|431:245|431:245|411:184,1,100,2|2,0:0|0:0,0:0:0:0:
368,87,129217,1,8,0:0:0:0:
294,182,129482,1,0,0:0:0:0:
235,77,129746,2,0,P|188:68|133:83,1,100,0|2,0:0|0:0,0:0:0:0:
72,181,130275,1,8,0:0:0:0:
190,161,130539,1,0,0:0:0:0:
145,272,130803,6,0,L|149:377,2,100,2|2|8,0:0|0:0|0:0,0:0:0:0:
72,181,131596,1,0,0:0:0:0:
138,80,131860,2,0,P|186:67|234:76,1,100,2|2,0:0|0:0,0:0:0:0:
341,133,132389,1,8,0:0:0:0:
341,133,132653,1,0,0:0:0:0:
302,246,132918,6,0,P|249:211|233:166,2,100,2|2|8,0:0|0:0|0:0,0:0:0:0:
391,326,133711,1,0,0:0:0:0:
426,211,133975,2,0,L|426:92,1,100,2|0,0:0|0:0,0:0:0:0:
331,36,134504,2,0,L|331:105,1,50,8|2,0:0|0:0,0:0:0:0:
332,145,134768,1,8,0:0:0:0:
332,145,134900,6,0,P|260:109|177:127,1,150,6|8,0:0|0:0,0:0:0:0:
80,76,135561,2,0,L|88:187,1,100,2|8,0:0|0:0,0:0:0:0:
99,295,136089,2,0,P|151:272|212:281,1,100,2|8,0:0|0:0,0:0:0:0:
229,322,136486,2,0,B|281:337|281:337|345:316,1,100,0|2,0:0|0:0,0:0:0:0:
438,361,137015,6,0,P|447:289|393:231,1,150,6|8,0:0|0:0,0:0:0:0:
279,234,137675,2,0,L|281:124,1,100,2|8,0:0|0:0,0:0:0:0:
229,25,138204,2,0,P|194:56|181:129,1,100,6|8,0:0|0:0,0:0:0:0:
176,165,138601,2,0,B|134:147|134:147|75:169,2,100,2|2|6,0:0|0:0|0:0,0:0:0:0:
279,234,139393,5,2,0:0:0:0:
279,234,139526,2,0,P|252:265|178:270,1,100,6|8,0:0|0:0,0:0:0:0:
99,346,140054,1,8,0:0:0:0:
61,233,140319,2,0,P|51:184|77:124,1,100,0|6,0:0|0:0,0:0:0:0:
104,91,140715,2,0,L|225:81,1,100,0|0,0:0|0:0,0:0:0:0:
263,76,141112,1,2,0:0:0:0:
192,173,141376,5,12,0:0:0:0:
276,258,141640,1,8,0:0:0:0:
192,344,141904,1,8,0:0:0:0:
106,258,142169,1,8,0:0:0:0:
192,173,142433,2,0,B|247:160|247:160|306:175,1,100,8|4,0:0|0:0,0:0:0:0:
374,255,142962,2,0,L|371:357,1,100,10|8,0:0|0:0,0:0:0:0:
463,278,143490,6,0,L|464:159,1,100,6|8,0:0|0:0,0:0:0:0:
412,69,144019,1,2,0:0:0:0:
297,34,144283,1,8,0:0:0:0:
190,90,144548,2,0,P|222:137|285:150,1,100,0|8,0:0|0:0,0:0:0:0:
343,237,145076,2,0,L|343:298,2,50,2|2|8,0:0|0:0|0:0,0:0:0:0:
267,330,145605,6,0,B|220:342|220:342|161:325,1,100,2|8,0:0|0:0,0:0:0:0:
59,282,146134,1,2,0:0:0:0:
170,238,146398,1,8,0:0:0:0:
71,169,146662,2,0,P|104:128|168:118,1,100,0|8,0:0|0:0,0:0:0:0:
252,174,147191,2,0,L|317:174,2,50,2|2|8,0:0|0:0|0:0,0:0:0:0:
218,58,147719,6,0,L|341:58,1,100,2|8,0:0|0:0,0:0:0:0:
431,99,148248,1,2,0:0:0:0:
488,204,148512,1,8,0:0:0:0:
451,318,148777,2,0,P|397:287|369:194,2,150,2|0|8,0:0|0:0|0:0,0:0:0:0:
488,204,149834,1,2,0:0:0:0:
390,134,150098,6,0,P|337:139|292:187,1,100,8|2,0:0|0:0,0:0:0:0:
228,263,150627,1,8,0:0:0:0:
228,263,150759,2,0,L|204:106,1,150,6|8,0:0|0:0,0:0:0:0:
93,69,151420,2,0,L|105:172,1,100,2|8,0:0|0:0,0:0:0:0:
23,257,151949,6,0,P|62:286|127:287,1,100,6|8,0:0|0:0,0:0:0:0:
195,377,152477,1,2,0:0:0:0:
228,263,152741,1,8,0:0:0:0:
319,341,153006,2,0,L|330:223,1,100,0|8,0:0|0:0,0:0:0:0:
340,122,153534,2,0,L|393:127,2,50,2|2|8,0:0|0:0|0:0,0:0:0:0:
231,172,154063,6,0,L|116:162,2,100,2|8|2,0:0|0:0|0:0,0:0:0:0:
328,241,154856,1,8,0:0:0:0:
328,241,154988,2,0,P|282:286|187:282,1,150,2|8,0:0|0:0,0:0:0:0:
89,336,155649,2,0,B|71:287|71:287|96:213,1,100,2|8,0:0|0:0,0:0:0:0:
167,153,156178,6,0,P|115:123|25:151,2,150,6|0|8,0:0|0:0|0:0,0:0:0:0:
205,266,157235,1,2,0:0:0:0:
291,183,157499,2,0,L|306:311,1,100,8|2,0:0|0:0,0:0:0:0:
400,351,158028,2,0,L|381:225,1,100,8|6,0:0|0:0,0:0:0:0:
370,133,158556,5,8,0:0:0:0:
461,54,158821,1,8,0:0:0:0:
479,172,159085,1,8,0:0:0:0:
385,252,159349,2,0,P|335:249|278:201,1,100,8|2,0:0|0:0,0:0:0:0:
194,155,159878,2,0,L|195:272,1,100,2|8,0:0|0:0,0:0:0:0:
115,345,160407,6,0,B|87:309|87:309|87:181,2,150,6|0|8,0:0|0:0|0:0,0:0:0:0:
195,255,161464,2,0,P|265:232|341:260,2,150,2|2|8,0:0|0:0|0:0,0:0:0:0:
115,345,162521,6,0,P|86:300|82:249,1,100,2|8,0:0|0:0,0:0:0:0:
28,225,162918,2,0,P|70:203|131:210,1,100,2|2,0:0|0:0,0:0:0:0:
173,234,163314,1,8,0:0:0:0:
274,297,163578,2,0,L|255:117,2,150,2|2|8,0:0|0:0|0:0,0:0:0:0:
361,380,164636,6,0,P|394:337|392:291,1,100,2|8,0:0|0:0,0:0:0:0:
354,247,165032,2,0,L|339:132,1,100,2|2,0:0|0:0,0:0:0:0:
333,87,165429,1,8,0:0:0:0:
233,20,165693,2,0,P|201:89|232:182,2,150,2|2|8,0:0|0:0|0:0,0:0:0:0:
333,87,166750,6,0,P|381:77|441:86,1,100,2|8,0:0|0:0,0:0:0:0:
459,136,167147,2,0,L|453:255,1,100,2|2,0:0|0:0,0:0:0:0:
452,295,167543,1,8,0:0:0:0:
336,329,167808,2,0,P|297:297|218:298,1,100,2|8,0:0|0:0,0:0:0:0:
219,341,168204,2,0,L|119:341,1,100,2|2,0:0|0:0,0:0:0:0:
58,338,168601,1,12,0:0:0:0:
46,218,168865,6,0,P|41:162|70:106,1,100,6|8,0:0|0:0,0:0:0:0:
157,57,169393,2,0,L|163:170,1,100,2|8,0:0|0:0,0:0:0:0:
172,216,169790,2,0,P|225:201|296:226,1,100,6|2,0:0|0:0,0:0:0:0:
321,236,170186,1,8,0:0:0:0:
306,355,170451,2,0,P|261:342|225:292,1,100,2|8,0:0|0:0,0:0:0:0:
126,366,170979,6,0,B|81:378|81:378|27:360,1,100,6|8,0:0|0:0,0:0:0:0:
47,242,171508,2,0,L|62:130,1,100,2|8,0:0|0:0,0:0:0:0:
79,86,171904,2,0,P|145:57|238:90,1,150,6|8,0:0|0:0,0:0:0:0:
276,179,172565,1,2,0:0:0:0:
346,81,172830,1,8,0:0:0:0:
368,198,173094,6,0,P|337:253|293:274,1,100,6|8,0:0|0:0,0:0:0:0:
213,346,173623,2,0,L|213:235,1,100,2|8,0:0|0:0,0:0:0:0:
174,200,174019,2,0,P|151:131|200:62,1,150,6|8,0:0|0:0,0:0:0:0:
306,46,174680,1,2,0:0:0:0:
410,103,174944,1,8,0:0:0:0:
419,222,175208,6,0,P|339:199|305:122,2,150,6|0|8,0:0|0:0|0:0,0:0:0:0:
461,335,176266,1,0,0:0:0:0:
461,335,176530,1,8,0:0:0:0:
342,314,176794,2,0,B|295:302|295:302|236:318,1,100,2|8,0:0|0:0,0:0:0:0:
127,338,177323,6,0,P|128:250|225:199,1,200,6|2,0:0|0:0,0:0:0:0:
218,199,178116,1,6,0:0:0:0:
247,315,178380,1,0,0:0:0:0:
247,315,178909,5,0,0:0:0:0:
247,315,179438,5,0,0:0:0:0:
86,68,187896,6,0,L|97:235,1,150,6|8,0:0|0:0,0:0:0:0:
95,217,188689,1,2,0:0:0:0:
95,336,188953,2,0,P|154:323|187:287,1,100,0|2,0:0|0:0,0:0:0:0:
253,199,189482,1,8,0:0:0:0:
253,199,189614,2,0,B|307:187|307:187|366:202,1,100,2|0,0:0|0:0,0:0:0:0:
367,255,190010,6,0,P|401:218|373:126,2,150,2|8|2,0:0|0:0|0:0,0:0:0:0:
278,336,191067,1,0,0:0:0:0:
278,336,191332,1,2,0:0:0:0:
172,280,191596,2,0,P|131:290|63:267,1,100,8|0,0:0|0:0,0:0:0:0:
144,176,192125,6,0,P|229:183|272:262,2,150,2|8|2,0:0|0:0|0:0,0:0:0:0:
54,95,193182,1,2,0:0:0:0:
54,95,193446,1,0,0:0:0:0:
162,43,193711,2,0,L|275:43,1,100,2|8,0:0|0:0,0:0:0:0:
360,111,194239,6,0,B|380:157|380:157|363:260,2,150,2|8|2,0:0|0:0|0:0,0:0:0:0:
262,43,195297,1,14,0:0:0:0:
262,43,195561,1,2,0:0:0:0:
262,43,195825,1,14,0:0:0:0:
433,297,197411,6,0,P|390:308|329:289,1,100,6|8,0:0|0:0,0:0:0:0:
265,197,197940,2,0,B|218:184|218:184|151:201,1,100,2|8,0:0|0:0,0:0:0:0:
68,262,198468,1,2,0:0:0:0:
68,262,198733,1,8,0:0:0:0:
75,142,198997,2,0,L|79:77,2,50,2|2|8,0:0|0:0|0:0,0:0:0:0:
69,262,199526,6,0,P|101:303|153:318,1,100,2|8,0:0|0:0,0:0:0:0:
248,379,200054,2,0,L|255:275,1,100,2|8,0:0|0:0,0:0:0:0:
255,158,200583,1,0,0:0:0:0:
255,158,200847,1,8,0:0:0:0:
344,77,201112,2,0,L|415:77,2,50,2|2|8,0:0|0:0|0:0,0:0:0:0:
224,73,201640,6,0,P|176:110|166:167,1,100,2|8,0:0|0:0,0:0:0:0:
210,257,202169,2,0,P|265:268|322:252,1,100,2|8,0:0|0:0,0:0:0:0:
395,178,202697,2,0,B|416:218|416:218|391:353,2,150,2|0|8,0:0|0:0|0:0,0:0:0:0:
325,79,203755,5,2,0:0:0:0:
254,175,204019,2,0,P|218:159|155:161,1,100,8|2,0:0|0:0,0:0:0:0:
66,82,204548,1,8,0:0:0:0:
66,82,204680,2,0,P|30:150|58:239,1,150,6|8,0:0|0:0,0:0:0:0:
85,331,205341,2,0,B|140:347|140:347|200:332,1,100,6|8,0:0|0:0,0:0:0:0:
281,269,205869,6,0,L|277:377,1,100,6|8,0:0|0:0,0:0:0:0:
364,285,206398,2,0,P|350:218|318:189,1,100,2|8,0:0|0:0,0:0:0:0:
210,213,206926,1,2,0:0:0:0:
210,213,207191,1,8,0:0:0:0:
285,120,207455,2,0,L|349:120,2,50,2|2|8,0:0|0:0|0:0,0:0:0:0:
173,74,207984,6,0,B|123:63|123:63|57:79,1,100,2|8,0:0|0:0,0:0:0:0:
43,189,208512,2,0,P|36:236|51:294,1,100,2|8,0:0|0:0,0:0:0:0:
139,364,209041,1,0,0:0:0:0:
205,263,209305,1,8,0:0:0:0:
309,322,209570,2,0,L|373:323,2,50,2|2|8,0:0|0:0|0:0,0:0:0:0:
204,263,210098,6,0,P|173:206|199:118,2,150,6|0|8,0:0|0:0|0:0,0:0:0:0:
309,322,211156,1,2,0:0:0:0:
383,227,211420,2,0,B|396:177|396:177|371:121,1,100,8|2,0:0|0:0,0:0:0:0:
286,52,211949,2,0,L|181:44,1,100,8|6,0:0|0:0,0:0:0:0:
67,32,212477,5,8,0:0:0:0:
129,134,212741,1,8,0:0:0:0:
67,237,213006,1,8,0:0:0:0:
129,339,213270,2,0,P|182:318|249:337,1,100,8|8,0:0|0:0,0:0:0:0:
334,369,213799,2,0,L|339:256,1,100,0|2,0:0|0:0,0:0:0:0:
345,149,214327,5,6,0:0:0:0:
438,224,214592,1,8,0:0:0:0:
414,106,214856,2,0,P|370:73|314:75,1,100,2|8,0:0|0:0,0:0:0:0:
232,146,215385,1,2,0:0:0:0:
207,263,215649,1,8,0:0:0:0:
173,378,215913,2,0,P|126:351|104:286,1,100,2|8,0:0|0:0,0:0:0:0:
36,212,216442,6,0,L|45:104,1,100,2|8,0:0|0:0,0:0:0:0:
145,47,216971,2,0,L|136:158,1,100,2|8,0:0|0:0,0:0:0:0:
129,266,217499,1,2,0:0:0:0:
129,266,217763,1,8,0:0:0:0:
233,206,218028,2,0,B|284:193|284:193|339:209,1,100,2|8,0:0|0:0,0:0:0:0:
326,326,218556,6,0,L|213:326,1,100,2|8,0:0|0:0,0:0:0:0:
110,358,219085,1,2,0:0:0:0:
38,262,219349,1,8,0:0:0:0:
56,143,219614,2,0,P|103:105|156:103,1,100,2|8,0:0|0:0,0:0:0:0:
237,171,220142,2,0,L|248:56,1,100,2|8,0:0|0:0,0:0:0:0:
356,22,220671,6,0,L|346:121,1,100,2|8,0:0|0:0,0:0:0:0:
329,240,221200,1,2,0:0:0:0:
433,181,221464,1,8,0:0:0:0:
433,181,221596,2,0,P|449:259|414:329,1,150,2|8,0:0|0:0,0:0:0:0:
305,353,222257,2,0,B|258:338|258:338|186:362,1,100,2|8,0:0|0:0,0:0:0:0:
96,316,222786,6,0,L|104:201,1,100,6|8,0:0|0:0,0:0:0:0:
107,96,223314,1,2,0:0:0:0:
107,96,223578,1,10,0:0:0:0:
208,159,223843,2,0,P|262:170|319:157,1,100,0|10,0:0|0:0,0:0:0:0:
397,84,224371,2,0,L|398:25,2,50,2|0|8,0:0|0:0|0:0,0:0:0:0:
416,202,224900,6,0,L|412:309,1,100,2|10,0:0|0:0,0:0:0:0:
303,353,225429,1,2,0:0:0:0:
192,306,225693,1,10,0:0:0:0:
302,256,225957,2,0,P|313:301|293:370,1,100,2|10,0:0|0:0,0:0:0:0:
183,339,226486,2,0,L|82:338,1,100,2|12,0:0|0:0,0:0:0:0:
47,223,227015,6,0,B|28:177|28:177|61:98,1,100,6|10,0:0|0:0,0:0:0:0:
113,30,227543,1,2,0:0:0:0:
169,136,227808,1,10,0:0:0:0:
280,92,228072,2,0,P|291:143|265:209,1,100,0|10,0:0|0:0,0:0:0:0:
203,282,228601,2,0,L|139:282,2,50,2|2|10,0:0|0:0|0:0,0:0:0:0:
307,341,229129,6,0,B|363:355|363:355|419:337,1,100,6|14,0:0|0:0,0:0:0:0:
459,235,229658,2,0,L|463:133,1,100,8|8,0:0|0:0,0:0:0:0:
463,75,230054,2,0,P|416:57|350:68,1,100,6|0,0:0|0:0,0:0:0:0:
345,117,230451,2,0,B|299:132|299:132|228:108,1,100,2|14,0:0|0:0,0:0:0:0:
155,41,230979,2,0,L|151:102,1,50,10|4,0:0|0:0,0:0:0:0:
149,151,231244,1,4,0:0:0:0:
