osu file format v14

[General]
AudioFilename: audio.mp3
AudioLeadIn: 0
PreviewTime: 54175
Countdown: 0
SampleSet: Soft
StackLeniency: 0.4
Mode: 0
LetterboxInBreaks: 0
WidescreenStoryboard: 1

[Editor]
Bookmarks: 7721,20408,28866,37324,45650,54241,62699,71157
DistanceSpacing: 0.9
BeatDivisor: 4
GridSize: 32
TimelineZoom: 2.899999

[Metadata]
Title:Sendan Life
TitleUnicode:センダンライフ
Artist:Remo Prototype[CV: Hanamori Yumiri]
ArtistUnicode:リモ Prototype[CV:花守ゆみり]
Creator:Mir
Version:Loli's Extra
Source:ガラスの花と壊す世界
Tags:vocaloid Chukka やしきん yashikin Glass no Hana to Kowasu Sekai GARAKOWA Restore the World Vitreous Flower Destroy the World xLolicore- Rumia-
BeatmapID:1390927
BeatmapSetID:639318

[Difficulty]
HPDrainRate:6
CircleSize:4
OverallDifficulty:8.7
ApproachRate:9.3
SliderMultiplier:1.7
SliderTickRate:1

[Events]
//Background and Video events
0,0,"remo.jpg",0,0
//Break Periods
//Storyboard Layer 0 (Background)
//Storyboard Layer 1 (Fail)
//Storyboard Layer 2 (Pass)
//Storyboard Layer 3 (Foreground)
//Storyboard Sound Samples

[TimingPoints]
6664,264.31718061674,4,2,1,100,1,0
7324,-166.666666666667,4,2,1,100,0,0
7456,-166.666666666667,4,2,1,80,0,0
7721,-125,4,2,1,80,0,0
8580,-125,4,2,1,80,0,0
8646,-125,4,2,1,80,0,0
9373,-125,4,2,1,80,0,0
9439,-125,4,2,1,80,0,0
9769,-125,4,2,1,5,0,0
9835,-125,4,2,1,80,0,0
10694,-125,4,2,1,80,0,0
10760,-125,4,2,1,80,0,0
11686,-100,4,2,1,80,0,0
11884,-100,4,2,1,5,0,0
11950,-100,4,2,1,80,0,0
19417,-100,4,2,1,5,0,0
19483,-100,4,2,1,80,0,0
20408,-111.111111111111,4,2,1,80,0,0
20606,-111.111111111111,4,2,1,5,0,0
20672,-111.111111111111,4,2,1,80,0,0
21663,-111.111111111111,4,2,1,5,0,0
21729,-111.111111111111,4,2,1,80,0,0
22060,-111.111111111111,4,2,1,5,0,0
22126,-111.111111111111,4,2,1,80,0,0
23514,-111.111111111111,4,2,1,80,0,0
23580,-111.111111111111,4,2,1,80,0,0
23778,-111.111111111111,4,2,1,5,0,0
23844,-111.111111111111,4,2,1,80,0,0
24175,-111.111111111111,4,2,1,5,0,0
24241,-111.111111111111,4,2,1,80,0,0
24835,-111.111111111111,4,2,1,5,0,0
24901,-111.111111111111,4,2,1,80,0,0
25893,-111.111111111111,4,2,1,5,0,0
25959,-111.111111111111,4,2,1,80,0,0
26289,-111.111111111111,4,2,1,5,0,0
26355,-111.111111111111,4,2,1,80,0,0
28800,-111.111111111111,4,2,1,5,0,0
28866,-99.9999999999999,4,2,1,80,0,0
30122,-99.9999999999999,4,2,1,5,0,0
30188,-99.9999999999999,4,2,1,80,0,0
30518,-99.9999999999999,4,2,1,5,0,0
30584,-99.9999999999999,4,2,1,80,0,0
32236,-99.9999999999999,4,2,1,5,0,0
32302,-99.9999999999999,4,2,1,80,0,0
32633,-99.9999999999999,4,2,1,5,0,0
32699,-99.9999999999999,4,2,1,80,0,0
33293,-99.9999999999999,4,2,1,5,0,0
33359,-99.9999999999999,4,2,1,80,0,0
34747,-99.9999999999999,4,2,1,5,0,0
34813,-99.9999999999999,4,2,1,80,0,0
36333,-99.9999999999999,4,2,1,5,0,0
36399,-99.9999999999999,4,2,1,80,0,0
37324,-142.857142857143,4,2,1,80,0,0
45650,-100,4,2,1,80,0,0
45849,-100,4,2,1,5,0,0
45915,-100,4,2,1,80,0,0
47038,-100,4,2,1,5,0,0
47104,-100,4,2,1,80,0,0
49152,-100,4,2,1,5,0,0
49218,-100,4,2,1,80,0,0
54241,-90.9090909090909,4,2,1,100,0,1
54439,-90.9090909090909,4,2,1,5,0,1
54505,-90.9090909090909,4,2,1,100,0,1
56553,-90.9090909090909,4,2,1,5,0,1
56619,-90.9090909090909,4,2,1,100,0,1
57478,-90.9090909090909,4,2,1,5,0,1
57544,-90.9090909090909,4,2,1,100,0,1
57545,-90.9090909090909,4,2,1,100,0,1
58668,-90.9090909090909,4,2,1,5,0,1
58734,-90.9090909090909,4,2,1,100,0,1
59725,-90.9090909090909,4,2,1,5,0,1
59791,-90.9090909090909,4,2,1,100,0,1
60518,-90.9090909090909,4,2,1,5,0,1
60584,-90.9090909090909,4,2,1,100,0,1
60782,-90.9090909090909,4,2,1,100,0,1
60849,-90.9090909090909,4,2,1,100,0,1
61047,-90.9090909090909,4,2,1,5,0,1
61113,-90.9090909090909,4,2,1,100,0,1
61509,-83.3333333333333,4,2,1,100,0,1
61840,-83.3333333333333,4,2,1,5,0,1
61906,-83.3333333333333,4,2,1,100,0,1
62699,-90.9090909090909,4,2,1,100,0,1
62897,-90.9090909090909,4,2,1,5,0,1
62963,-90.9090909090909,4,2,1,100,0,1
65012,-90.9090909090909,4,2,1,5,0,1
65078,-90.9090909090909,4,2,1,100,0,1
65937,-90.9090909090909,4,2,1,5,0,1
66003,-90.9090909090909,4,2,1,100,0,1
67126,-90.9090909090909,4,2,1,5,0,1
67192,-90.9090909090909,4,2,1,100,0,1
68448,-90.9090909090909,4,2,1,5,0,1
68514,-83.3333333333333,4,2,1,100,0,1
71157,-100,4,2,1,100,0,0

[Colours]
Combo1 : 175,242,248
Combo2 : 244,173,250
Combo3 : 121,182,255
Combo4 : 218,218,218

[HitObjects]
423,299,7324,6,0,P|370:293|320:334,1,101.999996887207,0|0,0:2|0:0,0:0:0:0:
253,373,7721,6,0,L|248:284,1,68,2|0,3:2|0:2,0:0:0:0:
304,230,7985,2,0,L|307:162,1,68,2|0,3:2|0:2,0:0:0:0:
247,34,8249,1,2,3:2:0:0:
345,69,8382,2,0,L|446:58,1,102,2|0,3:2|0:0,0:0:0:0:
481,70,8646,6,0,B|494:105|494:105|489:160,1,68,2|0,3:2|0:2,0:0:0:0:
406,214,8910,2,0,B|393:179|393:179|398:124,1,68,2|0,3:2|0:2,0:0:0:0:
512,313,9175,2,0,L|383:306,1,102,2|0,3:2|0:0,0:0:0:0:
410,307,9439,1,2,3:2:0:0:
253,373,9571,2,0,L|124:380,1,102,2|0,3:2|0:2,0:0:0:0:
121,355,9835,6,0,P|113:308|125:269,1,68,2|0,3:2|0:2,0:0:0:0:
194,214,10100,2,0,P|202:181|198:147,1,68,2|0,3:2|0:2,0:0:0:0:
95,61,10364,1,2,3:2:0:0:
6,158,10496,2,0,P|50:136|107:149,1,102,2|0,3:2|0:0,0:0:0:0:
124,173,10760,6,0,L|118:253,1,68,2|0,3:2|0:2,0:0:0:0:
16,351,11025,2,0,L|10:283,1,68,2|0,3:2|0:2,0:0:0:0:
6,158,11289,1,2,3:2:0:0:
182,295,11421,1,2,0:2:0:0:
182,295,11553,1,0,3:2:0:0:
378,192,11686,6,0,B|365:189|365:189|339:189,6,21.25,0|0|0|0|0|0|0,0:0|0:0|0:0|0:0|0:0|0:0|0:0,0:0:0:0:
316,211,11950,6,0,L|322:322,1,85,4|0,3:2|0:2,0:0:0:0:
464,372,12214,2,0,L|468:287,1,85,10|0,0:2|0:2,0:0:0:0:
374,97,12478,1,0,3:2:0:0:
374,97,12611,1,0,3:2:0:0:
316,211,12743,2,0,L|217:217,1,85,10|0,0:2|0:2,0:0:0:0:
96,102,13007,6,0,P|152:97|192:130,1,85,0|0,3:2|0:2,0:0:0:0:
131,255,13271,2,0,P|75:260|35:227,1,85,10|0,0:2|0:2,0:0:0:0:
231,216,13536,1,0,3:2:0:0:
231,216,13668,1,0,3:2:0:0:
250,327,13800,2,0,L|355:321,1,85,10|0,0:2|0:2,0:0:0:0:
474,206,14064,6,0,P|427:225|381:216,1,85,0|0,3:2|0:2,0:0:0:0:
289,90,14329,2,0,L|386:97,1,85,10|0,0:2|0:2,0:0:0:0:
495,90,14593,1,0,3:2:0:0:
495,90,14725,1,0,3:2:0:0:
372,13,14857,2,0,B|362:56|362:56|377:107,1,85,10|0,0:2|0:2,0:0:0:0:
474,206,15122,6,0,B|484:249|484:249|472:288,1,85,0|0,3:2|0:2,0:0:0:0:
384,374,15386,2,0,L|283:369,1,85,10|0,0:2|0:2,0:0:0:0:
221,243,15650,1,0,3:2:0:0:
221,243,15782,1,0,3:2:0:0:
119,344,15915,2,0,L|204:340,1,85,10|0,0:2|0:2,0:0:0:0:
275,175,16179,6,0,P|228:156|179:170,1,85,0|0,3:2|0:2,0:0:0:0:
39,252,16443,2,0,L|123:247,1,85,10|0,0:2|0:2,0:0:0:0:
221,243,16708,1,0,3:2:0:0:
221,243,16840,1,0,3:2:0:0:
96,150,16972,2,0,L|102:49,1,85,10|0,0:2|0:2,0:0:0:0:
269,90,17236,6,0,L|274:174,1,85,0|0,3:2|0:2,0:0:0:0:
341,365,17501,2,0,L|346:270,1,85,10|0,0:2|0:2,0:0:0:0:
422,144,17765,1,0,3:2:0:0:
422,144,17897,1,0,3:2:0:0:
260,285,18029,2,0,L|360:279,1,85,10|0,0:2|0:2,0:0:0:0:
339,111,18293,6,0,B|329:154|329:154|341:209,1,85,0|0,3:2|0:2,0:0:0:0:
507,256,18558,2,0,B|515:216|515:216|505:173,1,85,10|0,0:2|0:2,0:0:0:0:
450,56,18822,1,2,3:2:0:0:
418,227,18954,1,0,3:2:0:0:
339,111,19086,1,10,0:2:0:0:
285,265,19219,6,0,B|181:252|230:316|116:296,1,170,4|2,0:2|3:2,0:0:0:0:
149,118,19615,2,0,P|144:160|145:202,1,85,8|2,0:2|3:2,0:0:0:0:
146,203,19813,1,2,3:2:0:0:
146,203,19879,5,10,0:2:0:0:
263,345,20012,1,2,3:2:0:0:
124,297,20144,1,10,0:2:0:0:
285,265,20276,1,0,3:2:0:0:
44,314,20408,6,0,P|42:271|47:234,1,76.4999976654054,4|0,3:2|0:0,0:0:0:0:
205,284,20672,2,0,P|209:321|207:360,1,76.4999976654054,8|0,0:2|3:2,0:0:0:0:
145,203,20937,1,2,0:2:0:0:
285,265,21069,2,0,L|380:260,1,76.4999976654053,2|10,0:2|0:2,0:0:0:0:
504,172,21333,1,0,0:2:0:0:
504,172,21465,6,0,B|451:143|395:159|395:159|443:202,1,152.999995330811,2|10,3:2|0:2,0:0:0:0:
408,316,21862,2,0,B|321:300|353:366|241:340,1,152.999995330811,2|0,3:2|3:2,0:0:0:0:
118,220,22258,2,0,L|124:308,1,76.4999976654053,8|2,0:2|3:2,0:0:0:0:
285,265,22523,6,0,L|290:188,1,76.4999976654053,0|2,0:2|3:2,0:0:0:0:
181,80,22787,1,10,0:2:0:0:
202,199,22919,1,2,0:2:0:0:
274,109,23051,2,0,P|313:109|345:129,1,76.4999976654053,2|2,3:2|3:2,0:0:0:0:
443,248,23315,2,0,L|302:243,1,114.749996498108,8|0,0:2|0:0,0:0:0:0:
285,265,23580,6,0,B|276:302|276:302|289:358,2,76.4999976654053,2|0|10,3:2|0:0|0:2,0:0:0:0:
340,156,23976,2,0,B|279:165|279:165|259:191|259:191|201:198,1,152.999995330811,2|2,3:2|3:2,0:0:0:0:
105,143,24373,1,10,0:2:0:0:
224,91,24505,1,2,0:2:0:0:
340,156,24637,5,0,3:2:0:0:
340,156,24901,2,0,L|335:252,1,76.4999976654053,10|0,0:2|3:2,0:0:0:0:
247,355,25166,2,0,L|243:278,1,76.4999976654053,2|0,0:2|3:2,0:0:0:0:
177,117,25430,1,10,0:2:0:0:
72,269,25562,1,0,0:2:0:0:
55,168,25694,6,0,B|142:152|114:216|222:192,1,152.999995330811,2|8,3:2|0:2,0:0:0:0:
340,156,26091,2,0,L|333:246,1,76.4999976654053,2|0,3:2|0:0,0:0:0:0:
177,117,26355,2,0,L|171:40,2,76.4999976654053,2|10|2,3:2|0:2|3:2,0:0:0:0:
200,195,26752,5,0,0:2:0:0:
275,83,26884,1,2,0:2:0:0:
275,83,27016,2,0,L|278:3,1,76.4999976654053,10|0,0:2|3:2,0:0:0:0:
348,169,27280,2,0,L|350:245,1,76.4999976654053,2|0,0:2|3:2,0:0:0:0:
247,355,27545,1,10,0:2:0:0:
390,345,27677,6,0,B|332:359|332:359|298:340|298:340|246:354,1,152.999995330811,2|2,3:2|0:2,0:0:0:0:
89,384,28073,2,0,L|86:294,1,76.4999976654053,10|2,0:2|3:2,0:0:0:0:
23,173,28338,1,10,0:0:0:0:
23,173,28470,1,2,3:2:0:0:
177,117,28602,2,0,P|228:129|286:94,1,114.749996498108,10|0,0:2|0:2,0:0:0:0:
219,50,28866,5,4,3:2:0:0:
219,50,29130,2,0,L|215:161,1,85,10|0,0:2|3:2,0:0:0:0:
108,259,29395,2,0,L|105:175,1,85,2|0,0:2|3:2,0:0:0:0:
101,9,29659,1,10,0:2:0:0:
101,9,29791,1,2,0:2:0:0:
53,126,29923,6,0,B|108:118|108:118|150:143|150:143|225:133,1,170,2|10,3:2|0:2,0:0:0:0:
371,12,30320,2,0,P|330:10|271:43,1,85,2|0,3:2|0:0,0:0:0:0:
209,214,30584,2,0,L|310:198,1,85,2|8,3:2|0:2,0:0:0:0:
446,179,30849,1,2,3:2:0:0:
389,233,30981,6,0,P|367:187|378:141,1,85,0|2,0:2|3:2,0:0:0:0:
394,33,31245,1,10,0:2:0:0:
288,94,31377,1,2,0:2:0:0:
446,179,31509,2,0,L|450:81,1,85,2|2,0:2|3:2,0:0:0:0:
292,200,31774,2,0,L|295:284,1,85,10|2,0:2|0:2,0:0:0:0:
428,332,32038,6,0,B|335:312|369:388|256:364,1,170,2|10,3:2|0:2,0:0:0:0:
108,259,32434,2,0,B|69:227|69:227|82:363,1,170,2|2,3:2|0:2,0:0:0:0:
209,214,32831,1,10,0:2:0:0:
71,128,32963,1,2,0:2:0:0:
189,90,33095,5,0,3:2:0:0:
189,90,33360,2,0,P|229:86|275:109,1,85,10|0,0:2|3:2,0:0:0:0:
446,179,33624,2,0,P|406:175|360:198,1,85,2|0,0:2|3:2,0:0:0:0:
295,284,33888,1,10,0:2:0:0:
214,163,34020,1,0,0:2:0:0:
150,337,34152,6,0,L|138:158,1,170,2|10,3:2|0:2,0:0:0:0:
302,20,34549,2,0,L|290:189,1,170,2|0,3:2|3:2,0:0:0:0:
213,68,34945,1,10,0:2:0:0:
385,100,35078,1,2,3:2:0:0:
210,159,35210,6,0,L|216:256,1,85,0|2,0:2|3:2,0:0:0:0:
222,325,35474,1,10,0:2:0:0:
379,193,35606,5,0,0:2:0:0:
370,363,35738,2,0,L|375:278,1,85,2|2,0:2|3:2,0:0:0:0:
385,100,36003,1,8,0:2:0:0:
448,227,36135,6,0,B|380:222|380:222|353:194|353:194|266:187,1,170,2|2,3:2|0:2,0:0:0:0:
139,256,36531,2,0,B|132:298|132:298|149:336,1,85,0|2,0:2|0:2,0:0:0:0:
187,182,36796,5,10,3:2:0:0:
147,165,36928,5,8,3:2:0:0:
113,168,37060,5,10,3:2:0:0:
89,178,37192,5,10,3:2:0:0:
76,189,37324,6,0,L|80:58,1,118.999996368408,6|0,3:2|0:2,0:0:0:0:
238,122,37721,2,0,L|241:240,1,118.999996368408,10|0,0:2|0:2,0:0:0:0:
199,314,38117,6,0,P|256:326|307:296,1,118.999996368408,2|0,3:2|0:2,0:0:0:0:
367,176,38514,2,0,P|424:164|474:193,1,118.999996368408,2|0,3:2|0:2,0:0:0:0:
415,303,38910,2,0,L|412:244,1,59.4999981842042,10|0,0:2|0:2,0:0:0:0:
405,85,39175,1,0,3:2:0:0:
405,85,39439,6,0,B|359:49|359:49|280:65,1,118.999996368408,2|0,3:2|0:2,0:0:0:0:
215,89,39835,1,8,0:2:0:0:
128,67,39967,2,0,L|133:126,1,59.4999981842042,0|0,0:2|0:2,0:0:0:0:
139,256,40232,6,0,B|79:214|20:236|20:236|48:282,1,178.499994552612,2|2,3:2|3:2,0:0:0:0:
47,280,40893,1,0,0:2:0:0:
163,350,41025,2,0,L|225:344,1,59.4999981842042,8|0,0:2|0:2,0:0:0:0:
244,249,41289,2,0,L|306:255,1,59.4999981842042,0|0,3:2|0:2,0:0:0:0:
474,325,41553,6,0,P|407:301|389:257,1,118.999996368408,2|0,3:2|0:2,0:0:0:0:
464,147,41950,2,0,L|335:142,1,118.999996368408,10|0,0:2|0:2,0:0:0:0:
244,249,42346,1,2,3:2:0:0:
244,249,42611,6,0,L|115:254,1,118.999996368408,6|0,3:2|0:0,0:0:0:0:
57,180,43007,1,10,0:2:0:0:
65,337,43139,1,2,3:2:0:0:
162,144,43404,1,0,0:2:0:0:
244,249,43668,6,0,B|269:195|269:195|240:121,1,118.999996368408,2|0,3:2|0:2,0:0:0:0:
158,34,44064,2,0,B|136:89|136:89|161:143,1,118.999996368408,10|0,0:2|0:2,0:0:0:0:
239,6,44461,1,2,3:2:0:0:
354,121,44725,5,0,0:2:0:0:
354,121,44857,2,0,P|299:109|236:158,1,118.999996368408,2|0,3:2|0:0,0:0:0:0:
244,249,45254,5,8,0:2:0:0:
244,249,45386,1,0,3:2:0:0:
417,210,45518,1,8,0:2:0:0:
358,360,45650,6,0,L|178:350,1,170,6|0,3:2|3:2,0:0:0:0:
40,259,46047,2,0,L|136:252,1,85,10|0,0:2|0:2,0:0:0:0:
247,139,46311,1,2,3:2:0:0:
244,249,46443,1,0,3:2:0:0:
78,149,46575,2,0,P|101:117|149:103,1,85,10|0,0:2|0:2,0:0:0:0:
342,222,46840,6,0,B|218:211|218:211|252:262,1,170,2|10,3:2|0:2,0:0:0:0:
331,381,47236,2,0,L|337:278,1,85,0|2,3:2|0:2,0:0:0:0:
428,130,47501,2,0,L|432:214,1,85,0|10,3:2|0:2,0:0:0:0:
494,333,47765,6,0,B|431:328|431:328|400:300|400:300|316:294,1,170,6|0,3:2|3:2,0:0:0:0:
177,384,48161,2,0,L|172:299,1,85,10|0,0:2|0:2,0:0:0:0:
247,139,48426,1,2,3:2:0:0:
247,139,48558,1,0,3:2:0:0:
335,295,48690,2,0,P|278:300|244:273,1,85,10|0,0:2|3:2,0:0:0:0:
78,149,48954,6,0,L|82:233,1,85,6|0,3:2|0:0,0:0:0:0:
90,369,49219,1,10,0:2:0:0:
255,286,49351,2,0,B|214:282|214:282|154:314,1,85,0|2,3:2|0:2,0:0:0:0:
10,376,49615,1,0,3:2:0:0:
82,233,49747,1,10,0:2:0:0:
224,372,49879,6,0,L|230:185,1,170,6|0,3:2|3:2,0:0:0:0:
113,39,50276,1,10,0:2:0:0:
113,39,50408,1,0,0:2:0:0:
268,83,50540,2,0,L|368:75,1,85,2|0,3:2|3:2,0:0:0:0:
457,189,50804,1,10,0:2:0:0:
319,163,50937,1,0,0:2:0:0:
415,23,51069,6,0,P|434:69|420:123,1,85,2|0,3:2|0:2,0:0:0:0:
412,276,51333,1,10,0:2:0:0:
319,163,51465,2,0,L|503:152,1,170,0|0,3:2|3:2,0:0:0:0:
318,259,51862,2,0,L|224:255,1,85,10|0,0:2|3:2,0:0:0:0:
183,86,52126,6,0,L|277:82,1,85,14|0,3:2|0:2,0:0:0:0:
118,167,52390,2,0,L|24:163,1,85,10|0,3:2|0:2,0:0:0:0:
124,4,52655,5,8,0:2:0:0:
124,4,52787,1,0,3:2:0:0:
230,167,52919,1,8,0:2:0:0:
343,52,53051,6,0,B|238:40|294:102|170:84,1,170,4|0,3:2|0:0,0:0:0:0:
21,4,53448,2,0,L|25:100,1,85,8|0,0:2|3:2,0:0:0:0:
24,88,53646,1,0,3:2:0:0:
24,88,53712,1,8,0:2:0:0:
176,236,53844,1,8,0:2:0:0:
151,51,53976,1,8,0:2:0:0:
118,167,54108,1,8,0:2:0:0:
233,44,54241,6,0,L|376:35,1,140.25000428009,6|4,3:2|0:2,0:0:0:0:
415,53,54505,2,0,B|428:100|428:100|412:163,1,93.5000028533936,10|0,0:2|0:2,0:0:0:0:
318,259,54769,2,0,B|306:215|306:215|319:168,1,93.5000028533936,2|0,3:2|3:2,0:0:0:0:
376,341,55034,1,10,0:2:0:0:
271,347,55166,6,0,L|162:354,1,93.5000028533936,2|0,3:2|0:2,0:0:0:0:
2,276,55430,2,0,L|111:283,1,93.5000028533936,2|8,0:2|0:2,0:0:0:0:
205,157,55694,1,2,0:2:0:0:
35,201,55826,1,2,3:2:0:0:
35,201,55959,1,0,3:2:0:0:
93,70,56091,2,0,L|202:77,1,93.5000028533936,10|0,0:2|0:2,0:0:0:0:
491,155,56355,6,0,B|402:149|455:201|341:188,1,140.25000428009,2|0,3:2|0:2,0:0:0:0:
318,168,56619,2,0,L|324:286,1,93.5000028533936,10|0,0:2|0:2,0:0:0:0:
473,322,56884,2,0,L|477:228,1,93.5000028533936,2|0,3:2|3:2,0:0:0:0:
379,108,57148,1,10,0:2:0:0:
322,261,57280,6,0,P|252:274|188:207,1,140.25000428009,2|0,3:2|0:2,0:0:0:0:
157,214,57545,2,0,P|171:264|153:321,1,93.5000028533936,2|8,3:2|0:2,0:0:0:0:
47,348,57809,1,2,0:2:0:0:
107,145,57941,1,2,3:2:0:0:
107,145,58073,1,0,3:2:0:0:
1,259,58205,2,0,L|94:262,1,93.5000028533936,10|0,0:2|0:2,0:0:0:0:
279,27,58470,6,0,L|137:36,1,140.25000428009,2|0,3:2|0:2,0:0:0:0:
98,58,58734,2,0,B|86:105|86:105|118:166,1,93.5000028533936,10|0,0:2|0:2,0:0:0:0:
199,228,58998,1,2,3:2:0:0:
199,228,59130,1,0,3:2:0:0:
379,108,59263,2,0,L|273:115,1,93.5000028533936,10|0,0:2|0:2,0:0:0:0:
155,300,59527,6,0,P|218:312|278:252,1,140.25000428009,2|0,3:2|0:2,0:0:0:0:
273,266,59791,1,10,0:2:0:0:
408,357,59923,2,0,L|414:245,1,93.5000028533936,0|2,0:2|3:2,0:0:0:0:
379,108,60188,1,0,3:2:0:0:
466,205,60320,2,0,B|423:183|423:183|359:195,1,93.5000028533936,10|0,0:2|0:0,0:0:0:0:
273,333,60584,6,0,P|210:345|150:285,1,140.25000428009,2|0,3:2|0:0,0:0:0:0:
154,299,60848,1,10,0:2:0:0:
59,137,60981,1,0,0:0:0:0:
58,334,61113,1,2,3:2:0:0:
164,177,61245,1,0,3:2:0:0:
0,233,61377,1,10,0:2:0:0:
142,64,61509,6,0,B|262:45|213:124|358:100,1,203.999993774414,6|0,0:2|0:0,0:0:0:0:
456,12,61906,2,0,L|462:130,1,101.999996887207,10|0,0:2|3:2,0:0:0:0:
413,263,62170,1,10,0:2:0:0:
413,263,62302,1,0,3:2:0:0:
335,103,62434,1,10,0:2:0:0:
273,333,62567,1,0,3:2:0:0:
179,192,62699,6,0,L|330:183,1,140.25000428009,6|0,3:2|0:2,0:0:0:0:
352,208,62963,2,0,B|362:253|362:253|338:303,1,93.5000028533936,10|0,0:2|0:2,0:0:0:0:
112,244,63227,2,0,B|91:201|91:201|101:156,1,93.5000028533936,2|0,3:2|3:2,0:0:0:0:
168,15,63492,1,10,0:2:0:0:
272,196,63624,6,0,L|166:191,1,93.5000028533936,2|0,3:2|0:2,0:0:0:0:
14,79,63888,2,0,L|120:74,1,93.5000028533936,2|8,0:2|0:2,0:0:0:0:
251,107,64152,1,2,0:2:0:0:
100,156,64285,1,2,3:2:0:0:
100,156,64417,1,0,3:0:0:0:
266,289,64549,2,0,L|272:178,1,93.5000028533936,10|0,0:2|0:2,0:0:0:0:
316,33,64813,6,0,B|385:12|385:12|465:56,1,140.25000428009,2|0,3:2|0:2,0:0:0:0:
475,74,65078,2,0,L|469:167,1,93.5000028533936,10|0,0:2|0:2,0:0:0:0:
352,338,65342,2,0,L|346:244,1,93.5000028533936,2|0,3:2|3:2,0:0:0:0:
340,120,65606,1,10,0:2:0:0:
266,289,65738,6,0,P|198:276|129:350,1,140.25000428009,2|0,3:2|0:2,0:0:0:0:
101,327,66003,2,0,P|120:268|102:221,1,93.5000028533936,2|8,3:2|0:2,0:0:0:0:
20,105,66267,1,2,0:2:0:0:
35,271,66399,1,2,3:2:0:0:
35,271,66531,1,0,3:2:0:0:
187,138,66663,2,0,B|139:133|139:133|94:159,1,93.5000028533936,10|0,0:2|0:2,0:0:0:0:
266,289,66928,6,0,B|321:284|321:284|346:263|346:263|420:258,1,140.25000428009,6|0,3:2|0:2,0:0:0:0:
398,259,67192,1,10,0:2:0:0:
286,109,67324,2,0,L|284:214,1,93.5000028533936,0|2,0:2|3:2,0:0:0:0:
378,345,67589,1,0,3:2:0:0:
463,212,67721,6,0,P|422:184|357:194,1,93.5000028533936,10|0,0:2|0:2,0:0:0:0:
266,289,67985,2,0,P|225:317|160:307,1,93.5000028533936,2|0,3:2|0:2,0:0:0:0:
44,223,68249,2,0,L|51:61,1,140.25000428009,10|0,0:2|0:2,0:0:0:0:
77,44,68514,6,0,B|127:36|127:36|181:71,1,101.999996887207,2|0,3:2|3:2,0:0:0:0:
284,202,68778,1,10,0:2:0:0:
313,0,68910,1,0,0:2:0:0:
481,191,69042,6,0,L|366:182,1,101.999996887207,6|0,3:2|0:2,0:0:0:0:
182,317,69307,2,0,L|297:308,1,101.999996887207,10|0,0:2|3:2,0:0:0:0:
463,323,69571,5,10,0:2:0:0:
284,202,69703,1,0,3:2:0:0:
423,115,69835,1,10,0:2:0:0:
218,241,69967,1,0,3:2:0:0:
352,361,70100,6,0,B|373:311|373:311|354:245,1,101.999996887207,10|2,0:2|3:2,0:0:0:0:
276,106,70364,2,0,B|262:151|262:151|283:201,1,101.999996887207,10|0,0:0|0:2,0:0:0:0:
501,237,70628,1,10,0:2:0:0:
392,16,70760,1,0,3:0:0:0:
348,145,70893,2,0,L|461:138,1,101.999996887207,8|8,0:2|0:2,0:0:0:0:
491,157,71091,1,0,0:0:0:0:
491,157,71157,6,0,P|507:209|489:259,1,85,4|0,3:2|0:2,0:0:0:0:
352,361,71421,2,0,P|336:309|354:259,1,85,10|0,0:2|0:2,0:0:0:0:
397,94,71686,1,0,3:2:0:0:
397,94,71818,1,0,3:2:0:0:
501,237,71950,2,0,L|396:232,1,85,10|0,0:2|0:2,0:0:0:0:
194,107,72214,6,0,P|235:95|275:105,1,85,0|0,3:2|0:2,0:0:0:0:
341,280,72478,2,0,P|300:291|259:281,1,85,10|0,0:2|0:2,0:0:0:0:
160,219,72743,1,0,3:2:0:0:
160,219,72875,1,0,3:2:0:0:
67,352,73007,2,0,L|60:249,1,85,10|0,0:2|0:2,0:0:0:0:
113,48,73271,6,0,L|107:132,1,85,0|0,3:2|0:2,0:0:0:0:
259,281,73536,2,0,B|266:237|266:237|245:184,1,85,10|0,0:2|0:2,0:0:0:0:
61,267,73800,1,0,3:2:0:0:
61,267,73932,1,0,3:2:0:0:
155,368,74064,2,0,L|257:362,1,85,10|0,0:2|0:2,0:0:0:0:
331,186,74329,6,0,P|282:184|246:202,1,85,0|0,3:2|0:2,0:0:0:0:
26,145,74593,2,0,P|75:147|111:129,1,85,10|0,0:2|0:2,0:0:0:0:
221,54,74857,1,0,3:2:0:0:
221,54,74989,1,0,3:2:0:0:
250,198,75122,2,0,L|244:307,1,85,10|0,0:2|0:2,0:0:0:0:
65,351,75386,6,0,L|60:266,1,85,0|0,3:2|0:2,0:0:0:0:
164,93,75650,2,0,B|174:135|174:135|154:191,1,85,10|0,0:2|0:2,0:0:0:0:
96,9,75915,1,0,3:2:0:0:
96,9,76047,1,0,3:2:0:0:
229,30,76179,2,0,L|332:20,1,85,10|0,0:2|0:2,0:0:0:0:
494,212,76443,6,0,P|435:225|393:197,1,85,0|0,3:2|0:2,0:0:0:0:
244,113,76708,2,0,L|251:222,1,85,10|0,0:2|0:2,0:0:0:0:
317,330,76972,1,0,3:2:0:0:
317,330,77104,1,0,3:2:0:0:
155,368,77236,2,0,L|160:283,1,85,10|0,0:2|0:2,0:0:0:0:
331,97,77501,6,0,L|336:181,1,85,0|0,3:2|0:2,0:0:0:0:
138,173,77765,2,0,L|142:89,1,85,10|0,0:2|0:2,0:0:0:0:
325,8,78029,1,0,3:2:0:0:
336,181,78161,1,0,3:2:0:0:
336,181,78293,1,8,0:2:0:0:
238,32,78426,6,0,B|228:75|228:75|247:123,1,85,2|0,3:2|0:2,0:0:0:0:
333,273,78690,1,0,3:2:0:0:
331,97,78822,1,8,0:2:0:0:
138,173,78954,1,10,0:2:0:0:
138,173,79020,1,10,0:2:0:0:
138,173,79086,1,10,3:2:0:0:
336,181,79219,1,10,0:2:0:0:
142,88,79351,1,10,3:2:0:0:
325,8,79483,1,14,3:2:0:0:
243,112,79615,5,2,0:2:0:0:
