osu file format v14

[General]
AudioFilename: life.mp3
AudioLeadIn: 0
PreviewTime: 83722
Countdown: 0
SampleSet: Soft
StackLeniency: 0.7
Mode: 0
LetterboxInBreaks: 0
EpilepsyWarning: 1
WidescreenStoryboard: 1

[Editor]
Bookmarks: 186573
DistanceSpacing: 0.7
BeatDivisor: 4
GridSize: 32
TimelineZoom: 2.4

[Metadata]
Title:Sendan Life
TitleUnicode:センダンライフ
Artist:Remo Prototype[CV: Hanamori Yumiri]
ArtistUnicode:リモ Prototype[CV:花守ゆみり]
Creator:Lami
Version:StarR's Extra
Source:ガラスの花と壊す世界
Tags:vocaloid Chukka やしきん yashikin Glass no Hana to Kowasu Sekai GARAKOWA Restore the World Vitreous Flower Destroy the World dailycare fuyuyu- mamayu kanau pho starrstyx intoon
BeatmapID:979547
BeatmapSetID:416153

[Difficulty]
HPDrainRate:6
CircleSize:4
OverallDifficulty:8.5
ApproachRate:9.5
SliderMultiplier:1.8
SliderTickRate:1

[Events]
//Background and Video events
0,0,"bg.jpg",0,0
//Break Periods
2,104042,109132
2,179637,186048
//Storyboard Layer 0 (Background)
//Storyboard Layer 1 (Fail)
//Storyboard Layer 2 (Pass)
//Storyboard Layer 3 (Foreground)
//Storyboard Sound Samples

[TimingPoints]
36706,264.31718061674,4,2,2,60,1,0
37763,-83.3333333333333,4,2,2,80,0,0
39613,-100,4,2,2,80,0,0
39877,-83.3333333333333,4,2,2,80,0,0
41463,-83.3333333333333,4,2,1,80,0,0
41992,-100,4,2,1,70,0,0
50714,-142.857142857143,4,2,1,70,0,0
58380,-83.3333333333333,4,2,1,70,0,0
58908,-100,4,2,1,70,0,0
67366,-142.857142857143,4,2,1,60,0,0
75692,-100,4,2,1,70,0,0
84283,-83.3333333333333,4,2,1,80,0,1
101199,-100,4,2,1,70,0,0
109657,-142.857142857143,4,2,1,70,0,0
116926,-100,4,2,1,70,0,0
126573,-142.857142857143,4,2,1,60,0,0
134899,-100,4,2,1,70,0,0
143490,-83.3333333333333,4,2,1,80,0,1
160406,-83.3333333333333,4,2,1,70,0,0
168864,-83.3333333333333,4,2,3,70,0,0
178115,-200,4,2,3,70,0,0
179437,-200,4,2,4,70,0,0
186573,-142.857142857143,4,2,1,60,0,0
196882,-100,4,2,1,70,0,0
197410,-83.3333333333333,4,2,1,80,0,1
214327,-90.9090909090909,4,2,1,70,0,0
222785,-83.3333333333333,4,2,1,80,0,1
231243,-83.3333333333333,4,2,1,70,0,0

[Colours]
Combo1 : 253,183,104
Combo2 : 70,163,255
Combo3 : 60,239,50
Combo4 : 255,85,170

[HitObjects]
372,94,37366,6,0,P|373:119|385:141,5,45,0|0|0|0|0|0,0:0|0:0|0:0|0:0|0:0|0:0,0:0:0:0:
447,205,37763,6,0,L|330:214,1,107.999996704102,8|0,0:0|0:0,0:0:0:0:
217,299,38027,2,0,L|109:307,1,107.999996704102,8|0,0:0|0:0,0:0:0:0:
229,171,38291,1,8,0:0:0:0:
274,358,38424,1,8,0:0:0:0:
149,221,38688,6,0,P|132:170|149:120,1,107.999996704102,8|0,0:0|0:0,0:0:0:0:
330,186,38952,2,0,P|346:236|329:286,1,107.999996704102,8|0,0:0|0:0,0:0:0:0:
233,127,39217,1,8,0:0:0:0:
233,127,39481,1,8,0:0:0:0:
198,303,39613,2,0,P|134:321|78:285,1,135,8|0,0:0|0:0,0:0:0:0:
71,255,39877,6,0,L|61:139,1,107.999996704102,8|0,0:0|0:0,0:0:0:0:
243,244,40142,2,0,L|252:351,1,107.999996704102,8|0,0:0|0:0,0:0:0:0:
154,196,40406,1,8,0:0:0:0:
333,204,40538,1,8,0:0:0:0:
198,117,40802,6,0,B|145:110|145:110|96:132,1,107.999996704102,8|0,0:0|0:0,0:0:0:0:
116,270,41067,2,0,B|168:276|168:276|217:254,1,107.999996704102,8|0,0:0|0:0,0:0:0:0:
310,112,41331,1,8,0:0:0:0:
433,191,41463,6,0,L|453:363,1,161.999995056153,8|0,0:0|0:0,0:0:0:0:
409,361,41728,2,0,L|396:250,1,107.999996704102
344,97,41992,5,6,0:0:0:0:
257,330,42124,1,0,0:0:0:0:
275,155,42256,1,8,0:0:0:0:
402,300,42388,1,0,0:0:0:0:
309,68,42520,2,0,P|266:63|222:79,1,90,2|2,0:0|0:0,0:0:0:0:
129,157,42785,2,0,L|134:246,1,90,8|0,0:0|0:0,0:0:0:0:
254,361,43049,6,0,L|248:271,1,90,2|0,0:0|0:0,0:0:0:0:
268,123,43313,1,8,0:0:0:0:
134,246,43446,1,0,0:0:0:0:
302,312,43578,2,0,B|348:320|348:320|391:306,1,90,2|2,0:0|0:0,0:0:0:0:
433,137,43842,1,8,0:0:0:0:
341,244,43974,1,0,0:0:0:0:
207,143,44106,6,0,L|118:147,1,90,2|0,0:0|0:0,0:0:0:0:
20,279,44371,2,0,P|70:283|112:254,1,90,8|0,0:0|0:0,0:0:0:0:
185,67,44635,1,2,0:0:0:0:
50,206,44767,1,2,0:0:0:0:
215,222,44899,1,8,0:0:0:0:
73,90,45031,1,0,0:0:0:0:
215,222,45164,6,0,P|263:223|307:193,1,90,2|0,0:0|0:0,0:0:0:0:
369,60,45428,2,0,L|458:55,1,90,8|0,0:0|0:0,0:0:0:0:
369,202,45692,1,2,0:0:0:0:
227,55,45824,1,2,0:0:0:0:
190,246,45957,1,8,0:0:0:0:
108,107,46089,1,0,0:0:0:0:
60,258,46221,6,0,L|54:353,1,90,2|0,0:0|0:0,0:0:0:0:
212,236,46485,1,8,0:0:0:0:
100,170,46617,1,0,0:0:0:0:
274,192,46750,2,0,P|287:236|273:282,1,90,2|2,0:0|0:0,0:0:0:0:
100,170,47014,2,0,P|55:159|23:124,1,90,8|0,0:0|0:0,0:0:0:0:
44,293,47278,5,2,0:0:0:0:
212,135,47410,1,0,0:0:0:0:
247,293,47543,1,8,0:0:0:0:
83,161,47675,1,0,0:0:0:0:
279,88,47807,2,0,P|292:130|274:190,1,90,2|2,0:0|0:0,0:0:0:0:
156,308,48071,2,0,P|143:266|161:206,1,90,8|0,0:0|0:0,0:0:0:0:
283,174,48335,5,2,0:0:0:0:
64,271,48468,1,0,0:0:0:0:
230,305,48600,1,8,0:0:0:0:
92,150,48732,1,0,0:0:0:0:
165,356,48864,5,2,0:0:0:0:
207,139,48996,1,2,0:0:0:0:
44,266,49128,1,8,0:0:0:0:
258,315,49261,6,0,P|341:327|412:258,1,180,6|2,0:0|0:0,0:0:0:0:
380,131,49657,1,8,0:0:0:0:
472,328,49789,1,0,3:0:0:0:
472,328,49855,1,0,3:0:0:0:
472,328,49921,1,4,3:0:0:0:
286,218,50054,1,0,1:0:0:0:
476,206,50186,1,8,0:0:0:0:
324,345,50318,1,0,1:0:0:0:
380,131,50450,1,6,0:0:0:0:
380,131,50714,6,0,L|378:61,1,62.9999980773926,8|2,0:0|0:0,0:0:0:0:
353,233,50979,1,0,0:0:0:0:
282,97,51111,2,0,L|280:27,2,62.9999980773926,2|8|0,0:0|0:0|0:0,0:0:0:0:
206,163,51507,2,0,P|157:145|79:175,1,125.999996154785,2|8,0:0|0:0,0:0:0:0:
37,242,51904,2,0,L|42:384,1,125.999996154785,2|2,0:0|0:0,0:0:0:0:
184,251,52300,1,8,0:0:0:0:
88,166,52432,1,0,0:0:0:0:
196,91,52565,6,0,L|192:25,1,62.9999980773926,2|0,0:0|0:0,0:0:0:0:
279,126,52829,2,0,L|282:191,1,62.9999980773926,8|2,0:0|0:0,0:0:0:0:
341,70,53093,2,0,L|337:4,1,62.9999980773926,0|2,0:0|0:0,0:0:0:0:
406,120,53357,2,0,L|411:208,1,62.9999980773926,8|0,0:0|0:0,0:0:0:0:
456,295,53622,6,0,P|397:308|335:279,1,125.999996154785,2|8,0:0|0:0,0:0:0:0:
285,183,54018,2,0,L|146:194,1,125.999996154785,2|2,0:0|0:0,0:0:0:0:
64,270,54415,1,8,0:0:0:0:
112,125,54547,1,0,0:0:0:0:
226,276,54679,1,2,0:0:0:0:
226,276,54943,6,0,L|309:270,1,62.9999980773926,8|2,0:0|0:0,0:0:0:0:
408,315,55208,2,0,P|439:323|468:313,1,62.9999980773926,0|2,0:0|0:0,0:0:0:0:
448,164,55472,2,0,P|401:174|376:216,1,94.499997116089,8|0,0:0|0:0,0:0:0:0:
366,240,55736,2,0,L|235:250,1,125.999996154785,2|8,0:0|0:0,0:0:0:0:
70,184,56133,2,0,P|124:155|184:170,1,125.999996154785,2|2,0:0|0:0,0:0:0:0:
305,211,56529,2,0,L|299:133,1,62.9999980773926,8|0,0:0|0:0,0:0:0:0:
306,311,56794,5,2,0:0:0:0:
306,311,56926,1,0,0:0:0:0:
306,311,57058,2,0,P|251:339|191:324,2,125.999996154785,8|0|8,0:0|0:0|0:0,0:0:0:0:
437,327,57719,1,0,0:0:0:0:
437,327,57851,2,0,P|460:266|438:210,1,125.999996154785,2|8,0:0|0:0,0:0:0:0:
306,311,58247,1,2,0:0:0:0:
185,241,58380,6,0,P|134:227|84:249,1,107.999996704102,8|2,0:0|0:0,0:0:0:0:
143,364,58644,2,0,P|194:377|244:356,1,107.999996704102,12|0,0:1|0:0,0:0:0:0:
349,206,58908,6,0,L|444:212,1,90,6|0,0:0|0:0,0:0:0:0:
306,311,59172,1,8,0:0:0:0:
258,109,59305,1,2,0:0:0:0:
129,227,59437,2,0,P|85:237|42:224,1,90,0|2,0:0|0:0,0:0:0:0:
171,106,59701,2,0,P|214:95|257:108,1,90,8|0,0:0|0:0,0:0:0:0:
304,294,59965,5,2,0:0:0:0:
211,176,60098,1,0,0:0:0:0:
183,349,60230,1,8,0:0:0:0:
387,289,60362,1,2,0:0:0:0:
286,157,60494,2,0,B|274:116|274:116|288:70,1,90,0|2,0:0|0:0,0:0:0:0:
432,215,60758,2,0,L|342:220,1,90,8|0,0:0|0:0,0:0:0:0:
199,298,61023,5,0,0:0:0:0:
199,298,61155,2,0,P|157:308|115:293,2,90,0|8|2,0:0|0:0|0:0,0:0:0:0:
260,179,61551,2,0,P|271:137|315:105,1,90,0|2,0:0|0:0,0:0:0:0:
274,364,61816,1,8,0:0:0:0:
388,255,61948,1,0,0:0:0:0:
260,179,62080,6,0,B|201:184|201:184|156:175|156:175|69:182,1,180,2|8,0:0|0:0,0:0:0:0:
220,95,62476,1,2,0:0:0:0:
79,263,62609,1,0,0:0:0:0:
122,102,62741,1,2,0:0:0:0:
260,253,62873,2,0,P|309:259|345:231,1,90,8|0,0:0|0:0,0:0:0:0:
434,166,63137,6,0,L|430:72,1,90,2|0,0:0|0:0,0:0:0:0:
508,245,63402,2,0,P|444:246|393:305,1,135,8|0,0:0|0:0,0:0:0:0:
390,325,63666,2,0,L|300:322,1,90,0|2,0:0|0:0,0:0:0:0:
183,203,63930,2,0,L|273:206,1,90,8|0,0:0|0:0,0:0:0:0:
151,314,64194,2,0,P|69:318|11:245,1,180,2|8,0:0|0:0,0:0:0:0:
104,229,64591,1,2,0:0:0:0:
111,140,64723,2,0,L|105:229,1,90,0|2,0:0|0:0,0:0:0:0:
234,133,64987,1,8,0:0:0:0:
228,44,65119,2,0,L|234:133,1,90,0|2,0:0|0:0,0:0:0:0:
221,312,65384,5,0,0:0:0:0:
221,312,65516,2,0,B|324:276|324:355|422:314,1,180,8|0,0:0|0:0,0:0:0:0:
370,228,65913,1,2,0:0:0:0:
273,381,66045,1,8,0:0:0:0:
467,285,66177,2,0,B|484:241|484:241|466:195,1,90,6|0,0:0|0:0,0:0:0:0:
222,228,66441,2,0,B|205:272|205:272|223:318,1,90,2|8,0:0|0:0,0:0:0:0:
318,176,66705,1,0,0:0:0:0:
113,180,66838,1,4,1:3:0:0:
295,282,66970,1,8,0:0:0:0:
221,92,67102,1,2,0:0:0:0:
140,308,67234,1,0,1:0:0:0:
295,282,67366,6,0,P|356:269|421:289,1,125.999996154785,6|0,0:0|0:0,0:0:0:0:
494,177,67763,1,8,0:0:0:0:
494,177,67895,2,0,P|433:190|368:170,1,125.999996154785,0|2,0:0|0:0,0:0:0:0:
296,59,68291,2,0,L|158:64,1,125.999996154785,0|2,0:0|0:0,0:0:0:0:
72,216,68688,5,0,0:0:0:0:
72,216,68952,2,0,P|128:232|191:196,1,125.999996154785,8|2,0:0|0:0,0:0:0:0:
286,285,69349,1,0,0:0:0:0:
286,285,69481,2,0,L|424:290,1,125.999996154785,2|0,0:0|0:0,0:0:0:0:
350,174,69877,1,8,0:0:0:0:
195,328,70142,1,0,0:0:0:0:
195,328,70274,6,0,L|184:186,1,125.999996154785,2|0,0:0|0:0,0:0:0:0:
237,64,70670,1,2,0:0:0:0:
237,64,70802,2,0,P|244:94|240:125,1,62.9999980773926,0|0,0:0|0:0,0:0:0:0:
119,238,71067,2,0,P|111:207|115:176,1,62.9999980773926,8|0,0:0|0:0,0:0:0:0:
281,228,71331,2,0,P|296:271|278:321,1,94.499997116089,2|0,0:0|0:0,0:0:0:0:
265,344,71595,6,0,L|415:339,1,125.999996154785,2|0,0:0|0:0,0:0:0:0:
281,228,71992,1,8,0:0:0:0:
172,306,72124,2,0,P|141:313|109:305,1,62.9999980773926,0|0,0:0|0:0,0:0:0:0:
53,192,72388,2,0,P|96:174|141:186,1,94.499997116089,2|0,0:0|0:0,0:0:0:0:
170,199,72653,6,0,L|179:65,1,125.999996154785,2|0,0:0|0:0,0:0:0:0:
281,228,73049,1,2,1:3:0:0:
281,228,73181,2,0,P|316:237|354:222,1,62.9999980773926,2|0,0:0|0:0,0:0:0:0:
458,226,73446,2,0,P|475:276|459:321,1,94.499997116089,2|0,0:0|0:0,0:0:0:0:
445,341,73710,6,0,L|308:345,1,125.999996154785,2|0,0:0|0:0,0:0:0:0:
247,205,74106,1,8,0:0:0:0:
135,308,74239,2,0,P|124:334|132:374,1,62.9999980773926,0|0,0:0|0:0,0:0:0:0:
82,231,74503,2,0,P|59:248|46:286,1,62.9999980773926,2|0,0:0|0:0,0:0:0:0:
104,147,74767,5,0,0:0:0:0:
104,147,74899,1,0,0:0:0:0:
265,215,75296,2,0,L|344:208,1,62.9999980773926,8|2,0:0|0:0,0:0:0:0:
290,96,75560,1,8,0:0:0:0:
229,315,75692,6,0,P|144:335|62:274,1,180,6|2,0:0|0:0,0:0:0:0:
105,116,76089,1,8,0:0:0:0:
234,239,76221,1,0,0:0:0:0:
69,287,76353,1,2,0:0:0:0:
228,154,76485,1,2,0:0:0:0:
113,30,76617,2,0,B|96:72|96:72|105:117,1,90,8|0,0:0|0:0,0:0:0:0:
144,244,76882,6,0,L|251:237,1,90,2|0,0:0|0:0,0:0:0:0:
296,118,77146,1,8,0:0:0:0:
195,281,77278,2,0,L|105:286,2,90,0|2|2,0:0|0:0|0:0,0:0:0:0:
296,373,77675,1,8,0:0:0:0:
413,218,77807,6,0,B|436:190|436:190|470:265|426:332,1,180,6|2,0:0|0:0,0:0:0:0:
309,195,78203,1,8,0:0:0:0:
185,325,78335,1,0,0:0:0:0:
277,110,78468,1,2,0:0:0:0:
366,279,78600,1,2,0:0:0:0:
206,214,78732,2,0,B|165:204|165:204|118:218,1,90,8|0,0:0|0:0,0:0:0:0:
41,329,78996,6,0,L|220:324,1,180,6|8,0:0|0:0,0:0:0:0:
122,130,79393,2,0,B|108:175|108:175|118:216,1,90,0|2,0:0|0:0,0:0:0:0:
270,169,79657,2,0,B|280:128|280:128|266:82,1,90,2|8,0:0|0:0,0:0:0:0:
168,290,79921,6,0,L|349:285,1,180,6|2,0:0|0:0,0:0:0:0:
268,363,80318,1,8,0:0:0:0:
359,186,80450,1,0,0:0:0:0:
439,330,80582,1,2,0:0:0:0:
268,207,80714,1,2,0:0:0:0:
429,148,80846,2,0,P|438:195|417:243,1,90,8|0,0:0|0:0,0:0:0:0:
268,207,81111,6,0,L|260:112,1,90,2|0,0:0|0:0,0:0:0:0:
134,272,81375,1,8,0:0:0:0:
134,272,81507,2,0,L|142:177,1,90,0|2,0:0|0:0,0:0:0:0:
50,298,81772,1,2,0:0:0:0:
232,264,81904,1,8,0:0:0:0:
143,149,82036,1,2,0:0:0:0:
141,354,82168,6,0,L|245:349,1,90,12|0,0:0|0:0,0:0:0:0:
309,143,82432,2,0,L|219:147,1,90,8|0,0:0|0:0,0:0:0:0:
69,276,82697,2,0,L|173:271,1,90,8|2,0:0|0:0,0:0:0:0:
316,242,82961,1,8,0:0:0:0:
316,242,83093,6,0,P|405:240|449:169,1,180,6|2,0:0|0:0,0:0:0:0:
482,313,83490,1,8,0:0:0:0:
358,159,83622,1,0,3:0:0:0:
358,159,83688,1,0,3:0:0:0:
358,159,83754,1,2,3:2:0:0:
289,315,83886,1,8,0:0:0:0:
437,243,84018,1,2,1:2:0:0:
280,146,84150,1,8,0:0:0:0:
179,298,84283,6,0,L|70:282,1,107.999996704102,6|0,0:0|0:0,0:0:0:0:
173,130,84547,2,0,L|279:145,1,107.999996704102,8|0,0:0|0:0,0:0:0:0:
182,216,84811,1,2,0:0:0:0:
305,43,84943,1,2,0:0:0:0:
315,217,85076,1,8,0:0:0:0:
126,68,85208,6,0,P|99:116|107:173,1,107.999996704102,0|2,0:0|0:0,0:0:0:0:
294,316,85472,2,0,P|320:268|312:211,1,107.999996704102,0|8,0:0|0:0,0:0:0:0:
201,318,85736,1,0,0:0:0:0:
400,243,85868,2,0,P|399:187|363:142,1,107.999996704102,2|2,0:0|0:0,0:0:0:0:
227,98,86133,2,0,L|233:217,1,107.999996704102,8|0,0:0|0:0,0:0:0:0:
232,356,86397,5,2,0:0:0:0:
155,228,86529,1,0,0:0:0:0:
304,260,86661,2,0,B|320:205|320:205|304:155,1,107.999996704102,8|0,0:0|0:0,0:0:0:0:
155,124,86926,2,0,B|139:179|139:179|155:228,1,107.999996704102,2|2,0:0|0:0,0:0:0:0:
267,88,87190,1,8,0:0:0:0:
253,325,87322,6,0,B|303:342|303:342|413:315|413:315|468:337,1,215.999993408203,6|2,0:0|0:0,0:0:0:0:
417,144,87719,1,8,0:0:0:0:
304,265,87851,1,0,0:0:0:0:
267,87,87983,2,0,P|316:69|369:77,1,107.999996704102,2|2,0:0|0:0,0:0:0:0:
408,256,88247,2,0,P|358:274|305:266,1,107.999996704102,8|0,0:0|0:0,0:0:0:0:
214,138,88512,6,0,L|223:29,1,107.999996704102,6|0,0:0|0:0,0:0:0:0:
110,250,88776,2,0,L|101:141,1,107.999996704102,8|0,0:0|0:0,0:0:0:0:
208,243,89040,1,2,0:0:0:0:
28,184,89172,1,2,0:0:0:0:
149,69,89305,1,8,0:0:0:0:
14,198,89437,1,0,0:0:0:0:
173,351,89569,6,0,B|219:367|271:339|271:339|291:348|291:348|335:324|382:345,1,215.999993408203,2|8,0:0|0:0,0:0:0:0:
307,135,89965,2,0,B|260:119|209:147|209:147|189:138|189:138|145:162|98:141,1,215.999993408203,0|2,0:0|0:0,0:0:0:0:
256,315,90362,2,0,P|277:266|270:214,1,107.999996704102,8|0,0:0|0:0,0:0:0:0:
208,67,90626,1,2,0:0:0:0:
372,180,90758,1,0,0:0:0:0:
195,255,90891,6,0,B|28:277|28:277|66:250,1,215.999993408203,12|2,0:0|0:0,0:0:0:0:
213,142,91287,1,2,0:0:0:0:
262,333,91419,1,8,0:0:0:0:
397,240,91551,6,0,B|446:162|401:82|401:82|378:131,1,215.999993408203,6|2,0:0|0:0,0:0:0:0:
477,297,91948,1,8,0:0:0:0:
275,276,92080,1,8,0:0:0:0:
466,177,92212,1,2,1:2:0:0:
358,371,92344,1,2,1:2:0:0:
358,371,92410,1,0,0:0:0:0:
358,371,92476,1,8,1:2:0:0:
313,171,92609,1,8,0:0:0:0:
158,282,92741,6,0,P|105:278|64:236,1,107.999996704102,6|0,0:0|0:0,0:0:0:0:
244,87,93005,1,8,0:0:0:0:
138,204,93137,1,0,0:0:0:0:
318,278,93269,2,0,B|312:164,1,107.999996704102,2|2,0:0|0:0,0:0:0:0:
221,314,93534,1,8,0:0:0:0:
401,351,93666,6,0,B|420:301|420:301|408:245,1,107.999996704102,0|2,0:0|0:0,0:0:0:0:
316,77,93930,2,0,B|297:127|297:127|308:182,1,107.999996704102,0|8,0:0|0:0,0:0:0:0:
444,68,94194,1,0,0:0:0:0:
232,83,94327,2,0,L|110:76,1,107.999996704102,2|2,0:0|0:0,0:0:0:0:
66,242,94591,2,0,L|173:248,1,107.999996704102,8|0,0:0|0:0,0:0:0:0:
335,253,94855,6,0,P|347:305|326:354,1,107.999996704102,2|0,0:0|0:0,0:0:0:0:
249,193,95120,1,8,0:0:0:0:
429,256,95252,1,0,0:0:0:0:
337,113,95384,2,0,P|324:61|346:12,1,107.999996704102,2|2,0:0|0:0,0:0:0:0:
464,180,95648,1,8,0:0:0:0:
391,347,95780,6,0,P|332:259|387:167,1,215.999993408203,6|2,0:0|0:0,0:0:0:0:
175,289,96177,1,8,0:0:0:0:
271,95,96309,1,0,0:0:0:0:
335,282,96441,1,2,0:0:0:0:
156,144,96573,1,2,0:0:0:0:
74,296,96705,2,0,P|124:309|178:286,1,107.999996704102,8|0,0:0|0:0,0:0:0:0:
333,204,96970,6,0,P|382:217|411:276,2,107.999996704102,6|0|8,0:0|0:0|0:0,0:0:0:0:
160,154,97366,2,0,P|146:105|183:50,2,107.999996704102,0|2|2,0:0|0:0|0:0,0:0:0:0:
280,349,97763,6,0,L|299:134,1,215.999993408203,8|2,0:0|0:0,0:0:0:0:
174,288,98159,1,0,0:0:0:0:
389,234,98291,1,8,0:0:0:0:
228,113,98424,1,0,0:0:0:0:
404,237,98556,1,2,0:0:0:0:
176,276,98688,1,2,0:0:0:0:
457,296,98820,2,0,P|480:249|459:181,1,107.999996704102,8|0,0:0|0:0,0:0:0:0:
368,42,99084,6,0,L|359:158,1,107.999996704102,6|0,0:0|0:0,0:0:0:0:
175,275,99349,2,0,L|167:168,1,107.999996704102,8|2,0:0|0:0,0:0:0:0:
381,241,99613,6,0,B|396:291|396:291|376:343,1,107.999996704102,8|2,0:0|0:0,0:0:0:0:
265,137,99877,2,0,B|250:87|250:87|270:35,1,107.999996704102,8|2,0:0|0:0,0:0:0:0:
299,339,100142,6,0,L|185:347,1,107.999996704102,8|2,0:0|0:0,0:0:0:0:
194,166,100406,2,0,L|87:174,1,107.999996704102,8|6,0:0|0:0,0:0:0:0:
365,194,100670,5,0,1:0:0:0:
234,268,100802,1,2,1:2:0:0:
187,71,100935,1,8,1:2:0:0:
330,94,101067,1,8,1:2:0:0:
136,260,101199,5,6,0:0:0:0:
256,192,101265,12,0,103842,2:0:0:0:
146,313,109657,5,4,0:0:0:0:
380,119,110714,5,2,1:2:0:0:
380,132,111111,1,2,1:2:0:0:
380,146,111507,2,0,B|397:204|397:204|376:275,1,125.999996154785,2|4,1:2|0:0,0:0:0:0:
104,193,112697,5,2,0:0:0:0:
104,193,112763,1,2,0:0:0:0:
104,193,112829,2,0,L|180:190,2,62.9999980773926,0|0|2,1:0|1:0|0:0,0:0:0:0:
228,125,113225,2,0,P|250:184|236:244,1,125.999996154785,2|2,1:2|0:0,0:0:0:0:
203,346,113622,1,8,0:0:0:0:
317,255,113754,1,0,0:0:0:0:
155,117,113886,5,6,0:0:0:0:
155,117,114150,2,0,P|104:82|44:95,2,125.999996154785,0|2|0,0:0|0:3|0:0,0:0:0:0:
236,224,114943,2,0,L|374:218,2,125.999996154785,2|0|2,0:0|0:0|0:3,0:0:0:0:
167,336,115736,1,0,0:0:0:0:
62,196,116001,6,0,P|118:167|192:183,1,125.999996154785,2|0,0:0|0:0,0:0:0:0:
287,304,116529,2,0,P|343:333|417:317,1,125.999996154785,2|0,0:3|0:0,0:0:0:0:
489,239,116926,5,12,1:2:0:0:
290,183,117587,1,8,3:2:0:0:
290,183,117653,1,0,3:0:0:0:
290,183,117719,1,2,3:2:0:0:
405,285,117851,2,0,B|427:217|427:217|407:153,1,135,0|0,0:0|2:0,0:0:0:0:
358,63,118115,6,0,L|264:71,1,90,6|0,0:0|0:0,0:0:0:0:
120,164,118380,1,8,0:0:0:0:
173,27,118512,1,2,0:0:0:0:
247,213,118644,2,0,P|257:256|238:311,1,90,2|0,0:0|0:0,0:0:0:0:
53,206,118908,2,0,P|43:163|62:108,1,90,8|0,0:0|0:0,0:0:0:0:
149,313,119172,6,0,L|56:322,2,90,2|0|8,0:0|0:0|0:0,0:0:0:0:
214,159,119569,1,2,0:0:0:0:
328,299,119701,1,0,0:0:0:0:
216,75,119833,1,2,0:0:0:0:
104,238,119965,1,8,0:0:0:0:
333,270,120098,6,0,L|344:181,1,90,0|2,0:0|0:0,0:0:0:0:
285,68,120362,1,0,0:0:0:0:
161,140,120494,2,0,P|113:146|73:117,1,90,8|2,0:0|0:0,0:0:0:0:
169,262,120758,2,0,P|184:298|168:350,1,90,0|2,0:0|0:0,0:0:0:0:
86,232,121023,2,0,L|187:226,1,90,8|0,0:0|0:0,0:0:0:0:
289,290,121287,6,0,P|375:300|442:243,1,180,2|8,0:0|0:0,0:0:0:0:
339,166,121683,1,2,0:0:0:0:
289,374,121816,1,0,0:0:0:0:
203,224,121948,1,2,0:0:0:0:
384,297,122080,1,8,0:0:0:0:
192,369,122212,1,0,0:0:0:0:
339,166,122344,6,0,P|384:153|440:173,1,90,2|0,0:0|0:0,0:0:0:0:
384,297,122609,2,0,P|339:310|283:289,1,90,8|2,0:0|0:0,0:0:0:0:
203,224,122873,2,0,L|210:128,1,90,0|2,0:0|0:0,0:0:0:0:
92,182,123137,2,0,L|85:271,1,90,8|0,0:0|0:0,0:0:0:0:
59,95,123402,5,2,0:0:0:0:
203,224,123534,1,0,0:0:0:0:
16,314,123666,1,8,0:0:0:0:
193,359,123798,2,0,P|279:359|333:291,1,180,2|2,0:0|0:0,0:0:0:0:
310,118,124194,1,8,0:0:0:0:
240,276,124327,1,0,0:0:0:0:
430,341,124459,6,0,P|443:298|436:254,1,90,2|0,0:0|0:0,0:0:0:0:
310,118,124723,2,0,P|296:160|303:204,1,90,8|2,0:0|0:0,0:0:0:0:
419,170,124987,1,0,0:0:0:0:
307,327,125120,2,0,L|208:321,1,90,2|8,0:0|0:0,0:0:0:0:
60,243,125384,6,0,P|148:244|193:173,1,180,6|2,0:0|0:0,0:0:0:0:
139,336,125780,1,8,0:0:0:0:
106,170,125913,1,0,0:0:0:0:
287,90,126045,2,0,B|300:135|300:135|287:186,1,90,4|8,1:3|0:0,0:0:0:0:
139,336,126309,2,0,B|126:291|126:291|139:240,1,90,2|0,0:0|1:0,0:0:0:0:
271,288,126573,6,0,B|409:292,1,125.999996154785,6|2,0:0|0:0,0:0:0:0:
335,172,126970,1,0,0:0:0:0:
335,172,127102,2,0,B|473:176,1,125.999996154785,8|0,0:0|0:0,0:0:0:0:
339,50,127499,1,0,0:0:0:0:
256,197,127631,2,0,L|176:194,1,62.9999980773926,0|0,0:0|0:0,0:0:0:0:
183,92,127895,2,0,L|103:89,1,62.9999980773926,2|0,0:0|0:0,0:0:0:0:
27,128,128159,2,0,P|0:180|20:248,1,125.999996154785,8|0,0:0|0:0,0:0:0:0:
146,233,128556,1,0,0:0:0:0:
146,233,128688,6,0,L|157:149,1,62.9999980773926,2|0,0:0|0:0,0:0:0:0:
247,259,128952,2,0,L|258:175,1,62.9999980773926,2|0,0:0|0:0,0:0:0:0:
385,178,129217,2,0,P|396:234|368:301,1,125.999996154785,8|0,0:0|0:0,0:0:0:0:
264,343,129613,1,0,0:0:0:0:
264,343,129745,2,0,L|133:339,1,125.999996154785,0|2,0:0|0:0,0:0:0:0:
87,251,130142,1,0,0:0:0:0:
87,251,130274,2,0,P|115:238|163:243,1,62.9999980773926,8|0,0:0|0:0,0:0:0:0:
146,138,130538,2,0,P|176:140|215:169,1,62.9999980773926,0|0,0:0|0:0,0:0:0:0:
323,212,130802,6,0,B|335:74,1,125.999996154785,2|2,0:0|0:0,0:0:0:0:
469,143,131199,1,0,0:0:0:0:
469,143,131331,2,0,P|477:181|462:220,1,62.9999980773926,8|0,0:0|0:0,0:0:0:0:
408,275,131595,2,0,P|366:279|335:322,1,94.499997116089,0|0,0:0|0:0,0:0:0:0:
330,353,131860,6,0,L|199:359,1,125.999996154785,2|2,0:0|0:0,0:0:0:0:
64,363,132256,1,0,0:0:0:0:
64,363,132388,2,0,P|56:335|67:297,1,62.9999980773926,8|0,0:0|0:0,0:0:0:0:
194,239,132653,2,0,P|208:196|193:144,1,94.499997116089,0|0,0:0|0:0,0:0:0:0:
75,77,132917,6,0,L|214:68,2,125.999996154785,2|2|8,0:0|0:0|0:0,0:0:0:0:
75,77,133710,1,0,0:0:0:0:
22,266,133974,2,0,P|82:278|145:248,1,125.999996154785,2|2,0:0|0:0,0:0:0:0:
238,147,134371,1,0,0:0:0:0:
238,147,134437,1,0,0:0:0:0:
238,147,134503,2,0,L|318:156,1,62.9999980773926,8|2,0:0|0:0,0:0:0:0:
418,167,134767,1,8,0:0:0:0:
410,330,134899,6,0,P|446:249|418:167,1,180,6|2,0:0|0:0,0:0:0:0:
252,152,135296,2,0,L|258:242,1,90,8|0,0:0|0:0,0:0:0:0:
247,40,135560,1,2,0:0:0:0:
354,222,135692,1,2,0:0:0:0:
136,159,135824,1,8,0:0:0:0:
339,116,135957,1,0,0:0:0:0:
132,243,136089,6,0,B|119:198|119:198|141:144,1,90,2|2,0:0|0:0,0:0:0:0:
173,43,136353,1,8,0:0:0:0:
89,268,136485,2,0,B|76:223|76:223|98:169,1,90,0|2,0:0|0:0,0:0:0:0:
207,318,136750,1,2,0:0:0:0:
66,372,136882,1,8,0:0:0:0:
217,323,137014,6,0,P|299:297|396:314,1,180,6|2,0:0|0:0,0:0:0:0:
478,196,137410,2,0,P|432:199|383:179,1,90,8|0,0:0|0:0,0:0:0:0:
250,101,137675,1,2,0:0:0:0:
437,50,137807,1,2,0:0:0:0:
221,184,137939,1,8,0:0:0:0:
390,311,138071,1,0,0:0:0:0:
221,184,138203,6,0,B|79:197|79:197|118:216,1,180,6|8,0:0|0:0,0:0:0:0:
327,262,138600,1,0,0:0:0:0:
327,262,138732,1,2,0:0:0:0:
213,87,138864,1,2,0:0:0:0:
95,321,138996,1,8,0:0:0:0:
95,321,139128,6,0,L|243:308,1,135,6|0,0:0|0:0,0:0:0:0:
257,307,139393,2,0,B|242:266|242:266|256:215,1,90,0|2,0:0|0:0,0:0:0:0:
401,218,139657,1,0,0:0:0:0:
401,218,139789,2,0,B|416:259|416:259|402:310,1,90,8|0,0:0|1:0,0:0:0:0:
469,119,140054,1,8,0:0:0:0:
327,128,140186,1,2,0:0:0:0:
327,128,140318,6,0,L|238:135,1,90,0|0,0:0|0:0,0:0:0:0:
157,39,140582,1,6,0:0:0:0:
75,222,140714,2,0,L|179:214,1,90,0|8,0:0|0:0,0:0:0:0:
403,190,140979,1,0,0:0:0:0:
403,190,141111,2,0,P|419:149|396:105,1,90,8|2,0:0|0:0,0:0:0:0:
240,206,141375,6,0,B|229:247|229:247|247:305,1,90,12|0,0:0|0:0,0:0:0:0:
436,348,141639,2,0,B|447:307|447:307|429:249,1,90,8|0,0:0|0:0,0:0:0:0:
297,146,141904,2,0,B|259:125|259:125|199:128,1,90,8|2,0:0|0:0,0:0:0:0:
106,331,142168,2,0,B|143:351|143:351|203:348,1,90,8|2,0:0|0:0,0:0:0:0:
369,218,142433,6,0,L|383:122,1,90,8|0,0:0|0:0,0:0:0:0:
167,75,142697,2,0,L|155:165,1,90,4|0,1:3|3:0,0:0:0:0:
155,165,142895,1,0,3:0:0:0:
155,165,142961,1,2,3:2:0:0:
299,118,143093,1,0,1:0:0:0:
80,240,143225,1,8,0:0:0:0:
291,315,143357,1,0,1:0:0:0:
75,344,143490,6,0,P|64:295|84:236,1,107.999996704102,6|0,0:0|0:0,0:0:0:0:
297,212,143754,2,0,P|308:261|288:320,1,107.999996704102,8|0,0:0|0:0,0:0:0:0:
197,135,144018,1,2,0:0:0:0:
292,316,144150,1,2,0:0:0:0:
413,184,144283,1,8,0:0:0:0:
197,135,144415,1,0,0:0:0:0:
197,135,144547,6,0,L|80:149,1,107.999996704102,2|0,0:0|0:0,0:0:0:0:
223,363,144811,2,0,L|340:349,1,107.999996704102,8|0,0:0|0:0,0:0:0:0:
387,173,145076,1,2,0:0:0:0:
177,260,145208,1,2,0:0:0:0:
275,88,145340,1,8,0:0:0:0:
335,276,145472,1,0,0:0:0:0:
117,316,145604,6,0,P|99:263|116:207,1,107.999996704102,2|0,0:0|0:0,0:0:0:0:
329,174,145868,2,0,P|347:227|330:283,1,107.999996704102,8|0,0:0|0:0,0:0:0:0:
204,119,146133,1,2,0:0:0:0:
422,204,146265,1,2,0:0:0:0:
248,318,146397,1,8,0:0:0:0:
204,119,146529,6,0,P|103:64|15:110,1,215.999993408203,6|2,0:0|0:0,0:0:0:0:
109,235,146926,2,0,L|231:226,1,107.999996704102,8|0,0:0|0:0,0:0:0:0:
417,216,147190,1,2,0:0:0:0:
303,51,147322,1,2,0:0:0:0:
303,51,147454,2,0,L|295:176,1,107.999996704102,8|0,0:0|0:0,0:0:0:0:
283,344,147719,6,0,P|224:355|173:332,1,107.999996704102,6|0,0:0|0:0,0:0:0:0:
113,133,147983,1,8,0:0:0:0:
39,303,148115,1,0,0:0:0:0:
237,263,148247,2,0,P|251:214|239:156,1,107.999996704102,2|2,0:0|0:0,0:0:0:0:
48,77,148512,2,0,P|34:126|46:184,1,107.999996704102,8|0,0:0|0:0,0:0:0:0:
240,158,148776,6,0,B|318:151|318:151|367:165|367:165|465:157,1,215.999993408203,2|8,0:0|0:0,0:0:0:0:
314,345,149172,1,0,0:0:0:0:
314,345,149305,2,0,P|300:297|311:234,1,107.999996704102,0|2,0:0|0:0,0:0:0:0:
186,318,149568,1,8,0:0:0:0:
368,166,149700,1,0,0:0:0:0:
183,57,149833,2,0,L|172:167,1,107.999996704102,2|0,0:0|0:0,0:0:0:0:
84,324,150098,6,0,B|134:344|176:315|176:315|202:323|202:323|240:297|293:307,1,215.999993408203,12|2,0:0|0:0,0:0:0:0:
406,286,150494,1,2,0:0:0:0:
263,109,150626,1,8,0:0:0:0:
124,252,150758,6,0,P|71:163|114:64,1,215.999993408203,6|2,0:0|0:0,0:0:0:0:
347,79,151155,1,8,0:0:0:0:
165,153,151287,1,8,0:0:0:0:
364,294,151419,1,2,1:2:0:0:
214,354,151551,1,2,1:2:0:0:
214,354,151683,2,0,P|199:305|217:253,1,107.999996704102,8|8,0:0|1:2,0:0:0:0:
343,181,151948,6,0,L|454:173,1,107.999996704102,6|0,0:0|0:0,0:0:0:0:
269,67,152212,1,8,0:0:0:0:
201,273,152344,1,0,0:0:0:0:
122,123,152476,2,0,L|14:115,1,107.999996704102,2|2,0:0|0:0,0:0:0:0:
101,285,152741,2,0,P|149:296|208:265,1,107.999996704102,8|0,0:0|0:0,0:0:0:0:
316,92,153005,5,2,0:0:0:0:
143,217,153137,1,0,0:0:0:0:
376,210,153269,1,8,0:0:0:0:
191,62,153402,1,0,0:0:0:0:
392,27,153534,2,0,B|409:62|409:62|393:137,1,107.999996704102,2|2,0:0|0:0,0:0:0:0:
242,279,153798,2,0,B|225:244|225:244|241:168,1,107.999996704102,8|0,0:0|0:0,0:0:0:0:
260,27,154062,5,2,0:0:0:0:
376,210,154194,1,0,0:0:0:0:
145,193,154327,2,0,P|92:183|35:204,1,107.999996704102,8|0,0:0|0:0,0:0:0:0:
79,345,154591,2,0,P|132:354|189:333,1,107.999996704102,2|2,0:0|0:0,0:0:0:0:
239,176,154855,1,8,0:0:0:0:
386,323,154987,6,0,P|449:243|418:137,1,215.999993408203,6|2,0:0|0:0,0:0:0:0:
176,232,155384,1,8,0:0:0:0:
358,223,155516,1,0,0:0:0:0:
227,84,155648,1,2,0:0:0:0:
227,84,155780,1,2,0:0:0:0:
108,293,155913,2,0,P|53:307|4:286,1,107.999996704102,8|0,0:0|0:0,0:0:0:0:
115,82,156177,6,0,L|103:190,2,107.999996704102,6|0|8,0:0|0:0|0:0,0:0:0:0:
269,290,156573,2,0,L|256:182,2,107.999996704102,0|2|2,0:0|0:0|0:0,0:0:0:0:
374,160,156970,1,8,0:0:0:0:
181,119,157102,1,0,0:0:0:0:
226,355,157234,6,0,P|270:368|330:337,1,107.999996704102,2|0,0:0|0:0,0:0:0:0:
374,160,157498,2,0,P|329:147|269:178,1,107.999996704102,8|0,0:0|0:0,0:0:0:0:
109,245,157763,2,0,L|101:132,1,107.999996704102,2|2,0:0|0:0,0:0:0:0:
332,227,158027,2,0,L|343:65,1,161.999995056153,8|0,0:0|0:0,0:0:0:0:
342,65,158291,6,0,B|293:77|293:77|227:53,1,107.999996704102,6|0,0:0|0:0,0:0:0:0:
106,192,158556,2,0,B|155:180|155:180|221:204,1,107.999996704102,8|2,0:0|0:0,0:0:0:0:
407,283,158820,6,0,P|425:232|412:180,1,107.999996704102,8|2,0:0|0:0,0:0:0:0:
209,199,159084,2,0,P|191:249|204:302,1,107.999996704102,8|2,0:0|0:0,0:0:0:0:
287,119,159349,6,0,L|173:104,1,107.999996704102,8|2,0:0|0:0,0:0:0:0:
96,286,159613,2,0,L|210:301,1,107.999996704102,8|6,0:0|0:0,0:0:0:0:
405,329,159877,5,0,1:0:0:0:
287,119,160009,1,2,1:2:0:0:
203,300,160142,1,8,1:2:0:0:
406,212,160274,1,8,1:2:0:0:
222,64,160406,6,0,P|203:119|218:169,2,107.999996704102,6|0|8,0:0|0:0|0:0,0:0:0:0:
325,197,160802,2,0,B|150:214|150:214|197:241,1,215.999993408203,2|2,0:0|0:0,0:0:0:0:
405,329,161199,2,0,P|425:278|403:226,1,107.999996704102,8|0,0:0|0:0,0:0:0:0:
284,94,161463,5,2,0:0:0:0:
283,277,161595,1,0,0:0:0:0:
414,159,161728,1,8,0:0:0:0:
210,50,161860,2,0,P|93:31|16:90,1,215.999993408203,2|2,0:0|0:0,0:0:0:0:
136,207,162256,2,0,L|250:199,1,107.999996704102,8|0,0:0|0:0,0:0:0:0:
421,185,162520,6,0,P|439:135|418:85,1,107.999996704102,2|0,0:0|0:0,0:0:0:0:
241,114,162785,1,8,0:0:0:0:
241,114,162917,2,0,L|249:353,1,215.999993408203,2|2,0:0|0:0,0:0:0:0:
369,223,163313,1,8,0:0:0:0:
125,167,163446,1,0,0:0:0:0:
125,167,163578,6,0,B|106:132|106:132|133:55,1,107.999996704102,2|0,0:0|0:0,0:0:0:0:
244,218,163842,1,8,0:0:0:0:
244,218,163974,2,0,B|174:202|174:202|130:216|130:216|20:190,1,215.999993408203,2|2,0:0|0:0,0:0:0:0:
221,77,164371,1,8,0:0:0:0:
258,317,164503,1,8,0:0:0:0:
370,183,164635,6,0,P|421:167|476:186,2,107.999996704102,2|0|8,0:0|0:0|0:0,0:0:0:0:
179,285,165031,2,0,P|133:190|184:100,1,215.999993408203,2|2,0:0|0:0,0:0:0:0:
390,124,165428,1,8,0:0:0:0:
237,194,165560,1,0,0:0:0:0:
407,307,165692,6,0,P|425:255|412:195,2,107.999996704102,2|0|8,0:0|0:0|0:0,0:0:0:0:
308,147,166089,2,0,L|89:157,1,215.999993408203,2|2,0:0|0:0,0:0:0:0:
217,43,166485,1,8,0:0:0:0:
181,266,166617,1,0,0:0:0:0:
385,188,166750,6,0,B|398:150|398:150|384:78,1,107.999996704102,2|0,0:0|0:0,0:0:0:0:
250,224,167014,1,8,0:0:0:0:
106,104,167146,2,0,B|74:248|74:248|117:313,1,215.999993408203,2|2,0:0|0:0,0:0:0:0:
320,280,167543,2,0,P|336:229|321:168,1,107.999996704102,8|0,0:0|0:0,0:0:0:0:
228,86,167807,5,2,0:0:0:0:
404,246,167939,1,0,0:0:0:0:
235,356,168071,1,8,0:0:0:0:
65,198,168203,2,0,P|162:173|270:215,1,215.999993408203,2|2,0:0|0:0,0:0:0:0:
434,151,168600,1,8,0:0:0:0:
434,151,168732,1,8,0:0:0:0:
273,37,168864,6,0,L|261:157,1,107.999996704102,6|0,0:0|0:0,0:0:0:0:
98,154,169128,2,0,L|109:262,1,107.999996704102,10|0,0:0|0:0,0:0:0:0:
339,201,169393,2,0,P|357:146|340:90,1,107.999996704102,2|0,0:0|0:0,0:0:0:0:
180,240,169657,1,10,0:0:0:0:
180,240,169789,6,0,B|161:64|161:64|201:100,1,215.999993408203,6|0,0:0|0:0,0:0:0:0:
380,274,170186,2,0,B|310:296|310:296|271:286,1,107.999996704102,10|0,0:0|0:0,0:0:0:0:
189,90,170450,2,0,B|119:68|119:68|80:78,1,107.999996704102,2|0,0:0|0:0,0:0:0:0:
18,248,170714,2,0,L|186:239,1,161.999995056153,10|0,0:0|0:0,0:0:0:0:
218,239,170979,5,6,0:0:0:0:
383,140,171111,1,0,0:0:0:0:
176,115,171243,5,10,0:0:0:0:
440,207,171375,1,0,0:0:0:0:
217,322,171507,5,2,0:0:0:0:
318,59,171639,1,0,0:0:0:0:
446,286,171772,1,10,0:0:0:0:
147,228,171904,6,0,P|119:139|193:29,1,215.999993408203,6|0,0:0|0:0,0:0:0:0:
329,157,172300,2,0,L|222:144,1,107.999996704102,10|0,0:0|0:0,0:0:0:0:
184,320,172565,2,0,L|76:306,1,107.999996704102,2|0,0:0|0:0,0:0:0:0:
280,63,172829,2,0,L|172:49,1,107.999996704102,10|0,0:0|0:0,0:0:0:0:
86,187,173093,5,6,0:0:0:0:
355,85,173225,1,0,0:0:0:0:
184,320,173357,2,0,P|168:267|188:213,1,107.999996704102,10|0,0:0|0:0,0:0:0:0:
355,85,173622,2,0,P|371:138|351:192,1,107.999996704102,2|0,0:0|0:0,0:0:0:0:
183,218,173886,1,10,0:0:0:0:
183,218,174018,6,0,B|8:199|8:199|57:179,1,215.999993408203,6|0,0:0|0:0,0:0:0:0:
237,118,174415,1,10,0:0:0:0:
263,334,174547,1,0,0:0:0:0:
415,203,174679,2,0,P|361:184|307:203,1,107.999996704102,2|0,0:0|0:0,0:0:0:0:
92,304,174943,2,0,P|143:317|192:298,1,107.999996704102,10|0,0:0|0:0,0:0:0:0:
227,151,175208,5,6,0:0:0:0:
227,151,175340,1,0,0:0:0:0:
401,55,175472,2,0,L|412:174,1,107.999996704102,10|0,0:0|0:0,0:0:0:0:
272,297,175736,5,2,0:0:0:0:
272,297,175868,1,0,0:0:0:0:
164,92,176001,2,0,B|140:145|140:145|156:199,1,107.999996704102,10|0,0:0|0:0,0:0:0:0:
336,161,176265,5,2,0:0:0:0:
336,161,176397,1,0,0:0:0:0:
136,269,176529,2,0,L|27:245,1,107.999996704102,10|0,0:0|0:0,0:0:0:0:
243,95,176794,5,2,0:0:0:0:
243,95,176926,1,0,0:0:0:0:
407,290,177058,2,0,P|426:241|408:187,1,107.999996704102,10|0,0:0|0:0,0:0:0:0:
198,278,177322,5,14,0:0:0:0:
347,238,177454,1,0,0:0:0:0:
139,130,177587,1,10,0:0:0:0:
391,55,177719,1,0,1:0:0:0:
225,10,177851,1,10,0:0:0:0:
225,10,178115,6,0,B|217:96|217:96|232:166|232:166|222:284,1,270,14|0,0:0|0:0,0:0:0:0:
352,89,179437,5,4,0:0:0:0:
117,250,186573,6,0,L|199:246,1,62.9999980773926,2|8,0:0|0:0,0:0:0:0:
404,235,186970,1,8,0:0:0:0:
404,235,187102,1,0,0:0:0:0:
239,313,187234,1,2,0:0:0:0:
239,313,187366,1,0,1:0:0:0:
316,123,187498,5,8,0:0:0:0:
314,353,187631,1,8,0:3:0:0:
159,212,187763,1,2,0:0:0:0:
378,55,187895,6,0,P|408:119|388:182,1,125.999996154785,6|0,0:0|0:0,0:0:0:0:
305,245,188291,2,0,P|248:232|182:257,1,125.999996154785,8|0,0:0|0:0,0:0:0:0:
74,218,188688,1,0,0:0:0:0:
74,218,189217,6,0,P|67:189|84:142,1,62.9999980773926,2|0,0:0|0:0,0:0:0:0:
202,82,189481,1,8,0:0:0:0:
202,82,189613,2,0,L|209:228,1,125.999996154785,2|0,0:0|0:0,0:0:0:0:
234,329,190009,6,0,P|284:299|364:313,1,125.999996154785,2|2,0:0|0:0,0:0:0:0:
480,311,190406,1,8,0:0:0:0:
480,311,190670,1,0,0:0:0:0:
480,311,190802,2,0,P|507:223|470:125,1,188.999994232178,2|0,0:0|0:0,0:0:0:0:
365,227,191331,1,2,0:0:0:0:
365,227,191595,2,0,L|362:147,1,62.9999980773926,8|0,0:0|0:0,0:0:0:0:
259,199,191860,2,0,L|261:261,1,62.9999980773926,0|0,0:0|0:0,0:0:0:0:
174,107,192124,6,0,B|133:72|80:82|80:82|98:113,1,125.999996154785,2|2,0:0|0:0,0:0:0:0:
183,233,192520,1,8,0:0:0:0:
183,233,192785,1,0,0:0:0:0:
342,267,192917,2,0,B|388:249|388:249|483:270,1,125.999996154785,2|2,0:0|0:0,0:0:0:0:
396,346,193313,1,8,0:0:0:0:
416,109,193578,1,0,0:0:0:0:
416,109,193710,2,0,L|411:183,1,62.9999980773926,2|0,0:0|0:0,0:0:0:0:
280,123,193974,2,0,L|285:49,1,62.9999980773926,8|0,0:0|0:0,0:0:0:0:
139,103,194239,6,0,P|114:163|133:229,1,125.999996154785,2|2,0:0|0:0,0:0:0:0:
298,311,194635,2,0,P|323:251|304:185,1,125.999996154785,8|0,0:0|0:0,0:0:0:0:
215,244,195031,1,2,0:0:0:0:
215,244,195296,6,0,L|364:257,1,125.999996154785,12|2,0:0|0:0,0:0:0:0:
460,264,195824,1,12,0:0:0:0:
186,70,196882,6,0,L|122:61,5,60,0|0|0|0|0|0,3:0|3:0|3:0|3:0|3:0|3:0,0:0:0:0:
95,60,197410,6,0,L|79:177,1,107.999996704102,6|0,0:0|0:0,0:0:0:0:
319,208,197675,2,0,L|335:90,1,107.999996704102,8|0,0:0|0:0,0:0:0:0:
160,257,197939,1,2,0:0:0:0:
372,280,198071,1,2,0:0:0:0:
248,112,198203,1,8,0:0:0:0:
206,339,198335,6,0,B|148:351|148:351|95:320,1,107.999996704102,0|2,0:0|0:0,0:0:0:0:
116,179,198600,2,0,B|174:166|174:166|227:197,1,107.999996704102,0|8,0:0|0:0,0:0:0:0:
381,281,198864,1,0,0:0:0:0:
381,281,198996,2,0,P|399:229|383:179,1,107.999996704102,2|2,0:0|0:0,0:0:0:0:
218,83,199261,2,0,P|200:135|216:185,1,107.999996704102,8|0,0:0|0:0,0:0:0:0:
278,336,199525,6,0,L|160:329,1,107.999996704102,2|0,0:0|0:0,0:0:0:0:
310,150,199789,2,0,L|428:157,1,107.999996704102,8|0,0:0|0:0,0:0:0:0:
245,256,200054,1,2,0:0:0:0:
335,70,200186,1,2,0:0:0:0:
405,237,200318,1,8,0:0:0:0:
206,148,200450,6,0,B|25:134|25:134|65:161,1,215.999993408203,6|2,0:0|0:0,0:0:0:0:
245,256,200846,1,8,0:0:0:0:
166,66,200979,1,0,0:0:0:0:
79,234,201111,2,0,P|74:292|99:342,1,107.999996704102,2|2,0:0|0:0,0:0:0:0:
281,189,201375,2,0,P|286:131|261:81,1,107.999996704102,8|0,0:0|0:0,0:0:0:0:
192,324,201639,6,0,B|273:335|273:335|316:321,1,107.999996704102,6|0,0:0|0:0,0:0:0:0:
206,148,201904,2,0,B|125:137|125:137|81:151,1,107.999996704102,8|0,0:0|0:0,0:0:0:0:
31,232,202168,1,2,0:0:0:0:
186,57,202300,1,2,0:0:0:0:
229,249,202432,1,8,0:0:0:0:
64,75,202565,1,0,0:0:0:0:
188,341,202697,6,0,P|272:342|307:205,1,215.999993408203,2|8,0:0|0:0,0:0:0:0:
225,119,203093,1,0,0:0:0:0:
225,119,203225,2,0,B|209:166|209:166|225:237,1,107.999996704102,0|2,0:0|0:0,0:0:0:0:
395,284,203490,2,0,B|411:237|411:237|395:166,1,107.999996704102,8|0,0:0|0:0,0:0:0:0:
330,49,203754,1,2,0:0:0:0:
221,222,203886,1,0,0:0:0:0:
153,58,204018,6,0,P|57:95|49:215,1,215.999993408203,12|2,0:0|0:0,0:0:0:0:
197,300,204415,1,2,0:0:0:0:
134,158,204547,1,8,0:0:0:0:
330,53,204679,6,0,B|372:114|372:114|337:261,1,215.999993408203,6|2,0:0|0:0,0:0:0:0:
309,364,205076,1,8,0:0:0:0:
243,204,205208,1,8,0:0:0:0:
448,165,205340,1,2,1:2:0:0:
448,165,205472,1,2,1:2:0:0:
245,81,205604,2,0,P|191:70|136:95,1,107.999996704102,8|2,0:0|1:2,0:0:0:0:
65,253,205868,6,0,L|180:247,1,107.999996704102,6|0,0:0|0:0,0:0:0:0:
404,234,206133,2,0,P|420:176|395:124,1,107.999996704102,8|0,0:0|0:0,0:0:0:0:
217,248,206397,2,0,P|201:306|226:358,1,107.999996704102,2|2,0:0|0:0,0:0:0:0:
340,184,206661,1,8,0:0:0:0:
195,66,206794,5,0,0:0:0:0:
195,66,206926,2,0,L|84:78,1,107.999996704102,2|0,0:0|0:0,0:0:0:0:
36,260,207190,2,0,P|99:269|148:245,1,107.999996704102,8|0,0:0|0:0,0:0:0:0:
225,140,207454,1,2,0:0:0:0:
331,323,207587,1,2,0:0:0:0:
306,85,207719,1,8,0:0:0:0:
202,314,207851,1,0,0:0:0:0:
383,246,207983,6,0,B|402:180|402:180|386:137,1,107.999996704102,2|0,0:0|0:0,0:0:0:0:
211,25,208247,2,0,B|192:90|192:90|208:134,1,107.999996704102,8|0,0:0|0:0,0:0:0:0:
202,314,208512,2,0,L|79:306,1,107.999996704102,2|2,0:0|0:0,0:0:0:0:
285,159,208776,1,8,0:0:0:0:
377,310,208908,6,0,P|427:217|387:111,1,215.999993408203,6|2,0:0|0:0,0:0:0:0:
205,127,209305,2,0,L|206:236,1,107.999996704102,8|0,0:0|0:0,0:0:0:0:
172,37,209569,1,2,0:0:0:0:
324,182,209701,1,2,0:0:0:0:
117,244,209833,2,0,P|101:194|125:132,1,107.999996704102,8|0,0:0|0:0,0:0:0:0:
267,55,210098,6,0,L|387:47,2,107.999996704102,6|0|8,0:0|0:0|0:0,0:0:0:0:
193,193,210494,2,0,L|73:201,2,107.999996704102,0|2|2,0:0|0:0|0:0,0:0:0:0:
400,180,210891,2,0,P|437:271|383:375,1,215.999993408203,8|2,0:0|0:0,0:0:0:0:
271,269,211287,1,0,0:0:0:0:
271,269,211419,2,0,L|270:151,1,107.999996704102,8|0,0:0|0:0,0:0:0:0:
158,249,211683,2,0,P|156:300|189:352,1,107.999996704102,2|2,0:0|0:0,0:0:0:0:
363,188,211948,2,0,P|364:136|331:84,1,107.999996704102,8|0,0:0|0:0,0:0:0:0:
177,47,212212,6,0,L|164:168,1,107.999996704102,6|0,0:0|0:0,0:0:0:0:
348,212,212476,2,0,L|360:333,1,107.999996704102,8|2,0:0|0:0,0:0:0:0:
160,347,212741,6,0,P|146:295|166:235,1,107.999996704102,8|2,0:0|0:0,0:0:0:0:
412,159,213005,2,0,P|426:211|406:271,1,107.999996704102,8|2,0:0|0:0,0:0:0:0:
255,99,213269,6,0,L|131:91,1,107.999996704102,8|2,0:0|0:0,0:0:0:0:
327,304,213534,2,0,L|203:296,1,107.999996704102,8|6,0:0|0:0,0:0:0:0:
72,284,213798,5,0,1:0:0:0:
257,166,213930,1,8,1:2:0:0:
191,376,214062,1,2,1:2:0:0:
91,192,214194,1,8,1:2:0:0:
285,167,214327,6,0,L|401:161,1,99.0000030212403,6|0,0:0|0:0,0:0:0:0:
210,263,214591,1,8,0:0:0:0:
210,263,214723,1,0,0:0:0:0:
85,101,214855,2,0,B|68:151|68:151|84:212,1,99.0000030212403,2|2,0:0|0:0,0:0:0:0:
113,338,215120,1,8,0:0:0:0:
113,338,215252,1,0,0:0:0:0:
346,216,215384,6,0,P|361:165|340:110,1,99.0000030212403,2|0,0:0|0:0,0:0:0:0:
146,179,215648,2,0,P|131:230|152:285,1,99.0000030212403,8|0,0:0|0:0,0:0:0:0:
356,297,215913,1,2,0:0:0:0:
216,227,216045,1,2,0:0:0:0:
416,147,216177,1,8,0:0:0:0:
261,47,216309,1,0,0:0:0:0:
216,227,216441,6,0,L|230:328,1,99.0000030212403,2|0,0:0|0:0,0:0:0:0:
108,209,216705,1,8,0:0:0:0:
108,209,216838,1,0,0:0:0:0:
244,125,216970,2,0,B|309:117|309:117|362:133,1,99.0000030212403,2|2,0:0|0:0,0:0:0:0:
423,250,217234,1,8,0:0:0:0:
423,250,217366,1,0,0:0:0:0:
258,322,217498,6,0,P|246:273|261:224,1,99.0000030212403,2|0,0:0|0:0,0:0:0:0:
158,52,217763,2,0,P|170:101|155:150,1,99.0000030212403,8|0,0:0|0:0,0:0:0:0:
61,253,218027,1,2,0:0:0:0:
262,143,218159,1,2,0:0:0:0:
93,99,218291,1,8,0:0:0:0:
167,292,218424,1,0,0:0:0:0:
342,188,218556,6,0,L|465:201,1,99.0000030212403,2|0,0:0|0:0,0:0:0:0:
339,65,218820,1,8,0:0:0:0:
250,248,218952,1,0,0:0:0:0:
161,103,219084,2,0,P|108:96|51:123,1,99.0000030212403,2|2,0:0|0:0,0:0:0:0:
23,278,219349,2,0,P|76:284|133:258,1,99.0000030212403,8|0,0:0|0:0,0:0:0:0:
258,155,219613,5,2,0:0:0:0:
258,155,219745,1,0,0:0:0:0:
387,301,219877,2,0,B|403:271|403:271|392:188,1,99.0000030212403,8|0,0:0|0:0,0:0:0:0:
295,48,220142,1,2,0:0:0:0:
295,48,220274,1,2,0:0:0:0:
172,203,220406,2,0,B|139:214|139:214|59:190,1,99.0000030212403,8|0,0:0|0:0,0:0:0:0:
216,70,220670,5,2,0:0:0:0:
139,295,220802,1,0,0:0:0:0:
309,253,220935,2,0,L|304:149,1,99.0000030212403,8|0,0:0|0:0,0:0:0:0:
118,69,221199,2,0,L|122:167,1,99.0000030212403,2|2,0:0|0:0,0:0:0:0:
141,331,221463,1,8,0:0:0:0:
141,331,221595,6,0,B|243:280|243:368|347:318,1,198.000006042481,4|0,0:0|1:0,0:0:0:0:
285,139,221992,1,8,0:0:0:0:
214,354,222124,1,0,3:0:0:0:
214,354,222190,1,0,3:0:0:0:
214,354,222256,1,2,3:2:0:0:
376,229,222388,1,0,1:0:0:0:
166,155,222520,1,8,0:0:0:0:
369,40,222653,1,0,1:0:0:0:
162,47,222785,6,0,L|166:161,1,107.999996704102,6|0,0:0|0:0,0:0:0:0:
376,229,223049,2,0,L|372:115,1,107.999996704102,8|0,0:0|0:0,0:0:0:0:
228,250,223313,1,2,0:0:0:0:
372,121,223446,1,0,0:0:0:0:
242,52,223578,1,8,0:0:0:0:
92,130,223710,6,0,P|42:221|87:315,1,215.999993408203
246,197,224106,2,0,L|243:87,1,107.999996704102,8|0,0:0|0:0,0:0:0:0:
172,261,224371,1,2,0:0:0:0:
358,180,224503,1,0,0:0:0:0:
172,261,224635,1,8,0:0:0:0:
358,180,224767,1,0,0:0:0:0:
190,32,224899,6,0,P|169:86|184:144,1,107.999996704102,2|0,0:0|0:0,0:0:0:0:
346,281,225164,2,0,P|367:227|352:169,1,107.999996704102,8|0,0:0|0:0,0:0:0:0:
299,64,225428,1,2,0:0:0:0:
211,255,225560,1,0,0:0:0:0:
108,92,225692,1,8,0:0:0:0:
18,277,225824,6,0,P|95:307|219:243,1,215.999993408203,0|0,0:0|0:0,0:0:0:0:
306,101,226221,1,8,0:0:0:0:
396,301,226353,1,0,0:0:0:0:
192,141,226485,2,0,L|72:127,1,107.999996704102,2|0,0:0|0:0,0:0:0:0:
289,289,226750,2,0,L|396:301,1,107.999996704102,12|0,0:0|0:0,0:0:0:0:
298,131,227014,5,6,0:0:0:0:
154,297,227146,1,0,0:0:0:0:
259,48,227278,1,8,0:0:0:0:
333,214,227410,1,0,0:0:0:0:
160,190,227543,2,0,L|52:172,1,107.999996704102,2|0,0:0|0:0,0:0:0:0:
231,44,227807,1,8,0:0:0:0:
391,113,227939,6,0,P|423:209|375:316,1,215.999993408203,0|0,0:0|0:0,0:0:0:0:
196,259,228335,1,8,0:0:0:0:
310,138,228468,1,0,0:0:0:0:
155,76,228600,2,0,B|112:61|112:61|41:72,1,107.999996704102,2|0,0:0|0:0,0:0:0:0:
196,259,228864,2,0,B|239:274|239:274|310:263,1,107.999996704102,8|0,0:0|0:0,0:0:0:0:
377,99,229128,6,0,P|335:65|274:68,1,107.999996704102,6|0,0:0|0:0,0:0:0:0:
192,193,229393,2,0,L|176:315,1,107.999996704102,8|0,0:0|0:0,0:0:0:0:
32,123,229657,2,0,P|78:95|138:108,1,107.999996704102,0|0,1:0|0:0,0:0:0:0:
332,172,229921,1,8,0:0:0:0:
332,172,230054,6,0,P|430:164|448:57,1,215.999993408203,4|0,0:0|0:0,0:0:0:0:
300,258,230450,1,8,0:0:0:0:
210,102,230582,1,8,0:0:0:0:
210,102,230648,1,0,0:0:0:0:
210,102,230714,1,2,1:2:0:0:
377,99,230846,1,8,0:2:0:0:
154,237,230979,5,8,0:0:0:0:
276,41,231111,1,0,1:0:0:0:
358,326,231243,1,12,0:0:0:0:
