osu file format v14

[General]
AudioFilename: life.mp3
AudioLeadIn: 0
PreviewTime: 83722
Countdown: 0
SampleSet: Soft
StackLeniency: 0.7
Mode: 0
LetterboxInBreaks: 0
EpilepsyWarning: 1
WidescreenStoryboard: 1

[Editor]
Bookmarks: 139657,140318,140979,168864,186573,222785
DistanceSpacing: 1.1
BeatDivisor: 2
GridSize: 8
TimelineZoom: 2.4

[Metadata]
Title:Sendan Life
TitleUnicode:センダンライフ
Artist:Remo Prototype[CV: Hanamori Yumiri]
ArtistUnicode:リモ Prototype[CV:花守ゆみり]
Creator:Lami
Version:Normal
Source:ガラスの花と壊す世界
Tags:vocaloid Chukka やしきん yashikin Glass no Hana to Kowasu Sekai GARAKOWA Restore the World Vitreous Flower Destroy the World dailycare fuyuyu- mamayu kanau pho starrstyx intoon
BeatmapID:906558
BeatmapSetID:416153

[Difficulty]
HPDrainRate:3
CircleSize:3
OverallDifficulty:2.5
ApproachRate:3.5
SliderMultiplier:0.8
SliderTickRate:1

[Events]
//Background and Video events
0,0,"bg.jpg",0,0
//Break Periods
2,104042,108277
2,179637,185193
//Storyboard Layer 0 (Background)
//Storyboard Layer 1 (Fail)
//Storyboard Layer 2 (Pass)
//Storyboard Layer 3 (Foreground)
//Storyboard Sound Samples

[TimingPoints]
36706,264.31718061674,4,2,2,60,1,0
37498,-100,4,2,2,60,0,0
41463,-100,4,2,1,70,0,0
84283,-100,4,2,1,70,0,1
101199,-100,4,2,1,70,0,0
143490,-100,4,2,1,70,0,1
160406,-100,4,2,1,70,0,0
168864,-100,4,2,3,70,0,0
179437,-100,4,2,4,70,0,0
186573,-100,4,2,1,70,0,0
197410,-100,4,2,1,70,0,1
214327,-100,4,2,1,70,0,0
222785,-100,4,2,1,70,0,1
231243,-100,4,2,1,70,0,0

[Colours]
Combo1 : 253,183,104
Combo2 : 70,163,255
Combo3 : 60,239,50
Combo4 : 255,85,170

[HitObjects]
232,340,37763,6,0,P|288:356|324:348,1,80,8|8,0:0|0:0,0:0:0:0:
392,324,38291,1,8,0:0:0:0:
488,236,38688,2,0,L|496:148,1,80,8|8,0:0|0:0,0:0:0:0:
452,80,39217,2,0,P|384:72|320:120,1,120,8|8,0:0|0:0,0:0:0:0:
276,156,39877,6,0,P|228:168|192:164,1,80,8|8,0:0|0:0,0:0:0:0:
114,138,40406,1,8,0:0:0:0:
54,255,40802,2,0,P|46:307|58:355,1,80,8|8,0:0|0:0,0:0:0:0:
136,353,41331,2,0,B|172:335|172:335|212:359|264:354,1,120,8|0,0:0|0:0,0:0:0:0:
336,352,41992,6,0,P|380:308|364:216,1,160,6|2,0:0|0:0,0:0:0:0:
312,148,42785,1,8,0:0:0:0:
244,92,43049,2,0,L|140:104,1,80,2|8,0:0|0:0,0:0:0:0:
108,172,43578,2,0,L|4:184,1,80,2|8,0:0|0:0,0:0:0:0:
4,264,44106,6,0,P|44:324|140:336,1,160,2|2,0:0|0:0,0:0:0:0:
208,308,44899,1,8,0:0:0:0:
268,244,45164,2,0,P|304:232|360:236,1,80,2|8,0:0|0:0,0:0:0:0:
388,308,45692,2,0,P|440:312|476:296,1,80,2|8,0:0|0:0,0:0:0:0:
504,224,46221,6,0,B|480:112|480:112|424:84,1,160,2|2,0:0|0:0,0:0:0:0:
352,76,47014,1,8,0:0:0:0:
284,132,47278,2,0,P|236:148|200:144,1,80,2|8,0:0|0:0,0:0:0:0:
128,104,47807,2,0,P|88:103|51:117,1,80,2|8,0:0|0:0,0:0:0:0:
20,200,48335,6,0,L|40:292,1,80,2|8,0:0|0:0,0:0:0:0:
96,344,48864,1,2,0:0:0:0:
228,356,49261,2,0,P|280:320|276:240,1,120,6|8,0:0|0:0,0:0:0:0:
260,184,49921,2,0,P|260:136|280:100,1,80,4|8,3:0|0:0,0:0:0:0:
320,32,50450,6,0,B|360:20|392:56|392:56|448:44|492:84,1,160,6|0,0:0|0:0,0:0:0:0:
496,152,51243,1,8,0:0:0:0:
492,240,51507,2,0,L|484:360,2,120,2|2|8,0:0|0:0|0:0,0:0:0:0:
420,188,52565,6,0,P|372:175|328:184,1,80,2|8,0:0|0:0,0:0:0:0:
260,208,53093,2,0,P|220:210|182:199,1,80,0|8,0:0|0:0,0:0:0:0:
132,128,53622,2,0,P|156:64|264:52,1,160,2|0,0:0|0:0,0:0:0:0:
316,80,54415,1,8,0:0:0:0:
352,160,54679,6,0,L|340:256,1,80,2|8,0:0|0:0,0:0:0:0:
264,280,55208,2,0,P|216:276|164:236,1,80,0|8,0:0|0:0,0:0:0:0:
128,196,55736,2,0,P|48:164|0:176,2,120,2|2|8,0:0|0:0|0:0,0:0:0:0:
108,284,56794,6,0,L|96:376,1,80,2|8,0:0|0:0,0:0:0:0:
184,380,57322,2,0,P|232:380|268:356,1,80,0|8,0:0|0:0,0:0:0:0:
328,312,57851,1,2,0:0:0:0:
396,256,58115,2,0,L|480:244,2,80,8|8|12,0:0|0:0|0:1,0:0:0:0:
316,224,58908,6,0,B|237:235|237:235|186:208|184:164,1,160,6|0,0:0|0:0,0:0:0:0:
196,88,59701,1,8,0:0:0:0:
272,44,59965,2,0,L|400:52,2,120,2|2|8,0:0|0:0|0:0,0:0:0:0:
196,88,61023,6,0,L|116:83,1,80,0|8,0:0|0:0,0:0:0:0:
36,120,61551,2,0,P|12:164|12:216,1,80,0|8,0:0|0:0,0:0:0:0:
24,280,62080,2,0,P|100:300|168:256,1,160,2|0,0:0|0:0,0:0:0:0:
212,184,62873,1,8,0:0:0:0:
292,212,63137,6,0,L|312:296,1,80,2|8,0:0|0:0,0:0:0:0:
364,360,63666,2,0,P|408:372|452:360,1,80,0|8,0:0|0:0,0:0:0:0:
512,312,64194,2,0,P|520:248|420:180,1,160,2|0,0:0|0:0,0:0:0:0:
372,207,64987,1,8,0:0:0:0:
308,268,65252,6,0,L|204:268,1,80,2|8,0:0|0:0,0:0:0:0:
140,268,65780,1,0,0:0:0:0:
88,148,66177,2,0,P|128:104|188:104,1,120,6|8,0:0|0:0,0:0:0:0:
268,136,66838,2,0,P|314:143|350:130,1,80,4|2,1:3|0:0,0:0:0:0:
429,107,67366,6,0,P|448:168|461:239,2,120,6|8|2,0:0|0:0|0:0,0:0:0:0:
306,56,68556,2,0,B|224:40|224:40|181:61,1,120,2|8,0:0|0:0,0:0:0:0:
144,132,69217,1,2,0:0:0:0:
108,212,69481,6,0,P|40:224|-8:192,2,120,2|8|2,0:0|0:0|0:0,0:0:0:0:
228,156,70670,2,0,P|296:144|344:176,1,120,2|8,0:0|0:0,0:0:0:0:
368,252,71331,1,2,0:0:0:0:
344,336,71595,6,0,L|168:352,1,160,2|0,0:0|0:0,0:0:0:0:
64,220,72653,2,0,P|56:148|96:68,1,160,2|2,0:0|0:0,0:0:0:0:
264,120,73710,2,0,P|330:115|404:100,2,120,2|8|2,0:0|0:0|0:0,0:0:0:0:
188,168,74767,2,0,L|188:328,1,160,0|8,0:0|0:0,0:0:0:0:
316,360,75692,6,0,P|384:360|424:312,1,120,6|8,0:0|0:0,0:0:0:0:
452,244,76353,2,0,P|452:200|432:160,1,80,2|8,0:0|0:0,0:0:0:0:
364,120,76882,2,0,B|320:128|320:128|272:184|272:184|228:192,1,160,2|2,0:0|0:0,0:0:0:0:
112,136,77807,6,0,P|64:128|-4:196,1,120,6|8,0:0|0:0,0:0:0:0:
8,252,78468,2,0,L|32:336,1,80,2|8,0:0|0:0,0:0:0:0:
108,368,78996,2,0,B|200:380|180:312|272:328,1,160,6|2,0:0|0:0,0:0:0:0:
388,352,79921,6,0,P|432:348|476:256,1,120,6|8,0:0|0:0,0:0:0:0:
484,204,80582,2,0,P|464:160|432:136,1,80,2|8,0:0|0:0,0:0:0:0:
360,108,81111,2,0,B|324:112|288:140|288:140|240:124|196:140,1,160,2|2,0:0|0:0,0:0:0:0:
140,192,81904,1,8,0:0:0:0:
116,276,82168,6,0,L|132:376,2,80,12|8|8,0:0|0:0|0:0,0:0:0:0:
244,300,83093,2,0,P|300:320|376:284,1,120,6|8,0:0|0:0,0:0:0:0:
412,236,83754,2,0,L|428:136,1,80,2|2,3:2|1:2,0:0:0:0:
419,68,84283,6,0,P|363:32|263:44,1,160,6|2,0:0|0:0,0:0:0:0:
204,95,85076,1,8,0:0:0:0:
154,168,85340,2,0,L|46:180,1,80,2|8,0:0|0:0,0:0:0:0:
60,264,85868,2,0,L|168:252,1,80,2|8,0:0|0:0,0:0:0:0:
167,338,86397,6,0,P|244:348|305:300,1,160,2|2,0:0|0:0,0:0:0:0:
392,200,87322,2,0,L|420:328,1,120,6|8,0:0|0:0,0:0:0:0:
504,324,87983,2,0,L|485:239,1,80,2|8,0:0|0:0,0:0:0:0:
468,160,88512,6,0,P|404:114|321:151,1,160,6|2,0:0|0:0,0:0:0:0:
272,200,89305,1,8,0:0:0:0:
216,268,89569,2,0,B|196:300|196:300|196:352|196:352|172:388,2,120,2|0|8,0:0|0:0|0:0,0:0:0:0:
188,184,90626,1,2,0:0:0:0:
223,103,90891,6,0,B|312:84,1,80,12|2,0:0|0:0,0:0:0:0:
389,86,91419,2,0,P|398:109|405:137,1,40,2|6,0:0|0:0,0:0:0:0:
366,250,91948,1,8,0:0:0:0:
308,316,92212,2,0,P|268:328|220:320,1,80,2|8,1:2|0:0,0:0:0:0:
144,312,92741,6,0,B|48:268|48:268|28:196,1,160,6|2,0:0|0:0,0:0:0:0:
24,128,93534,1,8,0:0:0:0:
76,56,93798,2,0,P|116:44|155:47,1,80,2|8,0:0|0:0,0:0:0:0:
228,96,94327,2,0,P|267:98|305:86,1,80,2|8,0:0|0:0,0:0:0:0:
380,36,94855,6,0,L|408:220,1,160,2|2,0:0|0:0,0:0:0:0:
352,316,95780,2,0,P|284:316|240:272,1,120,6|8,0:0|0:0,0:0:0:0:
168,244,96441,2,0,L|80:268,1,80,2|8,0:0|0:0,0:0:0:0:
32,200,96970,6,0,P|64:136|156:128,1,160,6|2,0:0|0:0,0:0:0:0:
219,171,97763,1,8,0:0:0:0:
296,212,98027,2,0,L|373:190,1,80,2|8,0:0|0:0,0:0:0:0:
452,152,98556,2,0,P|459:122|448:76,1,80,2|8,0:0|0:0,0:0:0:0:
372,32,99084,5,6,0:0:0:0:
289,64,99349,2,0,L|197:52,1,80,8|8,0:0|0:0,0:0:0:0:
124,72,99877,1,8,0:0:0:0:
80,148,100142,2,0,P|72:208|88:244,1,80,8|8,0:0|0:0,0:0:0:0:
131,294,100670,2,0,P|170:301|208:291,1,80,0|8,1:0|1:2,0:0:0:0:
280,240,101199,1,6,0:0:0:0:
256,192,101331,12,0,103842,2:0:0:0:
256,192,109657,5,4,0:0:0:0:
188,340,110714,2,0,L|36:360,2,120,2|2|2,1:2|1:2|1:2,0:0:0:0:
256,284,111772,5,4,0:0:0:0:
324,44,112829,2,0,L|476:24,2,120,0|2|8,1:0|1:2|0:0,0:0:0:0:
256,100,113886,5,6,0:0:0:0:
327,260,114415,1,2,0:3:0:0:
180,360,114943,2,0,P|112:360|60:292,1,160,2|2,0:0|0:3,0:0:0:0:
208,196,116001,2,0,L|368:168,1,160,2|2,0:0|0:3,0:0:0:0:
486,221,116926,5,12,1:2:0:0:
324,368,117587,2,0,L|220:348,1,80,8|0,3:2|0:0,0:0:0:0:
160,328,118115,6,0,P|104:272|117:191,1,160,6|0,0:0|0:0,0:0:0:0:
172,132,118908,1,8,0:0:0:0:
256,160,119172,2,0,L|300:284,2,120,2|2|8,0:0|0:0|0:0,0:0:0:0:
323,102,120230,6,0,P|367:98|415:106,1,80,2|8,0:0|0:0,0:0:0:0:
464,165,120758,2,0,P|468:209|460:257,1,80,0|8,0:0|0:0,0:0:0:0:
423,322,121287,2,0,B|391:350|343:334|343:334|291:318|255:354,1,160,2|0,0:0|0:0,0:0:0:0:
192,380,122080,1,8,0:0:0:0:
112,344,122344,6,0,L|93:266,1,80,2|8,0:0|0:0,0:0:0:0:
152,200,122873,2,0,L|133:122,1,80,0|8,0:0|0:0,0:0:0:0:
192,56,123402,2,0,P|256:20|340:48,1,160,2|0,0:0|0:0,0:0:0:0:
388,112,124194,1,8,0:0:0:0:
368,198,124459,6,0,L|288:214,1,80,2|8,0:0|0:0,0:0:0:0:
224,272,124987,1,0,0:0:0:0:
327,354,125384,2,0,P|383:346|431:302,1,120,6|8,0:0|0:0,0:0:0:0:
478,231,126045,2,0,B|470:151,1,80,4|2,1:3|0:0,0:0:0:0:
444,68,126573,6,0,P|380:32|292:60,1,160,6|8,0:0|0:0,0:0:0:0:
156,156,127631,1,0,0:0:0:0:
164,244,127895,2,0,L|172:336,1,80,2|8,0:0|0:0,0:0:0:0:
340,372,128688,6,0,P|376:360|408:328,1,80,2|2,0:0|0:0,0:0:0:0:
448,252,129217,1,8,0:0:0:0:
280,196,129745,2,0,B|227:200|205:236|205:236|156:216|108:236,1,160,0|8,0:0|0:0,0:0:0:0:
84,60,130802,6,0,L|176:48,1,80,2|2,0:0|0:0,0:0:0:0:
252,36,131331,1,8,0:0:0:0:
424,68,131860,2,0,P|440:108|440:160,1,80,2|2,0:0|0:0,0:0:0:0:
424,232,132389,1,8,0:0:0:0:
308,364,132917,6,0,P|268:360|224:340,1,80,2|2,0:0|0:0,0:0:0:0:
168,284,133446,1,8,0:0:0:0:
200,112,133974,2,0,L|368:96,1,160,2|8,0:0|0:0,0:0:0:0:
448,192,134899,6,0,P|472:248|456:316,1,120,6|8,0:0|0:0,0:0:0:0:
397,364,135560,2,0,P|356:362|319:347,1,80,2|8,0:0|0:0,0:0:0:0:
268,276,136089,2,0,P|228:224|128:248,1,160,2|2,0:0|0:0,0:0:0:0:
28,304,137014,6,0,L|4:180,1,120,6|8,0:0|0:0,0:0:0:0:
40,104,137675,2,0,P|80:84|128:88,1,80,2|8,0:0|0:0,0:0:0:0:
196,120,138203,2,0,B|252:128|292:92|292:92|316:116|344:120,1,160,6|2,0:0|0:0,0:0:0:0:
428,216,139128,6,0,L|416:344,1,120,6|2,0:0|0:0,0:0:0:0:
332,356,139789,2,0,L|339:271,1,80,8|8,0:0|0:0,0:0:0:0:
275,214,140318,2,0,P|227:214|187:230,1,80,0|6,0:0|0:0,0:0:0:0:
198,312,140846,2,0,P|159:323|120:322,1,80,8|8,0:0|0:0,0:0:0:0:
32,324,141375,6,0,P|12:284|8:244,1,80,12|8,0:0|0:0,0:0:0:0:
64,180,141904,2,0,P|78:137|103:106,1,80,8|8,0:0|0:0,0:0:0:0:
184,88,142432,2,0,P|224:67|264:64,1,80,8|4,0:0|1:3,0:0:0:0:
332,112,142961,2,0,L|348:192,1,80,2|8,3:2|0:0,0:0:0:0:
436,204,143490,6,0,L|404:47,1,160,6|2,0:0|0:0,0:0:0:0:
324,8,144283,1,8,0:0:0:0:
258,63,144547,2,0,P|224:76|176:68,1,80,2|8,0:0|0:0,0:0:0:0:
100,36,145076,2,0,P|60:30|23:43,1,80,2|8,0:0|0:0,0:0:0:0:
20,132,145604,6,0,B|32:184|32:184|68:216|68:216|84:296,1,160,2|2,0:0|0:0,0:0:0:0:
176,364,146529,2,0,P|240:360|288:312,1,120,6|8,0:0|0:0,0:0:0:0:
277,236,147190,2,0,P|281:197|309:156,1,80,2|8,0:0|0:0,0:0:0:0:
364,100,147719,6,0,P|412:80|504:160,1,160,6|2,0:0|0:0,0:0:0:0:
508,220,148512,1,8,0:0:0:0:
444,280,148776,2,0,B|424:344|424:344|384:368|344:356,2,120,2|0|8,0:0|0:0|0:0,0:0:0:0:
380,220,149833,1,2,0:0:0:0:
300,181,150098,6,0,B|200:199,1,80,12|2,0:0|0:0,0:0:0:0:
134,209,150626,2,0,P|116:192|107:171,1,40,2|6,0:0|0:0,0:0:0:0:
156,56,151155,1,8,0:0:0:0:
240,32,151419,2,0,P|284:28|324:36,1,80,2|8,1:2|0:0,0:0:0:0:
392,84,151948,6,0,L|416:272,1,160,6|2,0:0|0:0,0:0:0:0:
372,320,152741,1,8,0:0:0:0:
296,364,153005,2,0,P|256:368|216:352,1,80,2|8,0:0|0:0,0:0:0:0:
152,296,153534,2,0,P|138:258|142:219,1,80,2|8,0:0|0:0,0:0:0:0:
179,139,154062,6,0,B|256:118|256:118|334:139,1,160,2|2,0:0|0:0,0:0:0:0:
400,256,154987,2,0,P|460:248|492:172,1,120,6|8,0:0|0:0,0:0:0:0:
500,116,155648,2,0,L|465:43,1,80,2|8,0:0|0:0,0:0:0:0:
380,24,156177,6,0,B|336:20|304:52|304:52|276:80|232:68,1,160,6|2,0:0|0:0,0:0:0:0:
148,44,156970,1,8,0:0:0:0:
84,104,157234,2,0,P|69:149|68:200,1,80,2|8,0:0|0:0,0:0:0:0:
112,256,157763,2,0,L|212:272,1,80,2|8,0:0|0:0,0:0:0:0:
276,240,158291,5,6,0:0:0:0:
348,188,158556,2,0,P|368:144|364:108,2,80,8|8|8,0:0|0:0|0:0,0:0:0:0:
360,276,159349,2,0,L|380:360,1,80,8|8,0:0|0:0,0:0:0:0:
468,352,159877,2,0,L|486:274,1,80,0|8,1:0|1:2,0:0:0:0:
504,188,160406,6,0,P|492:128|444:96,1,120,6|2,0:0|0:0,0:0:0:0:
328,160,161199,1,8,0:0:0:0:
244,184,161463,2,0,P|196:184|140:136,1,120,2|2,0:0|0:0,0:0:0:0:
52,40,162256,1,8,0:0:0:0:
16,120,162520,6,0,L|8:240,1,120,2|2,0:0|0:0,0:0:0:0:
88,344,163313,1,8,0:0:0:0:
172,372,163578,2,0,P|228:372|280:328,2,120,2|2|8,0:0|0:0|0:0,0:0:0:0:
156,284,164635,6,0,B|172:240|172:240|197:222|197:222|216:168,1,120,2|2,0:0|0:0,0:0:0:0:
288,76,165428,1,8,0:0:0:0:
376,88,165692,2,0,P|424:108|460:184,1,120,2|2,0:0|0:0,0:0:0:0:
404,284,166485,1,8,0:0:0:0:
316,300,166750,6,0,B|232:300|232:300|200:264,1,120,2|2,0:0|0:0,0:0:0:0:
152,156,167543,1,8,0:0:0:0:
64,156,167807,2,0,P|36:192|36:280,2,120,2|2|8,0:0|0:0|0:0,0:0:0:0:
108,80,168864,6,0,L|188:80,1,80,6|10,0:0|0:0,0:0:0:0:
276,80,169393,1,2,0:0:0:0:
408,80,169789,2,0,P|468:120|456:196,1,120,6|10,0:0|0:0,0:0:0:0:
456,252,170450,2,0,L|376:272,1,80,2|10,0:0|0:0,0:0:0:0:
292,292,170979,6,0,P|244:288|212:264,1,80,6|10,0:0|0:0,0:0:0:0:
180,192,171507,1,2,0:0:0:0:
88,100,171904,2,0,B|52:120|52:120|35:197,1,120,6|10,0:0|0:0,0:0:0:0:
35,285,172565,2,0,B|52:365,1,80,2|10,0:0|0:0,0:0:0:0:
140,372,173093,6,0,P|184:368|223:348,1,80,6|10,0:0|0:0,0:0:0:0:
264,280,173622,1,2,0:0:0:0:
268,148,174018,2,0,P|296:108|380:104,1,120,6|10,0:0|0:0,0:0:0:0:
448,124,174679,2,0,L|460:208,1,80,2|10,0:0|0:0,0:0:0:0:
472,292,175208,5,6,0:0:0:0:
404,348,175472,2,0,P|352:364|308:352,1,80,10|2,0:0|0:0,0:0:0:0:
244,332,176001,1,10,0:0:0:0:
188,264,176265,2,0,L|192:172,1,80,2|10,0:0|0:0,0:0:0:0:
276,152,176794,2,0,L|280:60,1,80,2|10,0:0|0:0,0:0:0:0:
348,16,177322,6,0,P|408:16|464:116,1,160,14|10,0:0|0:0,0:0:0:0:
444,176,178115,1,14,0:0:0:0:
176,328,179437,5,4,0:0:0:0:
328,304,186573,5,2,0:0:0:0:
156,344,187102,2,0,P|91:316|74:210,1,160,0|8,0:0|0:3,0:0:0:0:
108,156,187895,6,0,B|144:140|204:156|204:156|248:144|248:144|300:168|352:148,1,240,6|0,0:0|0:0,0:0:0:0:
504,220,189217,2,0,L|476:344,1,120,2|2,0:0|0:0,0:0:0:0:
348,368,190009,6,0,P|288:356|240:292,1,120,2|8,0:0|0:0,0:0:0:0:
212,188,190802,2,0,P|170:145|112:134,1,120,2|0,0:0|0:0,0:0:0:0:
24,232,191595,2,0,L|8:320,1,80,8|0,0:0|0:0,0:0:0:0:
84,360,192124,6,0,B|156:368|156:368|208:328,1,120,2|8,0:0|0:0,0:0:0:0:
288,248,192917,2,0,B|316:210|316:210|308:138,1,120,2|8,0:0|0:0,0:0:0:0:
228,32,193710,2,0,L|144:40,1,80,2|8,0:0|0:0,0:0:0:0:
76,92,194239,6,0,P|48:148|56:220,2,120,2|8|2,0:0|0:0|0:0,0:0:0:0:
156,124,195296,2,0,L|240:116,1,80,12|2,0:0|0:0,0:0:0:0:
324,108,195824,1,12,0:0:0:0:
393,351,196882,2,0,L|265:338,1,120,0|0,3:0|0:0,0:0:0:0:
240,336,197410,6,0,P|180:288|188:212,1,160,6|2,0:0|0:0,0:0:0:0:
244,144,198203,1,8,0:0:0:0:
328,172,198468,2,0,L|364:268,1,80,2|8,0:0|0:0,0:0:0:0:
440,224,198996,2,0,P|484:213|512:176,1,80,2|8,0:0|0:0,0:0:0:0:
508,100,199525,6,0,P|460:48|372:48,1,160,2|2,0:0|0:0,0:0:0:0:
296,152,200450,2,0,L|272:272,1,120,6|8,0:0|0:0,0:0:0:0:
196,316,201111,2,0,P|156:314|119:299,1,80,2|8,0:0|0:0,0:0:0:0:
76,224,201639,6,0,B|76:176|104:152|104:152|72:120|88:64,1,160,6|2,0:0|0:0,0:0:0:0:
144,12,202432,1,8,0:0:0:0:
224,48,202697,2,0,L|356:52,2,120,2|0|8,0:0|0:0|0:0,0:0:0:0:
184,128,203754,1,2,0:0:0:0:
201,214,204018,6,0,B|221:320,1,80,12|2,0:0|0:0,0:0:0:0:
250,373,204547,2,0,P|280:380|295:378,1,40,2|6,0:0|0:0,0:0:0:0:
420,364,205076,1,8,0:0:0:0:
468,292,205340,2,0,P|472:248|456:200,1,80,2|8,1:2|0:0,0:0:0:0:
448,128,205868,6,0,B|400:80|332:96|332:96|280:64,1,160,6|2,0:0|0:0,0:0:0:0:
228,32,206661,1,8,0:0:0:0:
152,76,206926,2,0,P|128:112|128:160,1,80,2|8,0:0|0:0,0:0:0:0:
136,236,207454,2,0,P|168:258|207:262,1,80,2|8,0:0|0:0,0:0:0:0:
292,232,207983,6,0,P|348:204|436:276,1,160,2|2,0:0|0:0,0:0:0:0:
352,356,208908,2,0,L|216:368,1,120,6|8,0:0|0:0,0:0:0:0:
144,372,209569,2,0,P|100:360|68:332,1,80,2|8,0:0|0:0,0:0:0:0:
48,256,210098,6,0,B|52:212|84:184|84:184|136:208|180:196,1,160,6|2,0:0|0:0,0:0:0:0:
236,156,210891,1,8,0:0:0:0:
324,140,211155,2,0,L|408:152,1,80,2|8,0:0|0:0,0:0:0:0:
448,228,211683,2,0,P|454:267|440:320,1,80,2|8,0:0|0:0,0:0:0:0:
372,352,212212,5,6,0:0:0:0:
288,320,212476,2,0,L|208:330,2,80,8|8|8,0:0|0:0|0:0,0:0:0:0:
324,240,213269,2,0,P|288:200|264:192,1,80,8|8,0:0|0:0,0:0:0:0:
176,196,213798,2,0,P|139:179|116:148,1,80,0|2,1:0|1:2,0:0:0:0:
116,60,214327,6,0,B|168:48|168:48|232:56|232:56|284:44,1,160,6|2,0:0|0:0,0:0:0:0:
360,48,215120,1,8,0:0:0:0:
416,116,215384,2,0,P|433:160|432:208,1,80,2|8,0:0|0:0,0:0:0:0:
396,272,215913,2,0,P|351:289|304:288,1,80,2|8,0:0|0:0,0:0:0:0:
256,228,216441,6,0,P|204:184|116:204,1,160,2|2,0:0|0:0,0:0:0:0:
56,264,217234,1,8,0:0:0:0:
96,344,217498,2,0,L|192:360,1,80,2|8,0:0|0:0,0:0:0:0:
263,360,218027,2,0,L|359:344,1,80,2|8,0:0|0:0,0:0:0:0:
428,328,218556,6,0,P|474:273|436:180,1,160,2|2,0:0|0:0,0:0:0:0:
376,152,219349,1,8,0:0:0:0:
308,208,219613,2,0,P|260:224|224:220,1,80,2|8,0:0|0:0,0:0:0:0:
153,180,220142,2,0,P|113:179|76:193,1,80,2|8,0:0|0:0,0:0:0:0:
26,266,220670,6,0,L|42:344,1,80,2|8,0:0|0:0,0:0:0:0:
124,376,221199,1,2,0:0:0:0:
244,320,221595,2,0,B|276:300|276:300|288:204,1,120,4|8,0:0|0:0,0:0:0:0:
296,132,222256,2,0,B|324:104|324:104|380:96,1,80,2|8,3:2|0:0,0:0:0:0:
447,127,222785,5,6,0:0:0:0:
473,210,223049,2,0,L|501:302,2,80,8|2|8,0:0|0:0|0:0,0:0:0:0:
400,260,223842,2,0,L|372:352,1,80,2|8,0:0|0:0,0:0:0:0:
292,364,224371,2,0,P|253:355|225:327,1,80,2|8,0:0|0:0,0:0:0:0:
168,260,224899,5,2,0:0:0:0:
84,231,225164,2,0,L|-8:203,2,80,8|2|8,0:0|0:0|0:0,0:0:0:0:
132,156,225957,2,0,L|191:86,1,80,2|8,0:0|0:0,0:0:0:0:
238,28,226485,2,0,P|291:10|336:20,1,80,2|12,0:0|0:0,0:0:0:0:
375,75,227014,5,6,0:0:0:0:
316,140,227278,2,0,L|213:167,2,80,8|2|8,0:0|0:0|0:0,0:0:0:0:
391,187,228071,1,2,0:0:0:0:
332,251,228335,2,0,L|229:278,2,80,8|2|8,0:0|0:0|0:0,0:0:0:0:
384,322,229128,2,0,L|462:306,1,80,6|8,0:0|0:0,0:0:0:0:
504,228,229657,1,0,1:0:0:0:
428,120,230054,6,0,P|384:96|312:112,1,120,4|8,0:0|0:0,0:0:0:0:
235,138,230714,2,0,L|203:242,1,80,2|8,1:2|0:0,0:0:0:0:
187,299,231243,5,12,0:0:0:0:
