osu file format v14

[General]
AudioFilename: life.mp3
AudioLeadIn: 0
PreviewTime: 83722
Countdown: 0
SampleSet: Soft
StackLeniency: 0.7
Mode: 0
LetterboxInBreaks: 0
EpilepsyWarning: 1
WidescreenStoryboard: 1

[Editor]
Bookmarks: 139657,140318,140979,168864,186573,222785
DistanceSpacing: 1
BeatDivisor: 4
GridSize: 4
TimelineZoom: 2.4

[Metadata]
Title:Sendan Life
TitleUnicode:センダンライフ
Artist:Remo Prototype[CV: Hanamori Yumiri]
ArtistUnicode:リモ Prototype[CV:花守ゆみり]
Creator:Lami
Version:Dailycare's Advanced
Source:ガラスの花と壊す世界
Tags:vocaloid Chukka やしきん yashikin Glass no Hana to Kowasu Sekai GARAKOWA Restore the World Vitreous Flower Destroy the World dailycare fuyuyu- mamayu kanau pho starrstyx intoon
BeatmapID:924913
BeatmapSetID:416153

[Difficulty]
HPDrainRate:4
CircleSize:3.3
OverallDifficulty:4
ApproachRate:5.5
SliderMultiplier:1.01
SliderTickRate:1

[Events]
//Background and Video events
0,0,"bg.jpg",0,0
//Break Periods
2,104042,108532
2,179637,186573
//Storyboard Layer 0 (Background)
//Storyboard Layer 1 (Fail)
//Storyboard Layer 2 (Pass)
//Storyboard Layer 3 (Foreground)
//Storyboard Sound Samples

[TimingPoints]
36706,264.31718061674,4,2,2,60,1,0
41463,-100,4,2,1,70,0,0
84283,-100,4,2,1,70,0,1
101199,-100,4,2,1,70,0,0
112036,-100,4,2,1,50,0,0
112829,-100,4,2,1,70,0,0
143490,-100,4,2,1,70,0,1
160406,-100,4,2,1,70,0,0
168864,-100,4,2,3,70,0,0
179437,-100,4,2,4,70,0,0
186573,-100,4,2,1,70,0,0
197410,-100,4,2,1,70,0,1
214327,-100,4,2,1,70,0,0
222785,-100,4,2,1,70,0,1
231243,-100,4,2,1,70,0,0

[Colours]
Combo1 : 171,171,171
Combo2 : 70,163,255
Combo3 : 60,239,50
Combo4 : 255,85,170

[HitObjects]
340,72,37763,6,0,P|343:129|348:185,1,101,8|8,0:0|0:0,0:0:0:0:
300,262,38291,1,8,0:0:0:0:
300,262,38424,1,8,0:0:0:0:
228,190,38688,2,0,P|204:231|209:298,1,101,8|8,0:0|0:0,0:0:0:0:
271,359,39217,1,8,0:0:0:0:
368,333,39481,2,0,L|429:338,1,50.5,8|8,0:0|0:0,0:0:0:0:
498,275,39877,6,0,P|447:238|387:246,1,101,8|8,0:0|0:0,0:0:0:0:
329,178,40406,1,8,0:0:0:0:
329,178,40538,1,8,0:0:0:0:
285,269,40802,2,0,P|236:271|183:272,1,101,8|8,0:0|0:0,0:0:0:0:
107,337,41331,1,8,0:0:0:0:
107,337,41463,2,0,P|85:299|97:224,1,101,8|12,0:0|0:0,0:0:0:0:
9,181,41992,6,0,P|56:144|104:142,1,101,6|8,0:0|0:0,0:0:0:0:
179,84,42520,2,0,P|235:89|291:92,1,101,2|8,0:0|0:0,0:0:0:0:
364,36,43049,2,0,P|382:91|362:146,1,101,2|8,0:0|0:0,0:0:0:0:
441,204,43578,2,0,P|389:231|332:221,1,101,2|8,0:0|0:0,0:0:0:0:
243,213,44106,6,0,P|252:275|258:331,1,101,2|8,0:0|0:0,0:0:0:0:
361,328,44635,2,0,P|352:266|346:210,1,101,2|8,0:0|0:0,0:0:0:0:
306,135,45164,2,0,P|264:111|211:116,1,101,2|8,0:0|0:0,0:0:0:0:
147,191,45692,1,2,0:0:0:0:
48,169,45957,1,8,0:0:0:0:
29,68,46221,6,0,P|78:69|123:98,1,101,2|8,0:0|0:0,0:0:0:0:
147,191,46750,2,0,P|143:241|141:291,1,101,2|8,0:0|0:0,0:0:0:0:
197,375,47278,2,0,P|230:339|234:268,1,101,2|8,0:0|0:0,0:0:0:0:
314,223,47807,2,0,P|310:173|308:123,1,101,2|8,0:0|0:0,0:0:0:0:
275,26,48335,6,0,P|326:21|381:57,1,101,2|8,0:0|0:0,0:0:0:0:
467,65,48864,2,0,P|468:115|473:165,1,101,2|8,0:0|0:0,0:0:0:0:
504,205,49261,2,0,P|487:251|364:272,1,151.5,6|8,0:0|0:0,0:0:0:0:
305,327,49921,2,0,L|264:385,2,50.5,4|2|8,0:3|0:0|0:0,0:0:0:0:
314,223,50450,5,6,0:0:0:0:
397,285,50714,1,8,0:0:0:0:
407,184,50979,1,2,0:0:0:0:
407,184,51111,2,0,P|401:132|403:69,1,101,2|0,0:0|0:0,0:0:0:0:
411,34,51507,2,0,P|368:9|256:51,1,151.5,2|0,0:0|0:0,0:0:0:0:
211,169,52300,1,8,0:0:0:0:
114,138,52565,6,0,P|108:183|145:244,1,101,2|8,0:0|0:0,0:0:0:0:
153,330,53093,2,0,P|189:316|203:302,1,50.5,2|2,0:0|0:0,0:0:0:0:
228,269,53357,1,8,0:0:0:0:
301,197,53622,2,0,P|260:169|210:168,1,101,2|8,0:0|0:0,0:0:0:0:
167,194,54018,2,0,P|154:143|153:86,1,101,2|2,0:0|0:0,0:0:0:0:
163,45,54415,1,8,0:0:0:0:
256,83,54679,5,2,0:0:0:0:
336,21,54943,1,8,0:0:0:0:
420,76,55208,2,0,L|418:198,1,101,2|8,0:0|0:0,0:0:0:0:
479,257,55736,2,0,P|439:281|380:269,1,101,2|8,0:0|0:0,0:0:0:0:
339,290,56133,2,0,P|296:270|231:279,1,101,2|2,0:0|0:0,0:0:0:0:
197,295,56529,1,0,0:0:0:0:
115,232,56794,6,0,L|49:235,2,50.5,2|0|8,0:0|0:0|0:0,0:0:0:0:
198,175,57322,2,0,P|223:160|265:154,2,50.5,2|2|8,0:0|0:0|0:0,0:0:0:0:
160,140,57719,2,0,P|108:127|50:152,1,101
19,233,58247,1,2,0:0:0:0:
19,233,58380,2,0,P|71:246|129:221,1,101,8|8,0:0|0:0,0:0:0:0:
202,281,58908,5,6,0:0:0:0:
272,208,59172,1,8,0:0:0:0:
363,257,59437,1,2,0:0:0:0:
436,187,59701,2,0,P|441:156|434:126,1,50.5,8|0,0:0|0:0,0:0:0:0:
419,90,59965,2,0,P|380:59|313:66,1,101,2|8,0:0|0:0,0:0:0:0:
284,78,60362,2,0,P|246:140|273:209,1,151.5,2|8,0:0|0:0,0:0:0:0:
201,280,61023,6,0,P|161:252|112:254,1,101,2|8,0:0|0:0,0:0:0:0:
24,304,61551,2,0,P|13:275|14:237,1,50.5,2|2,0:0|0:0,0:0:0:0:
23,206,61816,1,8,0:0:0:0:
3,106,62080,2,0,P|28:102|109:161,1,101,2|8,0:0|0:0,0:0:0:0:
119,177,62476,2,0,P|173:182|304:185,1,151.5,2|8,0:0|0:0,0:0:0:0:
361,228,63137,5,2,0:0:0:0:
353,127,63402,1,8,0:0:0:0:
416,48,63666,2,0,P|388:29|303:39,1,101,2|8,0:0|0:0,0:0:0:0:
257,104,64194,2,0,P|207:107|163:83,1,101,2|8,0:0|0:0,0:0:0:0:
130,45,64591,2,0,L|122:209,1,151.5,2|8,0:0|0:0,0:0:0:0:
165,288,65252,6,0,L|167:338,2,50.5,2|0|8,0:0|0:0|0:0,0:0:0:0:
250,235,65780,2,0,L|252:184,2,50.5,2|2|8,0:0|0:0|0:0,0:0:0:0:
267,282,66177,2,0,P|314:312|369:304,1,101
447,354,66705,1,0,0:0:0:0:
447,354,66838,2,0,B|474:305|445:255|445:255|503:223|485:140,1,202,4|2,0:3|0:0,0:0:0:0:
439,29,67763,5,8,0:0:0:0:
396,172,68159,2,0,P|348:184|247:126,1,151.5,2|0,0:0|3:0,0:0:0:0:
113,187,68952,2,0,L|116:301,1,101,8|0,0:0|0:0,0:0:0:0:
201,341,69481,6,0,L|195:179,1,151.5,2|8,0:0|0:0,0:0:0:0:
69,105,70274,2,0,P|31:144|41:246,1,151.5,2|0,0:0|3:0,0:0:0:0:
185,247,71067,1,8,0:0:0:0:
249,169,71331,1,0,0:0:0:0:
283,263,71595,6,0,B|315:256|328:230|328:230|383:302|482:253,1,202,2|0,0:0|0:0,0:0:0:0:
411,172,72388,1,2,0:0:0:0:
462,84,72653,2,0,B|387:50|332:111|332:111|317:86|278:73,1,202,2|0,0:0|0:0,0:0:0:0:
188,99,73446,1,2,0:0:0:0:
111,32,73710,6,0,B|75:79|93:132|93:132|56:159|56:159|44:213,1,202,2|0,0:0|0:0,0:0:0:0:
76,303,74503,1,2,0:0:0:0:
144,229,74767,2,0,P|186:216|316:315,1,202,2|2,0:0|0:0,0:0:0:0:
374,371,75560,5,2,0:0:0:0:
374,371,75692,2,0,P|410:329|398:255,1,101,6|0,0:0|0:0,0:0:0:0:
394,237,76089,2,0,L|504:242,2,101,8|2|8,0:0|0:0|0:0,0:0:0:0:
310,293,76882,1,2,0:0:0:0:
232,228,77146,1,8,0:0:0:0:
232,228,77278,2,0,L|131:223,1,101,2|0,0:0|0:0,0:0:0:0:
61,297,77807,6,0,P|29:249|39:186,1,101,2|0,0:0|0:0,0:0:0:0:
49,161,78203,2,0,P|52:99|52:56,2,101,8|2|8,0:0|0:0|0:0,0:0:0:0:
131,223,78996,1,2,0:0:0:0:
203,151,79261,1,8,0:0:0:0:
203,151,79393,2,0,P|247:131|311:149,1,101,2|2,0:0|0:0,0:0:0:0:
355,57,79921,6,0,P|398:142|353:221,1,151.5,6|8,0:0|0:0,0:0:0:0:
356,236,80450,1,0,0:0:0:0:
356,236,80582,2,0,L|360:348,1,101,2|8,0:0|0:0,0:0:0:0:
460,324,81111,2,0,L|463:223,1,101,2|8,0:0|0:0,0:0:0:0:
454,173,81507,2,0,P|416:130|304:133,1,151.5,2|8,0:0|0:0,0:0:0:0:
256,193,82168,5,12,0:0:0:0:
163,151,82432,1,8,0:0:0:0:
174,50,82697,1,8,0:0:0:0:
273,33,82961,1,8,0:0:0:0:
273,33,83093,2,0,B|313:38|333:72|333:72|371:43|432:63,1,151.5,6|8,0:0|3:2,0:0:0:0:
485,119,83754,2,0,B|473:168|473:168|478:239,1,101,8|8,1:2|3:2,0:0:0:0:
399,284,84283,6,0,L|389:144,1,101,6|8,3:2|0:0,0:0:0:0:
409,83,84811,1,2,0:0:0:0:
321,31,85076,1,8,0:0:0:0:
321,31,85208,2,0,P|260:27|217:64,1,101,2|0,0:0|0:0,0:0:0:0:
210,94,85604,2,0,P|178:92|140:89,1,50.5,8|2,0:0|0:0,0:0:0:0:
113,75,85868,2,0,L|120:175,1,101,2|8,0:0|0:0,0:0:0:0:
71,264,86397,6,0,P|133:277|177:256,1,101,2|8,0:0|0:0,0:0:0:0:
227,182,86926,1,2,0:0:0:0:
273,271,87190,1,8,0:0:0:0:
273,271,87322,2,0,P|310:245|324:177,1,101,2|0,0:0|0:0,0:0:0:0:
363,158,87719,2,0,P|358:128|338:91,1,50.5,8|2,0:0|0:0,0:0:0:0:
317,71,87983,1,2,0:0:0:0:
404,20,88247,1,8,0:0:0:0:
484,81,88512,6,0,P|509:128|494:188,1,101,2|8,0:0|0:0,0:0:0:0:
429,242,89040,2,0,P|377:245|334:200,1,101,2|8,0:0|0:0,0:0:0:0:
319,116,89569,2,0,P|268:68|169:78,2,151.5,2|2|8,0:0|0:0|0:0,0:0:0:0:
229,162,90626,5,6,0:0:0:0:
311,220,90891,2,0,P|296:277|287:325,1,101,8|2,0:0|0:0,0:0:0:0:
204,369,91419,1,2,0:0:0:0:
204,369,91551,2,0,P|151:330|151:227,1,151.5,6|8,0:0|0:0,0:0:0:0:
50,202,92212,2,0,P|98:153|144:152,1,101,2|8,0:0|0:0,0:0:0:0:
229,162,92741,6,0,P|281:165|337:165,1,101,6|8,0:0|0:0,0:0:0:0:
428,142,93269,1,2,0:0:0:0:
496,222,93534,1,8,0:0:0:0:
496,222,93666,2,0,P|511:278|477:328,1,101,2|0,0:0|0:0,0:0:0:0:
461,353,94062,2,0,L|406:337,1,50.5,8|2,0:0|0:0,0:0:0:0:
365,359,94327,2,0,P|321:364|269:331,1,101,2|8,0:0|0:0,0:0:0:0:
205,262,94855,6,0,P|217:250|298:240,1,101,2|8,0:0|0:0,0:0:0:0:
392,206,95384,1,2,0:0:0:0:
496,222,95648,1,8,0:0:0:0:
496,222,95780,2,0,L|501:122,1,101,2|0,0:0|0:0,0:0:0:0:
508,70,96177,2,0,L|444:77,1,50.5,8|2,0:0|0:0,0:0:0:0:
412,96,96441,1,2,0:0:0:0:
346,19,96705,1,10,0:0:0:0:
251,62,96970,6,0,P|254:129|258:229,1,151.5,2|2,0:0|0:0,0:0:0:0:
149,320,97763,2,0,B|123:269|146:225|146:225|124:194|124:194|120:112,1,202,8|8,0:0|0:0,0:0:0:0:
37,71,98556,1,2,0:0:0:0:
28,171,98820,1,8,0:0:0:0:
120,129,99084,6,0,L|240:133,1,101,6|8,0:0|0:0,0:0:0:0:
312,88,99613,2,0,P|328:71|354:54,2,50.5,2|0|8,0:0|0:0|0:0,0:0:0:0:
305,189,100142,2,0,P|267:228|210:231,1,101,2|8,0:0|0:0,0:0:0:0:
221,334,100670,2,0,P|273:347|304:395,1,101,2|8,0:0|0:0,0:0:0:0:
389,334,101199,5,6,0:0:0:0:
256,192,101331,12,0,103842,0:0:0:0:
399,307,109657,5,12,0:0:0:0:
399,307,110714,2,0,L|233:312,2,151.5,2|2|2,0:0|0:0|0:0,0:0:0:0:
490,350,111772,6,0,P|501:298|473:239,1,101,8|0,0:0|0:0,0:0:0:0:
184,289,112829,2,0,P|140:286|78:283,1,101,2|2,0:0|0:0,0:0:0:0:
33,292,113225,2,0,P|15:231|80:142,1,151.5,2|2,0:0|0:0,0:0:0:0:
38,56,113886,6,0,B|87:43|121:78|121:78|166:21|245:49,1,202,2|0,0:0|0:0,0:0:0:0:
309,89,114679,1,2,0:0:0:0:
385,23,114943,2,0,P|411:87|341:192,1,202,2|0,0:0|0:0,0:0:0:0:
244,176,115736,1,2,0:0:0:0:
166,241,116001,6,0,P|143:196|153:135,1,101,2|0,0:0|0:0,0:0:0:0:
220,77,116529,1,2,0:0:0:0:
244,176,116794,2,0,L|251:248,1,50.5,0|8,0:0|0:0,0:0:0:0:
491,123,117587,2,0,L|484:195,2,50.5,0|0|8,0:0|0:0|0:0,0:0:0:0:
437,37,118115,5,6,0:0:0:0:
346,82,118380,1,8,0:0:0:0:
400,168,118644,2,0,P|409:221|415:288,1,101,2|8,0:0|0:0,0:0:0:0:
451,301,119040,1,0,0:0:0:0:
451,301,119172,2,0,P|402:338|335:324,1,101,2|8,0:0|0:0,0:0:0:0:
332,298,119569,2,0,P|258:280|193:318,1,151.5,2|8,0:0|0:0,0:0:0:0:
94,326,120230,6,0,P|79:263|72:206,1,101,2|8,0:0|0:0,0:0:0:0:
31,133,120758,2,0,P|76:110|94:110,1,50.5,2|2,0:0|0:0,0:0:0:0:
126,111,121023,1,8,0:0:0:0:
203,45,121287,2,0,P|229:99|209:160,1,101,2|8,0:0|0:0,0:0:0:0:
200,183,121683,2,0,P|189:237|258:323,1,151.5,2|8,0:0|0:0,0:0:0:0:
339,318,122344,5,2,0:0:0:0:
291,228,122609,1,8,0:0:0:0:
391,229,122873,2,0,P|419:188|410:127,1,101,2|8,0:0|0:0,0:0:0:0:
349,62,123402,2,0,P|299:58|251:96,1,101,2|8,0:0|0:0,0:0:0:0:
238,132,123798,2,0,P|183:144|81:161,1,151.5,2|8,0:0|0:0,0:0:0:0:
9,97,124459,6,0,L|15:27,2,50.5,2|0|8,0:0|0:0|0:0,0:0:0:0:
89,159,124987,2,0,L|84:209,2,50.5,2|2|8,0:0|0:0|0:0,0:0:0:0:
103,110,125384,2,0,P|151:86|204:99,1,101
276,156,125913,1,0,0:0:0:0:
276,156,126045,2,0,B|326:175|367:149|367:149|402:165|402:165|445:136|502:161,1,202,4|2,0:3|0:0,0:0:0:0:
291,251,127102,5,8,0:0:0:0:
459,362,127631,2,0,P|462:302|465:254,1,101,0|0,0:0|3:0,0:0:0:0:
378,207,128159,2,0,P|374:266|372:315,1,101,8|0,0:0|0:0,0:0:0:0:
280,351,128688,5,2,0:0:0:0:
94,271,129217,1,8,0:0:0:0:
267,168,129745,2,0,P|263:218|261:268,1,101,0|0,0:0|3:0,0:0:0:0:
174,320,130274,2,0,P|177:269|179:219,1,101,8|0,0:0|0:0,0:0:0:0:
195,119,130802,6,0,P|158:60|7:94,1,202,2|2,0:0|0:0,0:0:0:0:
97,140,131595,1,0,0:0:0:0:
1,166,131860,2,0,P|66:237|162:217,1,202,2|2,0:0|0:0,0:0:0:0:
195,119,132653,1,0,0:0:0:0:
249,203,132917,6,0,B|291:134|291:134|299:76|299:76|342:30,1,202,2|8,0:0|0:0,0:0:0:0:
394,116,133710,1,0,0:0:0:0:
475,56,133974,2,0,B|497:115|497:115|482:172|482:172|495:257,1,202,2|8,0:0|0:0,0:0:0:0:
432,330,134767,5,2,0:0:0:0:
432,330,134899,2,0,P|386:298|324:302,1,101,6|0,0:0|0:0,0:0:0:0:
299,269,135296,2,0,L|291:378,2,101,8|2|8,0:0|0:0|0:0,0:0:0:0:
247,181,136089,1,2,0:0:0:0:
314,105,136353,1,8,0:0:0:0:
314,105,136485,2,0,L|321:4,1,101,2|0,0:0|0:0,0:0:0:0:
405,59,137014,6,0,P|416:122|383:174,1,101,2|0,0:0|0:0,0:0:0:0:
368,192,137410,2,0,L|475:201,2,101,8|2|8,0:0|0:0|0:0,0:0:0:0:
314,105,138203,1,2,0:0:0:0:
247,181,138468,1,8,0:0:0:0:
247,181,138600,2,0,L|146:172,1,101,2|0,0:0|0:0,0:0:0:0:
67,109,139128,6,0,P|43:157|67:232,1,101,6|2,0:0|0:0,0:0:0:0:
71,248,139525,2,0,P|116:276|193:258,1,101,2|8,0:0|0:0,0:0:0:0:
249,222,140054,1,2,0:0:0:0:
309,303,140318,2,0,P|346:240|281:126,1,202,2|2,0:0|0:0,0:0:0:0:
194,114,141111,1,0,0:0:0:0:
262,40,141375,6,0,L|369:55,1,101,12|8,0:0|0:0,0:0:0:0:
294,132,141904,2,0,L|401:147,1,101,8|8,0:0|0:0,0:0:0:0:
326,224,142432,2,0,L|433:239,1,101,8|4,0:0|3:0,0:0:0:0:
496,165,142961,1,8,3:2:0:0:
461,70,143225,1,8,3:2:0:0:
394,146,143490,6,0,L|293:131,1,101,6|8,0:0|0:0,0:0:0:0:
195,152,144018,1,2,0:0:0:0:
130,74,144283,1,8,0:0:0:0:
130,74,144415,2,0,P|100:115|97:176,1,101,2|0,0:0|0:0,0:0:0:0:
109,211,144811,2,0,P|103:243|94:271,1,50.5,8|2,0:0|0:0,0:0:0:0:
71,304,145076,2,0,P|123:297|176:291,1,101,2|8,0:0|0:0,0:0:0:0:
260,337,145604,6,0,P|272:279|249:226,1,101,2|8,0:0|0:0,0:0:0:0:
204,155,146133,1,2,0:0:0:0:
114,201,146397,1,8,0:0:0:0:
114,201,146529,2,0,P|102:143|125:90,1,101,2|0,0:0|0:0,0:0:0:0:
87,61,146926,2,0,L|153:38,1,50.5,8|2,0:0|0:0,0:0:0:0:
171,10,147190,1,2,0:0:0:0:
240,83,147454,1,10,0:0:0:0:
328,33,147719,6,0,P|332:93|334:151,1,101,2|8,0:0|0:0,0:0:0:0:
258,200,148247,2,0,P|259:250|263:300,1,101,2|8,0:0|0:0,0:0:0:0:
339,365,148776,2,0,P|400:369|468:271,2,151.5,2|2|8,0:0|0:0|0:0,0:0:0:0:
373,269,149833,5,6,0:0:0:0:
287,215,150098,2,0,P|289:157|291:105,1,101,8|2,0:0|0:0,0:0:0:0:
348,31,150626,1,2,0:0:0:0:
348,31,150758,2,0,P|388:94|367:179,1,151.5,6|8,0:0|0:0,0:0:0:0:
287,215,151419,2,0,P|234:212|162:209,1,101,2|8,0:0|0:0,0:0:0:0:
109,276,151948,6,0,P|85:228|96:164,1,101,6|8,0:0|0:0,0:0:0:0:
18,109,152476,1,2,0:0:0:0:
80,29,152741,1,8,0:0:0:0:
80,29,152873,2,0,P|129:24|186:18,1,101,2|0,0:0|0:0,0:0:0:0:
221,47,153269,2,0,L|291:40,1,50.5,8|2,0:0|0:0,0:0:0:0:
315,67,153534,2,0,P|319:134|291:178,1,101,2|8,0:0|0:0,0:0:0:0:
294,264,154062,6,0,P|343:259|400:253,1,101,2|8,0:0|0:0,0:0:0:0:
488,289,154591,1,2,0:0:0:0:
466,190,154855,1,8,0:0:0:0:
466,190,154987,2,0,P|417:161|345:176,1,101,2|0,0:0|0:0,0:0:0:0:
329,186,155384,2,0,P|314:157|308:120,1,50.5,8|2,0:0|0:0,0:0:0:0:
308,89,155648,1,2,0:0:0:0:
257,1,155913,1,8,0:0:0:0:
171,53,156177,6,0,L|163:250,1,151.5,2|2,0:0|0:0,0:0:0:0:
250,328,156970,2,0,B|285:288|271:236|271:236|256:182|301:139,1,202,8|8,0:0|0:0,0:0:0:0:
377,76,157763,1,2,0:0:0:0:
394,175,158027,1,8,0:0:0:0:
299,142,158291,6,0,L|169:139,1,101,6|8,0:0|0:0,0:0:0:0:
100,111,158820,2,0,L|49:112,2,50.5,2|0|8,0:0|0:0|0:0,0:0:0:0:
179,45,159349,2,0,P|202:90|197:139,1,101,2|8,0:0|0:0,0:0:0:0:
127,211,159877,1,2,0:0:0:0:
197,283,160142,1,8,0:0:0:0:
113,346,160406,6,0,P|90:301|95:252,1,101,6|8,0:0|0:0,0:0:0:0:
127,211,160802,2,0,P|178:204|295:199,1,151.5,2|8,0:0|0:0,0:0:0:0:
377,216,161463,1,2,0:0:0:0:
467,171,161728,1,8,0:0:0:0:
467,171,161860,2,0,P|426:124|307:140,1,151.5,2|8,0:0|0:0,0:0:0:0:
277,198,162520,6,0,P|276:258|277:329,1,101,2|8,0:0|0:0,0:0:0:0:
285,348,162917,2,0,P|213:366|133:299,1,151.5,2|8,0:0|0:0,0:0:0:0:
56,369,163578,2,0,B|42:322|42:322|53:240,1,101,2|8,0:0|0:0,0:0:0:0:
58,221,163974,2,0,B|64:169|64:169|50:122,1,101,2|0,0:0|3:0,0:0:0:0:
51,71,164371,2,0,L|117:65,1,50.5,8|2,0:0|0:0,0:0:0:0:
148,48,164635,6,0,B|142:100|142:100|156:147,1,101,2|8,0:0|0:0,0:0:0:0:
148,196,165031,2,0,P|195:171|306:201,1,151.5,2|8,0:0|0:0,0:0:0:0:
375,134,165692,1,2,0:0:0:0:
473,171,165957,1,8,0:0:0:0:
473,171,166089,2,0,P|494:232|441:313,1,151.5,2|8,0:0|0:0,0:0:0:0:
378,371,166750,6,0,P|351:324|363:261,1,101,2|8,0:0|0:0,0:0:0:0:
380,235,167146,2,0,L|371:44,1,151.5,2|8,0:0|0:0,0:0:0:0:
297,15,167807,2,0,B|275:61|275:61|278:131,1,101,2|8,0:0|0:0,0:0:0:0:
282,161,168203,2,0,B|284:210|284:210|262:256,1,101,2|0,0:0|3:0,0:0:0:0:
238,301,168600,2,0,L|160:291,1,50.5,8|2,0:0|0:0,0:0:0:0:
140,311,168864,6,0,P|123:258|136:205,1,101,6|8,0:0|0:0,0:0:0:0:
157,170,169261,1,0,0:0:0:0:
157,170,169393,2,0,L|2:175,1,151.5,2|2,0:0|3:2,0:0:0:0:
22,325,170186,1,10,0:0:0:0:
121,343,170450,1,2,0:0:0:0:
189,268,170714,1,10,0:0:0:0:
157,170,170979,6,0,P|154:110|174:70,1,101,6|8,0:0|0:0,0:0:0:0:
171,23,171375,1,0,0:0:0:0:
171,23,171507,2,0,P|233:13|314:79,1,151.5,2|0,0:0|3:0,0:0:0:0:
336,207,172300,2,0,P|331:258|327:319,2,101,8|0|8,0:0|0:0|0:0,0:0:0:0:
421,153,173093,6,0,P|374:111|312:117,1,101,6|8,0:0|0:0,0:0:0:0:
249,156,173622,2,0,P|200:156|144:152,1,101,2|8,0:0|0:0,0:0:0:0:
99,140,174018,2,0,P|60:186|88:296,1,151.5,0|10,3:0|0:0,0:0:0:0:
143,339,174679,2,0,P|191:338|248:343,1,101,2|8,0:0|0:0,0:0:0:0:
333,296,175208,5,6,0:0:0:0:
421,344,175472,1,8,0:0:0:0:
421,344,175604,2,0,L|432:215,2,101,2|2|2,0:0|0:0|0:0,0:0:0:0:
277,295,176529,1,10,0:0:0:0:
181,262,176794,2,0,L|189:161,1,101,0|10,0:0|0:0,0:0:0:0:
137,74,177322,6,0,P|218:58|279:117,2,151.5,2|0|12,0:0|0:0|0:0,0:0:0:0:
188,161,178380,2,0,B|177:210|177:210|197:255|168:298|168:298|179:373,2,202,2|2|4,0:0|0:0|0:0,0:0:0:0:
190,356,187895,6,0,B|199:302|199:302|192:259|192:259|203:192,2,151.5,2|8|2,0:0|0:0|0:0,0:0:0:0:
10,261,189217,2,0,L|29:146,1,101,2|8,0:0|0:0,0:0:0:0:
188,40,190009,6,0,P|247:21|331:83,2,151.5,2|8|2,0:0|0:0|0:0,0:0:0:0:
26,161,191331,2,0,L|10:261,1,101,2|8,0:0|0:0,0:0:0:0:
62,347,191860,1,0,0:0:0:0:
152,301,192124,6,0,B|231:301|231:301|334:309,2,151.5,2|8|2,0:0|0:0|0:0,0:0:0:0:
66,246,193181,2,0,L|69:171,1,50.5,2|8,0:0|0:0,0:0:0:0:
172,85,193710,1,2,0:0:0:0:
254,142,193974,1,0,0:0:0:0:
163,186,194239,6,0,B|97:158|97:158|4:172,2,151.5,2|8|2,0:0|0:0|0:0,0:0:0:0:
245,244,195296,2,0,L|353:224,1,101,8|0,0:0|0:0,0:0:0:0:
438,261,195824,1,8,0:0:0:0:
438,261,196882,6,0,P|465:226|454:156,1,101,12|2,3:2|3:2,0:0:0:0:
396,95,197410,6,0,P|352:89|297:133,1,101,6|8,0:0|0:0,0:0:0:0:
296,218,197939,1,2,0:0:0:0:
200,186,198203,1,8,0:0:0:0:
200,186,198335,2,0,P|192:128|188:78,1,101,2|0,0:0|0:0,0:0:0:0:
199,36,198732,2,0,L|132:19,1,50.5,8|2,0:0|0:0,0:0:0:0:
101,35,198996,2,0,P|89:88|113:143,1,101,2|8,0:0|0:0,0:0:0:0:
24,194,199525,6,0,P|74:234|144:218,1,101,2|8,0:0|0:0,0:0:0:0:
184,301,200054,1,2,0:0:0:0:
236,215,200318,1,8,0:0:0:0:
236,215,200450,2,0,P|291:217|346:220,1,101,2|0,0:0|0:0,0:0:0:0:
376,250,200846,2,0,L|439:253,1,50.5,8|2,0:0|0:0,0:0:0:0:
476,241,201111,1,2,0:0:0:0:
442,145,201375,1,8,0:0:0:0:
509,70,201639,6,0,P|476:48|398:60,1,101,2|8,0:0|0:0,0:0:0:0:
345,122,202168,2,0,L|228:113,1,101,2|8,0:0|0:0,0:0:0:0:
188,31,202697,2,0,P|112:22|51:78,2,151.5,2|2|8,0:0|0:0|0:0,0:0:0:0:
244,114,203754,5,6,0:0:0:0:
150,150,204018,2,0,L|157:252,1,101,8|2,0:0|0:0,0:0:0:0:
107,339,204547,1,8,0:0:0:0:
107,339,204679,2,0,P|65:287|84:184,1,151.5,6|8,0:0|0:0,0:0:0:0:
59,105,205340,1,2,0:0:0:0:
150,150,205604,1,8,0:0:0:0:
241,195,205868,6,0,L|248:78,1,101,6|8,0:0|0:0,0:0:0:0:
318,21,206397,1,2,0:0:0:0:
344,118,206661,1,8,0:0:0:0:
344,118,206794,2,0,P|396:138|455:123,1,101,2|0,0:0|0:0,0:0:0:0:
489,135,207190,2,0,P|505:162|511:202,1,50.5,8|2,0:0|0:0,0:0:0:0:
476,225,207454,2,0,P|432:260|416:318,1,101,2|8,0:0|0:0,0:0:0:0:
316,287,207983,6,0,P|307:231|264:188,1,101,2|8,0:0|0:0,0:0:0:0:
242,103,208512,1,2,0:0:0:0:
167,169,208776,1,8,0:0:0:0:
167,169,208908,2,0,L|61:190,1,101,2|0,0:0|0:0,0:0:0:0:
18,200,209305,2,0,L|11:144,1,50.5,8|2,0:0|0:0,0:0:0:0:
20,100,209569,1,2,0:0:0:0:
119,81,209833,1,8,0:0:0:0:
167,169,210098,6,0,B|169:244|169:244|161:336,1,151.5,2|2,0:0|0:0,0:0:0:0:
304,372,210891,2,0,B|286:332|307:297|307:297|294:256|294:256|298:158,1,202,8|8,0:0|0:0,0:0:0:0:
266,79,211683,1,2,0:0:0:0:
200,156,211948,1,8,0:0:0:0:
298,175,212212,6,0,L|431:172,1,101,6|8,0:0|0:0,0:0:0:0:
460,253,212741,2,0,L|511:254,2,50.5,2|0|8,0:0|0:0|0:0,0:0:0:0:
408,339,213269,2,0,P|364:289|360:244,1,101,2|8,0:0|0:0,0:0:0:0:
260,281,213798,2,0,P|253:215|280:165,1,101,2|8,0:0|0:0,0:0:0:0:
331,103,214327,6,0,P|275:95|227:93,1,101,6|8,0:0|0:0,0:0:0:0:
147,35,214855,2,0,P|128:81|137:130,1,101,2|8,0:0|0:0,0:0:0:0:
213,197,215384,2,0,P|212:255|208:305,1,101,2|8,0:0|0:0,0:0:0:0:
113,331,215913,2,0,P|114:273|118:223,1,101,2|8,0:0|0:0,0:0:0:0:
137,130,216441,6,0,P|168:104|260:114,1,101,2|8,0:0|0:0,0:0:0:0:
301,165,216970,2,0,P|308:204|253:279,1,101,2|8,0:0|0:0,0:0:0:0:
190,291,217498,2,0,P|151:277|114:192,1,101,2|8,0:0|0:0,0:0:0:0:
137,130,218027,1,2,0:0:0:0:
40,160,218291,1,8,0:0:0:0:
116,230,218556,6,0,P|186:231|228:234,1,101,2|8,0:0|0:0,0:0:0:0:
315,207,219084,2,0,P|365:209|415:210,1,101,2|8,0:0|0:0,0:0:0:0:
509,171,219613,2,0,P|516:221|498:267,1,101,2|8,0:0|0:0,0:0:0:0:
404,306,220142,2,0,P|397:256|415:210,1,101,2|8,0:0|0:0,0:0:0:0:
379,115,220670,6,0,P|333:94|277:103,1,101,2|8,0:0|0:0,0:0:0:0:
183,85,221199,2,0,P|190:153|201:220,1,101,2|8,0:0|0:0,0:0:0:0:
211,233,221595,2,0,P|160:261|66:205,1,151.5,2|8,0:0|0:0,0:0:0:0:
9,154,222256,2,0,L|2:95,2,50.5,8|0|8,0:0|0:0|0:0,0:0:0:0:
108,133,222785,5,2,0:0:0:0:
78,228,223049,1,8,0:0:0:0:
48,323,223313,2,0,L|172:320,1,101,2|8,0:0|0:0,0:0:0:0:
195,341,223710,2,0,L|348:337,1,151.5,2|8,0:0|0:0,0:0:0:0:
419,266,224371,2,0,P|372:235|303:253,1,101,2|8,0:0|0:0,0:0:0:0:
243,185,224899,5,2,0:0:0:0:
330,134,225164,1,8,0:0:0:0:
329,237,225428,2,0,P|376:268|445:250,1,101,2|8,0:0|0:0,0:0:0:0:
465,283,225824,2,0,P|472:230|484:84,1,151.5,2|8,0:0|0:0,0:0:0:0:
405,65,226485,1,2,0:0:0:0:
330,134,226750,1,8,0:0:0:0:
301,37,227014,6,0,P|254:15|198:27,1,101,2|8,0:0|0:0,0:0:0:0:
143,101,227543,1,2,0:0:0:0:
49,63,227807,1,8,0:0:0:0:
49,63,227939,2,0,P|54:120|60:224,1,151.5,2|8,0:0|0:0,0:0:0:0:
126,290,228600,2,0,P|156:223|141:169,1,101,2|8,0:0|0:0,0:0:0:0:
143,101,229128,5,12,0:0:0:0:
232,54,229393,1,8,0:0:0:0:
298,130,229657,1,8,0:0:0:0:
250,218,229921,1,8,0:0:0:0:
250,218,230054,2,0,B|200:232|200:232|115:212,1,101,2|2,0:0|0:0,0:0:0:0:
102,210,230450,2,0,L|105:280,1,50.5,8|2,0:0|0:0,0:0:0:0:
86,307,230714,2,0,L|83:377,2,50.5,8|2|2,0:0|0:0|0:0,0:0:0:0:
10,240,231243,5,12,0:0:0:0:
