osu file format v14

[General]
AudioFilename: audio.mp3
AudioLeadIn: 0
PreviewTime: 53712
Countdown: 0
SampleSet: Normal
StackLeniency: 0.7
Mode: 1
LetterboxInBreaks: 0
WidescreenStoryboard: 1

[Editor]
Bookmarks: 7721,11950,20408,28866,37324,45650,54241,62699,71157,79615
DistanceSpacing: 1.2
BeatDivisor: 4
GridSize: 32
TimelineZoom: 1.9

[Metadata]
Title:Sendan Life
TitleUnicode:センダンライフ
Artist:Remo Prototype[CV: Hanamori Yumiri]
ArtistUnicode:リモ Prototype[CV:花守ゆみり]
Creator:rew0825
Version:Futsuu
Source:ガラスの花と壊す世界
Tags:vocaloid Chukka やしきん yashikin Glass no Hana to Kowasu Sekai GARAKOWA Restore the World Vitreous Flower Destroy the World
BeatmapID:1058877
BeatmapSetID:497452

[Difficulty]
HPDrainRate:7
CircleSize:2
OverallDifficulty:3
ApproachRate:9
SliderMultiplier:1.4
SliderTickRate:1

[Events]
//Background and Video events
0,0,"BG.jpg",0,0
//Break Periods
//Storyboard Layer 0 (Background)
//Storyboard Layer 1 (Fail)
//Storyboard Layer 2 (Pass)
//Storyboard Layer 3 (Foreground)
//Storyboard Sound Samples

[TimingPoints]
6664,264.31718061674,4,1,0,70,1,0
37324,-100,4,1,0,50,0,0
37589,-125,4,1,0,50,0,0
45650,-100,4,1,0,70,0,0
54241,-100,4,1,0,90,0,1
71157,-100,4,1,0,70,0,0

[HitObjects]
256,192,7721,5,0,0:0:0:0:
256,192,7985,1,8,0:0:0:0:
256,192,8249,1,0,0:0:0:0:
256,192,8646,1,0,0:0:0:0:
256,192,8910,1,8,0:0:0:0:
256,192,9175,1,8,0:0:0:0:
256,192,9835,1,0,0:0:0:0:
256,192,10100,1,8,0:0:0:0:
256,192,10364,1,0,0:0:0:0:
256,192,10760,1,0,0:0:0:0:
256,192,11025,1,8,0:0:0:0:
256,192,11289,1,8,0:0:0:0:
256,192,11950,1,0,0:0:0:0:
256,192,12214,1,8,0:0:0:0:
256,192,12742,1,8,0:0:0:0:
256,192,13007,1,0,0:0:0:0:
256,192,13271,1,8,0:0:0:0:
256,192,13800,1,8,0:0:0:0:
256,192,14064,1,0,0:0:0:0:
256,192,14328,1,8,0:0:0:0:
256,192,14857,1,8,0:0:0:0:
256,192,15122,1,0,0:0:0:0:
256,192,15386,1,8,0:0:0:0:
256,192,15915,1,8,0:0:0:0:
256,192,16179,1,0,0:0:0:0:
256,192,16443,1,8,0:0:0:0:
256,192,16972,1,8,0:0:0:0:
256,192,17236,1,0,0:0:0:0:
256,192,17500,1,8,0:0:0:0:
256,192,18029,1,8,0:0:0:0:
256,192,18293,1,0,0:0:0:0:
256,192,18557,1,8,0:0:0:0:
256,192,18822,1,8,0:0:0:0:
256,192,19218,1,4,0:0:0:0:
256,192,19879,1,8,0:0:0:0:
256,192,20144,1,8,0:0:0:0:
256,192,20408,1,4,0:0:0:0:
256,192,20672,1,8,0:0:0:0:
256,192,21201,1,8,0:0:0:0:
256,192,21465,1,0,0:0:0:0:
256,192,21730,1,8,0:0:0:0:
256,192,22258,1,8,0:0:0:0:
256,192,22523,1,0,0:0:0:0:
256,192,22787,1,8,0:0:0:0:
256,192,23051,1,0,0:0:0:0:
256,192,23183,1,0,0:0:0:0:
256,192,23315,1,8,0:0:0:0:
256,192,23580,1,0,0:0:0:0:
256,192,23844,1,8,0:0:0:0:
256,192,24373,1,8,0:0:0:0:
256,192,24637,1,0,0:0:0:0:
256,192,24901,1,8,0:0:0:0:
256,192,25430,1,8,0:0:0:0:
256,192,25694,1,0,0:0:0:0:
256,192,25959,1,8,0:0:0:0:
256,192,26223,1,0,0:0:0:0:
256,192,26355,1,0,0:0:0:0:
256,192,26487,1,8,0:0:0:0:
256,192,26752,1,0,0:0:0:0:
256,192,27016,1,8,0:0:0:0:
256,192,27545,1,8,0:0:0:0:
256,192,27809,1,0,0:0:0:0:
256,192,28338,1,8,0:0:0:0:
256,192,28602,1,8,0:0:0:0:
256,192,28866,1,4,0:0:0:0:
256,192,29130,1,8,0:0:0:0:
256,192,29659,1,8,0:0:0:0:
256,192,29923,1,0,0:0:0:0:
256,192,30188,1,8,0:0:0:0:
256,192,30320,1,0,0:0:0:0:
256,192,30452,1,0,0:0:0:0:
256,192,30716,1,8,0:0:0:0:
256,192,30981,1,0,0:0:0:0:
256,192,31245,1,8,0:0:0:0:
256,192,31509,1,0,0:0:0:0:
256,192,31641,1,0,0:0:0:0:
256,192,31774,1,8,0:0:0:0:
256,192,32038,1,0,0:0:0:0:
256,192,32302,1,8,0:0:0:0:
256,192,32831,1,8,0:0:0:0:
256,192,33095,1,0,0:0:0:0:
256,192,33360,1,8,0:0:0:0:
256,192,33492,1,0,0:0:0:0:
256,192,33624,1,0,0:0:0:0:
256,192,33888,1,8,0:0:0:0:
256,192,34152,1,0,0:0:0:0:
256,192,34417,1,8,0:0:0:0:
256,192,34945,1,8,0:0:0:0:
256,192,35210,1,0,0:0:0:0:
256,192,35474,1,8,0:0:0:0:
256,192,35738,1,0,0:0:0:0:
256,192,36003,1,8,0:0:0:0:
256,192,36135,1,0,0:0:0:0:
256,192,36796,1,8,0:0:0:0:
256,192,37060,1,8,0:0:0:0:
256,192,37324,1,4,0:0:0:0:
256,192,38117,1,0,0:0:0:0:
256,192,38514,1,0,0:0:0:0:
256,192,38910,1,8,0:0:0:0:
256,192,39439,1,0,0:0:0:0:
256,192,40232,1,0,0:0:0:0:
256,192,40628,1,0,0:0:0:0:
256,192,41025,1,8,0:0:0:0:
256,192,41553,1,0,0:0:0:0:
256,192,42611,1,0,0:0:0:0:
256,192,43668,1,0,0:0:0:0:
256,192,44725,1,0,0:0:0:0:
256,192,45254,1,8,0:0:0:0:
256,192,45650,1,4,0:0:0:0:
256,192,46311,1,0,0:0:0:0:
256,192,46575,1,8,0:0:0:0:
256,192,46840,1,0,0:0:0:0:
256,192,47104,1,8,0:0:0:0:
256,192,47368,1,0,0:0:0:0:
256,192,47765,1,4,0:0:0:0:
256,192,48426,1,0,0:0:0:0:
256,192,48690,1,8,0:0:0:0:
256,192,48954,1,4,0:0:0:0:
256,192,49483,1,8,0:0:0:0:
256,192,49879,1,4,0:0:0:0:
256,192,50540,1,0,0:0:0:0:
256,192,50804,1,8,0:0:0:0:
256,192,51069,1,0,0:0:0:0:
256,192,51333,1,8,0:0:0:0:
256,192,51862,1,8,0:0:0:0:
256,192,52126,1,4,0:0:0:0:
256,192,52655,1,4,0:0:0:0:
256,192,53051,1,12,0:0:0:0:
256,192,53448,1,8,0:0:0:0:
256,192,53712,1,0,0:0:0:0:
256,192,53844,1,0,0:0:0:0:
256,192,53976,1,8,0:0:0:0:
256,192,54241,1,4,0:0:0:0:
256,192,54505,1,8,0:0:0:0:
256,192,54769,1,0,0:0:0:0:
256,192,55034,1,8,0:0:0:0:
256,192,55562,1,8,0:0:0:0:
256,192,55826,1,0,0:0:0:0:
256,192,55959,1,0,0:0:0:0:
256,192,56091,1,8,0:0:0:0:
256,192,56355,1,0,0:0:0:0:
256,192,56619,1,8,0:0:0:0:
256,192,56884,1,0,0:0:0:0:
256,192,57148,1,8,0:0:0:0:
256,192,57677,1,8,0:0:0:0:
256,192,57941,1,0,0:0:0:0:
256,192,58073,1,0,0:0:0:0:
256,192,58205,1,8,0:0:0:0:
256,192,58470,1,0,0:0:0:0:
256,192,58734,1,8,0:0:0:0:
256,192,58998,1,0,0:0:0:0:
256,192,59263,1,8,0:0:0:0:
256,192,59527,1,0,0:0:0:0:
256,192,59791,1,8,0:0:0:0:
256,192,60320,1,8,0:0:0:0:
256,192,60584,1,0,0:0:0:0:
256,192,60849,1,8,0:0:0:0:
256,192,61113,1,0,0:0:0:0:
256,192,61509,1,4,0:0:0:0:
256,192,61906,1,8,0:0:0:0:
256,192,62170,1,8,0:0:0:0:
256,192,62699,1,4,0:0:0:0:
256,192,62963,1,8,0:0:0:0:
256,192,63227,1,0,0:0:0:0:
256,192,63492,1,8,0:0:0:0:
256,192,64020,1,8,0:0:0:0:
256,192,64285,1,0,0:0:0:0:
256,192,64417,1,0,0:0:0:0:
256,192,64549,1,8,0:0:0:0:
256,192,64813,1,0,0:0:0:0:
256,192,65078,1,8,0:0:0:0:
256,192,65342,1,0,0:0:0:0:
256,192,65606,1,8,0:0:0:0:
256,192,66135,1,8,0:0:0:0:
256,192,66399,1,0,0:0:0:0:
256,192,66531,1,0,0:0:0:0:
256,192,66663,1,8,0:0:0:0:
256,192,66928,1,4,0:0:0:0:
256,192,67192,1,8,0:0:0:0:
256,192,67456,1,0,0:0:0:0:
256,192,67721,1,8,0:0:0:0:
256,192,67985,1,0,0:0:0:0:
256,192,68249,1,8,0:0:0:0:
256,192,68778,1,8,0:0:0:0:
256,192,69042,1,4,0:0:0:0:
256,192,69307,1,8,0:0:0:0:
256,192,69571,1,8,0:0:0:0:
256,192,69835,1,8,0:0:0:0:
256,192,70100,1,0,0:0:0:0:
256,192,70364,1,8,0:0:0:0:
256,192,70496,1,0,0:0:0:0:
256,192,70628,1,8,0:0:0:0:
256,192,71157,1,4,0:0:0:0:
256,192,71421,1,8,0:0:0:0:
256,192,71949,1,8,0:0:0:0:
256,192,72214,1,0,0:0:0:0:
256,192,72478,1,8,0:0:0:0:
256,192,73007,1,8,0:0:0:0:
256,192,73271,1,0,0:0:0:0:
256,192,73535,1,8,0:0:0:0:
256,192,74063,1,8,0:0:0:0:
256,192,74329,1,0,0:0:0:0:
256,192,74593,1,8,0:0:0:0:
256,192,75121,1,8,0:0:0:0:
256,192,75386,1,0,0:0:0:0:
256,192,75650,1,8,0:0:0:0:
256,192,76178,1,8,0:0:0:0:
256,192,76443,1,0,0:0:0:0:
256,192,76707,1,8,0:0:0:0:
256,192,77236,1,8,0:0:0:0:
256,192,77501,1,0,0:0:0:0:
256,192,77765,1,8,0:0:0:0:
256,192,78029,1,8,0:0:0:0:
256,192,78426,1,0,0:0:0:0:
256,192,79086,1,8,0:0:0:0:
256,192,79351,1,8,0:0:0:0:
256,192,79615,1,4,0:0:0:0:
