osu file format v14

[General]
AudioFilename: .mp3
AudioLeadIn: 0
PreviewTime: 83710
Countdown: 1
SampleSet: Normal
StackLeniency: 0.7
Mode: 1
LetterboxInBreaks: 0
WidescreenStoryboard: 1

[Editor]
DistanceSpacing: 1
BeatDivisor: 4
GridSize: 32
TimelineZoom: 2.4

[Metadata]
Title:Sendan Life
TitleUnicode:センダンライフ
Artist:Remo Prototype[CV: Hanamori Yumiri]
ArtistUnicode:リモ Prototype[CV:花守ゆみり]
Creator:Y O U T A
Version:Muzukashii
Source:ガラスの花と壊す世界
Tags:vocaloid Chukka やしきん yashikin Glass no Hana to Kowasu Sekai GARAKOWA Restore the World Vitreous Flower Destroy the World D.backup
BeatmapID:861025
BeatmapSetID:395660

[Difficulty]
HPDrainRate:5
CircleSize:5
OverallDifficulty:5
ApproachRate:5
SliderMultiplier:1.4
SliderTickRate:1

[Events]
//Background and Video events
0,0,"BG169.jpg",0,0
//Break Periods
//Storyboard Layer 0 (Background)
//Storyboard Layer 1 (Fail)
//Storyboard Layer 2 (Pass)
//Storyboard Layer 3 (Foreground)
//Storyboard Sound Samples

[TimingPoints]
37785,264.31718061674,4,1,0,100,1,0
67653,-111.111111111111,4,1,0,100,0,0
75714,-100,4,1,0,100,0,0
84305,-100,4,1,0,100,0,1
101221,-100,4,1,0,100,0,0
126860,-111.111111111111,4,1,0,100,0,0
134921,-100,4,1,0,100,0,0
143512,-100,4,1,0,100,0,1
160428,-100,4,1,0,100,0,0
179459,-125,4,1,0,100,0,0
187917,-111.111111111111,4,1,0,100,0,0
196904,-100,4,1,0,100,0,0
197432,-100,4,1,0,100,0,1
214349,-100,4,1,0,100,0,0

[HitObjects]
256,192,37785,5,4,0:0:0:0:
256,192,38049,1,4,0:0:0:0:
256,192,38313,1,4,0:0:0:0:
256,192,38446,1,4,0:0:0:0:
256,192,38710,1,4,0:0:0:0:
256,192,38974,1,4,0:0:0:0:
256,192,39239,1,4,0:0:0:0:
256,192,39635,1,8,0:0:0:0:
256,192,39899,1,4,0:0:0:0:
256,192,40164,1,4,0:0:0:0:
256,192,40428,1,4,0:0:0:0:
256,192,40560,1,4,0:0:0:0:
256,192,40824,1,4,0:0:0:0:
256,192,41089,1,4,0:0:0:0:
288,224,41353,1,4,0:0:0:0:
288,192,41617,1,0,0:0:0:0:
288,192,41683,1,0,0:0:0:0:
288,192,41750,1,8,0:0:0:0:
320,192,42014,1,4,0:0:0:0:
320,192,42278,1,8,0:0:0:0:
320,192,42542,1,0,0:0:0:0:
320,192,42675,1,0,0:0:0:0:
320,192,42807,1,8,0:0:0:0:
288,224,43071,1,0,0:0:0:0:
320,192,43335,1,8,0:0:0:0:
320,192,43600,1,0,0:0:0:0:
320,192,43864,1,8,0:0:0:0:
320,192,43996,1,8,0:0:0:0:
320,192,44128,1,0,0:0:0:0:
320,192,44393,1,8,0:0:0:0:
320,192,44657,1,0,0:0:0:0:
320,192,44921,1,8,0:0:0:0:
320,192,45053,1,8,0:0:0:0:
320,192,45186,1,0,0:0:0:0:
256,192,45450,1,8,0:0:0:0:
256,192,45714,1,0,0:0:0:0:
256,192,45846,1,0,0:0:0:0:
256,192,45979,1,8,0:0:0:0:
256,192,46111,1,8,0:0:0:0:
256,192,46243,1,0,0:0:0:0:
256,192,46507,1,8,0:0:0:0:
256,192,46772,1,0,0:0:0:0:
256,192,46904,1,0,0:0:0:0:
256,192,47036,1,8,0:0:0:0:
256,192,47300,1,0,0:0:0:0:
256,192,47565,1,8,0:0:0:0:
256,192,47829,1,0,0:0:0:0:
256,192,47961,1,0,0:0:0:0:
256,192,48093,1,8,0:0:0:0:
256,192,48357,1,0,0:0:0:0:
256,192,48622,1,8,0:0:0:0:
256,192,48754,1,8,0:0:0:0:
256,192,48886,1,0,0:0:0:0:
256,192,49150,1,0,0:0:0:0:
256,192,49283,1,8,0:0:0:0:
256,192,49547,1,8,0:0:0:0:
256,192,49679,1,0,0:0:0:0:
256,192,49811,1,0,0:0:0:0:
256,192,49943,1,8,0:0:0:0:
256,192,50208,1,8,0:0:0:0:
256,192,50340,1,8,0:0:0:0:
256,192,50472,1,4,0:0:0:0:
288,192,50736,1,8,0:0:0:0:
288,192,51001,1,0,0:0:0:0:
288,192,51133,1,0,0:0:0:0:
288,192,51265,1,8,0:0:0:0:
288,192,51529,1,0,0:0:0:0:
288,192,51794,1,8,0:0:0:0:
288,192,52058,1,0,0:0:0:0:
288,192,52322,1,8,0:0:0:0:
288,192,52454,1,8,0:0:0:0:
288,192,52587,1,0,0:0:0:0:
288,192,52851,1,8,0:0:0:0:
288,192,53115,1,0,0:0:0:0:
288,192,53379,1,0,0:0:0:0:
288,192,53512,1,0,0:0:0:0:
288,192,53644,1,8,0:0:0:0:
320,192,53908,1,0,0:0:0:0:
320,192,54172,1,0,0:0:0:0:
320,192,54437,1,8,0:0:0:0:
320,224,54569,1,8,0:0:0:0:
320,224,54701,1,0,0:0:0:0:
320,224,54965,1,8,0:0:0:0:
320,224,55230,1,8,0:0:0:0:
320,224,55494,1,8,0:0:0:0:
320,224,55758,1,0,0:0:0:0:
320,224,56023,1,8,0:0:0:0:
320,224,56155,1,0,0:0:0:0:
320,224,56419,1,0,0:0:0:0:
320,224,56551,1,8,0:0:0:0:
320,224,56683,1,8,0:0:0:0:
320,224,56816,1,0,0:0:0:0:
320,224,57080,1,8,0:0:0:0:
320,224,57344,1,0,0:0:0:0:
320,224,57609,1,8,0:0:0:0:
320,224,57873,1,0,0:0:0:0:
288,160,58137,1,8,0:0:0:0:
288,160,58269,1,0,0:0:0:0:
288,160,58402,1,8,0:0:0:0:
288,160,58534,1,8,0:0:0:0:
288,160,58666,1,0,0:0:0:0:
256,192,58930,1,4,0:0:0:0:
256,192,59194,1,8,0:0:0:0:
256,192,59459,1,0,0:0:0:0:
256,192,59591,1,0,0:0:0:0:
256,192,59723,1,8,0:0:0:0:
256,192,59987,1,0,0:0:0:0:
256,192,60252,1,8,0:0:0:0:
256,192,60384,1,0,0:0:0:0:
256,192,60648,1,0,0:0:0:0:
256,128,60780,1,8,0:0:0:0:
256,128,61045,1,0,0:0:0:0:
256,128,61309,1,8,0:0:0:0:
256,128,61441,1,8,0:0:0:0:
256,128,61573,1,0,0:0:0:0:
256,128,61838,1,8,0:0:0:0:
256,128,62102,1,0,0:0:0:0:
288,160,62366,1,8,0:0:0:0:
288,160,62631,1,8,0:0:0:0:
288,160,62895,1,8,0:0:0:0:
288,160,63027,1,8,0:0:0:0:
288,160,63159,1,0,0:0:0:0:
256,192,63424,1,8,0:0:0:0:
256,192,63688,1,0,0:0:0:0:
256,192,63820,1,0,0:0:0:0:
256,192,63952,1,8,0:0:0:0:
256,192,64084,1,0,0:0:0:0:
256,192,64216,1,8,0:0:0:0:
256,192,64481,1,8,0:0:0:0:
256,192,64745,1,8,0:0:0:0:
256,192,64877,1,0,0:0:0:0:
256,192,65009,1,8,0:0:0:0:
256,192,65142,1,8,0:0:0:0:
320,192,65406,1,0,0:0:0:0:
320,192,65538,1,8,0:0:0:0:
288,192,65802,1,0,0:0:0:0:
288,192,65935,1,8,0:0:0:0:
320,192,66199,1,8,0:0:0:0:
320,192,66331,1,0,0:0:0:0:
288,192,66463,1,8,0:0:0:0:
352,192,66727,1,0,0:0:0:0:
352,192,66860,1,8,0:0:0:0:
352,192,66992,1,8,0:0:0:0:
288,160,67124,1,8,0:0:0:0:
352,192,67256,1,0,0:0:0:0:
288,160,67388,1,8,0:0:0:0:
288,192,67653,1,0,0:0:0:0:
320,192,67785,1,8,0:0:0:0:
384,256,68181,1,0,0:0:0:0:
224,160,68710,1,0,0:0:0:0:
320,160,68974,1,8,0:0:0:0:
320,160,69239,1,8,0:0:0:0:
320,160,69503,1,0,0:0:0:0:
320,160,69767,1,0,0:0:0:0:
320,160,69899,1,8,0:0:0:0:
320,160,70296,1,8,0:0:0:0:
320,160,70560,1,0,0:0:0:0:
320,160,70824,1,0,0:0:0:0:
320,160,71089,1,8,0:0:0:0:
288,160,71353,1,0,0:0:0:0:
288,160,71617,1,0,0:0:0:0:
288,160,72146,1,8,0:0:0:0:
288,160,72410,1,8,0:0:0:0:
288,160,72675,1,0,0:0:0:0:
288,160,73203,1,8,0:0:0:0:
288,160,73468,1,0,0:0:0:0:
320,192,73732,1,8,0:0:0:0:
320,192,74261,1,8,0:0:0:0:
320,192,74525,1,0,0:0:0:0:
320,192,74657,1,0,0:0:0:0:
320,192,74789,1,8,0:0:0:0:
320,224,75318,1,8,0:0:0:0:
288,256,75582,1,0,0:0:0:0:
320,160,75714,1,4,0:0:0:0:
256,160,75979,1,0,0:0:0:0:
256,160,76111,1,8,0:0:0:0:
256,160,76375,1,0,0:0:0:0:
256,160,76507,1,0,0:0:0:0:
256,160,76639,1,8,0:0:0:0:
256,160,76904,1,0,0:0:0:0:
256,160,77168,1,8,0:0:0:0:
256,160,77300,1,0,0:0:0:0:
256,160,77565,1,0,0:0:0:0:
256,160,77697,1,8,0:0:0:0:
256,160,77829,1,4,0:0:0:0:
256,160,78093,1,0,0:0:0:0:
224,160,78225,1,8,0:0:0:0:
224,160,78490,1,8,0:0:0:0:
224,160,78622,1,0,0:0:0:0:
224,160,78754,1,8,0:0:0:0:
224,160,79018,1,0,0:0:0:0:
224,160,79150,1,0,0:0:0:0:
224,160,79283,1,8,0:0:0:0:
224,160,79415,1,8,0:0:0:0:
224,160,79679,1,8,0:0:0:0:
224,160,79943,1,4,0:0:0:0:
288,160,80340,1,8,0:0:0:0:
288,160,80604,1,0,0:0:0:0:
288,160,80736,1,0,0:0:0:0:
288,160,80868,1,8,0:0:0:0:
288,160,81133,1,0,0:0:0:0:
288,160,81397,1,8,0:0:0:0:
288,160,81529,1,0,0:0:0:0:
256,160,81794,1,0,0:0:0:0:
256,160,81926,1,8,0:0:0:0:
256,160,82058,1,8,0:0:0:0:
256,160,82190,1,4,0:0:0:0:
256,160,82454,1,4,0:0:0:0:
256,160,82719,1,4,0:0:0:0:
288,160,82983,1,4,0:0:0:0:
288,160,83115,1,12,0:0:0:0:
224,160,83512,1,8,0:0:0:0:
224,160,83776,1,0,0:0:0:0:
224,160,83908,1,0,0:0:0:0:
224,160,83974,1,0,0:0:0:0:
224,160,84040,1,8,0:0:0:0:
256,224,84305,1,4,0:0:0:0:
256,192,84569,1,8,0:0:0:0:
256,192,84833,1,0,0:0:0:0:
256,192,84965,1,0,0:0:0:0:
256,192,85098,1,8,0:0:0:0:
256,192,85230,1,0,0:0:0:0:
256,192,85494,1,0,0:0:0:0:
256,192,85626,1,8,0:0:0:0:
256,192,85758,1,8,0:0:0:0:
256,192,85890,1,0,0:0:0:0:
256,160,86023,1,0,0:0:0:0:
256,160,86155,1,8,0:0:0:0:
256,160,86287,1,0,0:0:0:0:
256,160,86419,1,8,0:0:0:0:
256,160,86683,1,8,0:0:0:0:
256,160,86948,1,0,0:0:0:0:
256,160,87080,1,0,0:0:0:0:
256,160,87212,1,8,0:0:0:0:
256,160,87344,1,8,0:0:0:0:
256,160,87609,1,8,0:0:0:0:
256,160,87741,1,0,0:0:0:0:
256,160,87873,1,8,0:0:0:0:
256,160,88005,1,8,0:0:0:0:
256,160,88137,1,0,0:0:0:0:
256,160,88269,1,8,0:0:0:0:
256,160,88402,1,0,0:0:0:0:
320,192,88534,1,8,0:0:0:0:
320,192,88798,1,0,0:0:0:0:
320,192,88930,1,0,0:0:0:0:
320,192,89062,1,8,0:0:0:0:
320,192,89327,1,0,0:0:0:0:
320,192,89591,1,8,0:0:0:0:
320,192,89723,1,0,0:0:0:0:
320,192,89855,1,0,0:0:0:0:
320,192,89987,1,8,0:0:0:0:
320,192,90120,1,0,0:0:0:0:
320,192,90252,1,0,0:0:0:0:
320,192,90384,1,8,0:0:0:0:
224,128,90648,1,0,0:0:0:0:
224,128,90913,1,8,0:0:0:0:
256,160,91045,1,0,0:0:0:0:
256,160,91177,1,8,0:0:0:0:
256,160,91309,1,8,0:0:0:0:
256,160,91441,1,0,0:0:0:0:
256,160,91573,1,4,0:0:0:0:
256,160,91838,1,0,0:0:0:0:
256,160,91970,1,8,0:0:0:0:
256,160,92102,1,0,0:0:0:0:
256,160,92234,1,8,0:0:0:0:
256,160,92366,1,8,0:0:0:0:
256,128,92498,1,0,0:0:0:0:
256,128,92631,1,0,0:0:0:0:
256,128,92763,1,4,0:0:0:0:
320,128,93027,1,8,0:0:0:0:
320,128,93291,1,0,0:0:0:0:
288,128,93424,1,0,0:0:0:0:
288,128,93556,1,8,0:0:0:0:
288,128,93688,1,0,0:0:0:0:
288,128,93952,1,0,0:0:0:0:
288,128,94084,1,8,0:0:0:0:
288,128,94216,1,8,0:0:0:0:
288,128,94349,1,0,0:0:0:0:
288,128,94481,1,0,0:0:0:0:
288,128,94613,1,8,0:0:0:0:
288,128,94745,1,0,0:0:0:0:
288,128,94877,1,8,0:0:0:0:
288,128,95142,1,8,0:0:0:0:
288,128,95406,1,8,0:0:0:0:
288,128,95538,1,0,0:0:0:0:
288,128,95670,1,0,0:0:0:0:
288,128,95802,1,8,0:0:0:0:
288,128,96067,1,0,0:0:0:0:
288,128,96199,1,8,0:0:0:0:
288,128,96331,1,8,0:0:0:0:
288,128,96463,1,0,0:0:0:0:
288,160,96595,1,8,0:0:0:0:
288,128,96727,1,8,0:0:0:0:
288,160,96860,1,0,0:0:0:0:
256,128,96992,1,8,0:0:0:0:
256,128,97256,1,0,0:0:0:0:
256,128,97388,1,0,0:0:0:0:
256,128,97520,1,8,0:0:0:0:
256,128,97785,1,0,0:0:0:0:
256,128,98049,1,8,0:0:0:0:
256,128,98313,1,0,0:0:0:0:
256,128,98446,1,8,0:0:0:0:
256,128,98710,1,8,0:0:0:0:
256,128,98842,1,0,0:0:0:0:
288,192,98974,1,8,0:0:0:0:
256,128,99106,1,8,0:0:0:0:
288,192,99371,1,8,0:0:0:0:
288,192,99503,1,0,0:0:0:0:
288,192,99635,1,8,0:0:0:0:
288,192,99899,1,0,0:0:0:0:
288,192,100164,1,8,0:0:0:0:
288,192,100296,1,0,0:0:0:0:
288,192,100428,1,0,0:0:0:0:
288,192,100560,1,0,0:0:0:0:
288,192,100692,1,8,0:0:0:0:
288,192,100957,1,8,0:0:0:0:
288,192,101221,1,4,0:0:0:0:
288,192,101485,1,8,0:0:0:0:
288,192,101617,1,0,0:0:0:0:
288,192,101750,1,8,0:0:0:0:
288,192,101882,1,8,0:0:0:0:
288,192,102014,1,0,0:0:0:0:
288,192,102146,1,0,0:0:0:0:
288,192,102278,1,8,0:0:0:0:
288,192,102542,1,8,0:0:0:0:
288,192,102675,1,0,0:0:0:0:
288,192,102807,1,0,0:0:0:0:
288,192,102939,1,0,0:0:0:0:
288,192,103071,1,8,0:0:0:0:
288,192,103203,1,0,0:0:0:0:
288,192,103335,1,8,0:0:0:0:
256,160,103600,1,8,0:0:0:0:
256,160,103732,1,8,0:0:0:0:
256,160,103864,1,0,0:0:0:0:
256,160,103996,1,0,0:0:0:0:
256,160,104128,1,8,0:0:0:0:
256,160,104393,1,8,0:0:0:0:
256,160,104657,1,0,0:0:0:0:
256,160,104789,1,8,0:0:0:0:
256,160,104921,1,0,0:0:0:0:
256,160,105053,1,0,0:0:0:0:
256,160,105186,1,8,0:0:0:0:
256,160,105318,1,0,0:0:0:0:
256,160,105450,1,8,0:0:0:0:
256,160,105714,1,8,0:0:0:0:
256,160,105846,1,8,0:0:0:0:
256,160,105979,1,0,0:0:0:0:
256,160,106111,1,0,0:0:0:0:
256,160,106243,1,8,0:0:0:0:
256,160,106507,1,8,0:0:0:0:
256,160,106772,1,0,0:0:0:0:
256,160,106904,1,0,0:0:0:0:
256,160,107036,1,8,0:0:0:0:
224,128,107168,1,0,0:0:0:0:
224,128,107300,1,8,0:0:0:0:
224,128,107432,1,8,0:0:0:0:
224,128,107565,1,0,0:0:0:0:
224,128,107829,1,8,0:0:0:0:
224,128,108093,1,0,0:0:0:0:
224,128,108225,1,0,0:0:0:0:
224,128,108357,1,8,0:0:0:0:
256,224,108490,1,12,0:0:0:0:
288,192,108754,1,0,0:0:0:0:
288,192,108886,1,8,0:0:0:0:
288,192,109018,1,8,0:0:0:0:
288,192,109151,1,0,0:0:0:0:
288,192,109217,1,0,0:0:0:0:
288,192,109283,1,0,0:0:0:0:
288,192,109415,1,8,0:0:0:0:
256,192,109679,1,4,0:0:0:0:
320,224,110736,1,4,0:0:0:0:
320,224,111133,1,4,0:0:0:0:
320,224,111529,1,4,0:0:0:0:
384,256,111794,1,4,0:0:0:0:
256,192,112851,1,8,0:0:0:0:
256,192,113115,1,0,0:0:0:0:
256,192,113247,1,0,0:0:0:0:
256,192,113379,1,8,0:0:0:0:
256,192,113512,1,8,0:0:0:0:
256,192,113644,1,0,0:0:0:0:
256,192,113776,1,0,0:0:0:0:
256,192,113908,1,8,0:0:0:0:
288,192,114172,1,0,0:0:0:0:
288,192,114437,1,8,0:0:0:0:
288,192,114701,1,0,0:0:0:0:
288,192,114965,1,8,0:0:0:0:
288,192,115230,1,0,0:0:0:0:
288,192,115494,1,8,0:0:0:0:
352,256,115758,1,0,0:0:0:0:
288,192,116023,1,8,0:0:0:0:
288,192,116287,1,0,0:0:0:0:
288,192,116551,1,8,0:0:0:0:
288,192,116816,1,0,0:0:0:0:
288,192,116948,1,4,0:0:0:0:
224,192,117609,1,8,0:0:0:0:
224,192,117675,1,0,0:0:0:0:
224,192,117741,1,0,0:0:0:0:
224,192,117873,1,8,0:0:0:0:
320,224,118137,1,4,0:0:0:0:
320,224,118402,1,8,0:0:0:0:
320,224,118666,1,0,0:0:0:0:
320,224,118798,1,0,0:0:0:0:
320,224,118930,1,8,0:0:0:0:
320,224,119194,1,0,0:0:0:0:
320,224,119459,1,8,0:0:0:0:
320,224,119591,1,0,0:0:0:0:
256,192,119855,1,0,0:0:0:0:
256,192,119987,1,8,0:0:0:0:
256,224,120120,1,0,0:0:0:0:
256,224,120384,1,0,0:0:0:0:
256,224,120516,1,8,0:0:0:0:
256,224,120648,1,8,0:0:0:0:
256,224,120780,1,0,0:0:0:0:
256,224,120913,1,8,0:0:0:0:
256,224,121045,1,8,0:0:0:0:
256,224,121177,1,0,0:0:0:0:
320,192,121309,1,8,0:0:0:0:
256,224,121573,1,8,0:0:0:0:
256,224,121705,1,0,0:0:0:0:
256,224,121838,1,8,0:0:0:0:
352,192,121970,1,8,0:0:0:0:
352,192,122102,1,0,0:0:0:0:
352,192,122234,1,8,0:0:0:0:
352,192,122366,1,0,0:0:0:0:
320,192,122631,1,8,0:0:0:0:
320,192,122895,1,0,0:0:0:0:
320,192,123027,1,0,0:0:0:0:
320,192,123159,1,8,0:0:0:0:
320,192,123424,1,0,0:0:0:0:
320,192,123688,1,8,0:0:0:0:
320,192,123820,1,0,0:0:0:0:
320,192,124084,1,0,0:0:0:0:
320,192,124216,1,8,0:0:0:0:
320,192,124349,1,8,0:0:0:0:
320,192,124613,1,0,0:0:0:0:
320,192,124745,1,8,0:0:0:0:
288,160,125009,1,8,0:0:0:0:
288,192,125142,1,8,0:0:0:0:
288,192,125274,1,0,0:0:0:0:
288,192,125406,1,8,0:0:0:0:
352,128,125670,1,0,0:0:0:0:
352,128,125802,1,8,0:0:0:0:
352,128,125935,1,8,0:0:0:0:
256,128,126067,1,0,0:0:0:0:
256,128,126199,1,0,0:0:0:0:
256,128,126331,1,0,0:0:0:0:
288,128,126463,1,0,0:0:0:0:
288,128,126595,1,4,0:0:0:0:
352,192,126860,1,0,0:0:0:0:
352,192,127124,1,8,0:0:0:0:
352,192,127653,1,0,0:0:0:0:
352,192,127785,1,0,0:0:0:0:
352,192,127917,1,0,0:0:0:0:
352,192,128181,1,8,0:0:0:0:
352,192,128710,1,0,0:0:0:0:
352,192,128974,1,0,0:0:0:0:
352,192,129239,1,8,0:0:0:0:
352,192,129767,1,8,0:0:0:0:
352,192,129899,1,8,0:0:0:0:
352,192,130031,1,0,0:0:0:0:
352,192,130296,1,8,0:0:0:0:
352,192,130824,1,0,0:0:0:0:
352,192,131089,1,0,0:0:0:0:
352,192,131353,1,8,0:0:0:0:
352,192,131882,1,0,0:0:0:0:
352,192,132014,1,8,0:0:0:0:
352,192,132146,1,0,0:0:0:0:
352,192,132410,1,8,0:0:0:0:
352,192,132939,1,0,0:0:0:0:
352,192,133203,1,0,0:0:0:0:
352,192,133468,1,8,0:0:0:0:
352,192,133996,1,8,0:0:0:0:
352,192,134261,1,8,0:0:0:0:
352,192,134525,1,0,0:0:0:0:
352,192,134789,1,8,0:0:0:0:
352,192,134921,1,4,0:0:0:0:
192,192,135186,1,0,0:0:0:0:
320,128,135318,1,8,0:0:0:0:
320,128,135450,1,0,0:0:0:0:
320,128,135582,1,0,0:0:0:0:
320,128,135714,1,0,0:0:0:0:
320,128,135846,1,8,0:0:0:0:
320,128,136111,1,8,0:0:0:0:
320,128,136243,1,0,0:0:0:0:
320,128,136375,1,8,0:0:0:0:
320,128,136507,1,8,0:0:0:0:
320,128,136772,1,0,0:0:0:0:
320,128,136904,1,8,0:0:0:0:
320,128,137036,1,4,0:0:0:0:
352,160,137300,1,0,0:0:0:0:
352,160,137432,1,8,0:0:0:0:
352,160,137697,1,8,0:0:0:0:
352,160,137829,1,0,0:0:0:0:
352,160,137961,1,8,0:0:0:0:
352,160,138093,1,8,0:0:0:0:
256,96,138225,1,0,0:0:0:0:
256,96,138490,1,8,0:0:0:0:
256,96,138622,1,8,0:0:0:0:
256,96,138886,1,0,0:0:0:0:
256,160,139018,1,8,0:0:0:0:
256,160,139150,1,4,0:0:0:0:
256,160,139415,1,0,0:0:0:0:
256,160,139547,1,8,0:0:0:0:
256,160,139811,1,8,0:0:0:0:
256,160,139943,1,0,0:0:0:0:
256,160,140076,1,8,0:0:0:0:
288,96,140208,1,8,0:0:0:0:
320,128,140472,1,0,0:0:0:0:
320,128,140604,1,8,0:0:0:0:
320,128,140868,1,8,0:0:0:0:
320,128,141001,1,0,0:0:0:0:
320,128,141133,1,0,0:0:0:0:
320,128,141265,1,8,0:0:0:0:
320,128,141397,1,4,0:0:0:0:
320,128,141661,1,4,0:0:0:0:
320,128,141926,1,4,0:0:0:0:
320,128,142190,1,4,0:0:0:0:
320,128,142454,1,12,0:0:0:0:
320,128,142719,1,12,0:0:0:0:
288,160,142983,1,0,0:0:0:0:
288,160,143115,1,0,0:0:0:0:
288,160,143181,1,0,0:0:0:0:
288,160,143247,1,8,0:0:0:0:
320,160,143379,1,0,0:0:0:0:
288,160,143512,1,4,0:0:0:0:
320,160,143776,1,8,0:0:0:0:
320,160,144040,1,0,0:0:0:0:
320,160,144172,1,0,0:0:0:0:
320,160,144305,1,8,0:0:0:0:
320,160,144437,1,0,0:0:0:0:
320,160,144569,1,8,0:0:0:0:
320,160,144701,1,8,0:0:0:0:
320,160,144833,1,0,0:0:0:0:
320,160,144965,1,8,0:0:0:0:
320,160,145098,1,0,0:0:0:0:
320,160,145362,1,8,0:0:0:0:
320,160,145494,1,8,0:0:0:0:
320,160,145626,1,0,0:0:0:0:
320,160,145890,1,8,0:0:0:0:
320,160,146155,1,0,0:0:0:0:
128,128,146287,1,0,0:0:0:0:
224,160,146419,1,8,0:0:0:0:
224,160,146551,1,8,0:0:0:0:
224,160,146683,1,0,0:0:0:0:
224,160,146816,1,8,0:0:0:0:
224,160,146948,1,8,0:0:0:0:
224,160,147080,1,8,0:0:0:0:
224,160,147212,1,0,0:0:0:0:
224,160,147344,1,8,0:0:0:0:
224,160,147476,1,0,0:0:0:0:
288,160,147741,1,8,0:0:0:0:
288,160,148005,1,0,0:0:0:0:
288,160,148137,1,0,0:0:0:0:
288,160,148269,1,8,0:0:0:0:
288,160,148534,1,0,0:0:0:0:
288,160,148798,1,8,0:0:0:0:
288,160,149062,1,0,0:0:0:0:
288,160,149194,1,8,0:0:0:0:
288,160,149459,1,0,0:0:0:0:
288,160,149591,1,8,0:0:0:0:
288,160,149723,1,8,0:0:0:0:
288,160,149855,1,0,0:0:0:0:
288,160,150120,1,8,0:0:0:0:
288,128,150384,1,0,0:0:0:0:
288,128,150516,1,0,0:0:0:0:
288,128,150648,1,8,0:0:0:0:
288,128,150780,1,4,0:0:0:0:
288,128,151045,1,0,0:0:0:0:
288,128,151177,1,8,0:0:0:0:
288,128,151441,1,8,0:0:0:0:
288,128,151573,1,0,0:0:0:0:
288,128,151705,1,8,0:0:0:0:
288,128,151838,1,8,0:0:0:0:
224,96,151970,1,4,0:0:0:0:
288,192,152234,1,8,0:0:0:0:
288,192,152498,1,0,0:0:0:0:
288,192,152631,1,0,0:0:0:0:
288,192,152763,1,8,0:0:0:0:
288,192,152895,1,0,0:0:0:0:
288,192,153159,1,0,0:0:0:0:
288,160,153291,1,8,0:0:0:0:
288,160,153424,1,8,0:0:0:0:
288,160,153556,1,0,0:0:0:0:
288,160,153688,1,8,0:0:0:0:
288,160,153820,1,0,0:0:0:0:
288,160,153952,1,0,0:0:0:0:
288,160,154084,1,8,0:0:0:0:
288,160,154349,1,0,0:0:0:0:
288,160,154481,1,0,0:0:0:0:
288,160,154613,1,8,0:0:0:0:
256,192,154877,1,0,0:0:0:0:
256,192,155009,1,8,0:0:0:0:
256,192,155274,1,8,0:0:0:0:
256,192,155406,1,0,0:0:0:0:
256,192,155538,1,0,0:0:0:0:
256,192,155670,1,8,0:0:0:0:
256,160,155802,1,0,0:0:0:0:
256,128,155935,1,8,0:0:0:0:
256,128,156067,1,8,0:0:0:0:
256,128,156199,1,0,0:0:0:0:
256,192,156463,1,8,0:0:0:0:
256,192,156727,1,0,0:0:0:0:
256,192,156860,1,0,0:0:0:0:
256,192,156992,1,8,0:0:0:0:
256,192,157124,1,8,0:0:0:0:
256,192,157388,1,0,0:0:0:0:
256,192,157520,1,8,0:0:0:0:
256,192,157785,1,8,0:0:0:0:
256,192,157917,1,0,0:0:0:0:
256,192,158049,1,8,0:0:0:0:
256,160,158181,1,8,0:0:0:0:
256,160,158313,1,0,0:0:0:0:
256,160,158578,1,0,0:0:0:0:
256,160,158710,1,0,0:0:0:0:
256,160,158842,1,8,0:0:0:0:
256,160,159106,1,0,0:0:0:0:
256,160,159371,1,8,0:0:0:0:
256,160,159503,1,8,0:0:0:0:
256,160,159635,1,0,0:0:0:0:
224,128,159767,1,0,0:0:0:0:
256,128,159899,1,8,0:0:0:0:
256,128,160164,1,0,0:0:0:0:
256,128,160428,1,4,0:0:0:0:
256,128,160692,1,0,0:0:0:0:
256,128,160824,1,8,0:0:0:0:
256,128,161089,1,8,0:0:0:0:
256,128,161221,1,0,0:0:0:0:
256,128,161353,1,0,0:0:0:0:
256,128,161485,1,8,0:0:0:0:
256,128,161750,1,0,0:0:0:0:
256,128,161882,1,8,0:0:0:0:
256,128,162146,1,8,0:0:0:0:
256,128,162278,1,0,0:0:0:0:
256,128,162410,1,0,0:0:0:0:
256,128,162542,1,8,0:0:0:0:
256,128,162807,1,0,0:0:0:0:
256,128,162939,1,8,0:0:0:0:
256,128,163203,1,8,0:0:0:0:
256,128,163335,1,0,0:0:0:0:
256,128,163468,1,0,0:0:0:0:
256,128,163600,1,8,0:0:0:0:
256,128,163732,1,8,0:0:0:0:
256,128,163864,1,0,0:0:0:0:
256,128,163996,1,8,0:0:0:0:
256,128,164261,1,8,0:0:0:0:
256,128,164393,1,0,0:0:0:0:
256,128,164525,1,0,0:0:0:0:
256,192,164657,1,4,0:0:0:0:
288,128,164921,1,8,0:0:0:0:
288,128,165053,1,8,0:0:0:0:
288,128,165318,1,0,0:0:0:0:
288,128,165450,1,8,0:0:0:0:
288,128,165582,1,8,0:0:0:0:
288,128,165714,1,0,0:0:0:0:
288,128,165979,1,8,0:0:0:0:
288,128,166111,1,8,0:0:0:0:
288,128,166375,1,0,0:0:0:0:
288,128,166507,1,8,0:0:0:0:
288,128,166639,1,8,0:0:0:0:
288,128,166772,1,0,0:0:0:0:
288,128,167036,1,8,0:0:0:0:
288,128,167168,1,8,0:0:0:0:
288,128,167432,1,0,0:0:0:0:
288,96,167565,1,8,0:0:0:0:
288,96,167697,1,8,0:0:0:0:
256,96,167829,1,0,0:0:0:0:
256,96,167961,1,8,0:0:0:0:
224,96,168093,1,0,0:0:0:0:
224,128,168225,1,8,0:0:0:0:
224,128,168490,1,0,0:0:0:0:
224,128,168622,1,8,0:0:0:0:
224,128,168754,1,0,0:0:0:0:
224,128,168886,1,4,0:0:0:0:
224,128,169150,1,8,0:0:0:0:
224,128,169283,1,0,0:0:0:0:
224,128,169415,1,8,0:0:0:0:
224,128,169547,1,8,0:0:0:0:
224,128,169679,1,0,0:0:0:0:
224,128,169811,1,12,0:0:0:0:
224,128,170076,1,0,0:0:0:0:
224,128,170208,1,8,0:0:0:0:
224,128,170472,1,8,0:0:0:0:
224,128,170604,1,8,0:0:0:0:
224,128,170736,1,0,0:0:0:0:
224,128,170868,1,0,0:0:0:0:
224,128,171001,1,8,0:0:0:0:
224,128,171265,1,8,0:0:0:0:
256,128,171397,1,8,0:0:0:0:
256,128,171529,1,0,0:0:0:0:
256,128,171661,1,0,0:0:0:0:
256,128,171794,1,8,0:0:0:0:
256,128,171926,1,12,0:0:0:0:
256,128,172190,1,0,0:0:0:0:
256,128,172322,1,8,0:0:0:0:
288,128,172587,1,0,0:0:0:0:
288,128,172719,1,0,0:0:0:0:
288,128,172851,1,8,0:0:0:0:
288,128,172983,1,0,0:0:0:0:
256,96,173115,1,4,0:0:0:0:
256,96,173379,1,8,0:0:0:0:
224,160,173644,1,0,0:0:0:0:
224,160,173776,1,0,0:0:0:0:
224,160,173908,1,8,0:0:0:0:
224,192,174040,1,4,0:0:0:0:
256,128,174305,1,0,0:0:0:0:
256,128,174437,1,8,0:0:0:0:
256,128,174701,1,8,0:0:0:0:
256,128,174833,1,0,0:0:0:0:
256,128,174965,1,8,0:0:0:0:
256,128,175098,1,0,0:0:0:0:
256,128,175230,1,4,0:0:0:0:
256,128,175494,1,8,0:0:0:0:
256,128,175626,1,0,0:0:0:0:
256,128,175758,1,0,0:0:0:0:
256,128,175890,1,0,0:0:0:0:
256,128,176023,1,8,0:0:0:0:
256,128,176155,1,0,0:0:0:0:
288,128,176419,1,0,0:0:0:0:
288,128,176551,1,8,0:0:0:0:
288,128,176683,1,0,0:0:0:0:
288,128,176816,1,0,0:0:0:0:
288,160,177080,1,0,0:0:0:0:
288,160,177212,1,0,0:0:0:0:
288,160,177344,1,8,0:0:0:0:
288,160,177476,1,8,0:0:0:0:
288,160,177609,1,0,0:0:0:0:
288,160,177741,1,0,0:0:0:0:
288,160,177873,1,4,0:0:0:0:
288,160,178137,1,4,0:0:0:0:
256,128,179459,1,0,0:0:0:0:
320,192,181045,1,0,0:0:0:0:
320,192,181573,1,8,0:0:0:0:
256,160,183159,1,8,0:0:0:0:
256,160,183688,1,0,0:0:0:0:
320,192,184745,1,0,0:0:0:0:
320,192,185142,1,0,0:0:0:0:
320,192,185538,1,8,0:0:0:0:
320,160,186067,1,0,0:0:0:0:
256,128,186331,1,8,0:0:0:0:
288,128,186595,1,8,0:0:0:0:
288,128,186860,1,0,0:0:0:0:
288,128,187124,1,8,0:0:0:0:
288,128,187256,1,8,0:0:0:0:
288,128,187388,1,0,0:0:0:0:
256,160,187520,1,0,0:0:0:0:
288,128,187653,1,8,0:0:0:0:
256,160,187917,1,4,0:0:0:0:
288,160,188181,1,0,0:0:0:0:
288,160,188313,1,8,0:0:0:0:
288,160,188710,1,0,0:0:0:0:
288,160,189239,1,0,0:0:0:0:
288,160,189503,1,8,0:0:0:0:
288,160,189767,1,8,0:0:0:0:
288,160,190031,1,0,0:0:0:0:
288,160,190296,1,8,0:0:0:0:
288,160,190428,1,0,0:0:0:0:
288,128,190692,1,0,0:0:0:0:
288,128,190824,1,0,0:0:0:0:
320,192,191353,1,0,0:0:0:0:
320,192,191617,1,8,0:0:0:0:
320,192,191882,1,8,0:0:0:0:
320,192,192146,1,0,0:0:0:0:
320,192,192410,1,0,0:0:0:0:
320,192,192542,1,8,0:0:0:0:
320,192,192807,1,8,0:0:0:0:
320,192,192939,1,0,0:0:0:0:
352,192,193203,1,0,0:0:0:0:
352,192,193335,1,8,0:0:0:0:
352,192,193732,1,8,0:0:0:0:
352,192,193996,1,0,0:0:0:0:
320,128,194261,1,0,0:0:0:0:
352,192,194789,1,8,0:0:0:0:
352,192,195053,1,8,0:0:0:0:
352,192,195318,1,4,0:0:0:0:
352,192,195846,1,4,0:0:0:0:
256,160,196904,1,8,0:0:0:0:
256,160,197036,1,0,0:0:0:0:
256,160,197168,1,8,0:0:0:0:
256,160,197300,1,8,0:0:0:0:
256,160,197432,1,4,0:0:0:0:
224,96,197697,1,8,0:0:0:0:
256,128,197829,1,0,0:0:0:0:
256,128,197961,1,8,0:0:0:0:
256,128,198093,1,8,0:0:0:0:
256,128,198225,1,0,0:0:0:0:
256,128,198357,1,8,0:0:0:0:
256,128,198490,1,0,0:0:0:0:
256,128,198622,1,0,0:0:0:0:
256,128,198754,1,8,0:0:0:0:
256,128,198886,1,0,0:0:0:0:
288,128,199018,1,8,0:0:0:0:
288,128,199150,1,8,0:0:0:0:
288,128,199283,1,0,0:0:0:0:
288,128,199415,1,0,0:0:0:0:
288,128,199547,1,8,0:0:0:0:
288,128,199811,1,0,0:0:0:0:
288,128,199943,1,8,0:0:0:0:
256,96,200076,1,0,0:0:0:0:
256,96,200208,1,0,0:0:0:0:
256,96,200340,1,8,0:0:0:0:
256,96,200472,1,8,0:0:0:0:
256,96,200604,1,0,0:0:0:0:
256,96,200736,1,8,0:0:0:0:
256,96,200868,1,8,0:0:0:0:
256,96,201001,1,0,0:0:0:0:
256,96,201133,1,8,0:0:0:0:
256,96,201265,1,0,0:0:0:0:
256,96,201397,1,8,0:0:0:0:
256,96,201529,1,8,0:0:0:0:
256,96,201661,1,0,0:0:0:0:
288,160,201926,1,8,0:0:0:0:
288,160,202058,1,8,0:0:0:0:
288,160,202190,1,0,0:0:0:0:
288,160,202322,1,0,0:0:0:0:
288,160,202454,1,8,0:0:0:0:
288,160,202587,1,0,0:0:0:0:
288,160,202719,1,8,0:0:0:0:
288,160,202983,1,8,0:0:0:0:
288,160,203115,1,8,0:0:0:0:
288,160,203247,1,0,0:0:0:0:
288,160,203379,1,0,0:0:0:0:
288,160,203512,1,8,0:0:0:0:
288,160,203776,1,0,0:0:0:0:
288,160,204040,1,8,0:0:0:0:
288,160,204172,1,0,0:0:0:0:
288,160,204305,1,8,0:0:0:0:
288,160,204437,1,8,0:0:0:0:
288,160,204569,1,0,0:0:0:0:
288,160,204701,1,4,0:0:0:0:
288,160,204965,1,0,0:0:0:0:
288,160,205098,1,8,0:0:0:0:
288,160,205230,1,8,0:0:0:0:
288,160,205362,1,0,0:0:0:0:
288,160,205428,1,0,0:0:0:0:
288,160,205494,1,0,0:0:0:0:
288,160,205626,1,8,0:0:0:0:
288,160,205758,1,0,0:0:0:0:
288,160,205890,1,4,0:0:0:0:
256,128,206155,1,8,0:0:0:0:
256,128,206419,1,0,0:0:0:0:
256,128,206551,1,0,0:0:0:0:
256,128,206683,1,8,0:0:0:0:
256,128,206816,1,0,0:0:0:0:
256,128,206948,1,8,0:0:0:0:
256,128,207080,1,8,0:0:0:0:
256,128,207212,1,0,0:0:0:0:
256,128,207344,1,8,0:0:0:0:
256,128,207476,1,0,0:0:0:0:
256,128,207609,1,0,0:0:0:0:
256,128,207741,1,8,0:0:0:0:
256,128,207873,1,0,0:0:0:0:
256,128,208005,1,8,0:0:0:0:
288,160,208269,1,8,0:0:0:0:
288,160,208402,1,8,0:0:0:0:
288,160,208534,1,0,0:0:0:0:
288,160,208666,1,0,0:0:0:0:
288,160,208798,1,8,0:0:0:0:
288,160,208930,1,8,0:0:0:0:
288,160,209194,1,0,0:0:0:0:
288,160,209327,1,8,0:0:0:0:
288,160,209459,1,8,0:0:0:0:
288,160,209591,1,0,0:0:0:0:
288,160,209723,1,0,0:0:0:0:
256,96,209855,1,8,0:0:0:0:
256,96,209987,1,0,0:0:0:0:
256,96,210120,1,8,0:0:0:0:
256,96,210384,1,8,0:0:0:0:
256,96,210516,1,0,0:0:0:0:
256,96,210648,1,8,0:0:0:0:
256,96,210913,1,8,0:0:0:0:
256,96,211045,1,8,0:0:0:0:
256,96,211177,1,0,0:0:0:0:
256,96,211441,1,8,0:0:0:0:
256,96,211705,1,0,0:0:0:0:
256,128,211838,1,0,0:0:0:0:
256,128,211970,1,8,0:0:0:0:
288,160,212102,1,0,0:0:0:0:
288,160,212234,1,8,0:0:0:0:
288,160,212498,1,8,0:0:0:0:
288,160,212631,1,8,0:0:0:0:
256,96,212763,1,0,0:0:0:0:
256,96,212895,1,8,0:0:0:0:
256,96,213027,1,0,0:0:0:0:
256,96,213159,1,0,0:0:0:0:
256,96,213291,1,8,0:0:0:0:
288,128,213556,1,8,0:0:0:0:
288,128,213688,1,8,0:0:0:0:
288,128,213820,1,0,0:0:0:0:
288,128,213952,1,0,0:0:0:0:
288,128,214084,1,8,0:0:0:0:
288,128,214216,1,8,0:0:0:0:
288,128,214349,1,4,0:0:0:0:
288,128,214613,1,8,0:0:0:0:
288,128,214745,1,0,0:0:0:0:
288,128,214877,1,8,0:0:0:0:
288,128,215009,1,8,0:0:0:0:
288,128,215142,1,0,0:0:0:0:
288,128,215274,1,0,0:0:0:0:
288,128,215406,1,8,0:0:0:0:
288,128,215670,1,8,0:0:0:0:
288,128,215802,1,0,0:0:0:0:
288,128,215935,1,0,0:0:0:0:
288,128,216067,1,8,0:0:0:0:
288,128,216199,1,8,0:0:0:0:
288,128,216331,1,0,0:0:0:0:
288,128,216463,1,8,0:0:0:0:
288,128,216727,1,0,0:0:0:0:
288,128,216860,1,8,0:0:0:0:
288,128,216992,1,0,0:0:0:0:
288,128,217124,1,0,0:0:0:0:
288,128,217256,1,8,0:0:0:0:
288,128,217388,1,0,0:0:0:0:
288,128,217520,1,8,0:0:0:0:
256,128,217785,1,8,0:0:0:0:
256,128,217917,1,0,0:0:0:0:
256,128,218049,1,0,0:0:0:0:
256,128,218181,1,0,0:0:0:0:
256,128,218313,1,8,0:0:0:0:
256,128,218446,1,8,0:0:0:0:
256,128,218578,1,0,0:0:0:0:
256,128,218842,1,8,0:0:0:0:
256,128,218974,1,0,0:0:0:0:
256,128,219106,1,8,0:0:0:0:
256,128,219239,1,8,0:0:0:0:
256,128,219371,1,0,0:0:0:0:
256,128,219503,1,8,0:0:0:0:
256,128,219635,1,8,0:0:0:0:
288,128,219899,1,8,0:0:0:0:
288,128,220031,1,0,0:0:0:0:
288,128,220164,1,8,0:0:0:0:
288,128,220296,1,8,0:0:0:0:
288,128,220428,1,0,0:0:0:0:
288,128,220560,1,8,0:0:0:0:
288,128,220692,1,8,0:0:0:0:
288,128,220957,1,0,0:0:0:0:
288,128,221089,1,8,0:0:0:0:
288,128,221221,1,0,0:0:0:0:
288,128,221353,1,0,0:0:0:0:
288,128,221485,1,8,0:0:0:0:
288,128,221617,1,8,0:0:0:0:
288,128,221882,1,0,0:0:0:0:
288,128,222014,1,8,0:0:0:0:
288,128,222146,1,0,0:0:0:0:
288,128,222212,1,0,0:0:0:0:
288,128,222278,1,0,0:0:0:0:
288,128,222410,1,0,0:0:0:0:
288,128,222542,1,8,0:0:0:0:
288,192,222807,1,4,0:0:0:0:
288,192,223071,1,8,0:0:0:0:
288,192,223203,1,0,0:0:0:0:
288,192,223335,1,8,0:0:0:0:
288,128,223468,1,8,0:0:0:0:
288,128,223600,1,0,0:0:0:0:
288,128,223732,1,0,0:0:0:0:
288,128,223864,1,8,0:0:0:0:
288,128,223996,1,0,0:0:0:0:
288,128,224128,1,8,0:0:0:0:
288,128,224261,1,8,0:0:0:0:
288,128,224393,1,0,0:0:0:0:
288,128,224525,1,8,0:0:0:0:
288,128,224657,1,8,0:0:0:0:
288,128,224789,1,0,0:0:0:0:
288,128,224855,1,0,0:0:0:0:
288,128,224921,1,0,0:0:0:0:
288,128,225186,1,8,0:0:0:0:
288,128,225318,1,0,0:0:0:0:
288,128,225450,1,8,0:0:0:0:
288,128,225582,1,8,0:0:0:0:
288,128,225714,1,0,0:0:0:0:
288,128,225846,1,0,0:0:0:0:
288,128,225979,1,8,0:0:0:0:
288,128,226111,1,0,0:0:0:0:
224,64,226243,1,8,0:0:0:0:
224,96,226375,1,8,0:0:0:0:
224,96,226507,1,0,0:0:0:0:
224,96,226639,1,0,0:0:0:0:
224,96,226772,1,8,0:0:0:0:
224,96,226904,1,0,0:0:0:0:
224,96,226970,1,0,0:0:0:0:
224,96,227036,1,0,0:0:0:0:
288,160,227300,1,8,0:0:0:0:
288,160,227565,1,0,0:0:0:0:
288,160,227697,1,0,0:0:0:0:
288,160,227829,1,8,0:0:0:0:
288,160,227961,1,0,0:0:0:0:
288,160,228093,1,8,0:0:0:0:
288,160,228225,1,8,0:0:0:0:
288,160,228357,1,0,0:0:0:0:
288,160,228490,1,0,0:0:0:0:
288,160,228622,1,8,0:0:0:0:
288,160,228754,1,0,0:0:0:0:
288,160,228886,1,8,0:0:0:0:
288,160,229018,1,8,0:0:0:0:
288,224,229150,1,12,0:0:0:0:
288,224,229415,1,12,0:0:0:0:
288,224,229679,1,12,0:0:0:0:
256,192,229943,1,4,0:0:0:0:
256,192,230076,1,12,0:0:0:0:
320,192,230340,1,8,0:0:0:0:
320,192,230472,1,8,0:0:0:0:
288,160,230604,1,0,0:0:0:0:
288,160,230670,1,0,0:0:0:0:
288,160,230736,1,0,0:0:0:0:
288,160,230868,1,0,0:0:0:0:
288,160,231001,1,8,0:0:0:0:
288,160,231265,1,12,0:0:0:0:
