osu file format v14

[General]
AudioFilename: .mp3
AudioLeadIn: 0
PreviewTime: 83710
Countdown: 1
SampleSet: Normal
StackLeniency: 0.7
Mode: 1
LetterboxInBreaks: 0
WidescreenStoryboard: 1

[Editor]
DistanceSpacing: 1
BeatDivisor: 4
GridSize: 32
TimelineZoom: 2.4

[Metadata]
Title:Sendan Life
TitleUnicode:センダンライフ
Artist:Remo Prototype[CV: Hanamori Yumiri]
ArtistUnicode:リモ Prototype[CV:花守ゆみり]
Creator:Y O U T A
Version:Kantan
Source:ガラスの花と壊す世界
Tags:vocaloid Chukka やしきん yashikin Glass no Hana to Kowasu Sekai GARAKOWA Restore the World Vitreous Flower Destroy the World D.backup
BeatmapID:861024
BeatmapSetID:395660

[Difficulty]
HPDrainRate:2
CircleSize:5
OverallDifficulty:3
ApproachRate:5
SliderMultiplier:1.4
SliderTickRate:1

[Events]
//Background and Video events
0,0,"BG169.jpg",0,0
//Break Periods
//Storyboard Layer 0 (Background)
//Storyboard Layer 1 (Fail)
//Storyboard Layer 2 (Pass)
//Storyboard Layer 3 (Foreground)
//Storyboard Sound Samples

[TimingPoints]
37785,264.31718061674,4,1,0,100,1,0
67388,-111.111111111111,4,1,0,100,0,0
75714,-100,4,1,0,100,0,0
84305,-100,4,1,0,100,0,1
101221,-100,4,1,0,100,0,0
113908,-111.111111111111,4,1,0,100,0,0
116948,-100,4,1,0,100,0,0
126595,-111.111111111111,4,1,0,100,0,0
134921,-100,4,1,0,100,0,0
143512,-100,4,1,0,100,0,1
160428,-100,4,1,0,100,0,0
179459,-125,4,1,0,100,0,0
187917,-111.111111111111,4,1,0,100,0,0
197432,-100,4,1,0,100,0,1
214349,-100,4,1,0,100,0,0

[HitObjects]
224,192,37785,5,4,0:0:0:0:
288,192,38842,1,8,0:0:0:0:
256,192,39899,1,4,0:0:0:0:
320,224,40957,1,8,0:0:0:0:
224,192,41485,1,0,0:0:0:0:
256,192,42014,1,4,0:0:0:0:
256,192,43071,1,8,0:0:0:0:
256,192,44128,1,8,0:0:0:0:
256,192,44657,1,0,0:0:0:0:
256,192,45186,1,8,0:0:0:0:
288,192,45714,1,8,0:0:0:0:
288,160,46243,1,8,0:0:0:0:
288,160,47300,1,0,0:0:0:0:
288,160,48357,1,8,0:0:0:0:
288,160,48886,1,0,0:0:0:0:
288,160,49415,1,8,0:0:0:0:
288,256,50472,1,4,0:0:0:0:
320,256,51529,1,8,0:0:0:0:
256,192,52587,1,0,0:0:0:0:
288,224,53644,1,8,0:0:0:0:
288,224,54172,1,0,0:0:0:0:
288,224,54701,1,8,0:0:0:0:
288,224,55758,1,0,0:0:0:0:
288,224,56816,1,0,0:0:0:0:
320,224,57873,1,8,0:0:0:0:
288,160,58402,1,8,0:0:0:0:
288,256,58930,1,4,0:0:0:0:
320,224,59987,1,8,0:0:0:0:
320,224,61045,1,0,0:0:0:0:
320,192,62102,1,0,0:0:0:0:
288,160,62631,1,8,0:0:0:0:
320,224,63159,1,8,0:0:0:0:
320,224,64216,1,8,0:0:0:0:
320,224,65274,1,0,0:0:0:0:
320,224,66331,1,8,0:0:0:0:
256,160,66860,1,0,0:0:0:0:
256,160,67388,1,4,0:0:0:0:
288,224,68446,1,8,0:0:0:0:
320,192,69503,1,0,0:0:0:0:
320,192,70560,1,0,0:0:0:0:
320,192,71617,1,0,0:0:0:0:
320,192,72675,1,8,0:0:0:0:
320,192,73732,1,8,0:0:0:0:
288,192,74789,1,0,0:0:0:0:
288,192,75714,1,4,0:0:0:0:
256,192,76904,1,8,0:0:0:0:
256,192,77829,1,4,0:0:0:0:
256,192,79018,1,8,0:0:0:0:
256,192,79943,1,4,0:0:0:0:
288,192,81133,1,8,0:0:0:0:
288,192,81661,1,8,0:0:0:0:
256,192,82190,1,4,0:0:0:0:
256,224,82719,1,0,0:0:0:0:
288,192,83247,1,12,0:0:0:0:
288,256,84305,1,4,0:0:0:0:
288,192,85362,1,0,0:0:0:0:
288,192,85890,1,8,0:0:0:0:
288,192,86419,1,8,0:0:0:0:
288,192,87476,1,8,0:0:0:0:
288,192,88005,1,8,0:0:0:0:
288,192,88534,1,0,0:0:0:0:
288,192,89591,1,8,0:0:0:0:
288,192,90120,1,8,0:0:0:0:
352,224,90648,1,0,0:0:0:0:
352,224,91705,1,8,0:0:0:0:
352,224,92234,1,0,0:0:0:0:
352,224,92763,1,4,0:0:0:0:
320,224,93820,1,8,0:0:0:0:
320,224,94349,1,0,0:0:0:0:
320,224,94877,1,8,0:0:0:0:
320,224,95935,1,0,0:0:0:0:
320,224,96463,1,8,0:0:0:0:
320,224,96992,1,8,0:0:0:0:
288,192,98049,1,8,0:0:0:0:
288,192,98578,1,0,0:0:0:0:
288,192,99106,1,8,0:0:0:0:
288,192,100164,1,8,0:0:0:0:
288,192,100692,1,8,0:0:0:0:
288,224,101221,1,4,0:0:0:0:
256,192,102278,1,8,0:0:0:0:
256,192,103335,1,0,0:0:0:0:
256,192,104393,1,8,0:0:0:0:
256,192,104921,1,0,0:0:0:0:
256,192,105450,1,8,0:0:0:0:
384,288,105979,1,8,0:0:0:0:
288,192,106507,1,0,0:0:0:0:
288,160,107565,1,8,0:0:0:0:
288,160,108622,1,8,0:0:0:0:
288,160,109150,1,0,0:0:0:0:
288,224,109679,1,4,0:0:0:0:
288,160,110736,1,0,0:0:0:0:
352,288,111794,1,0,0:0:0:0:
288,192,112851,1,8,0:0:0:0:
288,192,113379,1,8,0:0:0:0:
288,192,113908,1,0,0:0:0:0:
352,224,114965,1,0,0:0:0:0:
352,224,116023,1,0,0:0:0:0:
352,224,116948,1,12,0:0:0:0:
288,192,117609,1,0,0:0:0:0:
320,224,118137,1,4,0:0:0:0:
288,192,119194,1,8,0:0:0:0:
288,192,120252,1,0,0:0:0:0:
288,192,121309,1,8,0:0:0:0:
288,160,121838,1,8,0:0:0:0:
288,160,122366,1,0,0:0:0:0:
288,160,123424,1,8,0:0:0:0:
288,160,124481,1,0,0:0:0:0:
288,224,125538,1,8,0:0:0:0:
288,224,126067,1,0,0:0:0:0:
288,192,126595,1,4,0:0:0:0:
320,288,127653,1,8,0:0:0:0:
288,192,128710,1,0,0:0:0:0:
288,192,129767,1,0,0:0:0:0:
288,192,130824,1,0,0:0:0:0:
288,192,131882,1,8,0:0:0:0:
288,192,132939,1,8,0:0:0:0:
288,192,133996,1,0,0:0:0:0:
288,192,134525,1,8,0:0:0:0:
320,224,134921,1,4,0:0:0:0:
352,224,136111,1,8,0:0:0:0:
320,224,137036,1,4,0:0:0:0:
288,192,138225,1,8,0:0:0:0:
288,192,139150,1,4,0:0:0:0:
352,256,140208,1,4,0:0:0:0:
256,192,141397,1,4,0:0:0:0:
288,224,142454,1,12,0:0:0:0:
288,160,142983,1,8,0:0:0:0:
288,256,143512,1,4,0:0:0:0:
288,256,144569,1,8,0:0:0:0:
288,256,145098,1,0,0:0:0:0:
288,256,145626,1,8,0:0:0:0:
288,256,146683,1,0,0:0:0:0:
288,256,147212,1,8,0:0:0:0:
288,256,147741,1,8,0:0:0:0:
288,256,148798,1,0,0:0:0:0:
288,256,149327,1,0,0:0:0:0:
288,256,149855,1,8,0:0:0:0:
320,256,150384,1,8,0:0:0:0:
288,160,150913,1,0,0:0:0:0:
288,160,151970,1,4,0:0:0:0:
288,160,153027,1,8,0:0:0:0:
288,160,153556,1,8,0:0:0:0:
288,160,154084,1,0,0:0:0:0:
288,160,155142,1,0,0:0:0:0:
288,160,155670,1,8,0:0:0:0:
288,160,156199,1,0,0:0:0:0:
288,160,157256,1,0,0:0:0:0:
288,160,157785,1,8,0:0:0:0:
288,160,158313,1,8,0:0:0:0:
128,192,159371,1,0,0:0:0:0:
352,192,159899,1,8,0:0:0:0:
288,192,160428,1,4,0:0:0:0:
256,192,161485,1,0,0:0:0:0:
256,192,162542,1,0,0:0:0:0:
256,192,163600,1,8,0:0:0:0:
256,192,164128,1,8,0:0:0:0:
256,192,164657,1,0,0:0:0:0:
320,160,165714,1,0,0:0:0:0:
320,160,166772,1,0,0:0:0:0:
288,160,167829,1,8,0:0:0:0:
288,160,168357,1,0,0:0:0:0:
288,160,168886,1,8,0:0:0:0:
288,192,169811,1,4,0:0:0:0:
288,160,171001,1,8,0:0:0:0:
288,160,171926,1,4,0:0:0:0:
320,192,172587,1,8,0:0:0:0:
288,192,173115,1,0,0:0:0:0:
288,192,174040,1,4,0:0:0:0:
288,128,175230,1,8,0:0:0:0:
224,128,176287,1,8,0:0:0:0:
288,192,176816,1,0,0:0:0:0:
288,192,177344,1,0,0:0:0:0:
256,192,178137,1,4,0:0:0:0:
320,256,179459,1,0,0:0:0:0:
256,160,181045,1,0,0:0:0:0:
256,160,181573,1,8,0:0:0:0:
256,192,183159,1,8,0:0:0:0:
256,192,183688,1,0,0:0:0:0:
288,192,184745,1,8,0:0:0:0:
256,256,185802,1,8,0:0:0:0:
320,256,186860,1,0,0:0:0:0:
320,256,187388,1,0,0:0:0:0:
288,192,187917,1,12,0:0:0:0:
320,224,188974,1,0,0:0:0:0:
288,160,190031,1,8,0:0:0:0:
288,160,190560,1,0,0:0:0:0:
288,160,191089,1,8,0:0:0:0:
288,160,192146,1,0,0:0:0:0:
320,256,193203,1,0,0:0:0:0:
384,288,194261,1,8,0:0:0:0:
288,192,195318,1,4,0:0:0:0:
288,192,195846,1,4,0:0:0:0:
288,256,197432,1,4,0:0:0:0:
288,192,198490,1,8,0:0:0:0:
288,192,199018,1,0,0:0:0:0:
288,192,199547,1,8,0:0:0:0:
288,192,200604,1,0,0:0:0:0:
288,192,201133,1,8,0:0:0:0:
288,192,201661,1,8,0:0:0:0:
288,192,202719,1,0,0:0:0:0:
288,192,203247,1,0,0:0:0:0:
288,192,203776,1,8,0:0:0:0:
288,192,204305,1,0,0:0:0:0:
288,192,204833,1,8,0:0:0:0:
320,224,205362,1,8,0:0:0:0:
320,224,205890,1,4,0:0:0:0:
256,192,206948,1,8,0:0:0:0:
256,192,207476,1,0,0:0:0:0:
256,192,208005,1,8,0:0:0:0:
352,288,208534,1,8,0:0:0:0:
256,192,209062,1,0,0:0:0:0:
256,128,209591,1,8,0:0:0:0:
256,192,210120,1,0,0:0:0:0:
256,192,211177,1,8,0:0:0:0:
256,192,211705,1,0,0:0:0:0:
256,192,212234,1,8,0:0:0:0:
256,192,212763,1,8,0:0:0:0:
256,192,213291,1,0,0:0:0:0:
256,192,213820,1,8,0:0:0:0:
320,224,214349,1,4,0:0:0:0:
320,192,215406,1,8,0:0:0:0:
320,192,216463,1,0,0:0:0:0:
320,192,217520,1,8,0:0:0:0:
320,192,218049,1,0,0:0:0:0:
320,192,218578,1,8,0:0:0:0:
320,224,219635,1,0,0:0:0:0:
320,224,220692,1,8,0:0:0:0:
320,224,221750,1,8,0:0:0:0:
320,224,222278,1,0,0:0:0:0:
320,224,222807,1,12,0:0:0:0:
320,224,223864,1,8,0:0:0:0:
320,224,224393,1,8,0:0:0:0:
320,224,224921,1,0,0:0:0:0:
320,224,225450,1,0,0:0:0:0:
320,224,225979,1,8,0:0:0:0:
320,224,226507,1,8,0:0:0:0:
256,224,227036,1,0,0:0:0:0:
256,192,228093,1,0,0:0:0:0:
256,192,228622,1,0,0:0:0:0:
256,192,229150,1,12,0:0:0:0:
320,224,230076,1,4,0:0:0:0:
384,320,230736,1,8,0:0:0:0:
320,224,231265,1,12,0:0:0:0:
