osu file format v14

[General]
AudioFilename: .mp3
AudioLeadIn: 0
PreviewTime: 83710
Countdown: 1
SampleSet: Normal
StackLeniency: 0.7
Mode: 1
LetterboxInBreaks: 0
WidescreenStoryboard: 1

[Editor]
DistanceSpacing: 1
BeatDivisor: 4
GridSize: 32
TimelineZoom: 2.4

[Metadata]
Title:Sendan Life
TitleUnicode:センダンライフ
Artist:Remo Prototype[CV: Hanamori Yumiri]
ArtistUnicode:リモ Prototype[CV:花守ゆみり]
Creator:Y O U T A
Version:Futsuu
Source:ガラスの花と壊す世界
Tags:vocaloid Chukka やしきん yashikin Glass no Hana to Kowasu Sekai GARAKOWA Restore the World Vitreous Flower Destroy the World D.backup
BeatmapID:861022
BeatmapSetID:395660

[Difficulty]
HPDrainRate:3
CircleSize:5
OverallDifficulty:3
ApproachRate:5
SliderMultiplier:1.4
SliderTickRate:1

[Events]
//Background and Video events
0,0,"BG169.jpg",0,0
//Break Periods
//Storyboard Layer 0 (Background)
//Storyboard Layer 1 (Fail)
//Storyboard Layer 2 (Pass)
//Storyboard Layer 3 (Foreground)
//Storyboard Sound Samples

[TimingPoints]
37785,264.31718061674,4,1,0,100,1,0
68446,-111.111111111111,4,1,0,100,0,0
75714,-100,4,1,0,100,0,0
84305,-100,4,1,0,100,0,1
101221,-100,4,1,0,100,0,0
113908,-111.111111111111,4,1,0,100,0,0
116948,-100,4,1,0,100,0,0
127124,-111.111111111111,4,1,0,100,0,0
134921,-100,4,1,0,100,0,0
143512,-100,4,1,0,100,0,1
160428,-100,4,1,0,100,0,0
179459,-125,4,1,0,100,0,0
187917,-111.111111111111,4,1,0,100,0,0
196904,-100,4,1,0,100,0,0
197432,-100,4,1,0,100,0,1
214349,-100,4,1,0,100,0,0

[HitObjects]
224,192,37785,5,4,0:0:0:0:
256,192,38842,1,8,0:0:0:0:
256,192,39635,1,0,0:0:0:0:
256,192,39899,1,4,0:0:0:0:
288,192,40957,1,8,0:0:0:0:
288,192,41221,1,0,0:0:0:0:
288,192,41485,1,8,0:0:0:0:
224,192,42014,1,4,0:0:0:0:
256,192,43071,1,8,0:0:0:0:
256,192,43600,1,0,0:0:0:0:
256,192,43864,1,0,0:0:0:0:
256,192,44128,1,8,0:0:0:0:
256,192,45186,1,8,0:0:0:0:
288,192,45714,1,0,0:0:0:0:
288,192,45979,1,0,0:0:0:0:
288,160,46243,1,8,0:0:0:0:
320,224,46772,1,0,0:0:0:0:
320,224,47300,1,8,0:0:0:0:
288,160,48357,1,8,0:0:0:0:
288,160,48886,1,0,0:0:0:0:
320,224,49150,1,0,0:0:0:0:
288,160,49415,1,8,0:0:0:0:
288,224,49943,1,8,0:0:0:0:
288,224,50208,1,8,0:0:0:0:
288,256,50472,1,4,0:0:0:0:
320,224,51001,1,0,0:0:0:0:
320,256,51529,1,8,0:0:0:0:
256,192,52587,1,0,0:0:0:0:
256,224,53115,1,8,0:0:0:0:
288,224,53644,1,8,0:0:0:0:
288,224,54172,1,0,0:0:0:0:
288,224,54701,1,8,0:0:0:0:
288,224,55758,1,0,0:0:0:0:
288,192,56287,1,0,0:0:0:0:
288,224,56551,1,0,0:0:0:0:
288,256,56816,1,8,0:0:0:0:
320,224,57873,1,8,0:0:0:0:
288,160,58402,1,8,0:0:0:0:
320,256,58666,1,0,0:0:0:0:
288,256,58930,1,4,0:0:0:0:
320,224,59987,1,8,0:0:0:0:
256,192,60516,1,0,0:0:0:0:
256,192,60780,1,8,0:0:0:0:
320,224,61045,1,0,0:0:0:0:
256,192,61573,1,8,0:0:0:0:
320,192,62102,1,0,0:0:0:0:
288,160,62631,1,8,0:0:0:0:
256,192,62895,1,0,0:0:0:0:
320,224,63159,1,8,0:0:0:0:
320,224,64216,1,8,0:0:0:0:
352,224,64745,1,0,0:0:0:0:
352,224,65009,1,0,0:0:0:0:
352,224,65274,1,8,0:0:0:0:
320,224,66331,1,8,0:0:0:0:
256,160,66860,1,0,0:0:0:0:
224,192,67124,1,0,0:0:0:0:
256,160,67388,1,4,0:0:0:0:
288,224,68446,1,8,0:0:0:0:
352,256,68974,1,0,0:0:0:0:
352,256,69239,1,8,0:0:0:0:
320,192,69503,1,0,0:0:0:0:
320,192,70560,1,0,0:0:0:0:
352,192,71089,1,8,0:0:0:0:
352,192,71353,1,8,0:0:0:0:
320,192,71617,1,0,0:0:0:0:
320,192,72675,1,8,0:0:0:0:
320,192,73732,1,8,0:0:0:0:
288,192,74789,1,0,0:0:0:0:
288,192,75714,1,4,0:0:0:0:
256,192,76375,1,8,0:0:0:0:
256,192,76904,1,8,0:0:0:0:
256,192,77432,1,0,0:0:0:0:
256,192,77829,1,4,0:0:0:0:
256,192,78490,1,8,0:0:0:0:
256,192,79018,1,8,0:0:0:0:
256,192,79547,1,0,0:0:0:0:
256,192,79943,1,4,0:0:0:0:
320,192,80604,1,8,0:0:0:0:
320,224,81133,1,0,0:0:0:0:
288,192,81661,1,8,0:0:0:0:
320,224,81926,1,8,0:0:0:0:
256,192,82190,1,4,0:0:0:0:
288,192,82719,1,4,0:0:0:0:
288,192,83115,1,12,0:0:0:0:
288,160,83776,1,8,0:0:0:0:
288,160,84040,1,8,0:0:0:0:
288,256,84305,1,4,0:0:0:0:
256,192,84833,1,0,0:0:0:0:
288,224,85362,1,8,0:0:0:0:
320,256,85626,1,0,0:0:0:0:
288,192,85890,1,8,0:0:0:0:
320,256,86155,1,0,0:0:0:0:
288,192,86419,1,8,0:0:0:0:
320,224,86948,1,0,0:0:0:0:
288,192,87476,1,8,0:0:0:0:
320,224,87741,1,0,0:0:0:0:
288,192,88005,1,8,0:0:0:0:
320,224,88269,1,8,0:0:0:0:
288,192,88534,1,0,0:0:0:0:
320,192,89062,1,8,0:0:0:0:
320,192,89591,1,8,0:0:0:0:
320,192,89855,1,0,0:0:0:0:
320,192,90120,1,8,0:0:0:0:
320,192,90384,1,0,0:0:0:0:
320,192,90648,1,8,0:0:0:0:
320,192,91177,1,8,0:0:0:0:
352,224,91705,1,8,0:0:0:0:
352,192,91970,1,8,0:0:0:0:
352,224,92234,1,0,0:0:0:0:
352,192,92498,1,0,0:0:0:0:
352,224,92763,1,4,0:0:0:0:
320,224,93291,1,8,0:0:0:0:
320,224,93820,1,8,0:0:0:0:
320,224,94084,1,0,0:0:0:0:
320,224,94349,1,0,0:0:0:0:
320,224,94613,1,8,0:0:0:0:
320,224,94877,1,0,0:0:0:0:
320,224,95406,1,8,0:0:0:0:
320,224,95935,1,0,0:0:0:0:
320,224,96199,1,0,0:0:0:0:
320,224,96463,1,8,0:0:0:0:
320,224,96727,1,8,0:0:0:0:
320,224,96992,1,0,0:0:0:0:
320,224,97520,1,0,0:0:0:0:
288,192,98049,1,8,0:0:0:0:
320,224,98313,1,0,0:0:0:0:
320,224,98578,1,8,0:0:0:0:
288,192,99106,1,8,0:0:0:0:
320,192,99635,1,8,0:0:0:0:
320,192,99899,1,8,0:0:0:0:
320,192,100164,1,0,0:0:0:0:
320,192,100692,1,8,0:0:0:0:
320,192,100957,1,0,0:0:0:0:
288,224,101221,1,4,0:0:0:0:
256,224,101750,1,8,0:0:0:0:
256,192,102278,1,8,0:0:0:0:
256,224,102807,1,0,0:0:0:0:
256,192,103071,1,0,0:0:0:0:
256,192,103335,1,8,0:0:0:0:
256,192,104393,1,8,0:0:0:0:
256,192,104921,1,8,0:0:0:0:
256,192,105186,1,8,0:0:0:0:
256,192,105450,1,0,0:0:0:0:
288,192,106507,1,0,0:0:0:0:
288,160,107036,1,0,0:0:0:0:
256,160,107300,1,0,0:0:0:0:
288,160,107565,1,8,0:0:0:0:
256,192,108490,1,12,0:0:0:0:
288,160,109150,1,0,0:0:0:0:
288,160,109415,1,12,0:0:0:0:
288,224,109679,1,4,0:0:0:0:
288,192,110736,1,4,0:0:0:0:
320,224,111794,1,4,0:0:0:0:
288,192,112851,1,8,0:0:0:0:
288,192,113379,1,8,0:0:0:0:
288,192,113644,1,8,0:0:0:0:
288,192,113908,1,0,0:0:0:0:
288,256,114437,1,8,0:0:0:0:
352,224,114965,1,0,0:0:0:0:
288,192,115494,1,8,0:0:0:0:
352,224,116023,1,0,0:0:0:0:
288,192,116551,1,8,0:0:0:0:
352,224,116948,1,4,0:0:0:0:
288,192,117609,1,0,0:0:0:0:
256,192,117873,1,8,0:0:0:0:
320,224,118137,1,4,0:0:0:0:
320,192,118666,1,8,0:0:0:0:
288,192,119194,1,8,0:0:0:0:
288,192,119459,1,0,0:0:0:0:
288,192,119723,1,8,0:0:0:0:
288,192,120252,1,0,0:0:0:0:
288,192,121309,1,8,0:0:0:0:
288,160,121838,1,8,0:0:0:0:
288,192,122102,1,8,0:0:0:0:
288,192,122366,1,0,0:0:0:0:
288,160,123424,1,8,0:0:0:0:
288,128,123952,1,0,0:0:0:0:
288,128,124216,1,0,0:0:0:0:
288,128,124481,1,8,0:0:0:0:
288,224,125538,1,8,0:0:0:0:
288,224,126067,1,0,0:0:0:0:
288,160,126331,1,8,0:0:0:0:
288,192,126595,1,4,0:0:0:0:
448,384,127124,1,8,0:0:0:0:
320,288,127653,1,8,0:0:0:0:
352,288,128710,1,8,0:0:0:0:
352,288,129239,1,0,0:0:0:0:
320,256,129767,1,8,0:0:0:0:
288,192,130296,1,8,0:0:0:0:
288,192,130560,1,8,0:0:0:0:
288,192,130824,1,0,0:0:0:0:
288,192,131353,1,8,0:0:0:0:
288,192,131882,1,0,0:0:0:0:
288,192,132939,1,8,0:0:0:0:
288,192,133468,1,0,0:0:0:0:
288,192,133996,1,8,0:0:0:0:
288,192,134525,1,8,0:0:0:0:
320,224,134921,1,4,0:0:0:0:
256,192,135582,1,0,0:0:0:0:
352,224,136111,1,8,0:0:0:0:
288,192,136639,1,0,0:0:0:0:
320,224,137036,1,4,0:0:0:0:
320,256,137697,1,8,0:0:0:0:
288,192,138225,1,8,0:0:0:0:
320,256,138754,1,0,0:0:0:0:
288,192,139150,1,4,0:0:0:0:
288,224,139811,1,8,0:0:0:0:
352,256,140208,1,4,0:0:0:0:
352,224,140868,1,8,0:0:0:0:
352,256,141133,1,8,0:0:0:0:
256,192,141397,1,4,0:0:0:0:
288,224,142454,1,12,0:0:0:0:
320,224,142719,1,0,0:0:0:0:
288,160,142983,1,8,0:0:0:0:
288,256,143247,1,0,0:0:0:0:
288,256,143512,1,4,0:0:0:0:
288,256,144040,1,0,0:0:0:0:
288,256,144569,1,8,0:0:0:0:
288,256,144833,1,8,0:0:0:0:
288,256,145098,1,0,0:0:0:0:
320,256,145626,1,8,0:0:0:0:
320,256,146683,1,8,0:0:0:0:
320,256,147212,1,0,0:0:0:0:
320,256,147476,1,0,0:0:0:0:
288,256,147741,1,8,0:0:0:0:
320,256,148269,1,8,0:0:0:0:
320,256,148534,1,0,0:0:0:0:
288,256,148798,1,8,0:0:0:0:
288,256,149327,1,0,0:0:0:0:
288,256,149855,1,8,0:0:0:0:
256,192,150384,1,0,0:0:0:0:
256,192,150913,1,8,0:0:0:0:
256,192,151177,1,8,0:0:0:0:
256,192,151441,1,0,0:0:0:0:
288,192,151705,1,0,0:0:0:0:
288,192,151970,1,4,0:0:0:0:
288,192,153027,1,8,0:0:0:0:
288,192,153291,1,0,0:0:0:0:
288,160,153556,1,8,0:0:0:0:
256,160,153820,1,8,0:0:0:0:
288,160,154084,1,0,0:0:0:0:
288,160,154613,1,8,0:0:0:0:
288,160,155142,1,0,0:0:0:0:
288,160,155670,1,8,0:0:0:0:
288,160,155935,1,8,0:0:0:0:
288,160,156199,1,0,0:0:0:0:
288,160,156727,1,8,0:0:0:0:
288,160,157256,1,0,0:0:0:0:
288,160,157785,1,8,0:0:0:0:
288,160,158049,1,8,0:0:0:0:
288,160,158313,1,8,0:0:0:0:
288,256,158842,1,0,0:0:0:0:
128,192,159371,1,0,0:0:0:0:
352,192,159899,1,8,0:0:0:0:
352,288,160164,1,8,0:0:0:0:
288,192,160428,1,4,0:0:0:0:
288,224,160957,1,8,0:0:0:0:
288,224,161221,1,0,0:0:0:0:
288,224,161485,1,8,0:0:0:0:
288,224,162014,1,0,0:0:0:0:
256,192,162278,1,0,0:0:0:0:
256,192,162542,1,8,0:0:0:0:
256,192,163071,1,8,0:0:0:0:
256,192,163335,1,0,0:0:0:0:
256,192,163600,1,8,0:0:0:0:
256,192,164128,1,8,0:0:0:0:
256,192,164393,1,8,0:0:0:0:
256,192,164657,1,0,0:0:0:0:
288,192,165186,1,8,0:0:0:0:
288,192,165450,1,8,0:0:0:0:
320,160,165714,1,0,0:0:0:0:
288,192,166243,1,0,0:0:0:0:
288,192,166507,1,8,0:0:0:0:
320,160,166772,1,0,0:0:0:0:
288,192,167300,1,8,0:0:0:0:
288,192,167565,1,8,0:0:0:0:
288,192,167829,1,0,0:0:0:0:
288,192,168357,1,8,0:0:0:0:
288,192,168886,1,0,0:0:0:0:
320,224,169415,1,8,0:0:0:0:
288,192,169811,1,4,0:0:0:0:
320,192,170472,1,8,0:0:0:0:
288,160,171001,1,8,0:0:0:0:
320,256,171529,1,0,0:0:0:0:
288,160,171926,1,4,0:0:0:0:
320,192,172587,1,8,0:0:0:0:
288,192,173115,1,0,0:0:0:0:
256,224,173644,1,8,0:0:0:0:
288,192,174040,1,4,0:0:0:0:
320,256,174701,1,8,0:0:0:0:
288,128,175230,1,0,0:0:0:0:
288,192,175758,1,8,0:0:0:0:
224,128,176287,1,8,0:0:0:0:
288,192,176816,1,0,0:0:0:0:
256,160,177080,1,0,0:0:0:0:
288,192,177344,1,0,0:0:0:0:
256,192,178137,1,4,0:0:0:0:
256,224,178402,1,8,0:0:0:0:
320,256,179459,1,0,0:0:0:0:
256,160,181045,1,0,0:0:0:0:
256,160,181573,1,8,0:0:0:0:
256,192,183159,1,8,0:0:0:0:
256,192,183688,1,0,0:0:0:0:
288,192,184745,1,8,0:0:0:0:
288,288,185142,1,8,0:0:0:0:
288,288,185538,1,8,0:0:0:0:
320,256,186067,1,8,0:0:0:0:
320,256,186860,1,0,0:0:0:0:
320,256,187388,1,0,0:0:0:0:
288,256,187653,1,0,0:0:0:0:
288,192,187917,1,12,0:0:0:0:
320,224,188974,1,0,0:0:0:0:
288,160,190031,1,8,0:0:0:0:
288,160,190560,1,0,0:0:0:0:
288,160,191089,1,8,0:0:0:0:
256,224,191617,1,8,0:0:0:0:
256,224,191882,1,0,0:0:0:0:
256,224,192146,1,8,0:0:0:0:
320,256,193203,1,0,0:0:0:0:
384,352,193732,1,8,0:0:0:0:
384,288,194261,1,8,0:0:0:0:
288,192,195318,1,0,0:0:0:0:
288,192,195846,1,4,0:0:0:0:
256,256,196904,1,0,0:0:0:0:
288,288,197168,1,8,0:0:0:0:
288,256,197432,1,4,0:0:0:0:
320,224,197961,1,8,0:0:0:0:
320,224,198490,1,0,0:0:0:0:
320,224,198754,1,0,0:0:0:0:
320,224,199018,1,8,0:0:0:0:
288,192,199547,1,8,0:0:0:0:
288,192,200076,1,0,0:0:0:0:
288,192,200340,1,0,0:0:0:0:
320,224,200604,1,8,0:0:0:0:
320,224,201133,1,8,0:0:0:0:
320,224,201397,1,8,0:0:0:0:
320,224,201661,1,0,0:0:0:0:
320,224,202190,1,8,0:0:0:0:
288,192,202719,1,0,0:0:0:0:
288,192,203247,1,0,0:0:0:0:
288,192,203776,1,8,0:0:0:0:
256,224,204040,1,8,0:0:0:0:
288,192,204305,1,0,0:0:0:0:
256,224,204569,1,0,0:0:0:0:
288,192,204833,1,8,0:0:0:0:
320,224,205362,1,8,0:0:0:0:
256,224,205626,1,0,0:0:0:0:
320,224,205890,1,4,0:0:0:0:
256,192,206948,1,8,0:0:0:0:
288,192,207212,1,0,0:0:0:0:
256,192,207476,1,0,0:0:0:0:
256,192,208005,1,8,0:0:0:0:
288,192,208534,1,8,0:0:0:0:
256,192,209062,1,0,0:0:0:0:
288,192,209327,1,8,0:0:0:0:
256,192,209591,1,8,0:0:0:0:
256,192,210120,1,0,0:0:0:0:
288,192,210648,1,0,0:0:0:0:
256,192,211177,1,8,0:0:0:0:
256,192,211705,1,0,0:0:0:0:
288,192,211970,1,0,0:0:0:0:
256,192,212234,1,8,0:0:0:0:
256,192,212763,1,8,0:0:0:0:
288,160,213027,1,0,0:0:0:0:
288,160,213291,1,8,0:0:0:0:
256,192,213820,1,8,0:0:0:0:
320,224,214349,1,4,0:0:0:0:
320,224,214877,1,0,0:0:0:0:
320,192,215406,1,8,0:0:0:0:
320,192,216463,1,0,0:0:0:0:
320,192,217520,1,8,0:0:0:0:
320,192,218049,1,0,0:0:0:0:
320,256,218313,1,0,0:0:0:0:
320,192,218578,1,8,0:0:0:0:
320,224,219635,1,0,0:0:0:0:
320,256,220164,1,0,0:0:0:0:
320,256,220428,1,0,0:0:0:0:
320,224,220692,1,8,0:0:0:0:
320,224,221750,1,8,0:0:0:0:
320,224,222278,1,0,0:0:0:0:
288,224,222542,1,8,0:0:0:0:
320,224,222807,1,12,0:0:0:0:
320,256,223335,1,8,0:0:0:0:
320,256,223600,1,0,0:0:0:0:
320,224,223864,1,8,0:0:0:0:
320,256,224128,1,8,0:0:0:0:
320,256,224393,1,0,0:0:0:0:
320,256,224657,1,8,0:0:0:0:
320,224,224921,1,0,0:0:0:0:
320,224,225450,1,0,0:0:0:0:
320,256,225714,1,0,0:0:0:0:
320,224,225979,1,8,0:0:0:0:
320,224,226507,1,8,0:0:0:0:
320,256,226772,1,8,0:0:0:0:
256,224,227036,1,0,0:0:0:0:
256,224,227565,1,8,0:0:0:0:
256,224,227829,1,0,0:0:0:0:
256,224,228093,1,8,0:0:0:0:
256,160,228357,1,8,0:0:0:0:
256,192,228622,1,0,0:0:0:0:
256,160,228886,1,0,0:0:0:0:
256,192,229150,1,12,0:0:0:0:
256,192,229679,1,12,0:0:0:0:
320,224,230076,1,4,0:0:0:0:
288,192,230736,1,8,0:0:0:0:
288,192,231001,1,0,0:0:0:0:
320,224,231265,1,12,0:0:0:0:
