osu file format v14

[General]
AudioFilename: life.mp3
AudioLeadIn: 0
PreviewTime: 83722
Countdown: 0
SampleSet: Soft
StackLeniency: 0.7
Mode: 0
LetterboxInBreaks: 0
WidescreenStoryboard: 0

[Editor]
DistanceSpacing: 1.4
BeatDivisor: 4
GridSize: 32
TimelineZoom: 2.4

[Metadata]
Title:Sendan Life
TitleUnicode:センダンライフ
Artist:Remo Prototype[CV: Hanamori Yumiri]
ArtistUnicode:リモ Prototype[CV:花守ゆみり]
Creator:Settia
Version:Insane
Source:ガラスの花と壊す世界
Tags:vocaloid Chukka やしきん yashikin Glass no Hana to Kowasu Sekai GARAKOWA Restore the World Vitreous Flower Destroy the World D.backup
BeatmapID:956254
BeatmapSetID:394834

[Difficulty]
HPDrainRate:4.5
CircleSize:4
OverallDifficulty:8
ApproachRate:9
SliderMultiplier:1.5
SliderTickRate:1

[Events]
//Background and Video events
0,0,"nbg.jpg",0,0
//Break Periods
2,104043,109058
2,179638,187296
//Storyboard Layer 0 (Background)
//Storyboard Layer 1 (Fail)
//Storyboard Layer 2 (Pass)
//Storyboard Layer 3 (Foreground)
//Storyboard Sound Samples

[TimingPoints]
37764,264.31718061674,4,2,1,70,1,0
39812,-100,4,2,1,5,0,0
39878,-100,4,2,1,70,0,0
41728,-76.9230769230769,4,2,1,70,0,0
41926,-76.9230769230769,4,2,1,5,0,0
41993,-100,4,2,1,70,0,0
58314,-100,4,2,1,5,0,0
58380,-100,4,2,1,70,0,0
58578,-100,4,2,1,5,0,0
58645,-100,4,2,1,70,0,0
67367,-133.333333333333,4,2,1,50,0,0
75297,-100,4,2,1,50,0,0
84283,-90.9090909090909,4,2,1,85,0,1
101200,-90.9090909090909,4,2,1,85,0,0
109658,-133.333333333333,4,2,1,60,0,0
116926,-133.333333333333,4,2,1,70,0,0
117852,-100,4,2,1,70,0,0
118050,-100,4,2,1,5,0,0
118116,-100,4,2,1,70,0,0
126574,-133.333333333333,4,2,1,50,0,0
134900,-100,4,2,1,70,0,0
142896,-100,4,2,1,5,0,0
142962,-100,4,2,1,70,0,0
143490,-90.9090909090909,4,2,1,85,0,1
160407,-90.9090909090909,4,2,1,85,0,0
178380,-90.9090909090909,4,2,1,50,0,0
187896,-166.666666666667,4,2,1,50,0,0
195825,-100,4,2,1,60,0,0
196882,-100,4,2,1,70,0,0
197411,-90.9090909090909,4,2,1,85,0,1
214327,-100,4,2,1,85,0,0

[Colours]
Combo1 : 109,198,255
Combo2 : 196,174,228
Combo3 : 255,169,136
Combo4 : 109,121,158

[HitObjects]
120,76,37367,6,0,L|132:56,11,18.75,0|0|0|0|0|0|0|0|0|0|0|0,0:0|0:0|0:0|0:0|0:0|0:0|0:0|0:0|0:0|0:0|0:0|0:0,0:0:0:0:
104,104,37763,6,0,L|108:208,1,75,8|0,0:0|0:0,0:0:0:0:
152,276,38028,2,0,P|188:288|252:272,1,75,8|0,0:0|0:0,0:0:0:0:
200,196,38292,1,2,0:0:0:0:
312,360,38424,2,0,B|296:324|296:324|312:264,1,75,8|0,0:0|0:0,0:0:0:0:
440,116,38689,6,0,B|449:150|449:150|433:186,1,75,8|0,0:0|0:0,0:0:0:0:
292,176,38953,2,0,B|317:150|317:150|356:146,1,75,8|0,0:0|0:0,0:0:0:0:
416,268,39217,2,0,B|381:258|381:258|358:226,1,75,8|0,0:0|0:0,0:0:0:0:
368,64,39482,1,2,0:0:0:0:
368,64,39614,2,0,P|312:40|252:56,1,112.5,8|0,0:0|0:0,0:0:0:0:
196,116,39878,6,0,B|160:124|160:124|108:112,1,75,8|0,0:0|0:0,0:0:0:0:
32,64,40142,2,0,P|16:100|20:144,1,75,8|0,0:0|0:0,0:0:0:0:
108,320,40407,1,2,0:0:0:0:
32,232,40539,2,0,L|116:228,1,75,8|0,0:0|0:0,0:0:0:0:
208,344,40803,6,0,B|196:296|196:296|208:260,1,75,8|0,0:0|0:0,0:0:0:0:
340,264,41067,2,0,B|304:298|304:298|279:303,1,75,8|0,0:0|0:0,0:0:0:0:
200,188,41332,2,0,B|247:201|247:201|264:220,2,75,8|8|2,0:0|0:0|0:0,0:0:0:0:
52,76,41728,2,0,B|88:76|88:76|124:92|124:92|164:76|164:76|212:76,1,146.249993305207,12|0,0:0|0:0,0:0:0:0:
268,120,41993,6,0,P|308:128|360:112,1,75,6|0,0:0|0:0,0:0:0:0:
424,76,42257,2,0,P|436:128|424:164,1,75,8|0,0:0|0:0,0:0:0:0:
384,324,42521,1,2,0:0:0:0:
360,208,42653,1,2,0:0:0:0:
279,294,42786,2,0,B|279:376,1,75,8|0,0:0|0:0,0:0:0:0:
168,192,43050,6,0,B|128:184|128:184|84:192,1,75,2|0,0:0|0:0,0:0:0:0:
128,280,43314,1,8,0:0:0:0:
272,204,43446,1,0,0:0:0:0:
164,117,43578,2,0,L|168:205,1,75,2|2,0:0|0:0,0:0:0:0:
40,352,43843,2,0,L|44:264,1,75,8|0,0:0|0:0,0:0:0:0:
20,97,44107,6,0,B|84:97|84:97|112:117|112:117|180:117,1,150,2|8,0:0|0:0,0:0:0:0:
252,52,44504,1,0,0:0:0:0:
308,216,44636,2,0,L|312:140,1,75,2|2,0:0|0:0,0:0:0:0:
400,56,44900,2,0,L|404:132,1,75,8|0,0:0|0:0,0:0:0:0:
412,260,45164,6,0,P|392:300|288:328,1,150,2|8,0:0|0:0,0:0:0:0:
220,264,45561,1,0,0:0:0:0:
220,264,45693,2,0,L|132:264,1,75,2|2,0:0|0:0,0:0:0:0:
0,180,45957,2,0,B|40:172|40:172|84:180,1,75,8|0,0:0|0:0,0:0:0:0:
180,144,46222,5,2,0:0:0:0:
144,264,46354,1,0,0:0:0:0:
72,178,46486,2,0,P|67:141|79:106,1,75,8|0,0:0|0:0,0:0:0:0:
120,356,46750,1,2,0:0:0:0:
48,268,46882,2,0,L|136:264,1,75,2|8,0:0|0:0,0:0:0:0:
312,252,47147,1,0,0:0:0:0:
228,356,47279,6,0,B|256:268|200:292|232:196,1,150,2|8,0:0|0:0,0:0:0:0:
232,56,47675,1,0,0:0:0:0:
376,140,47808,2,0,P|336:148|292:132,1,75,2|2,0:0|0:0,0:0:0:0:
340,56,48072,1,8,0:0:0:0:
448,220,48204,1,0,0:0:0:0:
480,81,48336,6,0,B|480:137|480:137|448:177|448:177|448:241,1,150,2|8,0:0|0:0,0:0:0:0:
444,352,48733,1,0,0:0:0:0:
356,284,48865,2,0,B|320:276|320:276|280:284,2,75,2|2|8,0:0|0:0|0:0,0:0:0:0:
244,360,49261,6,0,P|204:320|224:224,1,150,6|2,0:0|0:0,0:0:0:0:
299,87,49658,2,0,B|315:139|315:139|299:183,1,75,0|2,0:0|0:0,0:0:0:0:
284,284,49922,1,10,0:0:0:0:
284,284,50054,1,8,0:0:0:0:
456,200,50186,2,0,P|416:208|376:196,1,75,8|8,0:0|0:0,0:0:0:0:
208,156,50451,5,6,0:0:0:0:
208,156,50583,1,0,0:0:0:0:
300,15,50715,2,0,P|308:55|296:95,1,75,8|2,0:0|0:0,0:0:0:0:
80,64,50979,1,0,0:0:0:0:
80,64,51112,2,0,B|136:64|136:64|176:44|176:44|232:44,1,150,2|0,0:0|0:0,0:0:0:0:
392,96,51508,6,0,B|400:132|400:132|388:172,1,75,2|0,0:0|0:0,0:0:0:0:
340,328,51772,1,8,0:0:0:0:
428,328,51904,2,0,P|404:272|304:256,1,150,2|2,0:0|0:0,0:0:0:0:
240,312,52301,1,8,0:0:0:0:
240,312,52433,6,0,P|176:332|92:296,1,150,0|0,0:0|0:0,0:0:0:0:
176,156,52830,2,0,B|188:196|188:196|172:240,1,75,8|2,0:0|0:0,0:0:0:0:
56,204,53094,1,0,0:0:0:0:
56,204,53226,1,2,0:0:0:0:
72,36,53358,2,0,B|60:76|60:76|76:120,1,75,8|0,0:0|0:0,0:0:0:0:
287,79,53623,6,0,B|207:55|227:111|127:79,1,150,2|8,0:0|0:0,0:0:0:0:
303,176,54019,2,0,P|359:152|375:60,1,150,2|2,0:0|0:0,0:0:0:0:
284,5,54415,2,0,L|288:88,1,75,8|0,0:0|0:0,0:0:0:0:
312,348,54680,5,2,0:0:0:0:
312,348,54812,1,0,0:0:0:0:
456,272,54944,2,0,P|420:264|372:276,1,75,8|2,0:0|0:0,0:0:0:0:
312,348,55208,2,0,P|276:356|228:344,1,75,0|2,0:0|0:0,0:0:0:0:
276,272,55473,1,8,0:0:0:0:
416,348,55605,1,0,0:0:0:0:
392,180,55737,6,0,P|344:124|244:144,1,150,2|8,0:0|0:0,0:0:0:0:
197,201,56134,2,0,B|145:201|145:201|112:227|112:227|30:227,1,150,2|2,0:0|0:0,0:0:0:0:
100,43,56530,2,0,B|108:83|108:83|92:131,1,75,8|0,0:0|0:0,0:0:0:0:
164,284,56794,5,2,0:0:0:0:
164,284,56926,2,0,B|156:324|156:324|172:372,1,75,0|8,0:0|0:0,0:0:0:0:
276,320,57191,1,2,0:0:0:0:
276,320,57323,2,0,P|312:312|372:328,1,75,0|2,0:0|0:0,0:0:0:0:
468,348,57587,1,8,0:0:0:0:
413,208,57719,6,0,P|357:236|353:324,1,150,0|0,0:0|0:0,0:0:0:0:
495,265,58116,2,0,B|512:210|512:210|491:153,1,112.5,8|0,0:0|0:0,0:0:0:0:
411,101,58380,2,0,B|394:156|394:156|415:213,1,112.5,4|0,0:0|0:0,0:0:0:0:
468,348,58645,1,8,0:0:0:0:
328,224,58777,1,0,0:0:0:0:
348,316,58909,6,0,B|298:316|298:316|264:292|264:292|204:292,1,150,6|8,0:0|0:0,0:0:0:0:
64,292,59305,1,2,0:0:0:0:
164,137,59438,2,0,B|172:185|172:185|164:221,1,75,0|0,0:0|0:0,0:0:0:0:
64,324,59702,1,8,0:0:0:0:
20,205,59834,1,0,0:0:0:0:
20,205,59966,6,0,B|103:173|103:235|180:205,1,150,2|8,0:0|0:0,0:0:0:0:
248,144,60363,2,0,P|324:120|404:152,1,150,2|2,0:0|0:0,0:0:0:0:
456,200,60759,1,8,0:0:0:0:
473,117,60891,6,0,B|480:92|480:92|472:44,1,75,0|2,0:0|0:0,0:0:0:0:
420,272,61156,1,0,0:0:0:0:
420,272,61288,2,0,P|464:284|508:264,1,75,8|2,0:0|0:0,0:0:0:0:
293,354,61552,1,0,0:0:0:0:
317,221,61684,1,2,0:0:0:0:
195,273,61816,2,0,B|108:274,1,75,8|0,0:0|0:0,0:0:0:0:
72,348,62081,6,0,P|36:284|72:196,1,150,2|8,0:0|0:0,0:0:0:0:
144,156,62477,2,0,P|156:120|144:80,1,75,2|0,0:0|0:0,0:0:0:0:
64,112,62741,1,2,0:0:0:0:
176,232,62874,2,0,P|216:196|224:160,1,75,8|0,0:0|0:0,0:0:0:0:
271,101,63138,6,0,B|318:69|318:69|443:87,1,150,2|8,0:0|0:0,0:0:0:0:
432,172,63534,1,2,0:0:0:0:
489,110,63667,2,0,P|495:73|480:40,1,75,0|0,0:0|0:0,0:0:0:0:
372,252,63931,1,8,0:0:0:0:
464,312,64063,1,0,0:0:0:0:
368,352,64195,6,0,P|316:336|284:236,1,150,2|8,0:0|0:0,0:0:0:0:
359,113,64592,2,0,B|393:178|393:178|370:258,1,150,2|2,0:0|0:0,0:0:0:0:
206,254,64988,2,0,B|246:245|246:245|286:254,1,75,8|0,0:0|0:0,0:0:0:0:
136,336,65252,5,2,0:0:0:0:
136,336,65385,2,0,P|96:344|56:328,1,75,0|8,0:0|0:0,0:0:0:0:
200,172,65649,1,2,0:0:0:0:
200,172,65781,2,0,L|284:168,1,75,0|2,0:0|0:0,0:0:0:0:
14,115,66045,1,8,0:0:0:0:
102,68,66178,6,0,B|135:145|73:145|110:228,1,150,6|2,0:0|0:0,0:0:0:0:
200,288,66574,2,0,P|240:300|284:280,1,75,2|0,0:0|0:0,0:0:0:0:
348,208,66838,5,8,0:0:0:0:
348,208,66971,1,8,0:0:0:0:
392,312,67103,1,8,0:0:0:0:
392,312,67235,1,8,0:0:0:0:
432,172,67367,6,0,P|380:120|284:140,2,168.750006437302,6|8|2,0:0|0:0|0:0,0:0:0:0:
372,288,68424,6,0,L|252:284,1,112.500004291535,0|0,0:0|0:0,0:0:0:0:
144,340,68953,1,8,0:0:0:0:
40,264,69217,6,0,P|64:216|128:200,1,112.500004291535,2|2,0:0|0:0,0:0:0:0:
259,284,69746,1,0,0:0:0:0:
211,96,70010,2,0,B|188:152|188:152|216:208,1,112.500004291535,0|2,0:0|0:0,0:0:0:0:
259,284,70539,5,0,0:0:0:0:
259,284,70803,1,0,0:0:0:0:
340,340,71067,2,0,L|408:336,1,56.2500021457673,8|0,0:0|0:0,0:0:0:0:
480,328,71332,1,2,0:0:0:0:
420,256,71596,6,0,P|400:192|432:132,1,112.500004291535,2|0,0:0|0:0,0:0:0:0:
428,128,71993,1,8,0:0:0:0:
301,58,72389,1,2,0:0:0:0:
301,58,72653,6,0,B|322:111|322:111|297:185,1,112.500004291535,2|0,0:0|0:0,0:0:0:0:
296,192,73050,1,8,0:0:0:0:
64,128,73446,5,2,0:0:0:0:
64,128,73711,2,0,L|192:124,1,112.500004291535,2|0,0:0|0:0,0:0:0:0:
204,124,74107,1,8,0:0:0:0:
144,300,74504,5,2,0:0:0:0:
56,300,74768,2,0,P|76:244|180:220,1,168.750006437302,0|0,0:0|0:0,0:0:0:0:
232,300,75297,6,0,B|272:308|272:308|320:296,1,75,8|2,0:0|0:0,0:0:0:0:
368,244,75561,1,8,0:0:0:0:
428,336,75693,6,0,P|468:300|456:196,1,150,6|0,0:0|0:0,0:0:0:0:
372,108,76089,2,0,P|364:72|384:24,1,75,8|0,0:0|0:0,0:0:0:0:
456,76,76354,1,2,0:0:0:0:
368,244,76486,1,2,0:0:0:0:
266,98,76618,2,0,B|264:12,1,75,8|0,0:0|0:0,0:0:0:0:
144,244,76882,6,0,B|232:216|220:268|296:244,1,150,2|8,0:0|0:0,0:0:0:0:
368,324,77279,2,0,P|428:296|440:208,1,150,0|2,0:0|0:0,0:0:0:0:
178,222,77675,1,8,0:0:0:0:
204,364,77808,6,0,B|204:320|204:320|176:276|176:276|180:192,1,150,6|2,0:0|0:0,0:0:0:0:
180,60,78204,1,8,0:0:0:0:
180,60,78336,1,0,0:0:0:0:
56,140,78468,2,0,B|96:132|96:132|136:140,1,75,2|2,0:0|0:0,0:0:0:0:
280,172,78733,1,8,0:0:0:0:
380,52,78865,1,0,0:0:0:0:
407,208,78997,6,0,P|378:174|279:172,1,150,6|8,0:0|0:0,0:0:0:0:
212,272,79393,2,0,B|140:292|156:240|52:272,1,150,0|2,0:0|0:0,0:0:0:0:
108,344,79790,1,8,0:0:0:0:
182,197,79922,6,0,B|188:168|188:168|180:124,1,75,6|0,0:0|0:0,0:0:0:0:
51,165,80186,1,2,0:0:0:0:
140,56,80319,2,0,P|180:44|236:64,1,75,8|0,0:0|0:0,0:0:0:0:
312,128,80583,1,2,0:0:0:0:
312,128,80715,1,2,0:0:0:0:
396,24,80847,2,0,B|388:76|388:76|400:112,1,75,8|0,0:0|0:0,0:0:0:0:
444,240,81112,6,0,B|372:260|388:212|292:240,1,150,2|8,0:0|0:0,0:0:0:0:
88,332,81508,2,0,P|116:300|228:308,1,150,0|2,0:0|0:0,0:0:0:0:
304,340,81904,1,8,0:0:0:0:
304,340,82037,1,2,0:0:0:0:
204,200,82169,6,0,B|216:156|216:156|204:116,1,75,12|0,0:0|0:0,0:0:0:0:
100,64,82433,2,0,B|91:92|91:92|103:136,1,75,8|0,0:0|0:0,0:0:0:0:
204,200,82697,5,8,0:0:0:0:
284,56,82830,1,2,0:0:0:0:
349,201,82962,1,8,0:0:0:0:
204,200,83094,6,0,B|289:167|289:233|364:195,1,150,6|2,0:0|0:0,0:0:0:0:
252,288,83490,1,8,0:0:0:0:
320,128,83623,5,2,0:0:0:0:
320,128,83689,1,2,0:0:0:0:
320,128,83755,1,8,0:0:0:0:
320,345,83887,1,8,0:0:0:0:
156,267,84019,2,0,L|74:267,1,75,8|8,0:0|0:0,0:0:0:0:
44,132,84283,6,0,B|140:100|128:156|212:128,1,165.000005035401,6|8,0:0|0:0,0:0:0:0:
276,60,84680,1,0,0:0:0:0:
308,156,84812,2,0,B|320:196|320:196|300:252,1,82.5000025177003,2|2,0:0|0:0,0:0:0:0:
248,324,85076,1,8,0:0:0:0:
306,234,85208,6,0,P|346:227|387:236,1,82.5000025177003,0|2,0:0|0:0,0:0:0:0:
248,324,85473,2,0,P|207:330|167:322,1,82.5000025177003,0|8,0:0|0:0,0:0:0:0:
92,200,85737,1,0,0:0:0:0:
92,200,85869,1,2,0:0:0:0:
204,248,86001,1,2,0:0:0:0:
84,356,86134,2,0,B|72:316|72:316|92:264,1,82.5000025177003,8|0,0:0|0:0,0:0:0:0:
175,143,86398,6,0,B|187:103|187:103|172:64,1,82.5000025177003,2|0,0:0|0:0,0:0:0:0:
26,104,86662,2,0,P|86:60|186:72,1,165.000005035401,8|2,0:0|0:0,0:0:0:0:
256,184,87059,1,2,0:0:0:0:
328,64,87191,1,8,0:0:0:0:
376,152,87323,6,0,P|376:200|348:236,1,82.5000025177003,2|0,0:0|0:0,0:0:0:0:
181,205,87587,2,0,P|215:183|255:183,1,82.5000025177003,2|8,0:0|0:0,0:0:0:0:
311,339,87852,2,0,P|275:321|255:286,2,82.5000025177003,0|2|2,0:0|0:0|0:0,0:0:0:0:
440,231,88248,2,0,L|344:227,1,82.5000025177003,8|0,0:0|0:0,0:0:0:0:
37,254,88512,6,0,P|117:198|205:218,1,165.000005035401,2|8,0:0|0:0,0:0:0:0:
254,285,88909,1,0,0:0:0:0:
128,360,89041,2,0,B|116:320|116:320|132:276,1,82.5000025177003,2|2,0:0|0:0,0:0:0:0:
196,44,89305,1,8,0:0:0:0:
119,198,89438,1,0,0:0:0:0:
72,116,89570,6,0,B|168:88|156:144|240:116,1,165.000005035401,2|8,0:0|0:0,0:0:0:0:
321,116,89966,2,0,P|289:60|173:56,1,165.000005035401,0|2,0:0|0:0,0:0:0:0:
100,192,90363,2,0,B|88:232|88:232|100:280,1,82.5000025177003,8|0,0:0|0:0,0:0:0:0:
172,352,90627,5,2,0:0:0:0:
172,352,90759,1,0,0:0:0:0:
253,284,90891,2,0,L|335:279,1,82.5000025177003,8|0,0:0|0:0,0:0:0:0:
477,354,91156,2,0,L|395:349,1,82.5000025177003,2|2,0:0|0:0,0:0:0:0:
388,144,91420,1,8,0:0:0:0:
436,220,91552,6,0,P|480:176|456:80,1,165.000005035401,6|2,0:0|0:0,0:0:0:0:
352,52,91949,1,8,0:0:0:0:
352,52,92081,1,8,0:0:0:0:
292,202,92213,2,0,B|292:284,1,82.5000025177003,2|8,0:0|0:0,0:0:0:0:
154,2,92477,1,8,0:0:0:0:
203,152,92609,1,0,0:0:0:0:
48,120,92741,6,0,B|108:120|108:120|156:152|156:152|232:152,2,165.000005035401,6|8|2,0:0|0:0|0:0,0:0:0:0:
192,236,93402,1,0,0:0:0:0:
84,292,93534,1,8,0:0:0:0:
84,292,93667,6,0,B|72:244|72:244|81:213,1,82.5000025177003,0|2,0:0|0:0,0:0:0:0:
145,348,93931,2,0,P|69:373|4:328,1,165.000005035401,0|0,0:0|0:0,0:0:0:0:
192,236,94327,1,2,0:0:0:0:
244,344,94460,1,2,0:0:0:0:
296,184,94592,2,0,L|296:98,1,82.5000025177003,8|0,0:0|0:0,0:0:0:0:
453,272,94856,6,0,B|464:312|464:312|452:352,1,82.5000025177003,2|0,0:0|0:0,0:0:0:0:
296,184,95120,1,8,0:0:0:0:
434,96,95252,1,0,0:0:0:0:
453,272,95385,2,0,L|358:271,1,82.5000025177003,2|2,0:0|0:0,0:0:0:0:
296,184,95649,1,8,0:0:0:0:
328,28,95781,6,0,B|328:80|328:80|296:128|296:128|296:196,2,165.000005035401,2|2|0,0:0|0:0|0:0,0:0:0:0:
124,168,96442,2,0,B|164:156|164:156|216:168,1,82.5000025177003,2|2,0:0|0:0,0:0:0:0:
376,230,96706,1,8,0:0:0:0:
233,255,96838,1,0,0:0:0:0:
311,357,96971,6,0,P|367:323|372:223,1,165.000005035401,6|8,0:0|0:0,0:0:0:0:
248,76,97367,1,0,0:0:0:0:
203,165,97499,2,0,B|191:203|191:203|203:243,1,82.5000025177003,2|2,0:0|0:0,0:0:0:0:
312,20,97763,1,8,0:0:0:0:
376,230,97896,1,0,0:0:0:0:
486,144,98028,6,0,B|407:110|407:176|306:136,1,165.000005035401,2|8,0:0|0:0,0:0:0:0:
366,77,98424,1,0,0:0:0:0:
450,212,98556,2,0,B|460:244|460:244|448:292,1,82.5000025177003,2|2,0:0|0:0,0:0:0:0:
276,300,98821,1,8,0:0:0:0:
376,230,98953,1,0,0:0:0:0:
197,350,99085,6,0,P|179:278|249:209,1,165.000005035401,6|8,0:0|0:0,0:0:0:0:
355,303,99482,1,2,0:0:0:0:
355,303,99614,2,0,P|315:311|276:300,1,82.5000025177003,8|2,0:0|0:0,0:0:0:0:
345,159,99878,2,0,P|385:150|424:162,1,82.5000025177003,8|2,0:0|0:0,0:0:0:0:
233,213,100142,5,8,0:0:0:0:
233,213,100275,1,0,0:0:0:0:
233,213,100407,2,0,B|245:172|245:172|227:119,1,82.5000025177003,2|6,0:0|0:0,0:0:0:0:
144,52,100671,2,0,P|76:96|76:180,1,165.000005035401,0|8,0:0|0:0,0:0:0:0:
183,336,101067,1,8,0:0:0:0:
183,336,101200,1,6,0:0:0:0:
256,192,101332,12,0,103843,0:0:0:0:
120,112,109658,5,6,0:0:0:0:
184,192,110715,2,0,P|264:192|296:168,1,112.500004291535,10|0,0:0|0:0,0:0:0:0:
368,105,111112,2,0,B|388:159|388:159|368:236,1,112.500004291535,10|0,0:0|0:0,0:0:0:0:
301,267,111508,1,10,0:0:0:0:
224,112,111772,5,4,0:0:0:0:
48,284,112697,1,2,0:0:0:0:
48,284,112763,1,2,0:0:0:0:
48,284,112830,2,0,L|128:280,1,56.2500021457673,8|2,0:0|0:0,0:0:0:0:
216,272,113094,1,2,0:0:0:0:
148,189,113226,2,0,P|112:217|112:297,1,112.500004291535,2|2,0:0|0:0,0:0:0:0:
212,360,113623,2,0,L|216:288,1,56.2500021457673,8|0,0:0|0:0,0:0:0:0:
224,128,113887,5,2,0:0:0:0:
224,128,114151,1,0,0:0:0:0:
296,184,114415,2,0,B|354:168|354:168|408:184,1,112.500004291535,0|0,0:0|0:0,0:0:0:0:
484,232,114944,5,2,0:0:0:0:
484,232,115208,1,0,0:0:0:0:
420,343,115473,2,0,P|372:314|360:239,1,112.500004291535,0|0,0:0|0:0,0:0:0:0:
405,183,116001,5,2,0:0:0:0:
405,183,116266,1,0,0:0:0:0:
288,56,116530,2,0,B|306:110|306:110|288:176,1,112.500004291535,0|0,0:0|0:0,0:0:0:0:
260,240,116926,1,8,0:0:0:0:
44,132,117587,5,8,0:0:0:0:
44,132,117719,1,2,0:0:0:0:
44,132,117852,2,0,B|103:111|103:111|166:129,1,112.5,6|0,0:0|0:0,0:0:0:0:
188,136,118116,5,6,0:0:0:0:
251,37,118248,1,0,0:0:0:0:
304,140,118380,2,0,B|304:188|304:188|328:232|328:232|328:284,1,150,8|0,0:0|0:0,0:0:0:0:
240,260,118777,1,2,0:0:0:0:
386,173,118909,2,0,B|420:164|420:164|460:172,1,75,8|0,0:0|0:0,0:0:0:0:
216,340,119173,6,0,P|168:300|184:200,1,150,2|8,0:0|0:0,0:0:0:0:
56,56,119570,2,0,B|44:96|44:96|64:144,1,75,2|0,0:0|0:0,0:0:0:0:
169,217,119834,1,2,0:0:0:0:
220,88,119966,2,0,L|124:88,1,75,8|0,0:0|0:0,0:0:0:0:
304,152,120230,6,0,B|344:160|344:160|396:148,1,75,2|0,0:0|0:0,0:0:0:0:
464,136,120495,2,0,P|444:88|420:68,1,75,8|0,0:0|0:0,0:0:0:0:
348,248,120759,2,0,P|368:296|392:316,1,75,0|2,0:0|0:0,0:0:0:0:
444,248,121023,1,8,0:0:0:0:
444,248,121156,1,0,0:0:0:0:
293,341,121288,6,0,B|218:315|230:372|133:341,1,150,2|8,0:0|0:0,0:0:0:0:
128,152,121684,2,0,P|188:168|216:256,1,150,2|2,0:0|0:0,0:0:0:0:
132,232,122081,1,8,0:0:0:0:
132,232,122213,1,0,0:0:0:0:
256,124,122345,6,0,P|292:116|340:128,1,75,2|0,0:0|0:0,0:0:0:0:
416,152,122609,1,8,0:0:0:0:
292,212,122741,1,2,0:0:0:0:
415,151,122874,2,0,B|422:114|422:114|414:78,1,75,0|0,0:0|0:0,0:0:0:0:
313,294,123138,2,0,B|305:330|305:330|312:368,1,75,8|0,0:0|0:0,0:0:0:0:
436,236,123402,6,0,B|388:236|388:236|340:212|340:212|272:212,1,150,2|8,0:0|0:0,0:0:0:0:
236,292,123799,2,0,B|168:313|168:313|92:283,1,150,2|2,0:0|0:0,0:0:0:0:
136,112,124195,2,0,L|132:212,1,75,8|0,0:0|0:0,0:0:0:0:
24,344,124460,5,2,0:0:0:0:
24,344,124592,1,0,0:0:0:0:
59,187,124724,2,0,B|99:179|99:179|151:191,1,75,8|2,0:0|0:0,0:0:0:0:
236,292,124988,1,0,0:0:0:0:
291,174,125120,2,0,L|291:97,1,75,2|8,0:0|0:0,0:0:0:0:
360,384,125385,6,0,P|404:360|408:256,1,150,6|2,0:0|0:0,0:0:0:0:
291,174,125781,1,2,0:0:0:0:
340,304,125913,1,0,0:0:0:0:
452,132,126045,2,0,B|412:124|412:124|352:136,1,75,8|8,0:0|0:0,0:0:0:0:
208,220,126310,1,8,0:0:0:0:
208,220,126442,1,8,0:0:0:0:
184,84,126574,6,0,P|136:100|100:172,2,112.500004291535,6|2|8,0:0|0:0|0:0,0:0:0:0:
184,84,127367,1,0,0:0:0:0:
208,220,127631,2,0,B|224:278|224:278|204:329,1,112.500004291535,0|2,0:0|0:0,0:0:0:0:
117,278,128160,1,8,0:0:0:0:
117,278,128424,1,0,0:0:0:0:
208,220,128689,6,0,B|250:201|250:201|330:221,1,112.500004291535,2|2,0:0|0:0,0:0:0:0:
424,196,129217,1,8,0:0:0:0:
383,290,129482,1,0,0:0:0:0:
424,196,129746,2,0,P|436:143|402:80,1,112.500004291535,0|2,0:0|0:0,0:0:0:0:
344,40,130275,1,8,0:0:0:0:
344,40,130539,1,0,0:0:0:0:
296,144,130803,6,0,P|240:156|184:132,2,112.500004291535,2|2|8,0:0|0:0|0:0,0:0:0:0:
248,72,131596,1,0,0:0:0:0:
100,243,131860,6,0,B|122:192|122:192|97:112,1,112.500004291535,2|2,0:0|0:0,0:0:0:0:
60,64,132389,1,8,0:0:0:0:
8,184,132653,1,0,0:0:0:0:
105,137,132918,6,0,P|163:119|226:142,1,112.500004291535,2|2,0:0|0:0,0:0:0:0:
300,172,133446,1,8,0:0:0:0:
184,324,133711,1,0,0:0:0:0:
204,224,133975,1,2,0:0:0:0:
276,360,134239,1,0,0:0:0:0:
344,276,134504,5,8,0:0:0:0:
344,276,134636,1,2,0:0:0:0:
344,276,134768,1,8,0:0:0:0:
344,276,134900,6,0,B|432:252|412:296|496:276,1,150,6|2,0:0|0:0,0:0:0:0:
456,205,135297,1,8,0:0:0:0:
387,352,135429,1,0,0:0:0:0:
352,145,135561,2,0,P|347:111|356:60,1,75,2|2,0:0|0:0,0:0:0:0:
164,271,135825,1,8,0:0:0:0:
249,90,135957,1,0,0:0:0:0:
126,175,136089,6,0,B|182:175|182:175|226:199|226:199|286:199,1,150,2|8,0:0|0:0,0:0:0:0:
384,252,136486,2,0,P|392:292|376:340,1,75,0|2,0:0|0:0,0:0:0:0:
160,261,136750,1,2,0:0:0:0:
308,284,136882,1,8,0:0:0:0:
189,351,137015,6,0,B|113:371|137:323|33:351,1,150,6|2,0:0|0:0,0:0:0:0:
32,216,137411,2,0,B|24:176|24:176|40:124,1,75,8|0,0:0|0:0,0:0:0:0:
96,56,137675,1,2,0:0:0:0:
148,180,137808,1,2,0:0:0:0:
216,84,137940,1,8,0:0:0:0:
268,208,138073,1,0,0:0:0:0:
332,116,138204,6,0,P|340:84|324:32,1,75,6|2,0:0|0:0,0:0:0:0:
216,84,138468,1,8,0:0:0:0:
268,208,138601,2,0,B|356:184|344:232|432:208,1,150,2|2,0:0|0:0,0:0:0:0:
308,288,138997,1,8,0:0:0:0:
414,211,139129,6,0,B|424:178|424:178|416:138,1,75,6|0,0:0|0:0,0:0:0:0:
416,361,139393,1,2,0:0:0:0:
308,288,139526,2,0,L|220:288,1,75,6|0,0:0|0:0,0:0:0:0:
152,224,139790,5,8,0:0:0:0:
152,224,139922,1,8,0:0:0:0:
60,352,140054,2,0,B|48:308|48:308|60:268,1,75,8|6,0:0|0:0,0:0:0:0:
188,100,140319,6,0,P|204:156|132:228,1,150,0|6,0:0|0:0,0:0:0:0:
36,148,140715,2,0,L|128:152,1,75,0|0,0:0|0:0,0:0:0:0:
288,260,140979,1,0,0:0:0:0:
352,155,141112,2,0,B|364:128|364:128|356:84,1,75,2|2,0:0|0:0,0:0:0:0:
248,340,141376,6,0,P|288:348|332:336,1,75,12|0,0:0|0:0,0:0:0:0:
484,216,141640,2,0,P|444:208|400:220,1,75,8|0,0:0|0:0,0:0:0:0:
288,260,141904,5,8,0:0:0:0:
288,260,142037,1,2,0:0:0:0:
448,296,142169,5,8,0:0:0:0:
448,296,142301,1,2,0:0:0:0:
291,185,142433,6,0,L|287:277,1,75,8|0,0:0|0:0,0:0:0:0:
216,336,142697,2,0,P|168:300|84:312,1,112.5,4|0,0:0|0:0,0:0:0:0:
40,348,142962,6,0,B|24:304|24:304|36:256,1,75,10|8,0:0|0:0,0:0:0:0:
127,67,143226,1,8,0:0:0:0:
196,200,143358,1,8,0:0:0:0:
28,161,143490,6,0,B|76:153|76:153|132:161,1,82.5000025177003,6|0,0:0|0:0,0:0:0:0:
196,200,143755,1,8,0:0:0:0:
251,44,143887,1,0,0:0:0:0:
293,165,144019,2,0,B|293:251,1,82.5000025177003,2|0,0:0|0:0,0:0:0:0:
418,352,144283,1,8,0:0:0:0:
452,245,144415,6,0,B|378:215|378:280|288:245,1,165.000005035401,0|0,0:0|0:0,0:0:0:0:
216,308,144812,2,0,P|176:316|120:296,1,82.5000025177003,8|0,0:0|0:0,0:0:0:0:
44,136,145076,2,0,P|86:125|131:136,2,82.5000025177003,2|2|8,0:0|0:0|0:0,0:0:0:0:
180,232,145473,1,0,0:0:0:0:
268,32,145605,6,0,P|232:108|304:184,1,165.000005035401,2|8,0:0|0:0,0:0:0:0:
352,224,146001,1,0,0:0:0:0:
440,96,146134,2,0,B|400:88|400:88|348:100,1,82.5000025177003,2|2,0:0|0:0,0:0:0:0:
270,171,146398,1,8,0:0:0:0:
416,352,146530,6,0,B|416:297|416:297|441:249|441:249|440:193,1,165.000005035401,2|2,0:0|0:0,0:0:0:0:
188,212,146926,2,0,P|216:248|280:256,1,82.5000025177003,8|0,0:0|0:0,0:0:0:0:
352,224,147191,1,2,0:0:0:0:
275,81,147323,1,2,0:0:0:0:
188,212,147455,2,0,B|176:256|176:256|188:304,1,82.5000025177003,8|0,0:0|0:0,0:0:0:0:
292,336,147719,6,0,B|221:369|221:310|126:343,2,165.000005035401,2|8|2,0:0|0:0|0:0,0:0:0:0:
352,224,148380,1,2,0:0:0:0:
424,302,148512,2,0,L|424:384,1,82.5000025177003,8|0,0:0|0:0,0:0:0:0:
424,149,148777,2,0,P|349:119|276:152,1,165.000005035401,2|8,0:0|0:0,0:0:0:0:
200,216,149173,2,0,B|13:215,1,165.000005035401,0|2,0:0|0:0,0:0:0:0:
59,334,149570,2,0,P|105:348|149:331,1,82.5000025177003,8|0,0:0|0:0,0:0:0:0:
200,216,149834,5,2,0:0:0:0:
200,216,149966,1,0,0:0:0:0:
124,134,150098,2,0,P|116:95|128:56,1,82.5000025177003,8|0,0:0|0:0,0:0:0:0:
224,301,150363,1,2,0:0:0:0:
224,135,150495,1,2,0:0:0:0:
357,242,150627,1,8,0:0:0:0:
200,216,150759,6,0,B|260:216|260:216|298:242|298:242|356:242,1,165.000005035401,6|0,0:0|0:0,0:0:0:0:
443,126,151156,1,8,0:0:0:0:
443,126,151288,1,8,0:0:0:0:
356,242,151420,1,2,0:0:0:0:
356,242,151552,2,0,P|348:285|369:340,1,82.5000025177003,8|8,0:0|0:0,0:0:0:0:
438,282,151816,1,8,0:0:0:0:
236,344,151949,6,0,B|156:372|176:308|64:348,1,165.000005035401,6|8,0:0|0:0,0:0:0:0:
208,260,152345,1,0,0:0:0:0:
208,260,152477,2,0,P|244:196|196:116,1,165.000005035401,2|8,0:0|0:0,0:0:0:0:
0,190,152874,6,0,B|94:155|94:218|168:190,1,165.000005035401,2|2,0:0|0:0,0:0:0:0:
252,56,153270,2,0,P|204:40|156:52,1,82.5000025177003,8|0,0:0|0:0,0:0:0:0:
124,120,153534,1,2,0:0:0:0:
124,120,153667,1,2,0:0:0:0:
248,272,153799,2,0,B|232:232|232:232|248:172,1,82.5000025177003,8|0,0:0|0:0,0:0:0:0:
340,96,154063,6,0,L|344:184,1,82.5000025177003,2|0,0:0|0:0,0:0:0:0:
388,268,154327,1,8,0:0:0:0:
483,198,154460,1,0,0:0:0:0:
504,328,154592,2,0,B|448:328|448:328|412:356|412:356|336:356,1,165.000005035401,2|8,0:0|0:0,0:0:0:0:
245,247,154988,6,0,P|317:223|397:287,1,165.000005035401,2|2,0:0|0:0,0:0:0:0:
168,356,155385,1,8,0:0:0:0:
128,200,155517,1,0,0:0:0:0:
4,304,155649,2,0,P|52:316|96:296,1,82.5000025177003,2|2,0:0|0:0,0:0:0:0:
176,88,155913,2,0,P|128:76|84:96,1,82.5000025177003,8|0,0:0|0:0,0:0:0:0:
28,196,156178,6,0,B|120:164|112:232|212:184,1,165.000005035401,6|8,0:0|0:0,0:0:0:0:
264,136,156574,2,0,P|348:108|432:140,1,165.000005035401,0|2,0:0|0:0,0:0:0:0:
464,280,156971,2,0,B|424:288|424:288|365:273,1,82.5000025177003,8|0,0:0|0:0,0:0:0:0:
292,236,157235,5,2,0:0:0:0:
292,236,157367,1,0,0:0:0:0:
228,328,157499,2,0,L|135:322,1,82.5000025177003,8|0,0:0|0:0,0:0:0:0:
44,318,157763,2,0,P|67:265|104:244,1,82.5000025177003,2|2,0:0|0:0,0:0:0:0:
193,188,158028,6,0,P|176:266|228:328,1,165.000005035401,8|6,0:0|0:0,0:0:0:0:
296,196,158424,1,0,0:0:0:0:
296,196,158556,6,0,P|298:156|280:120,1,82.5000025177003,8|2,0:0|0:0,0:0:0:0:
228,328,158821,2,0,L|320:324,1,82.5000025177003,8|2,0:0|0:0,0:0:0:0:
464,248,159085,2,0,B|420:240|420:240|372:256,1,82.5000025177003,8|2,0:0|0:0,0:0:0:0:
310,324,159349,5,8,0:0:0:0:
310,324,159482,1,2,0:0:0:0:
376,152,159614,5,2,0:0:0:0:
376,152,159746,1,2,0:0:0:0:
464,248,159878,6,0,P|508:192|472:88,1,165.000005035401,2|8,0:0|0:0,0:0:0:0:
376,74,160275,1,8,0:0:0:0:
376,74,160407,6,0,P|364:114|384:162,1,82.5000025177003,6|0,0:0|0:0,0:0:0:0:
464,248,160671,1,8,0:0:0:0:
302,245,160803,2,0,B|401:215|385:267|464:246,1,165.000005035401,0|0,0:0|0:0,0:0:0:0:
296,352,161200,2,0,P|244:340|216:312,1,82.5000025177003,8|0,0:0|0:0,0:0:0:0:
144,148,161464,5,2,0:0:0:0:
80,320,161596,1,0,0:0:0:0:
8,252,161728,1,8,0:0:0:0:
8,252,161860,2,0,P|84:220|168:272,1,165.000005035401,2|2,0:0|0:0,0:0:0:0:
222,321,162257,2,0,B|236:268|236:268|230:233,1,82.5000025177003,8|0,0:0|0:0,0:0:0:0:
158,124,162521,5,2,0:0:0:0:
243,20,162653,1,0,0:0:0:0:
280,152,162786,1,8,0:0:0:0:
280,152,162918,2,0,B|348:152|348:152|388:180|388:180|468:180,1,165.000005035401,2|2,0:0|0:0,0:0:0:0:
412,24,163314,2,0,P|400:68|420:112,1,82.5000025177003,8|0,0:0|0:0,0:0:0:0:
464,256,163578,5,2,0:0:0:0:
320,256,163711,1,0,0:0:0:0:
400,332,163843,1,8,0:0:0:0:
400,332,163975,2,0,P|328:368|248:332,1,165.000005035401,2|2,0:0|0:0,0:0:0:0:
192,260,164371,2,0,B|152:252|152:252|92:268,1,82.5000025177003,8|8,0:0|0:0,0:0:0:0:
32,320,164636,5,2,0:0:0:0:
68,172,164768,1,0,0:0:0:0:
111,262,164900,1,8,0:0:0:0:
0,136,165032,2,0,P|72:96|136:136,1,165.000005035401,2|2,0:0|0:0,0:0:0:0:
212,188,165429,2,0,B|256:196|256:196|320:184,1,82.5000025177003,8|0,0:0|0:0,0:0:0:0:
372,104,165693,6,0,L|380:204,1,82.5000025177003,2|0,0:0|0:0,0:0:0:0:
396,344,165957,1,8,0:0:0:0:
472,309,166089,2,0,P|408:265|328:297,1,165.000005035401,2|2,0:0|0:0,0:0:0:0:
256,348,166486,1,8,0:0:0:0:
212,188,166618,1,0,0:0:0:0:
147,278,166750,6,0,B|107:286|107:286|51:274,1,82.5000025177003,2|0,0:0|0:0,0:0:0:0:
108,168,167015,1,8,0:0:0:0:
108,168,167147,2,0,P|140:100|232:80,1,165.000005035401,2|2,0:0|0:0,0:0:0:0:
296,144,167543,2,0,P|340:152|396:132,1,82.5000025177003,8|0,0:0|0:0,0:0:0:0:
336,64,167808,5,2,0:0:0:0:
336,64,167940,1,0,0:0:0:0:
452,208,168072,1,8,0:0:0:0:
452,207,168204,2,0,B|452:150|452:150|480:102|480:102|480:50,1,165.000005035401,2|2,0:0|0:0,0:0:0:0:
496,316,168601,2,0,P|456:328|400:304,1,82.5000025177003,12|0,0:0|0:0,0:0:0:0:
340,260,168865,6,0,B|302:251|302:251|243:267,1,82.5000025177003,6|0,0:0|0:0,0:0:0:0:
172,332,169129,1,8,0:0:0:0:
104,245,169261,1,0,0:0:0:0:
104,245,169393,2,0,P|61:238|13:254,1,82.5000025177003,2|2,0:0|0:0,0:0:0:0:
216,184,169658,1,8,0:0:0:0:
226,72,169790,6,0,P|137:95|108:178,1,165.000005035401,6|2,0:0|0:0,0:0:0:0:
260,262,170186,2,0,P|304:274|352:258,1,82.5000025177003,8|0,0:0|0:0,0:0:0:0:
348,120,170451,2,0,P|315:152|305:201,1,82.5000025177003,2|2,0:0|0:0,0:0:0:0:
428,264,170715,2,0,P|416:219|378:186,1,82.5000025177003,8|0,0:0|0:0,0:0:0:0:
216,332,170979,5,6,0:0:0:0:
216,332,171112,1,0,0:0:0:0:
108,260,171244,2,0,B|96:220|96:220|112:168,1,82.5000025177003,8|0,0:0|0:0,0:0:0:0:
207,130,171508,2,0,L|203:47,1,82.5000025177003,2|2,0:0|0:0,0:0:0:0:
216,332,171772,1,8,0:0:0:0:
344,280,171904,6,0,P|304:220|209:207,1,165.000005035401,6|2,0:0|0:0,0:0:0:0:
306,347,172301,2,0,P|350:359|398:339,1,82.5000025177003,8|0,0:0|0:0,0:0:0:0:
432,280,172565,1,2,0:0:0:0:
432,280,172697,1,2,0:0:0:0:
482,203,172830,2,0,B|492:176|492:176|480:124,1,82.5000025177003,8|8,0:0|0:0,0:0:0:0:
244,172,173094,6,0,B|340:144|324:200|412:172,1,165.000005035401,6|8,0:0|0:0,0:0:0:0:
405,174,173490,1,0,0:0:0:0:
292,324,173623,1,2,0:0:0:0:
292,324,173755,2,0,B|304:280|304:280|292:236,1,82.5000025177003,2|8,0:0|0:0,0:0:0:0:
144,132,174019,6,0,B|144:186|144:186|172:232|172:232|172:289,1,165.000005035401,6|2,0:0|0:0,0:0:0:0:
37,352,174415,2,0,P|6:314|1:276,1,82.5000025177003,8|0,0:0|0:0,0:0:0:0:
144,132,174680,1,2,0:0:0:0:
80,284,174812,1,2,0:0:0:0:
56,111,174944,2,0,P|73:72|120:39,1,82.5000025177003,8|0,0:0|0:0,0:0:0:0:
290,132,175208,6,0,P|216:99|143:132,1,165.000005035401,6|8,0:0|0:0,0:0:0:0:
248,296,175605,2,0,P|288:308|348:284,1,82.5000025177003,0|2,0:0|0:0,0:0:0:0:
396,256,175869,1,0,0:0:0:0:
290,132,176001,2,0,B|276:173|276:173|292:217,1,82.5000025177003,8|0,0:0|0:0,0:0:0:0:
400,348,176266,5,0,0:0:0:0:
400,348,176398,1,0,0:0:0:0:
436,168,176530,1,8,0:0:0:0:
436,168,176662,1,0,0:0:0:0:
512,264,176794,6,0,L|410:260,1,82.5000025177003,2|2,0:0|0:0,0:0:0:0:
248,300,177059,1,8,0:0:0:0:
289,208,177191,1,0,0:0:0:0:
312,356,177323,6,0,P|224:376|164:304,1,165.000005035401,6|8,0:0|0:0,0:0:0:0:
180,224,177719,1,8,0:0:0:0:
248,300,177852,1,2,0:0:0:0:
272,108,178116,1,6,0:0:0:0:
289,208,178380,5,0,0:0:0:0:
289,208,178909,5,0,0:0:0:0:
289,208,179438,5,0,0:0:0:0:
104,308,187896,6,0,L|208:304,1,89.9999972534181,6|2,0:0|0:0,0:0:0:0:
224,304,188292,1,8,0:0:0:0:
156,184,188556,1,8,0:0:0:0:
156,184,188688,1,2,0:0:0:0:
236,104,188953,6,0,B|280:96|280:96|336:104,1,89.9999972534181,0|2,0:0|0:0,0:0:0:0:
400,248,189482,1,8,0:0:0:0:
400,248,189614,2,0,P|356:260|300:240,1,89.9999972534181,2|0,0:0|0:0,0:0:0:0:
284,176,190010,5,2,0:0:0:0:
193,304,190275,1,2,0:0:0:0:
193,304,190407,1,8,0:0:0:0:
72,220,190671,1,0,0:0:0:0:
72,220,190803,6,0,B|120:208|120:208|172:224,2,89.9999972534181,2|0|2,0:0|0:0|0:0,0:0:0:0:
32,132,191596,1,8,0:0:0:0:
32,132,191860,1,0,0:0:0:0:
156,312,192125,6,0,P|212:300|240:264,1,89.9999972534181,2|2,0:0|0:0,0:0:0:0:
284,208,192521,2,0,P|328:196|372:208,1,89.9999972534181,8|0,0:0|0:0,0:0:0:0:
328,284,192918,1,2,0:0:0:0:
452,344,193182,5,2,0:0:0:0:
452,344,193314,2,0,B|472:288|472:288|460:240,1,89.9999972534181,8|0,0:0|0:0,0:0:0:0:
448,160,193711,1,2,0:0:0:0:
328,284,193975,1,8,0:0:0:0:
280,124,194239,6,0,B|216:144|224:100|140:128,2,134.999995880127,2|8|2,0:0|0:0|0:0,0:0:0:0:
248,48,195297,1,14,0:0:0:0:
188,204,195561,1,2,0:0:0:0:
248,48,195825,5,14,0:0:0:0:
256,192,195957,12,0,196750,0:0:0:0:
384,280,196882,6,0,L|312:276,5,50,8|8|8|8|8|8,0:0|0:0|0:0|0:0|0:0|0:0,0:0:0:0:
424,352,197411,6,0,P|460:308|420:208,1,165.000005035401,6|8,0:0|0:0,0:0:0:0:
252,272,197808,1,0,0:0:0:0:
340,188,197940,2,0,B|341:94,1,82.5000025177003,2|2,0:0|0:0,0:0:0:0:
252,358,198204,1,8,0:0:0:0:
90,266,198336,6,0,B|194:234|174:294|274:266,2,165.000005035401,0|0|0,0:0|0:0|0:0,0:0:0:0:
140,344,198997,1,2,0:0:0:0:
140,344,199129,1,2,0:0:0:0:
224,188,199261,2,0,P|236:156|216:96,1,82.5000025177003,8|0,0:0|0:0,0:0:0:0:
52,148,199526,6,0,B|92:136|92:136|144:148,1,82.5000025177003,2|0,0:0|0:0,0:0:0:0:
224,188,199790,1,8,0:0:0:0:
224,188,199922,1,0,0:0:0:0:
319,138,200054,2,0,L|316:56,1,82.5000025177003,2|2,0:0|0:0,0:0:0:0:
336,336,200319,1,8,0:0:0:0:
464,272,200451,6,0,B|408:272|408:272|372:248|372:248|284:248,2,165.000005035401,2|2|0,0:0|0:0|0:0,0:0:0:0:
432,184,201112,1,2,0:0:0:0:
336,336,201244,1,2,0:0:0:0:
224,228,201376,2,0,B|188:220|188:220|140:232,1,82.5000025177003,8|0,0:0|0:0,0:0:0:0:
80,324,201640,6,0,P|32:272|56:176,1,165.000005035401,2|8,0:0|0:0,0:0:0:0:
144,100,202037,1,0,0:0:0:0:
224,228,202169,2,0,P|236:184|216:136,1,82.5000025177003,2|2,0:0|0:0,0:0:0:0:
240,56,202433,1,8,0:0:0:0:
240,56,202565,1,0,0:0:0:0:
304,224,202697,6,0,P|292:272|168:292,1,165.000005035401,2|8,0:0|0:0,0:0:0:0:
63,229,203094,2,0,B|161:195|153:255|231:225,1,165.000005035401,0|2,0:0|0:0,0:0:0:0:
264,72,203490,2,0,B|248:120|248:120|264:168,1,82.5000025177003,8|0,0:0|0:0,0:0:0:0:
368,312,203755,5,2,0:0:0:0:
368,312,203887,1,0,0:0:0:0:
496,196,204019,2,0,B|460:184|460:184|404:200,1,82.5000025177003,8|0,0:0|0:0,0:0:0:0:
289,311,204283,2,0,B|333:323|333:323|381:307,1,82.5000025177003,2|2,0:0|0:0,0:0:0:0:
417,196,204548,1,8,0:0:0:0:
248,384,204680,6,0,P|216:348|264:232,1,165.000005035401,6|0,0:0|0:0,0:0:0:0:
352,140,205076,1,8,0:0:0:0:
352,140,205208,1,8,0:0:0:0:
296,52,205341,6,0,P|256:44|200:64,1,82.5000025177003,6|8,0:0|0:0,0:0:0:0:
148,124,205605,2,0,B|108:132|108:132|48:116,1,82.5000025177003,8|0,0:0|0:0,0:0:0:0:
88,48,205869,6,0,P|128:68|116:192,1,165.000005035401,6|8,0:0|0:0,0:0:0:0:
72,256,206266,1,0,0:0:0:0:
152,320,206398,2,0,B|248:292|236:348|316:320,1,165.000005035401,2|8,0:0|0:0,0:0:0:0:
276,164,206794,6,0,P|264:208|284:256,1,82.5000025177003,0|2,0:0|0:0,0:0:0:0:
424,360,207059,2,0,B|436:316|436:316|420:268,1,82.5000025177003,0|8,0:0|0:0,0:0:0:0:
348,208,207323,1,0,0:0:0:0:
456,84,207455,1,2,0:0:0:0:
348,208,207587,1,2,0:0:0:0:
496,247,207719,2,0,B|496:160,1,82.5000025177003,8|0,0:0|0:0,0:0:0:0:
316,84,207984,6,0,P|276:76|220:96,1,82.5000025177003,2|0,0:0|0:0,0:0:0:0:
72,248,208248,2,0,B|59:209|59:209|72:152,1,82.5000025177003,8|0,0:0|0:0,0:0:0:0:
137,89,208512,1,2,0:0:0:0:
224,248,208645,1,2,0:0:0:0:
276,168,208777,1,8,0:0:0:0:
148,288,208909,6,0,P|196:332|288:304,1,165.000005035401,2|2,0:0|0:0,0:0:0:0:
356,240,209305,2,0,B|400:232|400:232|440:240,1,82.5000025177003,8|0,0:0|0:0,0:0:0:0:
399,349,209570,1,2,0:0:0:0:
399,349,209702,1,2,0:0:0:0:
437,239,209834,2,0,B|437:146,1,82.5000025177003,8|0,0:0|0:0,0:0:0:0:
284,307,210098,6,0,P|252:252|316:152,1,165.000005035401,6|8,0:0|0:0,0:0:0:0:
476,76,210495,2,0,B|388:48|404:108|296:76,1,165.000005035401,0|2,0:0|0:0,0:0:0:0:
220,112,210891,2,0,B|180:120|180:120|136:108,1,82.5000025177003,8|0,0:0|0:0,0:0:0:0:
56,56,211156,5,2,0:0:0:0:
56,56,211288,1,0,0:0:0:0:
48,156,211420,2,0,P|64:204|104:228,1,82.5000025177003,8|0,0:0|0:0,0:0:0:0:
128,288,211684,2,0,P|161:250|162:203,1,82.5000025177003,2|2,0:0|0:0,0:0:0:0:
8,364,211949,6,0,B|100:328|92:396|192:356,1,165.000005035401,8|6,0:0|0:0,0:0:0:0:
220,300,212345,1,0,0:0:0:0:
220,300,212477,6,0,B|260:292|260:292|308:300,1,82.5000025177003,8|2,0:0|0:0,0:0:0:0:
368,352,212741,2,0,P|388:300|372:248,1,82.5000025177003,8|2,0:0|0:0,0:0:0:0:
328,144,213006,2,0,P|308:196|324:248,1,82.5000025177003,8|2,0:0|0:0,0:0:0:0:
460,160,213270,6,0,P|452:84|356:36,1,165.000005035401,8|8,0:0|0:0,0:0:0:0:
311,221,213667,1,6,0:0:0:0:
497,319,213799,6,0,B|496:236,1,82.5000025177003,0|8,0:0|0:0,0:0:0:0:
311,221,214063,1,2,0:0:0:0:
460,160,214195,1,2,0:0:0:0:
403,279,214327,6,0,P|354:327|275:327,1,150,6|8,0:0|0:0,0:0:0:0:
224,248,214724,1,0,0:0:0:0:
168,360,214856,2,0,P|132:368|92:360,1,75,2|2,0:0|0:0,0:0:0:0:
8,200,215120,2,0,P|44:192|84:200,1,75,8|0,0:0|0:0,0:0:0:0:
128,280,215385,5,2,0:0:0:0:
128,280,215517,1,0,0:0:0:0:
196,124,215649,2,0,B|196:40,1,75,8|0,0:0|0:0,0:0:0:0:
25,88,215913,2,0,L|113:92,1,75,2|2,0:0|0:0,0:0:0:0:
268,160,216178,1,8,0:0:0:0:
349,66,216310,1,0,0:0:0:0:
376,236,216442,6,0,B|300:204|312:264|212:228,1,150,2|8,0:0|0:0,0:0:0:0:
336,352,216838,1,0,0:0:0:0:
444,272,216971,2,0,P|452:228|440:192,1,75,2|2,0:0|0:0,0:0:0:0:
268,160,217235,1,8,0:0:0:0:
336,352,217367,1,0,0:0:0:0:
188,304,217499,6,0,B|156:296|156:296|108:308,1,75,2|0,0:0|0:0,0:0:0:0:
18,339,217763,1,8,0:0:0:0:
18,339,217896,1,0,0:0:0:0:
57,195,218028,2,0,L|57:98,1,75,2|2,0:0|0:0,0:0:0:0:
152,376,218292,1,8,0:0:0:0:
232,228,218424,1,0,0:0:0:0:
148,252,218556,6,0,P|184:300|288:296,1,150,2|8,0:0|0:0,0:0:0:0:
348,348,218953,1,0,0:0:0:0:
340,252,219085,2,0,B|332:220|332:220|344:180,1,75,2|2,0:0|0:0,0:0:0:0:
483,279,219349,2,0,B|492:312|492:312|480:352,1,75,8|0,0:0|0:0,0:0:0:0:
348,348,219614,5,2,0:0:0:0:
348,348,219746,1,0,0:0:0:0:
256,272,219878,2,0,P|220:264|168:280,1,75,8|0,0:0|0:0,0:0:0:0:
112,324,220142,1,2,0:0:0:0:
112,324,220275,1,2,0:0:0:0:
24,356,220407,2,0,B|16:316|16:316|32:268,1,75,8|0,0:0|0:0,0:0:0:0:
84,148,220671,6,0,B|140:148|140:148|180:172|180:172|228:172,1,150,2|8,0:0|0:0,0:0:0:0:
284,104,221067,1,0,0:0:0:0:
336,272,221200,1,2,0:0:0:0:
336,272,221332,1,2,0:0:0:0:
400,200,221464,1,8,0:0:0:0:
252,280,221596,6,0,P|280:340|384:348,1,150,2|2,0:0|0:0,0:0:0:0:
428,292,221993,2,0,B|436:256|436:256|424:212,1,75,8|0,0:0|0:0,0:0:0:0:
308,184,222257,5,2,0:0:0:0:
308,184,222389,1,2,0:0:0:0:
396,80,222521,5,8,0:0:0:0:
396,80,222653,1,8,0:0:0:0:
236,144,222786,6,0,P|224:184|236:228,1,75,6|0,0:0|0:0,0:0:0:0:
356,360,223050,1,8,0:0:0:0:
356,360,223182,1,0,0:0:0:0:
260,292,223314,2,0,B|184:312|208:264|100:292,1,150,2|10,0:0|0:0,0:0:0:0:
56,364,223711,6,0,P|24:312|48:228,1,150,0|0,0:0|0:0,0:0:0:0:
128,120,224107,2,0,B|140:164|140:164|128:212,1,75,10|0,0:0|0:0,0:0:0:0:
112,288,224371,1,2,0:0:0:0:
229,215,224504,1,0,0:0:0:0:
283,360,224636,2,0,P|323:368|363:356,1,75,8|0,0:0|0:0,0:0:0:0:
416,192,224900,6,0,P|348:212|324:288,1,150,2|10,0:0|0:0,0:0:0:0:
424,296,225297,2,0,B|464:304|464:304|512:292,1,75,0|2,0:0|0:0,0:0:0:0:
456,108,225561,1,0,0:0:0:0:
416,192,225693,6,0,B|344:220|356:164|256:200,1,150,10|2,0:0|0:0,0:0:0:0:
200,252,226089,2,0,P|168:260|108:240,1,75,0|10,0:0|0:0,0:0:0:0:
64,188,226354,1,0,0:0:0:0:
164,96,226486,2,0,B|176:132|176:132|164:184,1,75,2|0,0:0|0:0,0:0:0:0:
48,344,226750,2,0,B|36:308|36:308|48:256,1,75,12|0,0:0|0:0,0:0:0:0:
168,168,227015,5,6,0:0:0:0:
168,168,227147,1,2,0:0:0:0:
236,340,227279,1,10,0:0:0:0:
236,340,227411,1,2,0:0:0:0:
136,340,227543,2,0,P|160:280|244:252,1,150,2|10,0:0|0:0,0:0:0:0:
320,344,227940,6,0,B|372:344|372:344|420:316|420:316|472:316,1,150,2|2,0:0|0:0,0:0:0:0:
284,108,228336,2,0,P|276:148|292:196,1,75,10|2,0:0|0:0,0:0:0:0:
418,151,228601,1,2,0:0:0:0:
418,151,228733,1,2,0:0:0:0:
320,252,228865,1,10,0:0:0:0:
320,252,228997,1,2,0:0:0:0:
320,252,229129,6,0,B|360:244|360:244|416:256,1,75,6|2,0:0|0:0,0:0:0:0:
220,316,229393,6,0,B|180:308|180:308|124:320,1,75,14|2,0:0|0:0,0:0:0:0:
360,348,229658,5,8,0:0:0:0:
360,348,229790,1,2,0:0:0:0:
224,196,229922,1,8,0:0:0:0:
302,122,230054,6,0,P|342:182|314:257,1,150,6|0,0:0|0:0,0:0:0:0:
128,140,230451,1,2,0:0:0:0:
224,196,230583,1,8,0:0:0:0:
210,112,230715,6,0,B|220:80|220:80|212:40,1,75,14|8,0:0|0:0,0:0:0:0:
52,260,230979,1,10,0:0:0:0:
140,228,231112,1,10,0:0:0:0:
120,324,231244,1,4,0:0:0:0:
