osu file format v14

[General]
AudioFilename: life.mp3
AudioLeadIn: 0
PreviewTime: 83722
Countdown: 0
SampleSet: Soft
StackLeniency: 0.7
Mode: 0
LetterboxInBreaks: 0
WidescreenStoryboard: 0

[Editor]
Bookmarks: 37763
DistanceSpacing: 1.2
BeatDivisor: 4
GridSize: 32
TimelineZoom: 1.7

[Metadata]
Title:Sendan Life
TitleUnicode:センダンライフ
Artist:Remo Prototype[CV: Hanamori Yumiri]
ArtistUnicode:リモ Prototype[CV:花守ゆみり]
Creator:Settia
Version:Extra
Source:ガラスの花と壊す世界
Tags:vocaloid Chukka やしきん yashikin Glass no Hana to Kowasu Sekai GARAKOWA Restore the World Vitreous Flower Destroy the World D.backup
BeatmapID:944802
BeatmapSetID:394834

[Difficulty]
HPDrainRate:5.5
CircleSize:4
OverallDifficulty:9
ApproachRate:9.6
SliderMultiplier:1.8
SliderTickRate:1

[Events]
//Background and Video events
0,0,"nbg.jpg",0,0
//Break Periods
2,104043,109149
2,179638,187387
//Storyboard Layer 0 (Background)
//Storyboard Layer 1 (Fail)
//Storyboard Layer 2 (Pass)
//Storyboard Layer 3 (Foreground)
//Storyboard Sound Samples

[TimingPoints]
37764,264.31718061674,4,2,1,50,1,0
41728,-71.4285714285714,4,2,1,70,0,0
41993,-100,4,2,1,70,0,0
50451,-100,4,2,1,70,0,0
58314,-100,4,2,1,5,0,0
58380,-100,4,2,1,70,0,0
58578,-90.9090909090909,4,2,1,5,0,0
58645,-100,4,2,1,70,0,0
67367,-133.333333333333,4,2,1,50,0,0
75693,-90.9090909090909,4,2,1,70,0,0
84283,-90.9090909090909,4,2,1,85,0,1
84482,-90.9090909090909,4,2,1,5,0,1
84548,-90.9090909090909,4,2,1,85,0,1
101200,-90.9090909090909,4,2,1,85,0,0
109658,-133.333333333333,4,2,1,60,0,0
112830,-100,4,2,1,60,0,0
117852,-71.4285714285714,4,2,1,70,0,0
118116,-90.9090909090909,4,2,1,70,0,0
126574,-133.333333333333,4,2,1,50,0,0
134900,-90.9090909090909,4,2,1,70,0,0
142697,-76.9230769230769,4,2,1,70,0,0
143490,-90.9090909090909,4,2,1,85,0,1
143755,-90.9090909090909,4,2,1,85,0,1
160407,-90.9090909090909,4,2,1,85,0,0
178380,-133.333333333333,4,2,1,50,0,0
187896,-133.333333333333,4,2,1,50,0,0
196882,-100,4,2,1,70,0,0
197411,-83.3333333333333,4,2,1,85,0,1
214327,-90.9090909090909,4,2,1,85,0,0

[Colours]
Combo1 : 109,198,255
Combo2 : 196,174,228
Combo3 : 255,169,136
Combo4 : 109,121,158

[HitObjects]
101,87,37367,6,0,L|62:87,10,22.5,0|0|0|0|0|0|0|0|0|0|0,0:0|0:0|0:0|0:0|0:0|0:0|0:0|0:0|0:0|0:0|0:0,0:0:0:0:
135,111,37763,6,0,L|135:218,1,90,8|0,0:0|0:0,0:0:0:0:
253,351,38028,2,0,P|267:304|246:246,1,90,8|0,0:0|0:0,0:0:0:0:
135,201,38292,1,2,0:0:0:0:
288,160,38424,2,0,L|403:158,1,90,8|0,0:0|0:0,0:0:0:0:
432,279,38689,6,0,B|390:279|390:279|365:263|365:263|238:266,2,180,8|8|8,0:0|0:0|0:0,0:0:0:0:
359,70,39482,1,2,0:0:0:0:
435,157,39614,2,0,P|458:216|417:293,1,135,8|0,0:0|0:0,0:0:0:0:
262,354,39878,6,0,L|257:255,1,90,8|0,0:0|0:0,0:0:0:0:
149,68,40142,2,0,P|132:113|152:176,1,90,8|0,0:0|0:0,0:0:0:0:
257,264,40407,1,2,0:0:0:0:
340,116,40539,2,0,P|294:105|244:120,1,90,8|0,0:0|0:0,0:0:0:0:
77,277,40803,6,0,L|274:262,2,180,8|8|8,0:0|0:0|0:0,0:0:0:0:
254,114,41464,1,8,0:0:0:0:
262,354,41596,1,2,0:0:0:0:
411,257,41728,2,0,P|358:217|255:265,1,188.999994232178,12|0,0:0|0:0,0:0:0:0:
176,305,41993,6,0,P|165:257|192:207,1,90,6|0,0:0|0:0,0:0:0:0:
327,49,42257,1,8,0:0:0:0:
256,262,42389,1,0,0:0:0:0:
159,85,42521,1,2,0:0:0:0:
350,150,42653,1,2,0:0:0:0:
179,220,42786,2,0,L|64:220,1,90,8|0,0:0|0:0,0:0:0:0:
343,311,43050,5,2,0:0:0:0:
424,121,43182,1,0,0:0:0:0:
256,262,43314,1,8,0:0:0:0:
446,347,43446,1,0,0:0:0:0:
424,121,43578,2,0,L|424:18,1,90,2|2,0:0|0:0,0:0:0:0:
253,350,43843,1,8,0:0:0:0:
423,268,43975,1,0,0:0:0:0:
256,172,44107,6,0,L|165:172,1,90,2|0,0:0|0:0,0:0:0:0:
61,283,44371,1,8,0:0:0:0:
181,52,44504,1,0,0:0:0:0:
256,172,44636,2,0,L|256:273,1,90,2|2,0:0|0:0,0:0:0:0:
73,172,44900,1,8,0:0:0:0:
253,351,45032,1,0,0:0:0:0:
328,123,45164,6,0,P|285:95|219:97,1,90,2|0,0:0|0:0,0:0:0:0:
136,348,45429,1,8,0:0:0:0:
92,141,45561,1,0,0:0:0:0:
256,262,45693,1,2,0:0:0:0:
38,243,45825,1,2,0:0:0:0:
256,262,45957,1,8,0:0:0:0:
168,109,46089,1,0,0:0:0:0:
214,336,46222,6,0,P|261:349|310:329,1,90,2|0,0:0|0:0,0:0:0:0:
328,123,46486,1,8,0:0:0:0:
256,262,46618,1,0,0:0:0:0:
454,227,46750,1,2,0:0:0:0:
256,262,46882,1,2,0:0:0:0:
454,227,47015,2,0,P|419:202|349:203,1,90,8|0,0:0|0:0,0:0:0:0:
137,351,47279,5,2,0:0:0:0:
379,291,47411,1,0,0:0:0:0:
229,181,47543,1,8,0:0:0:0:
382,383,47675,1,0,0:0:0:0:
373,196,47808,2,0,L|372:100,1,90,2|2,0:0|0:0,0:0:0:0:
90,237,48072,1,8,0:0:0:0:
276,269,48204,1,0,0:0:0:0:
50,363,48336,5,2,0:0:0:0:
154,138,48468,1,0,0:0:0:0:
204,327,48601,1,8,0:0:0:0:
90,237,48733,1,0,0:0:0:0:
264,128,48865,5,2,0:0:0:0:
282,359,48997,1,2,0:0:0:0:
263,92,49129,1,8,0:0:0:0:
276,269,49261,6,0,B|332:268|332:268|363:283|363:283|484:283,1,180,6|2,0:0|0:0,0:0:0:0:
393,193,49658,1,0,0:0:0:0:
282,359,49790,2,0,L|217:358,2,45,2|2|10,0:0|0:0|0:0,0:0:0:0:
165,142,50054,1,8,0:0:0:0:
94,282,50186,1,8,0:0:0:0:
180,110,50319,1,8,0:0:0:0:
276,359,50451,6,0,L|276:267,1,90,6|0,0:0|0:0,0:0:0:0:
380,29,50715,1,8,0:0:0:0:
393,193,50847,1,2,0:0:0:0:
231,103,50979,2,0,L|129:103,2,90,0|2|8,0:0|0:0|0:0,0:0:0:0:
470,183,51376,1,0,0:0:0:0:
354,42,51508,6,0,B|323:69|323:69|323:232,1,180,2|8,0:0|0:0,0:0:0:0:
470,353,51904,2,0,P|403:303|302:321,1,180,2|2,0:0|0:0,0:0:0:0:
205,369,52301,1,8,0:0:0:0:
151,191,52433,6,0,L|151:78,1,90,0|2,0:0|0:0,0:0:0:0:
93,369,52697,1,0,0:0:0:0:
243,261,52830,1,8,0:0:0:0:
58,257,52962,1,2,0:0:0:0:
205,369,53094,1,0,0:0:0:0:
151,191,53226,1,2,0:0:0:0:
93,369,53358,2,0,L|193:369,1,90,8|0,0:0|0:0,0:0:0:0:
358,363,53623,6,0,B|322:319|322:319|322:192,1,180,2|8,0:0|0:0,0:0:0:0:
434,21,54019,2,0,B|435:62|435:62|448:87|448:87|448:206,1,180,2|2,0:0|0:0,0:0:0:0:
279,122,54415,2,0,P|326:109|373:128,1,90,8|0,0:0|0:0,0:0:0:0:
499,280,54680,6,0,L|400:279,1,90,2|0,0:0|0:0,0:0:0:0:
121,244,54944,1,8,0:0:0:0:
280,122,55076,1,2,0:0:0:0:
280,322,55208,2,0,L|280:132,1,180,0|8,0:0|0:0,0:0:0:0:
197,50,55605,1,0,0:0:0:0:
84,191,55737,6,0,L|83:294,1,90,2|0,0:0|0:0,0:0:0:0:
135,120,56001,1,8,0:0:0:0:
14,279,56134,2,0,B|85:280|85:280|122:309|122:309|209:309,1,180,2|2,0:0|0:0,0:0:0:0:
374,355,56530,2,0,P|385:313|366:259,1,90,8|0,0:0|0:0,0:0:0:0:
183,309,56794,5,2,0:0:0:0:
295,157,56926,2,0,L|296:43,1,90,0|8,0:0|0:0,0:0:0:0:
251,359,57191,1,2,0:0:0:0:
372,269,57323,1,0,0:0:0:0:
161,218,57455,1,2,0:0:0:0:
374,355,57587,1,8,0:0:0:0:
419,138,57719,6,0,B|365:139|365:139|342:156|342:156|237:156,1,180,0|0,0:0|0:0,0:0:0:0:
134,108,58116,2,0,P|221:121|248:169,1,135,8|0,0:0|0:0,0:0:0:0:
188,325,58380,2,0,P|101:312|74:264,1,135,4|0,0:0|0:0,0:0:0:0:
161,218,58645,1,8,0:0:0:0:
277,372,58777,1,0,0:0:0:0:
365,168,58909,6,0,L|365:59,1,90,6|0,0:0|0:0,0:0:0:0:
232,249,59173,2,0,B|332:215|332:294|422:249,1,180,8|0,0:0|0:0,0:0:0:0:
365,78,59570,1,0,0:0:0:0:
475,210,59702,2,0,P|487:258|467:319,1,90,8|0,0:0|0:0,0:0:0:0:
228,362,59966,6,0,L|229:265,1,90,2|0,0:0|0:0,0:0:0:0:
406,255,60230,1,8,0:0:0:0:
249,168,60363,2,0,B|185:168|185:168|153:192|153:192|66:192,1,180,2|2,0:0|0:0,0:0:0:0:
115,19,60759,2,0,L|114:116,1,90,8|0,0:0|0:0,0:0:0:0:
305,240,61023,6,0,P|345:163|294:90,1,180,2|8,0:0|0:0,0:0:0:0:
170,317,61420,1,2,0:0:0:0:
249,168,61552,1,0,0:0:0:0:
282,368,61684,1,2,0:0:0:0:
81,274,61816,1,8,0:0:0:0:
305,240,61949,1,0,0:0:0:0:
66,359,62081,6,0,B|66:313|66:313|83:274|83:274|83:172,1,180,2|8,0:0|0:0,0:0:0:0:
263,79,62477,2,0,P|316:67|360:85,1,90,2|0,0:0|0:0,0:0:0:0:
305,240,62741,1,2,0:0:0:0:
175,128,62874,2,0,L|175:37,1,90,8|0,0:0|0:0,0:0:0:0:
180,330,63138,6,0,B|278:281|278:369|368:311,1,180,2|8,0:0|0:0,0:0:0:0:
442,171,63534,1,2,0:0:0:0:
448,363,63667,2,0,L|443:258,1,90,0|0,0:0|0:0,0:0:0:0:
348,77,63931,2,0,P|315:120|314:170,1,90,8|0,0:0|0:0,0:0:0:0:
443,273,64195,5,2,0:0:0:0:
443,273,64327,1,0,0:0:0:0:
311,154,64460,1,8,0:0:0:0:
481,120,64592,2,0,B|433:120|433:120|379:154|379:154|308:154,1,180,2|2,0:0|0:0,0:0:0:0:
214,227,64988,1,8,0:0:0:0:
443,273,65120,1,0,0:0:0:0:
183,337,65252,5,2,0:0:0:0:
143,147,65385,2,0,L|143:44,1,90,0|8,0:0|0:0,0:0:0:0:
292,311,65649,1,2,0:0:0:0:
112,240,65781,2,0,P|72:231|7:255,1,90,0|2,0:0|0:0,0:0:0:0:
62,362,66045,1,8,0:0:0:0:
215,221,66178,5,6,0:0:0:0:
215,221,66442,1,2,0:0:0:0:
328,56,66574,1,2,0:0:0:0:
400,244,66706,1,0,0:0:0:0:
237,108,66838,5,8,0:0:0:0:
412,132,66970,1,8,0:0:0:0:
305,288,67102,1,8,0:0:0:0:
328,56,67235,1,8,0:0:0:0:
396,328,67367,6,0,P|312:388|220:336,2,202.500007724762,6|8|2,0:0|0:0|0:0,0:0:0:0:
284,168,68424,1,0,0:0:0:0:
284,168,68689,1,0,0:0:0:0:
196,232,68953,2,0,L|112:228,1,67.5000025749208,8|0,0:0|0:0,0:0:0:0:
68,156,69217,1,2,0:0:0:0:
188,366,69482,6,0,L|196:226,1,135.000005149842,2|0,0:0|0:0,0:0:0:0:
200,136,69878,1,2,0:0:0:0:
304,260,70275,1,2,0:0:0:0:
384,216,70539,2,0,P|336:168|312:164,2,67.5000025749208,0|0|0,0:0|0:0|0:0,0:0:0:0:
384,216,71067,1,8,0:0:0:0:
412,100,71332,1,2,0:0:0:0:
472,256,71596,6,0,P|444:296|348:296,1,135.000005149842,2|0,0:0|0:0,0:0:0:0:
363,304,71993,1,8,0:0:0:0:
384,216,72125,1,0,0:0:0:0:
384,216,72389,1,2,0:0:0:0:
213,334,72653,6,0,P|192:268|232:192,1,135.000005149842,2|0,0:0|0:0,0:0:0:0:
215,209,73050,1,8,0:0:0:0:
363,304,73182,1,0,0:0:0:0:
363,304,73446,1,2,0:0:0:0:
296,120,73711,6,0,P|248:88|156:108,1,135.000005149842,2|0,0:0|0:0,0:0:0:0:
173,95,74107,1,8,0:0:0:0:
215,209,74239,1,0,0:0:0:0:
215,209,74504,1,2,0:0:0:0:
85,204,74768,6,0,B|154:225|154:225|230:205,1,135.000005149842,0|0,0:0|0:0,0:0:0:0:
280,256,75297,1,8,0:0:0:0:
268,280,75429,1,2,0:0:0:0:
256,304,75561,1,8,0:0:0:0:
444,312,75693,6,0,P|456:240|345:182,1,198.000006042481,6|0,0:0|0:0,0:0:0:0:
256,304,76089,1,8,0:0:0:0:
204,88,76222,1,0,0:0:0:0:
144,336,76354,1,2,0:0:0:0:
368,268,76486,1,2,0:0:0:0:
152,168,76618,1,8,0:0:0:0:
256,304,76750,1,0,0:0:0:0:
315,113,76882,6,0,L|314:8,1,99.0000030212403,2|2,0:0|0:0,0:0:0:0:
256,304,77147,1,8,0:0:0:0:
57,171,77279,2,0,B|105:155|105:155|163:171,1,99.0000030212403,0|2,0:0|0:0,0:0:0:0:
256,304,77543,1,2,0:0:0:0:
204,88,77675,1,8,0:0:0:0:
31,201,77808,6,0,P|115:156|205:202,1,198.000006042481,6|2,0:0|0:0,0:0:0:0:
256,304,78204,1,8,0:0:0:0:
286,114,78336,1,0,0:0:0:0:
373,285,78468,1,2,0:0:0:0:
202,198,78601,1,2,0:0:0:0:
391,168,78733,1,8,0:0:0:0:
202,198,78865,1,0,0:0:0:0:
405,285,78997,6,0,L|510:285,1,99.0000030212403,6|0,0:0|0:0,0:0:0:0:
202,198,79261,1,8,0:0:0:0:
288,78,79393,2,0,B|288:148|288:148|313:188|313:188|312:280,1,198.000006042481,0|2,0:0|0:0,0:0:0:0:
371,384,79790,1,8,0:0:0:0:
478,306,79922,6,0,P|402:245|295:285,1,198.000006042481,6|2,0:0|0:0,0:0:0:0:
68,282,80319,1,8,0:0:0:0:
186,143,80451,1,0,0:0:0:0:
231,329,80583,2,0,P|185:342|122:317,2,99.0000030212403,2|2|8,0:0|0:0|0:0,0:0:0:0:
348,186,80979,1,0,0:0:0:0:
186,267,81112,6,0,L|187:160,1,99.0000030212403,2|2,0:0|0:0,0:0:0:0:
287,23,81376,1,8,0:0:0:0:
136,95,81508,2,0,B|243:56|243:141|337:95,1,198.000006042481,0|2,0:0|0:0,0:0:0:0:
440,164,81904,2,0,L|433:284,1,99.0000030212403,8|2,0:0|0:0,0:0:0:0:
262,352,82169,5,12,0:0:0:0:
434,262,82301,1,0,0:0:0:0:
195,273,82433,5,8,0:0:0:0:
380,330,82565,1,0,0:0:0:0:
319,168,82697,5,8,0:0:0:0:
262,352,82829,1,2,0:0:0:0:
434,262,82962,1,8,0:0:0:0:
210,79,83094,6,0,B|210:126|210:126|195:152|195:152|195:291,1,198.000006042481,6|2,0:0|0:0,0:0:0:0:
109,104,83490,1,8,0:0:0:0:
281,271,83623,2,0,L|335:271,2,49.5000015106202,2|2|8,0:0|0:0|0:0,0:0:0:0:
77,215,83887,1,8,0:0:0:0:
284,177,84019,1,8,0:0:0:0:
92,315,84151,1,8,0:0:0:0:
24,150,84283,6,0,P|106:135|153:181,1,148.50000453186,6|0,0:0|0:0,0:0:0:0:
328,339,84548,2,0,P|287:353|226:332,1,99.0000030212403,8|0,0:0|0:0,0:0:0:0:
77,215,84812,1,2,0:0:0:0:
280,271,84944,1,2,0:0:0:0:
226,64,85076,1,8,0:0:0:0:
149,356,85208,6,0,P|197:264|290:278,1,198.000006042481
414,320,85605,1,8,0:0:0:0:
324,134,85737,2,0,L|324:62,2,49.5000015106202,0|0|2,0:0|0:0|0:0,0:0:0:0:
328,339,86001,1,2,0:0:0:0:
460,225,86134,2,0,P|408:211|346:240,1,99.0000030212403,8|0,0:0|0:0,0:0:0:0:
234,338,86398,5,2,0:0:0:0:
226,133,86530,1,0,0:0:0:0:
366,223,86662,1,8,0:0:0:0:
177,282,86794,1,0,0:0:0:0:
131,132,86926,2,0,P|178:119|225:132,1,99.0000030212403,2|2,0:0|0:0,0:0:0:0:
366,223,87191,1,8,0:0:0:0:
405,83,87323,6,0,P|351:24|235:71,1,198.000006042481,2|2,0:0|0:0,0:0:0:0:
439,351,87719,1,8,0:0:0:0:
252,271,87852,2,0,L|181:271,2,49.5000015106202,0|0|2,0:0|0:0|0:0,0:0:0:0:
439,351,88116,1,2,0:0:0:0:
324,134,88248,2,0,L|324:232,1,99.0000030212403,8|0,0:0|0:0,0:0:0:0:
439,351,88512,6,0,P|402:325|346:320,1,99.0000030212403,2|0,0:0|0:0,0:0:0:0:
172,349,88777,1,8,0:0:0:0:
324,232,88909,1,0,0:0:0:0:
137,216,89041,1,2,0:0:0:0:
349,233,89173,1,2,0:0:0:0:
208,348,89305,2,0,L|208:241,1,99.0000030212403,8|0,0:0|0:0,0:0:0:0:
74,109,89570,6,0,B|183:66|183:139|279:107,1,198.000006042481,2|8,0:0|0:0,0:0:0:0:
395,93,89966,2,0,P|310:78|259:203,1,198.000006042481,0|2,0:0|0:0,0:0:0:0:
404,307,90363,2,0,P|384:256|335:230,1,99.0000030212403,8|0,0:0|0:0,0:0:0:0:
137,216,90627,5,2,0:0:0:0:
311,310,90759,1,0,0:0:0:0:
110,348,90891,2,0,L|10:348,1,99.0000030212403,8|0,0:0|0:0,0:0:0:0:
261,237,91156,1,2,0:0:0:0:
110,348,91288,1,2,0:0:0:0:
356,381,91420,1,8,0:0:0:0:
223,159,91552,6,0,P|171:239|226:315,1,198.000006042481,6|2,0:0|0:0,0:0:0:0:
464,267,91949,1,8,0:0:0:0:
261,237,92081,1,8,0:0:0:0:
433,157,92213,1,2,0:0:0:0:
356,380,92345,1,8,0:0:0:0:
347,201,92477,2,0,L|346:94,1,99.0000030212403,8|0,0:0|0:0,0:0:0:0:
512,328,92741,6,0,P|468:342|409:320,1,99.0000030212403,6|0,0:0|0:0,0:0:0:0:
261,237,93006,1,8,0:0:0:0:
433,157,93138,1,0,0:0:0:0:
271,322,93270,2,0,B|225:322|225:322|206:335|206:335|67:335,1,198.000006042481,2|8,0:0|0:0,0:0:0:0:
234,154,93667,6,0,P|329:170|346:262,1,198.000006042481,0|0,0:0|0:0,0:0:0:0:
76,335,94063,2,0,L|76:211,1,99.0000030212403,8|0,0:0|0:0,0:0:0:0:
261,237,94327,1,2,0:0:0:0:
71,71,94460,1,2,0:0:0:0:
166,236,94592,1,8,0:0:0:0:
234,23,94724,1,0,0:0:0:0:
118,145,94856,6,0,P|73:159|14:135,1,99.0000030212403,2|0,0:0|0:0,0:0:0:0:
234,23,95120,2,0,P|279:9|338:33,1,99.0000030212403,8|0,0:0|0:0,0:0:0:0:
424,253,95385,1,2,0:0:0:0:
279,93,95517,1,2,0:0:0:0:
237,290,95649,1,8,0:0:0:0:
478,176,95781,6,0,P|385:164|335:253,1,198.000006042481,2|2,0:0|0:0,0:0:0:0:
424,352,96178,2,0,L|424:241,1,99.0000030212403,8|0,0:0|0:0,0:0:0:0:
237,290,96442,1,2,0:0:0:0:
389,164,96574,1,2,0:0:0:0:
187,139,96706,2,0,L|87:139,1,99.0000030212403,8|0,0:0|0:0,0:0:0:0:
305,384,96971,6,0,B|305:330|305:330|316:309|316:309|316:164,1,198.000006042481,6|8,0:0|0:0,0:0:0:0:
286,54,97367,1,0,0:0:0:0:
409,185,97499,2,0,P|360:201|299:175,2,99.0000030212403,2|2|8,0:0|0:0|0:0,0:0:0:0:
471,248,97896,1,0,0:0:0:0:
367,25,98028,6,0,L|358:129,1,99.0000030212403,2|0,0:0|0:0,0:0:0:0:
110,296,98292,1,8,0:0:0:0:
208,86,98424,1,0,0:0:0:0:
296,267,98556,2,0,L|296:370,2,99.0000030212403,2|2|8,0:0|0:0|0:0,0:0:0:0:
209,59,98953,1,0,0:0:0:0:
110,296,99085,6,0,B|73:264|73:264|73:99,1,198.000006042481,6|8,0:0|0:0,0:0:0:0:
279,122,99482,5,2,0:0:0:0:
194,289,99614,1,8,0:0:0:0:
235,48,99746,5,2,0:0:0:0:
337,248,99878,1,8,0:0:0:0:
409,97,100010,5,2,0:0:0:0:
286,337,100142,1,8,0:0:0:0:
107,159,100275,5,0,0:0:0:0:
376,172,100407,1,2,0:0:0:0:
194,289,100539,1,6,0:0:0:0:
235,97,100671,6,0,L|235:39,2,49.5000015106202,0|0|2,0:0|0:0|0:0,0:0:0:0:
286,337,100935,1,8,0:0:0:0:
409,97,101067,1,8,0:0:0:0:
286,337,101200,1,6,0:0:0:0:
256,192,101332,12,0,103843,0:0:0:0:
120,112,109658,5,6,0:0:0:0:
120,112,110715,6,0,P|93:177|116:242,1,135.000005149842,10|0,0:0|0:0,0:0:0:0:
184,175,111112,2,0,P|251:152|317:177,1,135.000005149842,10|0,0:0|0:0,0:0:0:0:
246,292,111508,1,10,0:0:0:0:
355,92,111772,5,4,0:0:0:0:
355,92,112697,5,2,0:0:0:0:
355,92,112763,1,2,0:0:0:0:
355,92,112830,6,0,B|463:92,1,90,8|2,0:0|0:0,0:0:0:0:
275,228,113094,1,2,0:0:0:0:
256,53,113226,2,0,B|256:104|256:104|275:133|275:133|275:233,1,180,2|2,0:0|0:0,0:0:0:0:
284,326,113623,2,0,P|240:320|206:292,1,90,8|0,0:0|0:0,0:0:0:0:
156,184,113887,5,2,0:0:0:0:
84,264,114151,1,0,0:0:0:0:
108,96,114415,1,0,0:0:0:0:
205,291,114680,1,0,0:0:0:0:
40,180,114944,5,2,0:0:0:0:
196,96,115208,1,0,0:0:0:0:
84,264,115473,1,0,0:0:0:0:
108,96,115737,1,0,0:0:0:0:
205,291,116001,5,2,0:0:0:0:
40,180,116266,1,0,0:0:0:0:
196,96,116530,1,0,0:0:0:0:
84,264,116794,1,0,0:0:0:0:
352,166,116926,5,8,0:0:0:0:
168,164,117587,1,8,0:0:0:0:
168,164,117719,1,2,0:0:0:0:
168,164,117852,2,0,B|269:129|269:197|360:164,1,188.999994232178,6|0,0:0|0:0,0:0:0:0:
421,236,118116,6,0,L|414:338,1,99.0000030212403,6|0,0:0|0:0,0:0:0:0:
478,63,118380,2,0,P|433:46|386:59,1,99.0000030212403,8|2,0:0|0:0,0:0:0:0:
223,242,118645,1,0,0:0:0:0:
311,93,118777,1,2,0:0:0:0:
414,334,118909,2,0,L|315:327,1,99.0000030212403,8|0,0:0|0:0,0:0:0:0:
100,262,119173,6,0,P|62:176|145:84,1,198.000006042481,2|8,0:0|0:0,0:0:0:0:
144,331,119570,2,0,P|104:346|47:325,1,99.0000030212403,2|0,0:0|0:0,0:0:0:0:
311,120,119834,1,2,0:0:0:0:
227,340,119966,2,0,L|222:234,1,99.0000030212403,8|0,0:0|0:0,0:0:0:0:
208,32,120230,5,2,0:0:0:0:
309,232,120363,1,0,0:0:0:0:
442,112,120495,2,0,L|332:118,1,99.0000030212403,8|0,0:0|0:0,0:0:0:0:
211,195,120759,1,0,0:0:0:0:
313,337,120891,1,2,0:0:0:0:
343,117,121023,1,8,0:0:0:0:
129,246,121156,1,0,0:0:0:0:
383,381,121288,6,0,P|395:330|370:275,1,99.0000030212403,2|0,0:0|0:0,0:0:0:0:
442,112,121552,1,8,0:0:0:0:
287,195,121684,2,0,B|223:195|223:195|173:236|173:236|95:236,1,198.000006042481,2|2,0:0|0:0,0:0:0:0:
229,79,122081,1,8,0:0:0:0:
380,287,122213,1,0,0:0:0:0:
442,112,122345,6,0,P|396:100|332:124,1,99.0000030212403,2|0,0:0|0:0,0:0:0:0:
82,157,122609,1,8,0:0:0:0:
183,332,122741,1,2,0:0:0:0:
229,178,122874,2,0,L|229:74,1,99.0000030212403,0|0,0:0|0:0,0:0:0:0:
27,252,123138,2,0,P|57:297|119:308,1,99.0000030212403,8|0,0:0|0:0,0:0:0:0:
253,370,123402,6,0,P|256:293|135:265,1,198.000006042481,2|8,0:0|0:0,0:0:0:0:
349,73,123799,2,0,B|349:131|349:131|364:151|364:151|364:287,1,198.000006042481,2|2,0:0|0:0,0:0:0:0:
450,335,124195,1,8,0:0:0:0:
501,85,124327,1,0,0:0:0:0:
364,265,124460,5,2,0:0:0:0:
501,181,124592,2,0,P|455:165|392:189,1,99.0000030212403,0|8,0:0|0:0,0:0:0:0:
181,328,124856,1,2,0:0:0:0:
264,124,124988,2,0,L|267:233,1,99.0000030212403,0|2,0:0|0:0,0:0:0:0:
317,364,125252,1,8,0:0:0:0:
251,42,125385,5,6,0:0:0:0:
150,115,125649,5,2,0:0:0:0:
363,186,125781,1,2,0:0:0:0:
112,277,125913,1,0,0:0:0:0:
171,30,126045,5,8,0:0:0:0:
292,288,126178,1,8,0:0:0:0:
128,198,126310,1,8,0:0:0:0:
278,98,126442,1,8,0:0:0:0:
174,341,126574,6,0,P|114:364|46:328,2,135.000005149842,6|2|8,0:0|0:0|0:0,0:0:0:0:
335,216,127367,1,0,0:0:0:0:
332,348,127631,2,0,B|348:284|348:284|332:196,1,135.000005149842,0|2,0:0|0:0,0:0:0:0:
292,124,128160,1,8,0:0:0:0:
412,228,128424,6,0,P|380:280|290:279,1,135.000005149842,0|2,0:0|0:0,0:0:0:0:
311,289,128953,1,2,0:0:0:0:
448,344,129217,1,8,0:0:0:0:
216,348,129482,1,0,0:0:0:0:
309,157,129746,6,0,B|321:229|321:229|309:297,1,135.000005149842,0|2,0:0|0:0,0:0:0:0:
104,292,130275,1,8,0:0:0:0:
104,292,130539,2,0,P|136:252|228:236,2,135.000005149842,0|2|2,0:0|0:0|0:0,0:0:0:0:
96,120,131332,5,8,0:0:0:0:
214,232,131596,1,0,0:0:0:0:
220,60,131860,2,0,L|216:220,1,135.000005149842,2|2,0:0|0:0,0:0:0:0:
310,290,132389,1,8,0:0:0:0:
216,348,132653,1,0,0:0:0:0:
376,348,132918,6,0,P|396:292|352:212,1,135.000005149842,2|2,0:0|0:0,0:0:0:0:
216,194,133446,1,8,0:0:0:0:
320,96,133711,1,0,0:0:0:0:
177,293,133975,2,0,B|250:279|250:279|333:293,1,135.000005149842,2|0,0:0|0:0,0:0:0:0:
72,336,134504,5,8,0:0:0:0:
112,208,134636,1,2,0:0:0:0:
60,364,134768,1,8,0:0:0:0:
18,147,134900,6,0,P|102:92|202:144,1,198.000006042481,6|2,0:0|0:0,0:0:0:0:
274,248,135297,1,8,0:0:0:0:
344,70,135429,1,0,0:0:0:0:
405,315,135561,1,2,0:0:0:0:
263,150,135693,1,2,0:0:0:0:
493,210,135825,1,8,0:0:0:0:
282,340,135957,1,0,0:0:0:0:
413,125,136089,6,0,L|407:229,1,99.0000030212403,2|2,0:0|0:0,0:0:0:0:
176,382,136354,1,8,0:0:0:0:
116,223,136486,2,0,B|226:177|226:258|320:213,1,198.000006042481,0|2,0:0|0:0,0:0:0:0:
65,144,136882,1,8,0:0:0:0:
176,382,137015,6,0,L|177:282,1,99.0000030212403,6|0,0:0|0:0,0:0:0:0:
265,68,137279,1,2,0:0:0:0:
116,223,137411,1,8,0:0:0:0:
186,28,137543,1,0,0:0:0:0:
334,128,137675,1,2,0:0:0:0:
102,140,137808,1,2,0:0:0:0:
365,127,137940,1,8,0:0:0:0:
176,283,138072,1,0,0:0:0:0:
212,128,138204,6,0,L|331:128,1,99.0000030212403,6|2,0:0|0:0,0:0:0:0:
449,191,138468,1,8,0:0:0:0:
328,347,138601,2,0,B|328:300|328:300|310:270|310:270|310:147,1,198.000006042481,2|2,0:0|0:0,0:0:0:0:
176,283,138997,1,8,0:0:0:0:
128,92,139129,6,0,P|183:76|229:94,1,99.0000030212403,6|0,0:0|0:0,0:0:0:0:
449,191,139393,1,2,0:0:0:0:
319,55,139526,2,0,L|308:170,1,99.0000030212403,6|0,0:0|0:0,0:0:0:0:
182,306,139790,5,8,0:0:0:0:
358,236,139922,1,8,0:0:0:0:
136,216,140054,1,8,0:0:0:0:
243,384,140186,1,6,0:0:0:0:
358,236,140319,6,0,L|240:224,1,99.0000030212403,0|0,0:0|0:0,0:0:0:0:
43,207,140583,1,6,0:0:0:0:
121,362,140715,2,0,B|121:304|121:304|137:279|137:279|137:158,1,198.000006042481,0|0,0:0|0:0,0:0:0:0:
254,38,141112,2,0,L|260:147,1,99.0000030212403,2|2,0:0|0:0,0:0:0:0:
442,319,141376,5,12,0:0:0:0:
221,227,141508,1,0,0:0:0:0:
442,136,141640,5,8,0:0:0:0:
259,319,141772,1,0,0:0:0:0:
350,98,141904,5,8,0:0:0:0:
350,356,142037,1,2,0:0:0:0:
259,136,142169,5,8,0:0:0:0:
479,227,142301,1,2,0:0:0:0:
259,319,142433,6,0,L|259:211,1,99.0000030212403,8|0,0:0|0:0,0:0:0:0:
89,131,142697,2,0,B|185:89|184:170|278:128,1,175.499991966248,4|0,0:0|0:0,0:0:0:0:
259,136,142962,1,10,0:0:0:0:
130,248,143094,1,8,0:0:0:0:
224,47,143226,1,8,0:0:0:0:
341,315,143358,1,8,0:0:0:0:
130,248,143490,6,0,L|258:248,1,99.0000030212403,6|0,0:0|0:0,0:0:0:0:
341,315,143755,2,0,P|330:269|353:204,1,99.0000030212403,8|0,0:0|0:0,0:0:0:0:
392,54,144019,1,2,0:0:0:0:
433,266,144151,1,0,0:0:0:0:
512,154,144283,1,8,0:0:0:0:
299,132,144415,6,0,B|374:132|374:132|402:154|402:154|505:154,1,198.000006042481,0|0,0:0|0:0,0:0:0:0:
229,248,144812,1,8,0:0:0:0:
189,68,144944,1,0,0:0:0:0:
189,68,145010,1,0,0:0:0:0:
189,68,145076,1,2,0:0:0:0:
259,375,145208,1,2,0:0:0:0:
125,241,145341,2,0,L|8:235,1,99.0000030212403,8|0,0:0|0:0,0:0:0:0:
299,131,145605,5,2,0:0:0:0:
406,359,145737,1,0,0:0:0:0:
266,244,145869,1,8,0:0:0:0:
461,201,146001,1,0,0:0:0:0:
259,375,146134,2,0,L|262:271,1,99.0000030212403,2|2,0:0|0:0,0:0:0:0:
337,45,146398,1,8,0:0:0:0:
461,201,146530,6,0,B|410:195|410:195|382:212|382:212|255:202,1,198.000006042481,2|2,0:0|0:0,0:0:0:0:
105,56,146926,1,8,0:0:0:0:
180,229,147059,1,0,0:0:0:0:
180,229,147125,1,0,0:0:0:0:
180,229,147191,1,2,0:0:0:0:
255,26,147323,1,2,0:0:0:0:
268,203,147455,2,0,L|161:195,1,99.0000030212403,8|0,0:0|0:0,0:0:0:0:
35,346,147719,6,0,P|81:364|132:353,1,99.0000030212403,2|0,0:0|0:0,0:0:0:0:
268,203,147984,1,8,0:0:0:0:
88,270,148116,1,0,0:0:0:0:
273,339,148248,2,0,L|268:206,1,99.0000030212403,2|2,0:0|0:0,0:0:0:0:
443,48,148512,2,0,P|459:97|445:146,1,99.0000030212403,8|0,0:0|0:0,0:0:0:0:
181,100,148777,6,0,B|248:70|248:70|404:101,1,198.000006042481,2|8,0:0|0:0,0:0:0:0:
304,357,149173,2,0,P|263:272|320:197,1,198.000006042481,0|2,0:0|0:0,0:0:0:0:
498,294,149570,2,0,L|394:288,1,99.0000030212403,8|0,0:0|0:0,0:0:0:0:
181,100,149834,5,2,0:0:0:0:
304,357,149966,1,0,0:0:0:0:
401,154,150098,2,0,L|401:51,1,99.0000030212403,8|0,0:0|0:0,0:0:0:0:
399,369,150363,1,2,0:0:0:0:
209,257,150495,1,2,0:0:0:0:
401,154,150627,1,8,0:0:0:0:
304,357,150759,6,0,B|304:296|304:296|324:262|324:262|324:143,1,198.000006042481,6|0,0:0|0:0,0:0:0:0:
219,49,151156,1,8,0:0:0:0:
219,49,151288,1,8,0:0:0:0:
104,223,151420,1,2,0:0:0:0:
324,164,151552,1,8,0:0:0:0:
72,120,151684,1,8,0:0:0:0:
140,327,151816,1,8,0:0:0:0:
324,164,151949,6,0,P|278:150|222:170,1,99.0000030212403,6|0,0:0|0:0,0:0:0:0:
46,321,152213,2,0,P|97:338|150:319,1,99.0000030212403,8|0,0:0|0:0,0:0:0:0:
328,286,152477,1,2,0:0:0:0:
104,223,152609,1,2,0:0:0:0:
324,164,152741,1,8,0:0:0:0:
351,374,152874,6,0,P|269:352|257:241,1,198.000006042481,2|2,0:0|0:0,0:0:0:0:
456,159,153270,1,8,0:0:0:0:
328,286,153402,1,0,0:0:0:0:
503,336,153534,1,2,0:0:0:0:
439,81,153667,1,2,0:0:0:0:
328,286,153799,2,0,L|430:283,1,99.0000030212403,8|0,0:0|0:0,0:0:0:0:
235,88,154063,6,0,L|133:91,1,99.0000030212403,2|0,0:0|0:0,0:0:0:0:
54,277,154327,1,8,0:0:0:0:
136,90,154460,1,0,0:0:0:0:
222,227,154592,2,0,P|232:274|207:343,1,99.0000030212403,2|2,0:0|0:0,0:0:0:0:
43,169,154856,1,8,0:0:0:0:
220,322,154988,6,0,P|154:290|154:174,1,198.000006042481,2|2,0:0|0:0,0:0:0:0:
477,106,155385,1,8,0:0:0:0:
271,230,155517,1,0,0:0:0:0:
271,230,155583,1,0,0:0:0:0:
271,230,155649,1,2,0:0:0:0:
443,356,155781,1,2,0:0:0:0:
442,191,155913,2,0,L|343:191,1,99.0000030212403,8|0,0:0|0:0,0:0:0:0:
114,350,156178,6,0,B|118:296|118:296|99:258|99:258|111:132,1,198.000006042481,6|8,0:0|0:0,0:0:0:0:
233,51,156574,2,0,P|207:135|90:147,1,198.000006042481,0|2,0:0|0:0,0:0:0:0:
51,95,156971,2,0,P|98:73|154:85,1,99.0000030212403,8|0,0:0|0:0,0:0:0:0:
271,275,157235,5,2,0:0:0:0:
360,122,157367,1,0,0:0:0:0:
430,285,157499,2,0,L|423:390,1,99.0000030212403,8|0,0:0|0:0,0:0:0:0:
457,90,157763,1,2,0:0:0:0:
351,216,157896,1,2,0:0:0:0:
293,60,158028,6,0,P|391:31|463:119,1,198.000006042481,8|6,0:0|0:0,0:0:0:0:
187,270,158424,5,0,0:0:0:0:
360,122,158556,1,8,0:0:0:0:
129,196,158689,5,2,0:0:0:0:
401,217,158821,1,8,0:0:0:0:
251,337,158953,5,2,0:0:0:0:
293,60,159085,1,8,0:0:0:0:
440,296,159217,5,2,0:0:0:0:
226,184,159349,1,8,0:0:0:0:
473,155,159482,5,2,0:0:0:0:
251,337,159614,1,2,0:0:0:0:
386,39,159746,5,2,0:0:0:0:
440,296,159878,1,2,0:0:0:0:
440,296,159944,1,2,0:0:0:0:
440,296,160010,1,2,0:0:0:0:
226,184,160142,5,8,0:0:0:0:
473,155,160275,1,8,0:0:0:0:
487,363,160407,6,0,P|439:378|385:352,1,99.0000030212403,6|0,0:0|0:0,0:0:0:0:
226,184,160671,1,8,0:0:0:0:
243,377,160803,2,0,B|243:334|243:334|226:305|226:305|226:182,1,198.000006042481,0|0,0:0|0:0,0:0:0:0:
69,62,161200,2,0,B|78:174,1,99.0000030212403,8|0,0:0|0:0,0:0:0:0:
103,348,161464,5,2,0:0:0:0:
332,208,161596,1,0,0:0:0:0:
76,160,161728,1,8,0:0:0:0:
184,294,161860,2,0,B|290:243|290:339|400:282,1,198.000006042481,2|2,0:0|0:0,0:0:0:0:
452,338,162257,2,0,P|464:286|438:224,1,99.0000030212403,8|0,0:0|0:0,0:0:0:0:
284,76,162521,5,2,0:0:0:0:
375,293,162653,1,0,0:0:0:0:
475,118,162786,1,8,0:0:0:0:
276,184,162918,2,0,B|177:184,1,99.0000030212403,2|0,0:0|0:0,0:0:0:0:
451,243,163182,1,2,0:0:0:0:
244,315,163314,1,8,0:0:0:0:
376,98,163446,1,0,0:0:0:0:
370,325,163578,6,0,B|248:318,1,99.0000030212403,2|0,0:0|0:0,0:0:0:0:
144,352,163843,1,8,0:0:0:0:
179,163,163975,2,0,B|172:242|172:242|149:266|149:266|143:360,1,198.000006042481,2|2,0:0|0:0,0:0:0:0:
278,151,164371,1,8,0:0:0:0:
56,248,164504,1,8,0:0:0:0:
275,289,164636,6,0,L|275:185,1,99.0000030212403,2|0,0:0|0:0,0:0:0:0:
169,43,164900,1,8,0:0:0:0:
9,176,165032,2,0,P|59:162|116:185,1,99.0000030212403,2|0,0:0|0:0,0:0:0:0:
275,289,165297,1,2,0:0:0:0:
357,122,165429,2,0,L|357:23,1,99.0000030212403,8|0,0:0|0:0,0:0:0:0:
428,256,165693,5,2,0:0:0:0:
282,332,165825,1,0,0:0:0:0:
445,116,165957,1,8,0:0:0:0:
479,309,166089,2,0,P|395:268|306:309,1,198.000006042481,2|2,0:0|0:0,0:0:0:0:
100,350,166486,2,0,P|89:300|110:246,1,99.0000030212403,8|0,0:0|0:0,0:0:0:0:
199,87,166750,5,2,0:0:0:0:
182,302,166882,1,0,0:0:0:0:
206,51,167015,1,8,0:0:0:0:
52,171,167147,2,0,B|161:129|161:209|260:158,1,198.000006042481,2|2,0:0|0:0,0:0:0:0:
386,29,167543,2,0,B|381:130,1,99.0000030212403,8|0,0:0|0:0,0:0:0:0:
259,310,167808,5,2,0:0:0:0:
455,240,167940,1,0,0:0:0:0:
244,165,168072,1,8,0:0:0:0:
315,384,168204,2,0,B|348:345|348:345|347:180,1,198.000006042481,2|2,0:0|0:0,0:0:0:0:
206,51,168601,1,12,0:0:0:0:
347,198,168733,1,0,0:0:0:0:
149,240,168865,5,6,0:0:0:0:
316,82,168997,1,0,0:0:0:0:
260,278,169129,1,8,0:0:0:0:
124,127,169261,5,0,0:0:0:0:
347,198,169393,1,2,0:0:0:0:
149,240,169525,1,2,0:0:0:0:
206,51,169657,5,8,0:0:0:0:
280,298,169790,6,0,B|225:298|225:298|193:321|193:321|79:321,1,198.000006042481,6|2,0:0|0:0,0:0:0:0:
334,99,170186,2,0,L|349:218,1,99.0000030212403,8|0,0:0|0:0,0:0:0:0:
431,364,170451,2,0,L|446:245,1,99.0000030212403,2|2,0:0|0:0,0:0:0:0:
464,149,170715,1,8,0:0:0:0:
464,149,170847,1,0,0:0:0:0:
280,298,170979,5,6,0:0:0:0:
344,64,171112,1,0,0:0:0:0:
443,265,171244,1,8,0:0:0:0:
222,189,171376,1,0,0:0:0:0:
464,149,171508,5,2,0:0:0:0:
222,367,171640,1,2,0:0:0:0:
306,134,171772,1,8,0:0:0:0:
443,265,171904,6,0,B|397:265|397:265|365:290|365:290|236:290,1,198.000006042481,6|2,0:0|0:0,0:0:0:0:
304,40,172301,2,0,P|318:86|307:134,1,99.0000030212403,8|0,0:0|0:0,0:0:0:0:
137,348,172565,2,0,P|122:301|133:253,1,99.0000030212403,2|2,0:0|0:0,0:0:0:0:
222,189,172830,1,8,0:0:0:0:
222,189,172962,1,8,0:0:0:0:
292,370,173094,5,6,0:0:0:0:
133,253,173226,1,0,0:0:0:0:
372,313,173358,5,8,0:0:0:0:
137,348,173490,1,0,0:0:0:0:
307,134,173623,5,2,0:0:0:0:
292,370,173755,1,2,0:0:0:0:
133,253,173887,1,8,0:0:0:0:
388,126,174019,6,0,P|342:211|240:185,1,198.000006042481,6|2,0:0|0:0,0:0:0:0:
161,55,174415,1,8,0:0:0:0:
55,286,174548,1,0,0:0:0:0:
307,134,174680,1,2,0:0:0:0:
58,96,174812,1,2,0:0:0:0:
162,273,174944,2,0,L|162:168,1,99.0000030212403,8|0,0:0|0:0,0:0:0:0:
352,344,175208,6,0,P|305:358|243:333,1,99.0000030212403,6|0,0:0|0:0,0:0:0:0:
447,178,175473,1,8,0:0:0:0:
305,271,175605,2,0,L|306:163,1,99.0000030212403,0|2,0:0|0:0,0:0:0:0:
376,57,175869,1,0,0:0:0:0:
397,246,176001,1,8,0:0:0:0:
501,109,176134,1,0,0:0:0:0:
305,172,176266,5,2,0:0:0:0:
507,242,176398,1,2,0:0:0:0:
376,57,176530,1,8,0:0:0:0:
453,328,176662,1,0,0:0:0:0:
501,109,176794,5,2,0:0:0:0:
305,271,176926,1,2,0:0:0:0:
507,242,177059,1,8,0:0:0:0:
376,57,177191,1,0,0:0:0:0:
253,173,177323,6,0,B|359:132|359:215|463:173,1,198.000006042481,6|8,0:0|0:0,0:0:0:0:
305,271,177719,1,8,0:0:0:0:
200,59,177852,1,2,0:0:0:0:
445,179,178116,5,6,0:0:0:0:
104,268,178380,5,0,0:0:0:0:
104,268,178909,5,0,0:0:0:0:
104,268,179438,5,0,0:0:0:0:
108,128,187896,6,0,B|180:144|180:144|256:128,1,135.000005149842,6|2,0:0|0:0,0:0:0:0:
312,104,188292,1,8,0:0:0:0:
232,40,188556,1,8,0:0:0:0:
232,40,188689,2,0,B|224:76|224:76|232:116,1,67.5000025749208,2|0,0:0|0:0,0:0:0:0:
292,232,188953,5,0,0:0:0:0:
292,232,189085,1,8,0:0:0:0:
312,104,189217,1,2,0:0:0:0:
372,288,189482,1,8,0:0:0:0:
165,238,189614,2,0,P|229:214|313:250,1,135.000005149842,2|0,0:0|0:0,0:0:0:0:
468,365,190010,6,0,B|401:340|411:386|332:361,1,135.000005149842,2|2,0:0|0:0,0:0:0:0:
232,306,190407,1,8,0:0:0:0:
72,200,190671,1,0,0:0:0:0:
42,317,190803,6,0,P|82:263|62:186,1,135.000005149842,2|0,0:0|0:0,0:0:0:0:
20,132,191332,1,2,0:0:0:0:
159,229,191596,2,0,B|231:245|231:245|299:229,1,135.000005149842,8|0,0:0|0:0,0:0:0:0:
368,188,192125,5,2,0:0:0:0:
376,336,192389,2,0,B|388:300|388:300|376:256,1,67.5000025749208,2|8,0:0|0:0,0:0:0:0:
292,132,192786,1,0,0:0:0:0:
368,188,192918,1,2,0:0:0:0:
290,230,193182,5,2,0:0:0:0:
376,88,193314,1,8,0:0:0:0:
380,271,193578,1,0,0:0:0:0:
162,250,193711,2,0,B|218:250|218:250|242:230|242:230|302:230,2,135.000005149842,2|8|2,0:0|0:0|0:0,0:0:0:0:
68,176,194504,5,2,0:0:0:0:
56,292,194636,1,8,0:0:0:0:
103,193,194900,5,0,0:0:0:0:
20,274,195032,1,2,0:0:0:0:
72,96,195297,5,14,0:0:0:0:
56,292,195561,1,2,0:0:0:0:
72,96,195825,1,14,0:0:0:0:
256,192,195957,12,0,196750,0:0:0:0:
72,96,196882,6,0,P|108:100|144:96,1,60,8|8,0:0|0:0,0:0:0:0:
200,40,197059,6,0,P|229:36|259:37,1,60,8|8,0:0|0:0,0:0:0:0:
332,92,197235,6,0,P|361:93|391:89,1,60,8|8,0:0|0:0,0:0:0:0:
472,40,197411,6,0,B|508:147|429:147|476:264,1,215.999993408203,6|8,0:0|0:0,0:0:0:0:
471,250,197808,1,0,0:0:0:0:
300,316,197940,2,0,B|356:304|356:304|424:320,1,107.999996704102,2|2,0:0|0:0,0:0:0:0:
489,343,198204,1,8,0:0:0:0:
295,223,198336,6,0,P|208:293|237:384,1,215.999993408203,0|0,0:0|0:0,0:0:0:0:
405,315,198733,1,8,0:0:0:0:
385,121,198865,1,0,0:0:0:0:
385,121,198931,1,0,0:0:0:0:
385,121,198997,2,0,B|393:232,1,107.999996704102,2|2,0:0|0:0,0:0:0:0:
234,381,199261,1,8,0:0:0:0:
120,172,199393,1,0,0:0:0:0:
100,379,199526,6,0,B|100:322|100:322|120:301|120:301|119:157,1,215.999993408203,2|8,0:0|0:0,0:0:0:0:
120,60,199922,1,0,0:0:0:0:
14,170,200054,2,0,P|78:182|126:166,2,107.999996704102,2|2|8,0:0|0:0|0:0,0:0:0:0:
208,116,200451,6,0,P|244:196|152:308,1,215.999993408203,2|2,0:0|0:0,0:0:0:0:
64,360,200847,2,0,B|48:308|48:308|68:248,1,107.999996704102,8|0,0:0|0:0,0:0:0:0:
64,257,201045,1,0,0:0:0:0:
64,257,201111,1,2,0:0:0:0:
328,324,201244,1,2,0:0:0:0:
183,190,201376,2,0,L|182:304,1,107.999996704102,8|0,0:0|0:0,0:0:0:0:
388,380,201640,6,0,P|412:328|304:248,1,215.999993408203,2|8,0:0|0:0,0:0:0:0:
182,297,202037,1,0,0:0:0:0:
361,158,202169,2,0,P|418:144|474:165,1,107.999996704102,2|2,0:0|0:0,0:0:0:0:
159,153,202433,1,8,0:0:0:0:
328,324,202565,1,0,0:0:0:0:
240,89,202697,6,0,B|275:191|192:191|237:299,1,215.999993408203,2|8,0:0|0:0,0:0:0:0:
61,119,203094,2,0,B|48:76|48:76|64:16,1,107.999996704102,0|2,0:0|0:0,0:0:0:0:
159,153,203358,1,2,0:0:0:0:
0,240,203490,2,0,P|56:224|124:248,1,107.999996704102,8|0,0:0|0:0,0:0:0:0:
132,252,203689,1,0,0:0:0:0:
132,252,203755,5,2,0:0:0:0:
52,348,203887,1,0,0:0:0:0:
159,51,204019,2,0,P|143:91|167:163,1,107.999996704102,8|0,0:0|0:0,0:0:0:0:
252,304,204283,1,2,0:0:0:0:
404,84,204415,1,2,0:0:0:0:
464,356,204548,1,8,0:0:0:0:
244,192,204680,6,0,B|320:192|320:192|392:228|392:228|460:228,1,215.999993408203,6|0,0:0|0:0,0:0:0:0:
28,263,205076,1,8,0:0:0:0:
244,192,205208,1,8,0:0:0:0:
28,123,205341,1,2,0:0:0:0:
162,307,205473,1,8,0:0:0:0:
162,79,205605,2,0,P|119:110|102:160,1,107.999996704102,8|8,0:0|0:0,0:0:0:0:
343,347,205869,6,0,L|353:236,1,107.999996704102,6|0,0:0|0:0,0:0:0:0:
264,27,206134,1,8,0:0:0:0:
459,139,206266,1,0,0:0:0:0:
250,126,206398,2,0,B|343:121|343:121|372:143|372:143|476:138,1,215.999993408203,2|8,0:0|0:0,0:0:0:0:
435,293,206794,6,0,P|365:360|259:328,1,215.999993408203
250,126,207191,1,8,0:0:0:0:
165,302,207323,2,0,L|163:360,2,53.9999983520508,0|0|2,0:0|0:0|0:0,0:0:0:0:
257,99,207587,1,2,0:0:0:0:
351,239,207719,2,0,L|227:235,1,107.999996704102,8|0,0:0|0:0,0:0:0:0:
30,306,207984,5,2,0:0:0:0:
223,353,208116,1,0,0:0:0:0:
157,157,208248,1,8,0:0:0:0:
112,380,208380,1,0,0:0:0:0:
166,128,208512,1,2,0:0:0:0:
30,306,208645,1,2,0:0:0:0:
223,353,208777,1,8,0:0:0:0:
272,204,208909,6,0,B|218:204|218:204|186:230|186:230|63:230,1,215.999993408203,2|2,0:0|0:0,0:0:0:0:
370,356,209305,1,8,0:0:0:0:
397,100,209438,2,0,L|403:41,2,53.9999983520508,0|0|2,0:0|0:0|0:0,0:0:0:0:
460,299,209702,1,2,0:0:0:0:
272,204,209834,2,0,P|326:188|391:213,1,107.999996704102,8|0,0:0|0:0,0:0:0:0:
460,299,210098,6,0,B|499:258|499:258|499:90,1,215.999993408203,6|8,0:0|0:0,0:0:0:0:
272,204,210495,1,0,0:0:0:0:
332,379,210627,2,0,L|326:261,1,107.999996704102,2|2,0:0|0:0,0:0:0:0:
222,115,210891,1,8,0:0:0:0:
118,342,211023,1,0,0:0:0:0:
62,199,211156,6,0,P|121:182|178:201,1,107.999996704102,2|0,0:0|0:0,0:0:0:0:
332,379,211420,1,8,0:0:0:0:
407,150,211552,1,0,0:0:0:0:
438,345,211684,2,0,L|421:233,1,107.999996704102,2|2,0:0|0:0,0:0:0:0:
222,115,211949,6,0,B|341:72|341:159|448:113,1,215.999993408203,8|6,0:0|0:0,0:0:0:0:
283,272,212345,5,0,0:0:0:0:
432,119,212477,1,8,0:0:0:0:
200,343,212609,5,2,0:0:0:0:
222,115,212741,1,8,0:0:0:0:
397,286,212874,5,2,0:0:0:0:
155,251,213006,1,8,0:0:0:0:
321,115,213138,5,2,0:0:0:0:
434,364,213270,1,8,0:0:0:0:
278,188,213402,5,2,0:0:0:0:
463,237,213534,1,8,0:0:0:0:
301,354,213667,1,6,0:0:0:0:
268,94,213799,6,0,L|263:34,2,53.9999983520508,0|0|8,0:0|0:0|0:0,0:0:0:0:
289,270,214063,1,2,0:0:0:0:
399,74,214195,1,2,0:0:0:0:
387,276,214327,6,0,L|274:269,1,99.0000030212403,6|0,0:0|0:0,0:0:0:0:
119,318,214592,1,8,0:0:0:0:
164,116,214724,1,0,0:0:0:0:
36,222,214856,1,2,0:0:0:0:
166,380,214988,1,2,0:0:0:0:
218,200,215120,2,0,L|116:213,1,99.0000030212403,8|0,0:0|0:0,0:0:0:0:
296,77,215385,5,2,0:0:0:0:
387,276,215517,1,0,0:0:0:0:
438,170,215649,1,8,0:0:0:0:
325,361,215781,1,0,0:0:0:0:
306,198,215913,2,0,L|296:89,1,99.0000030212403,2|2,0:0|0:0,0:0:0:0:
451,44,216178,2,0,L|441:153,1,99.0000030212403,8|0,0:0|0:0,0:0:0:0:
410,300,216442,6,0,B|355:296|355:296|335:313|335:313|199:302,1,198.000006042481,2|8,0:0|0:0,0:0:0:0:
80,343,216838,1,0,0:0:0:0:
217,209,216971,2,0,P|231:262|206:319,1,99.0000030212403,2|2,0:0|0:0,0:0:0:0:
43,172,217235,2,0,P|29:119|54:62,1,99.0000030212403,8|0,0:0|0:0,0:0:0:0:
150,111,217499,5,2,0:0:0:0:
218,302,217631,1,0,0:0:0:0:
308,190,217763,1,8,0:0:0:0:
157,367,217896,1,0,0:0:0:0:
335,373,218028,2,0,L|320:274,1,99.0000030212403,2|2,0:0|0:0,0:0:0:0:
415,30,218292,2,0,L|400:129,1,99.0000030212403,8|0,0:0|0:0,0:0:0:0:
447,290,218556,5,2,0:0:0:0:
226,265,218689,1,0,0:0:0:0:
461,373,218821,1,8,0:0:0:0:
308,190,218953,1,0,0:0:0:0:
236,377,219085,2,0,L|342:372,1,99.0000030212403,2|2,0:0|0:0,0:0:0:0:
34,141,219349,2,0,L|39:248,1,99.0000030212403,8|0,0:0|0:0,0:0:0:0:
150,368,219614,6,0,B|147:320|147:320|130:301|130:301|121:157,1,198.000006042481,2|8,0:0|0:0,0:0:0:0:
298,48,220010,1,0,0:0:0:0:
350,198,220142,2,0,P|304:212|244:189,1,99.0000030212403,2|2,0:0|0:0,0:0:0:0:
67,65,220407,2,0,P|113:51|173:74,1,99.0000030212403,8|0,0:0|0:0,0:0:0:0:
256,198,220671,5,2,0:0:0:0:
382,31,220803,1,0,0:0:0:0:
323,305,220935,1,8,0:0:0:0:
302,134,221067,1,0,0:0:0:0:
410,327,221200,1,2,0:0:0:0:
181,281,221332,1,2,0:0:0:0:
420,223,221464,1,8,0:0:0:0:
211,368,221596,6,0,B|180:336|180:336|179:161,1,198.000006042481,2|2,0:0|0:0,0:0:0:0:
59,70,221993,1,8,0:0:0:0:
179,182,222125,1,0,0:0:0:0:
241,17,222257,2,0,L|248:119,1,99.0000030212403,2|2,0:0|0:0,0:0:0:0:
320,373,222521,2,0,L|327:271,1,99.0000030212403,8|8,0:0|0:0,0:0:0:0:
395,162,222786,6,0,B|351:170|351:170|333:189|333:189|197:213,1,198.000006042481,6|8,0:0|0:0,0:0:0:0:
56,300,223182,1,0,0:0:0:0:
89,121,223314,2,0,L|104:17,2,99.0000030212403,2|0|10,0:0|0:0|0:0,0:0:0:0:
56,300,223711,6,0,B|124:300|124:300|174:336|174:336|262:336,1,198.000006042481,0|0,0:0|0:0,0:0:0:0:
328,260,224107,1,10,0:0:0:0:
426,354,224239,1,0,0:0:0:0:
447,208,224371,2,0,B|448:100,1,99.0000030212403,2|0,0:0|0:0,0:0:0:0:
242,336,224636,1,8,0:0:0:0:
227,115,224768,1,0,0:0:0:0:
370,184,224900,6,0,B|276:144|276:232|154:184,1,198.000006042481,2|10,0:0|0:0,0:0:0:0:
88,264,225297,2,0,P|36:196|88:84,1,198.000006042481,0|0,0:0|0:0,0:0:0:0:
237,16,225693,2,0,B|226:119,1,99.0000030212403,10|0,0:0|0:0,0:0:0:0:
88,264,225957,5,2,0:0:0:0:
88,264,226089,1,0,0:0:0:0:
188,364,226222,2,0,P|175:316|192:264,1,99.0000030212403,10|0,0:0|0:0,0:0:0:0:
322,172,226486,1,2,0:0:0:0:
367,311,226618,1,0,0:0:0:0:
243,172,226750,1,12,0:0:0:0:
376,343,226882,1,0,0:0:0:0:
430,140,227015,6,0,B|362:140|362:140|322:172|322:172|234:172,1,198.000006042481,6|10,0:0|0:0,0:0:0:0:
96,175,227411,1,2,0:0:0:0:
152,344,227543,2,0,B|168:288|168:288|152:232,1,99.0000030212403,2|2,0:0|0:0,0:0:0:0:
44,104,227808,1,10,0:0:0:0:
55,331,227940,6,0,P|83:275|215:267,1,198.000006042481,2|2,0:0|0:0,0:0:0:0:
205,98,228336,1,10,0:0:0:0:
205,98,228468,1,2,0:0:0:0:
308,336,228601,2,0,B|292:292|292:292|312:228,1,99.0000030212403,2|2,0:0|0:0,0:0:0:0:
368,136,228865,1,10,0:0:0:0:
416,288,228997,1,2,0:0:0:0:
271,139,229129,6,0,B|323:127|323:127|383:139,1,99.0000030212403,6|2,0:0|0:0,0:0:0:0:
512,291,229393,2,0,B|467:299|467:299|415:287,1,99.0000030212403,14|2,0:0|0:0,0:0:0:0:
307,242,229658,1,8,0:0:0:0:
447,97,229790,1,2,0:0:0:0:
512,291,229922,1,8,0:0:0:0:
447,97,230054,6,0,B|447:157|447:157|415:225|415:225|415:305,1,198.000006042481,6|0,0:0|0:0,0:0:0:0:
356,352,230385,1,0,0:0:0:0:
356,352,230451,2,0,P|308:364|252:340,1,99.0000030212403,2|8,0:0|0:0,0:0:0:0:
139,179,230715,5,14,0:0:0:0:
337,243,230847,1,8,0:0:0:0:
139,308,230979,1,10,0:0:0:0:
262,139,231112,1,10,0:0:0:0:
262,348,231244,1,4,0:0:0:0:
