osu file format v14

[General]
AudioFilename: audio.mp3
AudioLeadIn: 0
PreviewTime: 54175
Countdown: 0
SampleSet: Soft
StackLeniency: 0.6
Mode: 0
LetterboxInBreaks: 0
WidescreenStoryboard: 1

[Editor]
Bookmarks: 7721,20408,25166,28866,37324,45782,54241,62699,71157,73536
DistanceSpacing: 1.4
BeatDivisor: 4
GridSize: 4
TimelineZoom: 2.3

[Metadata]
Title:Sendan Life
TitleUnicode:センダンライフ
Artist:Remo Prototype[CV: Hanamori Yumiri]
ArtistUnicode:リモ Prototype[CV:花守ゆみり]
Creator:Mir
Version:Hard
Source:ガラスの花と壊す世界
Tags:vocaloid Chukka やしきん yashikin Glass no Hana to Kowasu Sekai GARAKOWA Restore the World Vitreous Flower Destroy the World xLolicore- Rumia-
BeatmapID:1356145
BeatmapSetID:639318

[Difficulty]
HPDrainRate:5
CircleSize:3.4
OverallDifficulty:6
ApproachRate:8
SliderMultiplier:1.3
SliderTickRate:1

[Events]
//Background and Video events
0,0,"remo.jpg",0,0
//Break Periods
//Storyboard Layer 0 (Background)
//Storyboard Layer 1 (Fail)
//Storyboard Layer 2 (Pass)
//Storyboard Layer 3 (Foreground)
//Storyboard Sound Samples

[TimingPoints]
6664,264.31718061674,4,2,1,100,1,0
7456,-100,4,2,1,80,0,0
9769,-100,4,2,1,5,0,0
9835,-100,4,2,1,80,0,0
11884,-100,4,2,1,5,0,0
11950,-100,4,2,1,80,0,0
19417,-100,4,2,1,5,0,0
19483,-100,4,2,1,80,0,0
20606,-100,4,2,1,5,0,0
20672,-100,4,2,1,80,0,0
21663,-100,4,2,1,5,0,0
21729,-100,4,2,1,80,0,0
22060,-100,4,2,1,5,0,0
22126,-100,4,2,1,80,0,0
23778,-100,4,2,1,5,0,0
23844,-100,4,2,1,80,0,0
24175,-100,4,2,1,5,0,0
24241,-100,4,2,1,80,0,0
24835,-100,4,2,1,5,0,0
24901,-100,4,2,1,80,0,0
25893,-100,4,2,1,5,0,0
25959,-100,4,2,1,80,0,0
26289,-100,4,2,1,5,0,0
26355,-100,4,2,1,80,0,0
28800,-100,4,2,1,5,0,0
28866,-100,4,2,1,80,0,0
30122,-100,4,2,1,5,0,0
30188,-100,4,2,1,80,0,0
30518,-100,4,2,1,5,0,0
30584,-100,4,2,1,80,0,0
32236,-100,4,2,1,5,0,0
32302,-100,4,2,1,80,0,0
32633,-100,4,2,1,5,0,0
32699,-100,4,2,1,80,0,0
33293,-100,4,2,1,5,0,0
33359,-100,4,2,1,80,0,0
34747,-100,4,2,1,5,0,0
34813,-100,4,2,1,80,0,0
36333,-100,4,2,1,5,0,0
36399,-100,4,2,1,80,0,0
45849,-100,4,2,1,5,0,0
45915,-100,4,2,1,80,0,0
47038,-100,4,2,1,5,0,0
47104,-100,4,2,1,80,0,0
49152,-100,4,2,1,5,0,0
49218,-100,4,2,1,80,0,0
54241,-100,4,2,1,100,0,1
54439,-100,4,2,1,5,0,1
54505,-100,4,2,1,100,0,1
56553,-100,4,2,1,5,0,1
56619,-100,4,2,1,100,0,1
57478,-100,4,2,1,5,0,1
57544,-100,4,2,1,100,0,1
58668,-100,4,2,1,5,0,1
58734,-100,4,2,1,100,0,1
59725,-100,4,2,1,5,0,1
59791,-100,4,2,1,100,0,1
60518,-100,4,2,1,5,0,1
60584,-100,4,2,1,100,0,1
61047,-100,4,2,1,5,0,1
61113,-100,4,2,1,100,0,1
61840,-100,4,2,1,5,0,1
61906,-100,4,2,1,100,0,1
62633,-100,4,2,1,100,0,0
62699,-100,4,2,1,100,0,1
62897,-100,4,2,1,5,0,1
62963,-100,4,2,1,100,0,1
65012,-100,4,2,1,5,0,1
65078,-100,4,2,1,100,0,1
65937,-100,4,2,1,5,0,1
66003,-100,4,2,1,100,0,1
67126,-100,4,2,1,5,0,1
67192,-100,4,2,1,100,0,1
68448,-100,4,2,1,5,0,1
68514,-100,4,2,1,100,0,1
71157,-100,4,2,1,100,0,0

[Colours]
Combo1 : 175,242,248
Combo2 : 244,173,250
Combo3 : 121,182,255
Combo4 : 218,218,218

[HitObjects]
119,122,7721,6,0,L|252:121,2,130,2|2|2,3:2|3:2|3:2,0:0:0:0:
34,125,8382,2,0,P|40:90|127:38,2,130,2|2|2,3:2|3:2|3:2,0:0:0:0:
184,203,9175,1,2,3:2:0:0:
54,223,9439,1,2,3:2:0:0:
54,223,9571,2,0,P|108:246|124:270,1,65,2|0,3:2|0:0,0:0:0:0:
136,329,9835,6,0,L|286:329,2,130,2|2|2,3:2|3:2|3:2,0:0:0:0:
111,249,10496,2,0,L|111:119,2,130,2|2|2,3:2|3:2|3:2,0:0:0:0:
277,282,11289,1,2,3:2:0:0:
277,282,11421,2,0,B|273:251|273:251|258:217,1,65,2|0,0:2|3:2,0:0:0:0:
264,136,11686,2,0,B|268:105|268:105|283:71,1,65,0|0,0:0|0:0,0:0:0:0:
198,54,11950,6,0,L|49:53,1,130,4|10,3:2|0:2,0:0:0:0:
91,134,12346,1,0,0:2:0:0:
91,134,12478,2,0,P|110:183|111:213,1,65,0|0,3:2|3:2,0:0:0:0:
48,252,12743,2,0,P|29:301|28:331,1,65,10|0,0:2|0:2,0:0:0:0:
104,347,13007,6,0,L|253:346,1,130,0|10,3:2|0:2,0:0:0:0:
235,261,13404,1,0,0:2:0:0:
235,261,13536,2,0,P|233:201|241:176,1,65,0|0,3:2|3:2,0:0:0:0:
316,161,13800,2,0,P|318:101|310:76,1,65,10|0,0:2|0:2,0:0:0:0:
258,35,14064,6,0,P|305:14|395:54,1,130,0|10,3:2|0:2,0:0:0:0:
397,117,14461,1,0,0:2:0:0:
397,117,14593,2,0,L|477:120,1,65,0|0,3:2|3:2,0:0:0:0:
460,203,14857,2,0,L|380:206,1,65,10|0,0:2|0:2,0:0:0:0:
347,276,15122,6,0,P|270:301|205:274,1,130,0|10,3:2|0:2,0:0:0:0:
142,272,15518,1,0,0:2:0:0:
142,272,15650,2,0,L|77:269,1,65,0|0,3:2|3:2,0:0:0:0:
49,189,15914,2,0,L|113:186,1,65,10|0,0:2|0:2,0:0:0:0:
180,132,16179,6,0,L|185:-6,1,130,0|10,3:2|0:2,0:0:0:0:
268,8,16575,1,0,0:2:0:0:
268,8,16708,2,0,L|271:93,1,65,0|0,3:2|3:2,0:0:0:0:
318,142,16972,2,0,L|315:206,1,65,10|0,0:2|0:2,0:0:0:0:
257,268,17236,6,0,P|327:243|394:279,1,130,0|10,3:2|0:2,0:0:0:0:
461,264,17633,1,0,0:2:0:0:
461,264,17765,2,0,P|453:208|459:178,1,65,0|0,3:2|3:2,0:0:0:0:
495,126,18029,2,0,P|503:70|497:40,1,65,10|0,0:2|0:2,0:0:0:0:
418,74,18293,6,0,L|259:76,1,130,0|10,3:2|0:2,0:0:0:0:
203,87,18690,1,0,0:2:0:0:
203,87,18822,2,0,P|205:144|197:169,1,65,2|0,3:2|3:2,0:0:0:0:
127,182,19086,1,10,0:2:0:0:
127,182,19219,6,0,P|84:181|20:251,1,130,4|2,0:2|3:2,0:0:0:0:
62,311,19615,2,0,P|87:291|104:263,1,65,8|2,0:2|3:2,0:0:0:0:
194,302,19879,2,0,P|198:269|190:238,1,65,10|2,0:2|3:2,0:0:0:0:
262,186,20144,2,0,P|242:160|214:143,1,65,10|0,0:2|3:2,0:0:0:0:
127,182,20408,5,4,3:2:0:0:
253,40,20672,2,0,L|337:46,1,65,8|0,0:2|3:2,0:0:0:0:
401,30,20937,2,0,L|465:25,2,65,2|2|10,0:2|0:2|0:2,0:0:0:0:
378,111,21333,1,0,0:2:0:0:
378,111,21465,6,0,P|396:180|355:242,1,130,2|10,3:2|0:2,0:0:0:0:
285,224,21862,2,0,P|206:219|153:250,1,130,2|0,3:2|3:2,0:0:0:0:
81,200,22258,1,8,0:2:0:0:
81,200,22390,6,0,L|82:290,2,65,2|0|2,3:2|0:2|3:2,0:0:0:0:
67,107,22787,2,0,P|66:60|82:36,1,65,10|2,0:2|0:2,0:0:0:0:
166,14,23051,1,2,3:2:0:0:
166,14,23183,1,2,3:2:0:0:
166,14,23315,2,0,P|203:17|236:8,1,65,8|0,0:2|0:2,0:0:0:0:
313,26,23580,6,0,P|348:68|325:154,1,130,2|10,3:2|0:2,0:0:0:0:
274,194,23976,2,0,P|239:236|262:322,1,130,2|2,3:2|3:2,0:0:0:0:
325,264,24373,2,0,L|401:264,2,65,10|2|0,0:2|0:2|3:2,0:0:0:0:
174,345,24901,6,0,P|121:353|104:349,1,65,10|0,0:2|3:2,0:0:0:0:
68,276,25166,2,0,P|15:268|-2:272,2,65,2|0|10,0:2|3:2|0:2,0:0:0:0:
123,212,25562,1,0,0:2:0:0:
123,212,25694,6,0,P|113:152|163:87,1,130,2|8,3:2|0:2,0:0:0:0:
224,57,26091,2,0,L|304:52,1,65,2|2,3:2|3:2,0:0:0:0:
356,112,26355,2,0,L|420:116,1,65,2|10,3:2|0:2,0:0:0:0:
466,194,26619,6,0,P|466:242|453:277,1,65,2|0,3:2|0:2,0:0:0:0:
380,270,26884,1,2,0:2:0:0:
380,270,27016,2,0,L|291:264,1,65,10|0,0:2|3:2,0:0:0:0:
258,203,27280,2,0,L|193:207,1,65,2|0,0:2|3:2,0:0:0:0:
113,174,27545,1,10,0:2:0:0:
113,174,27677,6,0,P|120:116|115:92,1,65,2|0,3:2|0:2,0:0:0:0:
38,86,27941,2,0,P|30:54|31:21,2,65,2|10|2,0:2|0:2|3:2,0:0:0:0:
119,109,28338,2,0,L|198:107,1,65,10|2,0:0|3:2,0:0:0:0:
242,46,28602,2,0,L|306:47,1,65,10|0,0:2|0:0,0:0:0:0:
391,53,28866,5,4,3:2:0:0:
296,193,29130,2,0,P|288:269|290:277,1,65,10|0,0:2|3:2,0:0:0:0:
354,306,29395,2,0,P|363:337|364:369,2,65,2|0|10,0:2|3:2|0:2,0:0:0:0:
278,344,29791,1,2,0:2:0:0:
278,344,29923,6,0,P|229:323|141:340,1,130,2|10,3:2|0:2,0:0:0:0:
69,337,30320,2,0,P|62:305|64:273,1,65,2|0,3:2|0:0,0:0:0:0:
121,211,30584,2,0,P|128:179|126:147,1,65,2|8,3:2|0:2,0:0:0:0:
129,55,30849,6,0,L|38:54,2,65,2|0|2,3:2|0:2|3:2,0:0:0:0:
210,116,31245,1,10,0:2:0:0:
210,116,31377,1,2,0:2:0:0:
210,116,31509,2,0,L|275:116,1,65,2|2,0:2|3:2,0:0:0:0:
342,178,31774,2,0,L|406:178,1,65,10|2,0:2|0:2,0:0:0:0:
482,139,32038,6,0,P|496:50|467:2,1,130,2|10,3:2|0:2,0:0:0:0:
399,41,32434,2,0,P|338:61|276:43,1,130,2|2,3:2|0:2,0:0:0:0:
196,15,32831,2,0,L|116:21,2,65,10|2|0,0:2|0:2|3:2,0:0:0:0:
269,136,33360,6,0,P|280:202|276:223,1,65,10|0,0:2|3:2,0:0:0:0:
239,273,33624,2,0,P|228:339|232:360,1,65,2|0,0:2|3:2,0:0:0:0:
302,375,33888,2,0,L|385:372,1,65,10|0,0:2|0:2,0:0:0:0:
413,302,34152,6,0,L|477:304,1,65,2|0,3:2|0:2,0:0:0:0:
445,225,34417,1,10,0:2:0:0:
445,225,34549,2,0,P|401:165|414:88,1,130,2|0,3:2|3:2,0:0:0:0:
450,42,34945,1,10,0:2:0:0:
450,42,35078,6,0,P|482:84|485:109,1,65,2|0,3:2|0:2,0:0:0:0:
319,133,35474,2,0,L|223:127,1,65,10|0,0:2|0:2,0:0:0:0:
189,75,35738,1,2,0:2:0:0:
189,75,35871,2,0,L|124:79,1,65,2|8,3:2|0:2,0:0:0:0:
66,149,36135,6,0,P|111:216|94:283,1,130,2|2,3:2|0:2,0:0:0:0:
255,338,36663,1,2,0:2:0:0:
255,338,36796,2,0,L|350:343,2,65,10|8|10,3:2|3:2|3:2,0:0:0:0:
196,277,37192,1,10,3:2:0:0:
250,212,37324,6,0,P|267:149|221:71,1,130,6|0,3:2|0:2,0:0:0:0:
176,38,37721,2,0,P|239:55|317:9,1,130,10|0,0:2|0:2,0:0:0:0:
381,35,38117,1,2,3:2:0:0:
415,200,38382,1,0,0:2:0:0:
415,200,38514,2,0,L|278:208,1,130,2|0,3:2|0:2,0:0:0:0:
205,180,38910,1,10,0:2:0:0:
109,319,39175,1,0,3:2:0:0:
110,150,39439,6,0,P|137:107|223:83,1,130,2|0,3:2|0:2,0:0:0:0:
205,180,39835,2,0,L|202:325,1,130,8|0,0:2|0:2,0:0:0:0:
262,369,40232,1,2,3:2:0:0:
413,295,40496,1,0,0:0:0:0:
413,295,40628,2,0,L|268:292,1,130,2|0,3:2|0:2,0:0:0:0:
202,309,41025,1,8,0:2:0:0:
303,174,41289,1,0,3:2:0:0:
180,57,41553,6,0,P|140:113|146:178,1,130,2|0,3:2|0:2,0:0:0:0:
108,249,41950,2,0,P|158:210|222:212,1,130,10|0,0:2|0:2,0:0:0:0:
282,271,42346,1,2,3:2:0:0:
450,253,42611,2,0,L|453:108,1,130,6|0,3:2|0:0,0:0:0:0:
478,42,43007,1,10,0:2:0:0:
478,42,43139,2,0,P|434:39|402:53,1,65,2|0,3:2|0:0,0:0:0:0:
364,114,43404,1,0,0:2:0:0:
210,43,43668,6,0,P|167:44|89:111,1,130,2|0,3:2|0:2,0:0:0:0:
19,123,44064,2,0,P|62:124|140:191,1,130,10|0,0:2|0:2,0:0:0:0:
169,248,44461,1,2,3:2:0:0:
303,349,44725,1,0,0:2:0:0:
303,349,44857,2,0,L|306:204,1,130,2|0,3:2|0:0,0:0:0:0:
225,174,45254,1,8,0:2:0:0:
306,133,45386,1,0,3:2:0:0:
306,133,45518,1,8,0:2:0:0:
306,133,45650,6,0,B|361:117|361:117|452:127,1,130,6|0,3:2|3:2,0:0:0:0:
478,47,46047,2,0,L|398:38,1,65,10|0,0:2|0:2,0:0:0:0:
322,31,46311,1,2,3:2:0:0:
322,31,46443,1,0,3:2:0:0:
322,31,46575,2,0,L|242:22,1,65,10|0,0:2|0:2,0:0:0:0:
177,53,46840,6,0,P|96:62|40:30,1,130,2|10,3:2|0:2,0:0:0:0:
9,121,47236,2,0,L|14:270,1,130,0|0,3:2|3:2,0:0:0:0:
75,317,47633,1,10,0:2:0:0:
75,317,47765,6,0,B|134:304|134:304|227:320,1,130,6|0,3:2|3:2,0:0:0:0:
291,332,48161,2,0,L|354:344,1,65,10|0,0:2|0:2,0:0:0:0:
419,279,48426,2,0,L|482:266,1,65,2|0,3:2|3:2,0:0:0:0:
509,190,48690,1,10,0:2:0:0:
370,71,48954,6,0,P|303:42|225:53,1,130,6|10,3:2|0:2,0:0:0:0:
227,134,49351,2,0,P|157:137|138:131,1,65,0|2,3:2|0:2,0:0:0:0:
102,70,49615,2,0,P|32:67|13:73,1,65,0|10,3:2|0:2,0:0:0:0:
8,147,49879,6,0,B|-7:212|-7:212|18:291,1,130,6|0,3:2|3:2,0:0:0:0:
95,291,50276,2,0,B|110:322|110:322|111:370,2,65,10|0|2,0:2|0:2|3:2,0:0:0:0:
96,206,50672,1,0,3:2:0:0:
96,206,50804,2,0,L|188:203,1,65,10|0,0:2|0:2,0:0:0:0:
244,208,51069,6,0,P|237:240|218:266,1,65,2|0,3:2|0:2,0:0:0:0:
205,133,51333,1,10,0:2:0:0:
205,133,51465,2,0,P|185:107|178:75,1,65,0|2,3:2|0:2,0:0:0:0:
263,70,51730,2,0,L|355:67,1,65,0|10,3:2|0:2,0:0:0:0:
411,59,51994,1,0,3:2:0:0:
411,59,52126,6,0,P|433:113|423:142,1,65,14|0,3:2|0:2,0:0:0:0:
356,154,52390,2,0,P|334:208|344:237,1,65,10|0,3:2|0:2,0:0:0:0:
418,250,52655,2,0,P|440:304|430:333,1,65,8|0,0:2|3:2,0:0:0:0:
348,308,52919,1,8,0:2:0:0:
258,321,53051,5,4,3:2:0:0:
206,63,53448,1,8,0:2:0:0:
136,121,53580,2,0,L|82:116,2,32.5,0|0|8,3:2|3:2|0:2,0:0:0:0:
161,208,53844,1,8,0:2:0:0:
161,208,53976,1,8,0:2:0:0:
161,208,54108,1,8,0:2:0:0:
243,185,54241,6,0,P|294:191|327:204,1,65,6|0,3:2|0:0,0:0:0:0:
367,262,54505,2,0,P|399:260|430:251,1,65,10|0,0:2|0:2,0:0:0:0:
486,180,54769,2,0,L|485:101,1,65,2|0,3:2|3:2,0:0:0:0:
481,23,55034,1,10,0:2:0:0:
481,23,55166,6,0,P|448:24|417:33,1,65,2|0,3:2|0:2,0:0:0:0:
337,77,55430,2,0,P|304:75|273:66,1,65,2|8,0:2|0:2,0:0:0:0:
191,27,55694,1,2,0:2:0:0:
191,27,55826,2,0,P|158:28|127:37,1,65,2|0,3:2|3:2,0:0:0:0:
37,57,56091,2,0,P|38:89|47:120,1,65,10|0,0:2|0:2,0:0:0:0:
133,149,56355,6,0,L|128:231,1,65,2|0,3:2|0:0,0:0:0:0:
219,216,56619,2,0,L|222:280,1,65,10|0,0:2|0:2,0:0:0:0:
293,339,56884,2,0,L|357:335,1,65,2|0,3:2|3:2,0:0:0:0:
448,328,57148,1,10,0:2:0:0:
448,328,57280,6,0,L|444:263,1,65,2|0,3:2|0:0,0:0:0:0:
359,228,57545,2,0,L|362:163,1,65,2|8,3:2|0:2,0:0:0:0:
435,107,57809,1,2,0:2:0:0:
435,107,57941,2,0,L|431:42,1,65,2|0,3:2|3:2,0:0:0:0:
344,13,58205,1,10,0:2:0:0:
190,101,58470,6,0,P|244:77|329:106,1,130,2|10,3:2|0:2,0:0:0:0:
362,163,58866,1,0,0:2:0:0:
362,163,58998,2,0,L|438:161,1,65,2|0,3:2|3:2,0:0:0:0:
475,238,59263,2,0,L|476:302,1,65,10|0,0:2|0:2,0:0:0:0:
416,371,59527,6,0,B|371:377|371:377|340:365|340:365|270:367,1,130,2|10,3:2|0:2,0:0:0:0:
235,292,59923,2,0,B|223:257|223:257|231:206,2,65,0|2|0,0:2|3:2|3:2,0:0:0:0:
197,375,60320,1,10,0:2:0:0:
106,217,60584,5,2,3:2:0:0:
254,111,60849,2,0,B|291:108|291:108|316:115|316:115|343:105|343:105|396:101,1,130,10|2,0:2|3:2,0:0:0:0:
471,100,61245,1,0,3:2:0:0:
471,100,61377,1,10,0:2:0:0:
471,100,61509,6,0,B|480:141|480:141|464:180|464:180|466:254,1,130,6|0,0:2|0:0,0:0:0:0:
475,316,61906,2,0,B|447:314|447:314|408:290,1,65,10|0,0:2|3:2,0:0:0:0:
359,223,62170,2,0,B|331:225|331:225|292:249,1,65,10|0,0:2|3:2,0:0:0:0:
255,318,62434,1,10,0:2:0:0:
255,318,62567,1,0,3:2:0:0:
255,318,62699,6,0,L|171:314,1,65,6|0,3:2|0:0,0:0:0:0:
111,360,62963,2,0,L|46:363,1,65,10|0,0:2|0:2,0:0:0:0:
10,279,63227,2,0,L|6:214,1,65,2|0,3:2|3:2,0:0:0:0:
79,158,63492,1,10,0:2:0:0:
79,158,63624,6,0,L|82:93,1,65,2|0,3:2|0:2,0:0:0:0:
137,21,63888,2,0,L|201:17,1,65,2|8,0:2|0:2,0:0:0:0:
275,71,64152,1,2,0:2:0:0:
275,71,64285,2,0,L|339:67,1,65,2|0,3:2|3:0,0:0:0:0:
419,23,64549,2,0,L|483:26,1,65,10|0,0:2|0:2,0:0:0:0:
482,116,64813,6,0,P|493:179|488:196,1,65,2|0,3:2|0:0,0:0:0:0:
405,206,65078,2,0,P|394:269|399:286,1,65,10|0,0:2|0:2,0:0:0:0:
443,344,65342,2,0,P|380:355|363:350,1,65,2|0,3:2|3:2,0:0:0:0:
307,300,65606,1,10,0:2:0:0:
307,300,65738,6,0,P|244:289|227:294,1,65,2|0,3:2|0:0,0:0:0:0:
194,357,66003,2,0,P|131:368|114:363,1,65,2|8,3:2|0:2,0:0:0:0:
61,309,66267,1,2,0:2:0:0:
61,309,66399,2,0,P|60:276|72:246,1,65,2|0,3:2|3:2,0:0:0:0:
142,188,66663,2,0,P|142:155|130:125,1,65,10|0,0:2|0:2,0:0:0:0:
60,66,66928,6,0,L|218:61,1,130,6|10,3:2|0:2,0:0:0:0:
275,32,67324,2,0,P|279:76|268:107,1,65,0|2,0:2|3:2,0:0:0:0:
255,185,67589,1,0,3:2:0:0:
255,185,67721,6,0,L|413:180,1,130,10|2,0:2|3:2,0:0:0:0:
445,113,68117,1,0,0:2:0:0:
474,198,68249,2,0,P|449:248|368:267,1,130,10|2,0:2|3:2,0:0:0:0:
290,259,68646,1,0,3:2:0:0:
229,326,68778,6,0,B|163:345|163:345|77:319,1,130,10|6,0:2|3:2,0:0:0:0:
42,259,69175,1,0,0:2:0:0:
42,259,69307,2,0,B|32:225|32:225|45:183,1,65,10|0,0:2|3:2,0:0:0:0:
131,185,69571,2,0,B|140:151|140:151|127:109,1,65,10|0,0:2|3:2,0:0:0:0:
44,98,69835,2,0,B|34:64|34:64|47:22,1,65,10|0,0:2|3:2,0:0:0:0:
133,17,70100,5,10,0:2:0:0:
133,17,70232,1,2,3:2:0:0:
365,159,70628,2,0,P|301:172|225:140,1,130,10|8,0:2|0:2,0:0:0:0:
167,97,71025,1,8,0:2:0:0:
161,187,71157,6,0,L|165:338,1,130,4|10,3:2|0:2,0:0:0:0:
258,286,71553,1,0,0:2:0:0:
258,286,71686,2,0,P|296:279|347:288,1,65,0|0,3:2|3:2,0:0:0:0:
358,364,71950,2,0,P|390:365|422:358,1,65,10|0,0:2|0:2,0:0:0:0:
459,275,72214,6,0,P|465:206|411:149,1,130,0|10,3:2|0:2,0:0:0:0:
339,156,72611,1,0,0:2:0:0:
339,156,72743,2,0,P|306:157|274:150,1,65,0|0,3:2|3:2,0:0:0:0:
192,112,73007,2,0,P|159:110|127:117,1,65,10|0,0:2|0:2,0:0:0:0:
97,202,73271,6,0,P|55:174|52:75,1,130,0|10,3:2|0:2,0:0:0:0:
100,30,73668,1,0,0:2:0:0:
100,30,73800,2,0,L|171:28,1,65,0|0,3:2|3:2,0:0:0:0:
192,112,74064,2,0,L|256:113,1,65,10|0,0:2|0:2,0:0:0:0:
329,58,74329,6,0,P|383:57|445:106,1,130,0|10,3:2|0:2,0:0:0:0:
388,174,74725,1,0,0:2:0:0:
388,174,74857,2,0,P|378:237|388:260,1,65,0|0,3:2|3:2,0:0:0:0:
408,313,75122,2,0,P|418:376|408:399,1,65,10|0,0:2|0:2,0:0:0:0:
327,363,75386,6,0,L|190:353,1,130,0|10,3:2|0:2,0:0:0:0:
158,271,75782,1,0,0:2:0:0:
158,271,75915,2,0,P|163:227|145:182,1,65,0|0,3:2|3:2,0:0:0:0:
79,161,76179,2,0,P|74:117|92:72,1,65,10|0,0:2|0:2,0:0:0:0:
164,68,76443,6,0,P|222:111|302:94,1,130,0|10,3:2|0:2,0:0:0:0:
368,135,76840,1,0,0:2:0:0:
368,135,76972,2,0,P|366:178|346:209,1,65,0|0,3:2|3:2,0:0:0:0:
280,247,77236,2,0,P|282:290|302:321,1,65,10|0,0:2|0:2,0:0:0:0:
361,367,77501,6,0,L|208:367,1,130,0|10,3:2|0:2,0:0:0:0:
141,350,77897,1,0,0:2:0:0:
141,350,78029,2,0,P|110:355|68:347,2,65,0|0|8,3:2|3:2|0:2,0:0:0:0:
177,265,78426,6,0,L|174:192,1,65,2|0,3:2|0:2,0:0:0:0:
103,169,78690,1,0,3:2:0:0:
103,169,78822,1,8,0:2:0:0:
120,79,78954,2,0,L|168:77,2,32.5,10|10|10,0:2|0:2|3:2,0:0:0:0:
47,23,79219,1,10,0:2:0:0:
47,23,79351,1,10,3:2:0:0:
47,23,79483,1,14,3:2:0:0:
22,110,79615,5,2,0:2:0:0:
