osu file format v14

[General]
AudioFilename: life.mp3
AudioLeadIn: 0
PreviewTime: 83722
Countdown: 0
SampleSet: Soft
StackLeniency: 0.7
Mode: 0
LetterboxInBreaks: 0
EpilepsyWarning: 1
WidescreenStoryboard: 1

[Editor]
DistanceSpacing: 1.6
BeatDivisor: 2
GridSize: 4
TimelineZoom: 2.4

[Metadata]
Title:Sendan Life
TitleUnicode:センダンライフ
Artist:Remo Prototype[CV: Hanamori Yumiri]
ArtistUnicode:リモ Prototype[CV:花守ゆみり]
Creator:Lami
Version:Nostalgia
Source:ガラスの花と壊す世界
Tags:vocaloid Chukka やしきん yashikin Glass no Hana to Kowasu Sekai GARAKOWA Restore the World Vitreous Flower Destroy the World dailycare fuyuyu- mamayu kanau pho starrstyx intoon
BeatmapID:901854
BeatmapSetID:416153

[Difficulty]
HPDrainRate:6
CircleSize:4
OverallDifficulty:9.2
ApproachRate:9.8
SliderMultiplier:1.9
SliderTickRate:1

[Events]
//Background and Video events
0,0,"bg.jpg",0,0
//Break Periods
2,104042,109178
2,179637,186094
//Storyboard Layer 0 (Background)
//Storyboard Layer 1 (Fail)
//Storyboard Layer 2 (Pass)
//Storyboard Layer 3 (Foreground)
//Storyboard Sound Samples

[TimingPoints]
36706,264.31718061674,4,2,2,60,1,0
37498,-125,4,2,2,60,0,0
37763,-111.111111111111,4,2,2,60,0,0
41463,-100,4,2,1,70,0,0
41992,-90.9090909090909,4,2,1,70,0,0
49261,-83.3333333333333,4,2,1,70,0,0
50450,-105.263157894737,4,2,1,70,0,0
54877,-105.263157894737,4,2,1,5,0,0
54943,-105.263157894737,4,2,1,70,0,0
67366,-133.333333333333,4,2,1,70,0,0
75692,-95.2380952380952,4,2,1,70,0,0
83093,-90.9090909090909,4,2,1,70,0,0
84283,-90.9090909090909,4,2,1,70,0,1
90891,-83.3333333333333,4,2,1,70,0,1
92741,-90.9090909090909,4,2,1,70,0,1
101199,-133.333333333333,4,2,1,70,0,0
113886,-200,4,2,1,70,0,0
116926,-105.263157894737,4,2,1,70,0,0
122543,-105.263157894737,4,2,1,5,0,0
122609,-105.263157894737,4,2,1,70,0,0
126573,-133.333333333333,4,2,1,70,0,0
134899,-95.2380952380952,4,2,1,70,0,0
143490,-90.9090909090909,4,2,1,70,0,1
150098,-83.3333333333333,4,2,1,70,0,1
151948,-90.9090909090909,4,2,1,70,0,1
160406,-90.9090909090909,4,2,1,70,0,0
168864,-90.9090909090909,4,2,3,70,0,0
178115,-133.333333333333,4,2,3,70,0,0
178380,-200,4,2,3,70,0,0
179437,-200,4,2,4,70,0,0
186573,-166.666666666667,4,2,1,70,0,0
187895,-133.333333333333,4,2,1,70,0,0
197410,-90.9090909090909,4,2,1,70,0,1
204018,-83.3333333333333,4,2,1,70,0,1
205868,-90.9090909090909,4,2,1,70,0,1
214327,-90.9090909090909,4,2,1,70,0,0
222785,-83.3333333333333,4,2,1,70,0,1
229327,-83.3333333333333,4,2,1,5,0,1
229393,-83.3333333333333,4,2,1,70,0,1
229591,-83.3333333333333,4,2,1,5,0,1
229657,-83.3333333333333,4,2,1,70,0,1
229855,-83.3333333333333,4,2,1,5,0,1
229921,-83.3333333333333,4,2,1,70,0,1
231243,-83.3333333333333,4,2,1,70,0,0

[Colours]
Combo1 : 253,183,104
Combo2 : 70,163,255
Combo3 : 60,239,50
Combo4 : 255,85,170

[HitObjects]
240,272,37366,6,0,L|228:248,11,23.75,0|0|0|0|0|0|0|0|0|0|0|0,0:0|0:0|0:0|0:0|0:0|0:0|0:0|0:0|0:0|0:0|0:0|0:0,0:0:0:0:
256,300,37763,6,0,L|344:316,1,85.4999973907472,8|0,0:0|0:0,0:0:0:0:
400,160,38027,2,0,L|312:144,1,85.4999973907472,8|0,0:0|0:0,0:0:0:0:
152,240,38291,1,8,0:0:0:0:
128,112,38424,2,0,P|128:64|144:24,1,85.4999973907472,8|0,0:0|0:0,0:0:0:0:
268,217,38688,6,0,P|268:265|252:305,1,85.4999973907472,8|0,0:0|0:0,0:0:0:0:
67,224,38952,2,0,L|155:240,1,85.4999973907472,8|0,0:0|0:0,0:0:0:0:
344,120,39217,2,0,L|256:104,1,85.4999973907472,8|0,0:0|0:0,0:0:0:0:
144,140,39481,1,8,0:0:0:0:
268,217,39613,2,0,P|336:232|384:184,1,128.249996086121,8|0,0:0|0:0,0:0:0:0:
416,136,39877,6,0,B|404:48,1,85.4999973907472,8|0,0:0|0:0,0:0:0:0:
268,217,40142,2,0,B|279:301,1,85.4999973907472,8|0,0:0|0:0,0:0:0:0:
428,272,40406,1,8,0:0:0:0:
316,372,40538,2,0,P|268:381|232:365,1,85.4999973907472,8|0,0:0|0:0,0:0:0:0:
136,216,40802,6,0,B|148:304,1,85.4999973907472,8|0,0:0|0:0,0:0:0:0:
28,160,41067,2,0,B|16:75,1,85.4999973907472,8|0,0:0|0:0,0:0:0:0:
152,16,41331,1,8,0:0:0:0:
236,140,41463,6,0,P|289:152|357:79,1,142.5,8|0,0:0|0:0,0:0:0:0:
408,52,41728,2,0,L|432:40,7,23.75,0|0|0|0|0|0|0|0,0:0|0:0|0:0|0:0|0:0|0:0|0:0|0:0,0:0:0:0:
428,88,41992,6,0,B|442:195,1,104.500003189087,6|0,0:0|0:0,0:0:0:0:
276,300,42256,2,0,B|262:193,1,104.500003189087,8|0,0:0|0:0,0:0:0:0:
96,24,42520,1,2,0:0:0:0:
308,88,42653,1,2,0:0:0:0:
156,220,42785,1,8,0:0:0:0:
332,80,42917,1,0,0:0:0:0:
96,128,43049,6,0,P|46:114|8:79,1,104.500003189087,2|0,0:0|0:0,0:0:0:0:
269,93,43313,2,0,L|260:200,1,104.500003189087,8|0,0:0|0:0,0:0:0:0:
84,384,43578,1,2,0:0:0:0:
168,192,43710,1,2,0:0:0:0:
280,360,43842,1,8,0:0:0:0:
80,288,43974,1,0,0:0:0:0:
261,197,44106,6,0,L|364:184,1,104.500003189087,2|0,0:0|0:0,0:0:0:0:
468,368,44371,2,0,P|416:358|365:355,1,104.500003189087,8|0,0:0|0:0,0:0:0:0:
436,132,44635,1,2,0:0:0:0:
284,300,44767,1,2,0:0:0:0:
220,84,44899,1,8,0:0:0:0:
404,264,45031,1,0,0:0:0:0:
180,164,45164,6,0,P|128:180|84:216,1,104.500003189087,2|0,0:0|0:0,0:0:0:0:
364,184,45428,2,0,L|390:66,1,104.500003189087,8|0,0:0|0:0,0:0:0:0:
284,300,45692,1,2,0:0:0:0:
484,212,45824,1,2,0:0:0:0:
380,384,45957,1,8,0:0:0:0:
456,204,46089,1,0,0:0:0:0:
296,376,46221,6,0,B|241:377|241:377|196:356,1,104.500003189087,2|0,0:0|0:0,0:0:0:0:
264,164,46485,2,0,B|318:162|318:162|364:184,1,104.500003189087,8|0,0:0|0:0,0:0:0:0:
476,352,46750,1,2,0:0:0:0:
508,136,46882,1,2,0:0:0:0:
372,292,47014,1,8,0:0:0:0:
348,88,47146,1,0,0:0:0:0:
217,253,47278,6,0,P|203:304|193:381,1,104.500003189087,2|0,0:0|0:0,0:0:0:0:
92,156,47543,2,0,P|84:101|68:28,1,104.500003189087,8|0,0:0|0:0,0:0:0:0:
264,164,47807,1,2,0:0:0:0:
92,300,47939,1,2,0:0:0:0:
184,92,48071,2,0,P|233:74|283:61,1,104.500003189087,8|0,0:0|0:0,0:0:0:0:
312,284,48335,5,2,0:0:0:0:
388,92,48468,1,0,0:0:0:0:
476,320,48600,1,8,0:0:0:0:
264,164,48732,1,0,0:0:0:0:
376,376,48864,5,2,0:0:0:0:
476,64,48996,1,2,0:0:0:0:
175,178,49128,1,8,0:0:0:0:
476,320,49261,6,0,P|404:240|292:256,1,227.999993041992,6|2,0:0|0:0,0:0:0:0:
128,356,49657,1,8,0:0:0:0:
296,144,49789,1,0,3:0:0:0:
296,144,49855,1,0,3:0:0:0:
296,144,49921,1,4,3:0:0:0:
348,372,50054,1,0,1:0:0:0:
136,192,50186,1,8,0:0:0:0:
404,108,50318,1,0,1:0:0:0:
221,366,50450,6,0,L|114:353,1,90.2499975900651,6|0,0:0|0:0,0:0:0:0:
297,254,50714,2,0,L|404:267,1,90.2499975900651,8|2,0:0|0:0,0:0:0:0:
296,120,50979,1,0,0:0:0:0:
219,200,51111,2,0,P|203:241|206:286,1,90.2499975900651,2|8,0:0|0:0,0:0:0:0:
335,346,51375,1,0,0:0:0:0:
455,181,51507,6,0,B|396:195|396:195|352:239|352:239|294:254,1,180.49999518013,2|8,0:0|0:0,0:0:0:0:
221,366,51904,1,2,0:0:0:0:
168,212,52036,1,0,0:0:0:0:
196,356,52168,1,2,0:0:0:0:
245,185,52300,2,0,L|254:96,1,90.2499975900651,8|0,0:0|0:0,0:0:0:0:
416,104,52565,5,2,0:0:0:0:
388,264,52697,1,0,0:0:0:0:
332,132,52829,1,8,0:0:0:0:
480,36,52961,1,2,0:0:0:0:
452,192,53093,1,0,0:0:0:0:
348,44,53225,1,2,0:0:0:0:
248,164,53357,2,0,P|206:184|152:180,1,90.2499975900651,8|0,0:0|0:0,0:0:0:0:
29,108,53622,6,0,P|99:55|184:77,1,180.49999518013,2|8,0:0|0:0,0:0:0:0:
248,164,54018,1,2,0:0:0:0:
176,288,54150,2,0,L|80:296,1,90.2499975900651,0|2,0:0|0:0,0:0:0:0:
4,248,54415,1,8,0:0:0:0:
100,380,54547,1,0,0:0:0:0:
256,256,54679,6,0,P|316:244|376:300,1,135.374996385098,2|0,0:0|2:0,0:0:0:0:
420,344,54943,2,0,P|426:292|436:248,1,90.2499975900651,8|2,0:0|0:0,0:0:0:0:
480,108,55208,1,0,0:0:0:0:
376,176,55340,1,2,0:0:0:0:
332,32,55472,2,0,P|285:22|232:16,1,90.2499975900651,8|0,0:0|0:0,0:0:0:0:
132,176,55736,6,0,P|215:189|280:120,1,180.49999518013,2|8,0:0|0:0,0:0:0:0:
152,36,56133,1,2,0:0:0:0:
60,88,56265,2,0,L|32:180,1,90.2499975900651,0|2,0:0|0:0,0:0:0:0:
160,300,56529,2,0,P|128:272|73:260,1,90.2499975900651,8|0,0:0|0:0,0:0:0:0:
208,384,56794,6,0,L|300:360,1,90.2499975900651,2|0,0:0|0:0,0:0:0:0:
416,312,57058,2,0,P|377:283|346:249,1,90.2499975900651,8|2,0:0|0:0,0:0:0:0:
260,152,57322,2,0,P|254:199|240:243,1,90.2499975900651,0|2,0:0|0:0,0:0:0:0:
100,88,57587,2,0,P|129:125|151:166,1,90.2499975900651,8|0,0:0|0:0,0:0:0:0:
46,346,57851,6,0,L|150:354,1,90.2499975900651,2|0,0:0|0:0,0:0:0:0:
149,162,58115,5,8,0:0:0:0:
234,365,58247,1,2,0:0:0:0:
260,152,58380,5,8,0:0:0:0:
332,371,58512,1,2,0:0:0:0:
368,143,58644,6,0,L|377:46,1,90.2499975900651,12|0,0:1|0:0,0:0:0:0:
248,256,58908,6,0,P|197:258|139:234,1,90.2499975900651,6|0,0:0|0:0,0:0:0:0:
160,48,59172,2,0,L|180:148,1,90.2499975900651,8|2,0:0|0:0,0:0:0:0:
248,256,59437,1,0,0:0:0:0:
320,168,59569,1,2,0:0:0:0:
400,288,59701,2,0,L|380:376,1,90.2499975900651,8|0,0:0|0:0,0:0:0:0:
492,228,59965,6,0,P|492:180|476:136,1,90.2499975900651,2|0,0:0|0:0,0:0:0:0:
288,56,60230,1,8,0:0:0:0:
320,168,60362,1,2,0:0:0:0:
416,64,60494,2,0,L|512:48,1,90.2499975900651,0|2,0:0|0:0,0:0:0:0:
404,200,60758,1,8,0:0:0:0:
236,132,60891,6,0,P|153:124|97:208,1,180.49999518013,0|0,0:0|0:0,0:0:0:0:
212,372,61287,1,8,0:0:0:0:
188,215,61419,1,2,0:0:0:0:
60,300,61551,1,0,0:0:0:0:
232,352,61683,1,2,0:0:0:0:
304,192,61816,1,8,0:0:0:0:
332,376,61948,1,0,0:0:0:0:
400,232,62080,6,0,L|496:224,1,90.2499975900651,2|0,0:0|0:0,0:0:0:0:
400,72,62344,1,8,0:0:0:0:
304,192,62476,2,0,P|260:192|216:168,1,90.2499975900651,2|0,0:0|0:0,0:0:0:0:
208,24,62741,1,2,0:0:0:0:
136,192,62873,1,8,0:0:0:0:
96,92,63005,1,0,0:0:0:0:
36,232,63137,6,0,P|20:284|24:328,1,90.2499975900651,2|0,0:0|0:0,0:0:0:0:
204,328,63402,2,0,P|157:299|114:291,1,90.2499975900651,8|2,0:0|0:0,0:0:0:0:
219,171,63666,1,0,0:0:0:0:
280,260,63798,1,2,0:0:0:0:
356,108,63930,2,0,L|452:96,1,90.2499975900651,8|0,0:0|0:0,0:0:0:0:
400,312,64194,6,0,P|380:272|376:224,1,90.2499975900651,2|0,0:0|0:0,0:0:0:0:
512,176,64459,1,8,0:0:0:0:
488,348,64591,1,2,0:0:0:0:
375,227,64723,2,0,L|284:212,1,90.2499975900651,0|2,0:0|0:0,0:0:0:0:
168,288,64987,1,8,0:0:0:0:
312,368,65120,2,0,P|356:360|399:329,1,90.2499975900651,0|2,0:0|0:0,0:0:0:0:
429,127,65384,5,0,0:0:0:0:
285,212,65516,1,8,0:0:0:0:
250,72,65648,1,2,0:0:0:0:
374,259,65780,5,0,0:0:0:0:
212,303,65913,1,2,0:0:0:0:
215,159,66045,1,8,0:0:0:0:
312,368,66177,6,0,P|403:353|500:340,1,180.49999518013,6|2,0:0|0:0,0:0:0:0:
344,144,66573,1,8,0:0:0:0:
212,272,66706,1,0,0:0:0:0:
448,204,66838,1,4,1:3:0:0:
215,159,66970,1,8,0:0:0:0:
390,330,67102,1,2,0:0:0:0:
443,89,67234,1,0,1:0:0:0:
212,272,67366,6,0,B|120:272|120:272|72:240,1,142.500005435944,6|0,0:0|0:0,0:0:0:0:
248,40,67763,1,8,0:0:0:0:
248,40,68159,2,0,P|241:112|236:200,1,142.500005435944,2|0,0:0|0:0,0:0:0:0:
320,340,68556,2,0,P|388:340|440:288,1,142.500005435944,2|0,0:0|0:0,0:0:0:0:
408,144,68952,2,0,P|373:135|338:128,1,71.2500027179719,8|0,0:0|0:0,0:0:0:0:
236,182,69217,2,0,P|201:174|166:166,1,71.2500027179719,2|0,0:0|0:0,0:0:0:0:
32,76,69481,6,0,P|94:39|168:64,1,142.500005435944,2|0,0:0|0:0,0:0:0:0:
236,182,69877,1,8,0:0:0:0:
236,182,70274,2,0,P|226:258|216:352,1,142.500005435944,2|0,0:0|0:0,0:0:0:0:
344,380,70670,2,0,P|353:303|364:210,1,142.500005435944,2|0,0:0|0:0,0:0:0:0:
300,104,71067,2,0,L|230:97,1,71.2500027179719,8|0,0:0|0:0,0:0:0:0:
392,60,71331,2,0,L|462:67,1,71.2500027179719,2|0,0:0|0:0,0:0:0:0:
275,192,71595,6,0,L|101:174,1,142.500005435944,2|0,0:0|0:0,0:0:0:0:
44,336,71992,1,8,0:0:0:0:
152,380,72124,1,0,0:0:0:0:
152,380,72388,2,0,P|186:365|228:352,1,71.2500027179719,2|0,0:0|0:0,0:0:0:0:
400,320,72653,6,0,P|332:320|272:276,1,142.500005435944,2|0,0:0|0:0,0:0:0:0:
288,128,73049,1,2,1:3:0:0:
384,68,73181,1,2,0:0:0:0:
384,68,73446,2,0,L|393:150,1,71.2500027179719,2|0,0:0|0:0,0:0:0:0:
251,68,73710,6,0,P|198:22|128:28,1,142.500005435944,2|0,0:0|0:0,0:0:0:0:
86,153,74106,1,8,0:0:0:0:
86,153,74239,2,0,L|12:177,1,71.2500027179719,0|0,0:0|0:0,0:0:0:0:
101,255,74503,2,0,P|123:281|155:297,1,71.2500027179719,2|0,0:0|0:0,0:0:0:0:
248,232,74767,6,0,L|255:141,1,71.2500027179719,0|0,0:0|0:0,0:0:0:0:
254,161,75296,1,8,0:0:0:0:
383,234,75428,1,2,0:0:0:0:
269,335,75560,1,8,0:0:0:0:
338,122,75692,6,0,P|420:117|499:203,1,199.499993911743,6|2,0:0|0:0,0:0:0:0:
404,384,76089,1,8,0:0:0:0:
383,234,76221,1,0,0:0:0:0:
240,344,76353,2,0,P|185:340|140:320,1,99.7499969558717,2|2,0:0|0:0,0:0:0:0:
104,104,76617,2,0,P|143:134|170:176,1,99.7499969558717,8|0,0:0|0:0,0:0:0:0:
367,332,76882,6,0,L|383:232,1,99.7499969558717,2|0,0:0|0:0,0:0:0:0:
244,32,77146,2,0,L|259:130,1,99.7499969558717,8|0,0:0|0:0,0:0:0:0:
280,268,77410,1,2,0:0:0:0:
415,135,77543,1,2,0:0:0:0:
244,32,77675,1,8,0:0:0:0:
382,233,77807,6,0,P|473:221|515:130,1,199.499993911743,6|2,0:0|0:0,0:0:0:0:
335,8,78203,1,8,0:0:0:0:
247,158,78335,1,0,0:0:0:0:
148,36,78468,1,2,0:0:0:0:
172,216,78600,1,2,0:0:0:0:
320,100,78732,2,0,P|372:84|440:92,1,99.7499969558717,8|0,0:0|0:0,0:0:0:0:
308,332,78996,6,0,L|296:232,1,99.7499969558717,6|0,0:0|0:0,0:0:0:0:
164,128,79261,1,8,0:0:0:0:
100,272,79393,1,0,0:0:0:0:
247,158,79525,1,2,0:0:0:0:
72,64,79657,1,2,0:0:0:0:
172,216,79789,1,8,0:0:0:0:
248,28,79921,6,0,B|380:12|380:12|448:72,1,199.499993911743,6|2,0:0|0:0,0:0:0:0:
392,252,80318,1,8,0:0:0:0:
247,158,80450,1,0,0:0:0:0:
160,291,80582,2,0,P|148:339|157:388,1,99.7499969558717,2|2,0:0|0:0,0:0:0:0:
352,340,80846,1,8,0:0:0:0:
344,156,80979,1,0,0:0:0:0:
260,296,81111,5,2,0:0:0:0:
432,168,81243,1,0,0:0:0:0:
240,72,81375,1,8,0:0:0:0:
392,252,81507,2,0,L|499:237,1,99.7499969558717,0|2,0:0|0:0,0:0:0:0:
408,40,81772,1,2,0:0:0:0:
268,208,81904,1,8,0:0:0:0:
240,72,82036,1,2,0:0:0:0:
392,252,82168,5,12,0:0:0:0:
316,16,82300,1,0,0:0:0:0:
200,316,82432,5,8,0:0:0:0:
240,72,82565,1,0,0:0:0:0:
328,384,82697,5,8,0:0:0:0:
140,176,82829,1,2,0:0:0:0:
412,100,82961,1,8,0:0:0:0:
200,316,83093,6,0,B|136:328|136:328|80:316|80:316|-12:332,1,209.000006378174,6|2,0:0|0:0,0:0:0:0:
80,72,83490,1,8,0:0:0:0:
328,120,83622,1,0,3:0:0:0:
328,120,83688,1,0,3:0:0:0:
328,120,83754,5,2,3:2:0:0:
140,176,83886,1,8,0:0:0:0:
288,304,84018,1,2,1:2:0:0:
240,72,84150,1,8,0:0:0:0:
132,260,84283,6,0,P|76:268|16:260,1,104.500003189087,6|0,0:0|0:0,0:0:0:0:
136,75,84547,2,0,P|192:67|252:75,1,104.500003189087,8|0,0:0|0:0,0:0:0:0:
412,168,84811,1,2,0:0:0:0:
272,248,84943,1,2,0:0:0:0:
340,88,85076,1,8,0:0:0:0:
444,248,85208,6,0,L|452:352,1,104.500003189087,0|2,0:0|0:0,0:0:0:0:
272,248,85472,2,0,L|280:144,1,104.500003189087,0|8,0:0|0:0,0:0:0:0:
432,28,85736,1,0,0:0:0:0:
364,204,85868,1,2,0:0:0:0:
332,44,86001,1,2,0:0:0:0:
192,140,86133,2,0,P|144:140|92:112,1,104.500003189087,8|0,0:0|0:0,0:0:0:0:
272,248,86397,6,0,L|256:352,1,104.500003189087,2|0,0:0|0:0,0:0:0:0:
79,216,86661,2,0,P|80:162|95:112,1,104.500003189087,8|0,0:0|0:0,0:0:0:0:
300,132,86926,1,2,0:0:0:0:
172,268,87058,1,2,0:0:0:0:
344,352,87190,1,8,0:0:0:0:
192,140,87322,6,0,P|92:112|8:172,1,209.000006378174,6|2,0:0|0:0,0:0:0:0:
84,364,87719,1,8,0:0:0:0:
272,248,87851,1,0,0:0:0:0:
112,235,87983,1,2,0:0:0:0:
264,368,88115,1,2,0:0:0:0:
308,164,88247,2,0,L|424:144,1,104.500003189087,8|0,0:0|0:0,0:0:0:0:
472,368,88512,6,0,P|420:368|368:348,1,104.500003189087,6|0,0:0|0:0,0:0:0:0:
228,124,88776,2,0,L|210:234,1,104.500003189087,8|0,0:0|0:0,0:0:0:0:
410,146,89040,2,0,L|426:42,1,104.500003189087,2|2,0:0|0:0,0:0:0:0:
292,248,89305,2,0,L|274:358,1,104.500003189087,8|0,0:0|0:0,0:0:0:0:
410,146,89569,6,0,P|348:79|220:111,1,209.000006378174,2|8,0:0|0:0,0:0:0:0:
36,320,89965,2,0,P|135:337|206:266,1,209.000006378174,0|2,0:0|0:0,0:0:0:0:
108,108,90362,2,0,L|0:84,1,104.500003189087,8|0,0:0|0:0,0:0:0:0:
184,184,90626,2,0,L|292:160,1,104.500003189087,2|0,0:0|0:0,0:0:0:0:
369,16,90891,6,0,P|383:82|380:135,1,113.999996520996,12|0,0:0|0:0,0:0:0:0:
302,263,91155,1,2,0:0:0:0:
481,82,91287,1,2,0:0:0:0:
213,14,91419,1,8,0:0:0:0:
176,309,91551,6,0,P|84:317|0:221,1,227.999993041992,6|2,0:0|0:0,0:0:0:0:
252,48,91948,1,8,0:0:0:0:
292,288,92080,1,8,0:0:0:0:
228,24,92212,1,2,1:2:0:0:
415,142,92344,1,2,1:2:0:0:
183,226,92476,1,8,1:2:0:0:
204,4,92609,1,8,0:0:0:0:
360,192,92741,6,0,P|364:240|344:312,1,104.500003189087,6|0,0:0|0:0,0:0:0:0:
163,194,93005,2,0,P|159:146|179:74,1,104.500003189087,8|0,0:0|0:0,0:0:0:0:
360,192,93269,1,2,0:0:0:0:
216,324,93402,1,2,0:0:0:0:
264,136,93534,1,8,0:0:0:0:
351,294,93666,6,0,L|455:298,1,104.500003189087,0|2,0:0|0:0,0:0:0:0:
363,110,93930,2,0,P|307:116|263:136,1,104.500003189087,0|8,0:0|0:0,0:0:0:0:
216,324,94194,1,0,0:0:0:0:
360,192,94327,1,2,0:0:0:0:
300,376,94459,1,2,0:0:0:0:
176,240,94591,2,0,L|64:224,1,104.500003189087,8|0,0:0|0:0,0:0:0:0:
245,35,94855,6,0,P|264:83|263:135,1,104.500003189087,2|0,0:0|0:0,0:0:0:0:
72,225,95120,2,0,P|53:177|54:125,1,104.500003189087,8|0,0:0|0:0,0:0:0:0:
216,324,95384,1,2,0:0:0:0:
160,156,95516,1,2,0:0:0:0:
92,342,95648,1,8,0:0:0:0:
288,216,95780,6,0,P|395:207|502:201,1,209.000006378174,6|2,0:0|0:0,0:0:0:0:
376,368,96177,1,8,0:0:0:0:
204,236,96309,1,0,0:0:0:0:
344,96,96441,1,2,0:0:0:0:
296,292,96573,1,2,0:0:0:0:
200,140,96705,2,0,P|151:122|96:120,1,104.500003189087,8|0,0:0|0:0,0:0:0:0:
201,328,96970,6,0,P|253:321|296:291,1,104.500003189087,6|0,0:0|0:0,0:0:0:0:
88,280,97234,2,0,L|60:408,1,104.500003189087,8|0,0:0|0:0,0:0:0:0:
212,208,97498,2,0,L|184:80,1,104.500003189087,2|2,0:0|0:0,0:0:0:0:
400,200,97763,1,8,0:0:0:0:
344,360,97895,1,0,0:0:0:0:
212,208,98027,5,2,0:0:0:0:
252,380,98159,1,0,0:0:0:0:
384,284,98291,2,0,L|492:267,1,104.500003189087,8|0,0:0|0:0,0:0:0:0:
396,68,98556,1,2,0:0:0:0:
304,212,98688,1,2,0:0:0:0:
464,132,98820,1,8,0:0:0:0:
324,8,98952,1,0,0:0:0:0:
212,208,99084,5,6,0:0:0:0:
396,68,99217,1,0,0:0:0:0:
168,124,99349,5,8,0:0:0:0:
344,360,99481,1,2,0:0:0:0:
252,72,99613,5,8,0:0:0:0:
312,356,99745,1,2,0:0:0:0:
344,48,99877,5,8,0:0:0:0:
280,352,100009,1,2,0:0:0:0:
464,132,100142,5,8,0:0:0:0:
212,208,100274,1,2,0:0:0:0:
376,368,100406,1,8,0:0:0:0:
304,80,100538,1,6,0:0:0:0:
160,336,100670,5,0,1:0:0:0:
210,95,100802,1,2,1:2:0:0:
432,220,100935,1,8,1:2:0:0:
120,204,101067,1,8,1:2:0:0:
444,40,101199,5,6,0:0:0:0:
256,192,101265,12,0,103842,2:0:0:0:
208,112,109657,5,4,0:0:0:0:
208,112,110714,2,0,L|196:256,1,142.500005435944,2|0,1:2|0:0,0:0:0:0:
316,168,111111,2,0,L|304:312,1,142.500005435944,2|0,1:2|0:0,0:0:0:0:
396,372,111507,2,0,P|436:368|472:344,1,71.2500027179719,2|0,1:2|0:0,0:0:0:0:
472,176,111772,5,4,0:0:0:0:
472,176,112697,1,2,0:0:0:0:
468,196,112763,1,2,0:0:0:0:
464,216,112829,1,0,1:0:0:0:
368,104,112961,1,0,1:0:0:0:
368,104,113093,1,2,0:0:0:0:
276,188,113225,2,0,P|219:198|156:148,1,142.500005435944,2|2,1:2|0:0,0:0:0:0:
200,56,113622,2,0,L|292:40,1,71.2500027179719,8|0,0:0|0:0,0:0:0:0:
368,104,113886,6,0,L|360:220,1,95,6|0,0:0|0:0,0:0:0:0:
248,356,114415,2,0,L|240:240,1,95,2|0,0:3|0:0,0:0:0:0:
128,128,114943,2,0,P|87:111|24:104,2,95,2|0|2,0:0|0:0|0:3,0:0:0:0:
156,280,115736,1,0,0:0:0:0:
276,108,116001,5,2,0:0:0:0:
300,212,116133,1,0,0:0:0:0:
300,212,116265,2,0,L|312:268,1,47.5,0|0,0:0|0:0,0:0:0:0:
400,328,116529,1,2,0:3:0:0:
400,328,116661,2,0,L|412:272,1,47.5,0|0,0:0|0:0,0:0:0:0:
452,100,116926,5,12,1:2:0:0:
452,100,117587,1,8,3:2:0:0:
452,100,117653,1,0,3:0:0:0:
452,100,117719,1,2,3:2:0:0:
348,216,117851,2,0,P|288:216|240:160,1,135.374996385098,0|0,0:0|2:0,0:0:0:0:
208,92,118115,6,0,L|112:80,1,90.2499975900651,6|0,0:0|0:0,0:0:0:0:
72,264,118380,2,0,P|119:257|168:228,1,90.2499975900651,8|2,0:0|0:0,0:0:0:0:
240,162,118644,1,2,0:0:0:0:
296,284,118776,1,0,0:0:0:0:
384,96,118908,1,8,0:0:0:0:
364,232,119040,1,0,0:0:0:0:
468,132,119172,6,0,L|461:43,1,90.2499975900651,2|0,0:0|0:0,0:0:0:0:
308,120,119437,1,8,0:0:0:0:
364,232,119569,2,0,P|396:252|456:256,1,90.2499975900651,2|0,0:0|0:0,0:0:0:0:
472,384,119833,1,2,0:0:0:0:
364,348,119965,2,0,L|272:336,1,90.2499975900651,8|0,0:0|0:0,0:0:0:0:
208,176,120230,5,2,0:0:0:0:
156,320,120362,1,0,0:0:0:0:
72,128,120494,1,8,0:0:0:0:
80,276,120626,1,2,0:0:0:0:
156,112,120758,1,0,0:0:0:0:
224,252,120891,1,2,0:0:0:0:
276,108,121023,2,0,P|315:91|364:88,1,90.2499975900651,8|0,0:0|0:0,0:0:0:0:
480,256,121287,6,0,P|396:264|340:192,1,180.49999518013,2|8,0:0|0:0,0:0:0:0:
416,12,121683,1,2,0:0:0:0:
492,76,121816,2,0,L|508:164,1,90.2499975900651,0|2,0:0|0:0,0:0:0:0:
404,304,122080,1,8,0:0:0:0:
340,194,122212,1,0,0:0:0:0:
268,344,122344,6,0,P|204:348|152:292,1,135.374996385098,2|0,0:0|2:0,0:0:0:0:
108,240,122609,2,0,L|16:248,1,90.2499975900651,8|2,0:0|0:0,0:0:0:0:
112,84,122873,1,0,0:0:0:0:
192,164,123005,1,2,0:0:0:0:
268,24,123137,2,0,P|277:70|284:116,1,90.2499975900651,8|0,0:0|0:0,0:0:0:0:
408,240,123402,6,0,P|476:192|464:104,1,180.49999518013,2|8,0:0|0:0,0:0:0:0:
368,68,123798,1,2,0:0:0:0:
279,187,123930,2,0,L|183:161,1,90.2499975900651,0|2,0:0|0:0,0:0:0:0:
60,212,124194,1,8,0:0:0:0:
112,84,124327,2,0,L|199:60,1,90.2499975900651,0|2,0:0|0:0,0:0:0:0:
368,152,124591,5,0,0:0:0:0:
244,288,124723,1,8,0:0:0:0:
191,163,124855,1,2,0:0:0:0:
340,292,124987,5,0,0:0:0:0:
176,377,125120,1,2,0:0:0:0:
169,241,125252,1,8,0:0:0:0:
364,376,125384,6,0,P|423:318|400:229,1,180.49999518013,6|2,0:0|0:0,0:0:0:0:
206,74,125780,2,0,P|196:119|190:170,1,90.2499975900651,8|0,0:0|0:0,0:0:0:0:
340,292,126045,1,4,1:3:0:0:
406,137,126177,1,8,0:0:0:0:
244,288,126309,1,2,0:0:0:0:
451,377,126441,1,0,1:0:0:0:
500,164,126573,6,0,L|500:20,1,142.500005435944,6|2,0:0|0:0,0:0:0:0:
280,168,127102,1,8,0:0:0:0:
280,168,127366,2,0,P|210:173|150:137,1,142.500005435944,0|0,0:0|0:0,0:0:0:0:
48,336,127895,1,2,0:0:0:0:
48,336,128159,2,0,P|81:322|114:308,1,71.2500027179719,8|0,0:0|0:0,0:0:0:0:
213,266,128424,2,0,P|240:288|264:314,1,71.2500027179719,0|0,0:0|0:0,0:0:0:0:
348,380,128688,6,0,P|399:330|388:256,1,142.500005435944,2|2,0:0|0:0,0:0:0:0:
280,80,129217,1,8,0:0:0:0:
128,216,129481,1,0,0:0:0:0:
176,20,129745,2,0,L|199:89,1,71.2500027179719,0|0,0:0|0:0,0:0:0:0:
225,179,130009,1,2,0:0:0:0:
468,232,130274,2,0,P|472:160|416:116,1,142.500005435944,8|0,0:0|0:0,0:0:0:0:
304,308,130802,6,0,L|152:300,1,142.500005435944,2|2,0:0|0:0,0:0:0:0:
56,80,131331,2,0,L|208:88,1,142.500005435944,8|0,0:0|0:0,0:0:0:0:
376,244,131860,1,2,0:0:0:0:
144,184,132124,1,2,0:0:0:0:
356,40,132388,1,8,0:0:0:0:
264,264,132653,1,0,0:0:0:0:
197,87,132917,6,0,P|123:75|53:124,1,142.500005435944,2|2,0:0|0:0,0:0:0:0:
177,345,133446,1,8,0:0:0:0:
264,168,133710,2,0,L|352:160,1,71.2500027179719,0|0,0:0|0:0,0:0:0:0:
464,288,133974,6,0,P|400:295|348:244,1,142.500005435944,2|2,0:0|0:0,0:0:0:0:
347,243,134503,1,8,0:0:0:0:
448,132,134635,1,2,0:0:0:0:
464,288,134767,1,8,0:0:0:0:
296,136,134899,6,0,P|220:120|140:200,1,199.499993911743,6|2,0:0|0:0,0:0:0:0:
260,384,135296,1,8,0:0:0:0:
239,219,135428,1,0,0:0:0:0:
72,300,135560,2,0,L|48:200,1,99.7499969558717,2|2,0:0|0:0,0:0:0:0:
153,15,135824,2,0,P|180:58|189:111,1,99.7499969558717,8|0,0:0|0:0,0:0:0:0:
332,224,136089,6,0,P|380:240|432:232,1,99.7499969558717,2|2,0:0|0:0,0:0:0:0:
352,40,136353,2,0,P|302:46|261:74,1,99.7499969558717,8|0,0:0|0:0,0:0:0:0:
239,219,136617,1,2,0:0:0:0:
79,98,136750,1,2,0:0:0:0:
160,280,136882,1,8,0:0:0:0:
261,73,137014,6,0,L|494:42,1,199.499993911743,6|2,0:0|0:0,0:0:0:0:
427,232,137410,2,0,P|378:238|332:223,1,99.7499969558717,8|0,0:0|0:0,0:0:0:0:
192,136,137675,1,2,0:0:0:0:
244,308,137807,1,2,0:0:0:0:
388,152,137939,1,8,0:0:0:0:
239,219,138071,1,0,0:0:0:0:
380,348,138203,6,0,L|484:356,1,99.7499969558717,6|0,0:0|0:0,0:0:0:0:
476,160,138468,1,8,0:0:0:0:
332,280,138600,1,0,0:0:0:0:
312,104,138732,1,2,0:0:0:0:
416,240,138864,1,2,0:0:0:0:
468,56,138996,1,8,0:0:0:0:
276,196,139128,6,0,P|192:184|160:84,1,199.499993911743,6|0,0:0|0:0,0:0:0:0:
380,16,139525,2,0,L|396:116,1,99.7499969558717,2|0,0:0|0:0,0:0:0:0:
332,280,139789,1,8,0:0:0:0:
500,224,139921,1,0,1:0:0:0:
312,104,140054,1,8,0:0:0:0:
480,200,140186,1,2,0:0:0:0:
403,350,140318,6,0,P|364:375|292:373,1,99.7499969558717,0|0,0:0|0:0,0:0:0:0:
184,224,140582,2,0,P|225:198|275:195,1,99.7499969558717,6|0,0:0|0:0,0:0:0:0:
416,260,140846,1,8,0:0:0:0:
312,104,140979,1,0,0:0:0:0:
257,298,141111,1,8,0:0:0:0:
212,148,141243,1,2,0:0:0:0:
348,332,141375,5,12,0:0:0:0:
412,96,141507,1,0,0:0:0:0:
257,298,141639,5,8,0:0:0:0:
244,53,141772,1,0,0:0:0:0:
416,260,141904,5,8,0:0:0:0:
340,28,142036,1,2,0:0:0:0:
172,240,142168,5,8,0:0:0:0:
248,4,142300,1,2,0:0:0:0:
456,172,142432,5,8,0:0:0:0:
176,140,142565,1,0,0:0:0:0:
348,332,142697,1,4,1:3:0:0:
280,100,142829,1,0,3:0:0:0:
280,100,142895,1,0,3:0:0:0:
280,100,142961,5,2,3:2:0:0:
248,312,143093,1,0,1:0:0:0:
384,176,143225,1,8,0:0:0:0:
168,116,143357,1,0,1:0:0:0:
336,260,143490,6,0,L|460:252,1,104.500003189087,6|0,0:0|0:0,0:0:0:0:
188,228,143754,2,0,L|64:220,1,104.500003189087,8|0,0:0|0:0,0:0:0:0:
144,48,144018,1,2,0:0:0:0:
276,200,144150,1,2,0:0:0:0:
244,24,144283,1,8,0:0:0:0:
96,136,144415,6,0,P|44:133|0:105,1,104.500003189087,0|2,0:0|0:0,0:0:0:0:
244,24,144679,2,0,L|224:148,1,104.500003189087,0|8,0:0|0:0,0:0:0:0:
83,221,144943,1,0,0:0:0:0:
248,300,145076,1,2,0:0:0:0:
112,376,145208,1,2,0:0:0:0:
172,211,145340,2,0,L|280:199,1,104.500003189087,8|0,0:0|0:0,0:0:0:0:
420,368,145604,6,0,P|371:364|320:328,1,104.500003189087,2|0,0:0|0:0,0:0:0:0:
416,188,145868,2,0,P|458:159|510:154,1,104.500003189087,8|0,0:0|0:0,0:0:0:0:
500,340,146133,1,2,0:0:0:0:
344,232,146265,1,2,0:0:0:0:
510,154,146397,1,8,0:0:0:0:
325,334,146529,6,0,P|208:344|152:268,1,209.000006378174,6|2,0:0|0:0,0:0:0:0:
192,76,146926,1,8,0:0:0:0:
344,232,147058,1,0,0:0:0:0:
144,168,147190,1,2,0:0:0:0:
296,52,147322,1,2,0:0:0:0:
256,252,147454,2,0,L|150:281,1,104.500003189087,8|0,0:0|0:0,0:0:0:0:
340,128,147719,6,0,P|392:136|440:164,1,104.500003189087,6|0,0:0|0:0,0:0:0:0:
275,354,147983,2,0,L|255:246,1,104.500003189087,8|0,0:0|0:0,0:0:0:0:
64,152,148247,2,0,L|84:260,1,104.500003189087,2|2,0:0|0:0,0:0:0:0:
196,104,148512,2,0,L|176:-4,1,104.500003189087,8|0,0:0|0:0,0:0:0:0:
376,228,148776,6,0,P|448:164|416:52,1,209.000006378174,2|8,0:0|0:0,0:0:0:0:
179,183,149172,2,0,P|107:247|139:359,1,209.000006378174,0|2,0:0|0:0,0:0:0:0:
301,304,149569,2,0,L|199:279,1,104.500003189087,8|0,0:0|0:0,0:0:0:0:
311,183,149833,2,0,L|412:158,1,104.500003189087,2|0,0:0|0:0,0:0:0:0:
500,381,150098,6,0,P|443:373|392:349,1,113.999996520996,12|0,0:0|0:0,0:0:0:0:
412,158,150362,1,2,0:0:0:0:
232,384,150494,1,2,0:0:0:0:
84,111,150626,1,8,0:0:0:0:
340,300,150758,6,0,P|448:296|500:188,1,227.999993041992,6|2,0:0|0:0,0:0:0:0:
284,64,151155,1,8,0:0:0:0:
236,352,151287,1,8,0:0:0:0:
40,208,151419,1,2,1:2:0:0:
248,152,151551,1,2,1:2:0:0:
36,312,151683,1,8,0:0:0:0:
48,76,151816,1,8,1:2:0:0:
176,256,151948,6,0,L|296:264,1,104.500003189087,6|0,0:0|0:0,0:0:0:0:
388,57,152212,2,0,L|268:65,1,104.500003189087,8|0,0:0|0:0,0:0:0:0:
136,160,152476,1,2,0:0:0:0:
180,348,152609,1,2,0:0:0:0:
256,176,152741,1,8,0:0:0:0:
352,312,152873,6,0,P|408:321|456:312,1,104.500003189087,0|2,0:0|0:0,0:0:0:0:
500,128,153137,2,0,P|448:132|401:155,1,104.500003189087,0|8,0:0|0:0,0:0:0:0:
272,284,153402,1,0,0:0:0:0:
328,108,153534,1,2,0:0:0:0:
456,228,153666,1,2,0:0:0:0:
256,176,153798,2,0,L|236:72,1,104.500003189087,8|0,0:0|0:0,0:0:0:0:
88,232,154062,6,0,P|68:283|68:336,1,104.500003189087,2|0,0:0|0:0,0:0:0:0:
251,384,154327,2,0,P|271:333|271:280,1,104.500003189087,8|0,0:0|0:0,0:0:0:0:
152,148,154591,1,2,0:0:0:0:
164,336,154723,1,2,0:0:0:0:
284,172,154855,1,8,0:0:0:0:
356,352,154987,6,0,P|463:343|512:248,1,209.000006378174,6|2,0:0|0:0,0:0:0:0:
472,48,155384,1,8,0:0:0:0:
344,204,155516,1,0,0:0:0:0:
292,12,155648,1,2,0:0:0:0:
420,132,155780,1,2,0:0:0:0:
240,228,155913,2,0,P|220:180|220:116,1,104.500003189087,8|0,0:0|0:0,0:0:0:0:
356,352,156177,6,0,L|241:368,1,104.500003189087,6|0,0:0|0:0,0:0:0:0:
44,268,156441,2,0,L|159:284,1,104.500003189087,8|0,0:0|0:0,0:0:0:0:
152,40,156705,2,0,P|128:89|124:141,1,104.500003189087,2|2,0:0|0:0,0:0:0:0:
272,248,156970,1,8,0:0:0:0:
244,72,157102,1,0,0:0:0:0:
376,248,157234,5,2,0:0:0:0:
404,68,157366,1,0,0:0:0:0:
224,160,157498,2,0,P|168:156|120:136,1,104.500003189087,8|0,0:0|0:0,0:0:0:0:
324,12,157763,1,2,0:0:0:0:
440,160,157895,1,2,0:0:0:0:
272,248,158027,1,8,0:0:0:0:
472,288,158159,1,0,0:0:0:0:
324,120,158291,5,6,0:0:0:0:
328,352,158424,1,0,0:0:0:0:
105,170,158556,5,8,0:0:0:0:
414,131,158688,1,2,0:0:0:0:
158,249,158820,5,8,0:0:0:0:
407,100,158952,1,2,0:0:0:0:
236,312,159084,5,8,0:0:0:0:
401,68,159217,1,2,0:0:0:0:
388,288,159349,5,8,0:0:0:0:
244,72,159481,1,2,0:0:0:0:
148,284,159613,1,8,0:0:0:0:
372,88,159745,1,6,0:0:0:0:
412,368,159877,5,0,1:0:0:0:
215,180,160009,1,2,1:2:0:0:
483,283,160142,1,8,1:2:0:0:
199,378,160274,1,8,1:2:0:0:
456,168,160406,6,0,P|468:117|460:64,1,104.500003189087,6|0,0:0|0:0,0:0:0:0:
296,204,160670,1,8,0:0:0:0:
204,48,160802,2,0,P|116:32|28:112,1,209.000006378174,2|2,0:0|0:0,0:0:0:0:
68,288,161199,1,8,0:0:0:0:
180,160,161331,1,0,0:0:0:0:
270,281,161463,6,0,L|256:385,1,104.500003189087,2|0,0:0|0:0,0:0:0:0:
100,188,161728,1,8,0:0:0:0:
270,281,161860,2,0,P|342:233|322:110,1,209.000006378174,2|2,0:0|0:0,0:0:0:0:
144,48,162256,1,8,0:0:0:0:
192,212,162388,1,0,0:0:0:0:
277,53,162520,6,0,L|393:38,1,104.500003189087,2|0,0:0|0:0,0:0:0:0:
392,252,162785,1,8,0:0:0:0:
248,144,162917,2,0,P|147:136|107:234,1,209.000006378174,2|2,0:0|0:0,0:0:0:0:
284,376,163313,1,8,0:0:0:0:
124,328,163446,1,0,0:0:0:0:
308,216,163578,5,2,0:0:0:0:
196,384,163710,1,0,0:0:0:0:
176,180,163842,1,8,0:0:0:0:
356,308,163974,2,0,L|456:272,1,104.500003189087,2|0,0:0|0:0,0:0:0:0:
440,56,164239,1,2,0:0:0:0:
256,128,164371,1,8,0:0:0:0:
408,192,164503,1,8,0:0:0:0:
276,32,164635,6,0,P|228:13|172:16,1,104.500003189087,2|0,0:0|0:0,0:0:0:0:
88,164,164899,1,8,0:0:0:0:
232,272,165031,2,0,B|288:252|288:252|352:196|336:116,1,209.000006378174,2|2,0:0|0:0,0:0:0:0:
167,98,165428,1,8,0:0:0:0:
96,264,165560,1,0,0:0:0:0:
12,120,165692,6,0,L|24:13,1,104.500003189087,2|0,0:0|0:0,0:0:0:0:
160,184,165957,1,8,0:0:0:0:
276,32,166089,2,0,P|380:24|432:120,1,209.000006378174,2|2,0:0|0:0,0:0:0:0:
324,264,166485,1,8,0:0:0:0:
232,116,166617,1,0,0:0:0:0:
408,200,166750,6,0,L|512:180,1,104.500003189087,2|0,0:0|0:0,0:0:0:0:
464,356,167014,1,8,0:0:0:0:
324,264,167146,2,0,B|261:234|261:234|203:239|203:239|128:205,1,209.000006378174,2|2,0:0|0:0,0:0:0:0:
12,360,167543,1,8,0:0:0:0:
180,324,167675,1,0,0:0:0:0:
40,144,167807,5,2,0:0:0:0:
92,320,167939,1,0,0:0:0:0:
136,120,168071,1,8,0:0:0:0:
288,188,168203,2,0,L|396:160,1,104.500003189087,2|0,0:0|0:0,0:0:0:0:
224,20,168468,1,2,0:0:0:0:
192,200,168600,1,8,0:0:0:0:
320,60,168732,1,8,0:0:0:0:
85,40,168864,5,6,0:0:0:0:
112,215,168996,1,0,0:0:0:0:
287,188,169128,1,10,0:0:0:0:
259,13,169261,1,0,0:0:0:0:
61,67,169393,1,2,0:0:0:0:
135,242,169525,1,0,0:0:0:0:
298,95,169657,1,10,0:0:0:0:
216,312,169789,6,0,P|100:344|35:274,1,209.000006378174,6|0,0:0|0:0,0:0:0:0:
202,60,170186,2,0,L|227:178,1,104.500003189087,10|0,0:0|0:0,0:0:0:0:
313,332,170450,2,0,P|333:279|324:220,1,104.500003189087,2|0,0:0|0:0,0:0:0:0:
119,142,170714,2,0,P|115:193|134:241,1,104.500003189087,10|0,0:0|0:0,0:0:0:0:
320,128,170979,5,6,0:0:0:0:
228,280,171111,1,0,0:0:0:0:
320,128,171243,2,0,L|428:104,1,104.500003189087,10|0,0:0|0:0,0:0:0:0:
384,292,171507,1,2,0:0:0:0:
232,184,171639,1,0,0:0:0:0:
356,36,171772,1,10,0:0:0:0:
288,264,171904,6,0,P|184:269|136:169,1,209.000006378174,6|0,0:0|0:0,0:0:0:0:
184,8,172300,1,10,0:0:0:0:
24,72,172432,1,0,0:0:0:0:
200,108,172565,2,0,L|308:96,1,104.500003189087,2|0,0:0|0:0,0:0:0:0:
476,256,172829,1,10,0:0:0:0:
404,84,172961,1,0,0:0:0:0:
288,264,173093,6,0,L|304:368,1,104.500003189087,6|0,0:0|0:0,0:0:0:0:
419,187,173357,2,0,L|403:83,1,104.500003189087,10|0,0:0|0:0,0:0:0:0:
200,108,173622,1,2,0:0:0:0:
288,264,173754,1,0,0:0:0:0:
403,83,173886,1,10,0:0:0:0:
200,204,174018,6,0,B|139:222|79:204|124:173|64:155|4:173,1,209.000006378174,6|0,0:0|0:0,0:0:0:0:
120,348,174415,1,10,0:0:0:0:
288,264,174547,1,0,0:0:0:0:
215,100,174679,2,0,L|199:207,1,104.500003189087,2|0,0:0|0:0,0:0:0:0:
356,372,174943,2,0,P|378:323|372:265,1,104.500003189087,10|0,0:0|0:0,0:0:0:0:
312,68,175208,5,6,0:0:0:0:
200,204,175340,1,0,0:0:0:0:
374,273,175472,1,10,0:0:0:0:
215,100,175604,1,0,0:0:0:0:
200,292,175736,5,2,0:0:0:0:
372,180,175868,1,0,0:0:0:0:
284,36,176001,1,10,0:0:0:0:
288,264,176133,1,0,0:0:0:0:
376,80,176265,5,2,0:0:0:0:
200,204,176397,1,0,0:0:0:0:
404,276,176529,1,10,0:0:0:0:
404,64,176661,1,0,0:0:0:0:
288,264,176794,5,2,0:0:0:0:
456,136,176926,1,0,0:0:0:0:
248,24,177058,1,10,0:0:0:0:
316,236,177190,1,0,0:0:0:0:
488,56,177322,5,14,0:0:0:0:
392,292,177454,1,0,0:0:0:0:
236,100,177587,1,10,0:0:0:0:
500,224,177719,1,0,1:0:0:0:
160,320,177851,5,10,0:0:0:0:
160,320,178115,2,0,L|172:232,1,71.2500027179719,14|0,0:0|0:0,0:0:0:0:
180,164,178380,6,0,P|233:99|328:128,1,190,0|0,0:0|0:0,0:0:0:0:
396,340,179437,1,4,0:0:0:0:
222,83,186573,6,0,L|214:143,1,56.9999982604981,2|8,0:0|0:0,0:0:0:0:
108,328,186970,1,8,0:0:0:0:
108,328,187102,2,0,L|100:268,1,56.9999982604981,0|2,0:0|0:0,0:0:0:0:
132,184,187366,1,0,1:0:0:0:
215,140,187498,1,8,0:0:0:0:
308,152,187631,1,8,0:3:0:0:
376,212,187763,1,2,0:0:0:0:
348,344,187895,6,0,P|284:352|220:296,1,142.500005435944,6|0,0:0|0:0,0:0:0:0:
308,152,188291,2,0,L|452:132,1,142.500005435944,8|0,0:0|0:0,0:0:0:0:
484,288,188688,1,0,0:0:0:0:
484,288,189084,1,0,0:0:0:0:
396,228,189217,2,0,P|324:216|265:255,1,142.500005435944,2|8,0:0|0:0,0:0:0:0:
172,344,189613,1,2,0:0:0:0:
172,344,190009,6,0,L|152:200,1,142.500005435944,2|2,0:0|0:0,0:0:0:0:
220,44,190406,2,0,P|288:32|344:72,1,142.500005435944,8|0,0:0|0:0,0:0:0:0:
276,231,190802,2,0,P|207:242|151:202,1,142.500005435944,2|0,0:0|0:0,0:0:0:0:
104,112,191199,2,0,L|24:100,1,71.2500027179719,0|2,0:0|0:0,0:0:0:0:
0,288,191595,1,8,0:0:0:0:
151,202,191860,2,0,L|192:192,3,35.625001358986,0|0|0|0,0:0|0:0|0:0|0:0,0:0:0:0:
128,232,192124,6,0,B|144:376,1,142.500005435944,2|2,0:0|0:0,0:0:0:0:
276,231,192520,2,0,B|260:89,1,142.500005435944,8|0,0:0|0:0,0:0:0:0:
104,112,192917,1,2,0:0:0:0:
224,308,193181,1,2,0:0:0:0:
224,308,193313,2,0,P|288:323|356:277,1,142.500005435944,8|0,0:0|0:0,0:0:0:0:
371,127,193710,1,2,0:0:0:0:
350,285,193974,6,0,L|341:360,1,71.2500027179719,8|0,0:0|0:0,0:0:0:0:
276,231,194239,2,0,L|294:78,1,142.500005435944,2|2,0:0|0:0,0:0:0:0:
119,26,194635,2,0,P|99:71|117:167,1,142.500005435944,8|0,0:0|0:0,0:0:0:0:
178,241,195031,1,2,0:0:0:0:
371,127,195296,5,12,0:0:0:0:
264,336,195560,1,2,0:0:0:0:
48,220,195824,1,12,0:0:0:0:
48,220,196882,6,0,L|32:160,5,47.5000018119813,0|0|0|0|0|0,3:0|3:0|3:0|3:0|3:0|3:0,0:0:0:0:
76,252,197410,6,0,L|192:244,1,104.500003189087,6|0,0:0|0:0,0:0:0:0:
232,80,197675,2,0,L|116:72,1,104.500003189087,8|0,0:0|0:0,0:0:0:0:
276,236,197939,1,2,0:0:0:0:
128,160,198071,1,2,0:0:0:0:
312,96,198203,1,8,0:0:0:0:
364,260,198335,6,0,P|380:316|368:360,1,104.500003189087,0|2,0:0|0:0,0:0:0:0:
218,183,198600,2,0,L|233:70,1,104.500003189087,0|8,0:0|0:0,0:0:0:0:
416,184,198864,1,0,0:0:0:0:
274,314,198996,1,2,0:0:0:0:
319,136,199128,1,2,0:0:0:0:
414,285,199261,2,0,P|462:285|514:257,1,104.500003189087,8|0,0:0|0:0,0:0:0:0:
319,136,199525,6,0,L|304:249,1,104.500003189087,2|0,0:0|0:0,0:0:0:0:
141,247,199789,2,0,L|156:360,1,104.500003189087,8|0,0:0|0:0,0:0:0:0:
352,352,200054,1,2,0:0:0:0:
220,204,200186,1,2,0:0:0:0:
416,184,200318,1,8,0:0:0:0:
232,328,200450,6,0,P|132:348|48:288,1,209.000006378174,6|2,0:0|0:0,0:0:0:0:
104,64,200846,1,8,0:0:0:0:
220,204,200979,1,0,0:0:0:0:
52,140,201111,1,2,0:0:0:0:
188,24,201243,1,2,0:0:0:0:
292,148,201375,2,0,L|309:250,1,104.500003189087,8|0,0:0|0:0,0:0:0:0:
476,356,201639,6,0,P|472:296|444:252,1,104.500003189087,6|0,0:0|0:0,0:0:0:0:
412,48,201904,2,0,L|394:150,1,104.500003189087,8|0,0:0|0:0,0:0:0:0:
192,248,202168,2,0,L|209:145,1,104.500003189087,2|2,0:0|0:0,0:0:0:0:
364,280,202432,2,0,L|346:382,1,104.500003189087,8|0,0:0|0:0,0:0:0:0:
192,248,202697,6,0,P|91:241|27:319,1,209.000006378174,2|8,0:0|0:0,0:0:0:0:
268,336,203093,2,0,P|280:240|284:128,1,209.000006378174,0|2,0:0|0:0,0:0:0:0:
96,232,203490,2,0,L|116:344,1,104.500003189087,8|0,0:0|0:0,0:0:0:0:
22,124,203754,2,0,P|2:72|2:16,1,104.500003189087,2|0,0:0|0:0,0:0:0:0:
192,248,204018,6,0,L|311:213,1,113.999996520996,12|0,0:0|0:0,0:0:0:0:
416,92,204283,1,2,0:0:0:0:
84,36,204415,1,2,0:0:0:0:
208,336,204547,1,8,0:0:0:0:
352,30,204679,6,0,P|461:14|496:127,1,227.999993041992,6|2,0:0|0:0,0:0:0:0:
416,352,205076,1,8,0:0:0:0:
204,124,205208,1,8,0:0:0:0:
428,184,205340,1,2,1:2:0:0:
256,320,205472,1,2,1:2:0:0:
500,240,205604,1,8,0:0:0:0:
352,30,205736,1,2,1:2:0:0:
192,160,205868,6,0,L|180:280,1,104.500003189087,6|0,0:0|0:0,0:0:0:0:
332,376,206133,2,0,L|344:256,1,104.500003189087,8|0,0:0|0:0,0:0:0:0:
276,92,206397,1,2,0:0:0:0:
260,272,206529,1,2,0:0:0:0:
116,140,206661,1,8,0:0:0:0:
324,184,206794,6,0,P|372:176|428:132,1,104.500003189087,0|2,0:0|0:0,0:0:0:0:
224,20,207058,2,0,P|176:28|120:72,1,104.500003189087,0|8,0:0|0:0,0:0:0:0:
181,263,207322,1,0,0:0:0:0:
276,92,207454,1,2,0:0:0:0:
342,272,207587,1,2,0:0:0:0:
192,160,207719,2,0,P|148:152|80:164,1,104.500003189087,8|0,0:0|0:0,0:0:0:0:
158,365,207983,6,0,L|182:257,1,104.500003189087,2|0,0:0|0:0,0:0:0:0:
319,169,208247,2,0,L|343:277,1,104.500003189087,8|0,0:0|0:0,0:0:0:0:
476,368,208512,1,2,0:0:0:0:
280,344,208644,1,2,0:0:0:0:
424,220,208776,1,8,0:0:0:0:
304,36,208908,6,0,P|208:16|124:112,1,209.000006378174,6|2,0:0|0:0,0:0:0:0:
260,264,209305,1,8,0:0:0:0:
356,120,209437,1,0,0:0:0:0:
172,188,209569,1,2,0:0:0:0:
204,348,209701,1,2,0:0:0:0:
328,216,209833,2,0,P|377:198|432:208,1,104.500003189087,8|0,0:0|0:0,0:0:0:0:
307,361,210098,6,0,L|187:345,1,104.500003189087,6|0,0:0|0:0,0:0:0:0:
120,200,210362,2,0,L|240:184,1,104.500003189087,8|0,0:0|0:0,0:0:0:0:
112,56,210626,2,0,L|-8:40,1,104.500003189087,2|2,0:0|0:0,0:0:0:0:
36,212,210891,1,8,0:0:0:0:
184,104,211023,1,0,0:0:0:0:
304,224,211155,6,0,P|312:276|300:328,1,104.500003189087,2|0,0:0|0:0,0:0:0:0:
104,324,211419,2,0,P|145:292|195:277,1,104.500003189087,8|0,0:0|0:0,0:0:0:0:
380,376,211683,1,2,0:0:0:0:
304,224,211816,1,2,0:0:0:0:
184,376,211948,1,8,0:0:0:0:
224,184,212080,1,0,0:0:0:0:
432,292,212212,5,6,0:0:0:0:
195,277,212344,1,0,0:0:0:0:
360,100,212476,5,8,0:0:0:0:
344,384,212609,1,2,0:0:0:0:
232,72,212741,5,8,0:0:0:0:
246,378,212873,1,2,0:0:0:0:
100,48,213005,5,8,0:0:0:0:
150,373,213137,1,2,0:0:0:0:
414,195,213269,5,8,0:0:0:0:
125,200,213402,1,2,0:0:0:0:
350,24,213534,1,8,0:0:0:0:
384,292,213666,1,6,0:0:0:0:
216,36,213798,5,0,1:0:0:0:
195,277,213930,1,8,1:2:0:0:
380,96,214062,1,2,1:2:0:0:
88,172,214194,1,8,1:2:0:0:
356,328,214327,6,0,L|468:308,1,104.500003189087,6|0,0:0|0:0,0:0:0:0:
288,168,214591,2,0,L|176:188,1,104.500003189087,8|0,0:0|0:0,0:0:0:0:
116,380,214855,1,2,0:0:0:0:
284,260,214987,1,2,0:0:0:0:
88,172,215120,1,8,0:0:0:0:
308,256,215252,1,0,0:0:0:0:
104,276,215384,6,0,L|0:252,1,104.500003189087,2|0,0:0|0:0,0:0:0:0:
136,60,215648,2,0,P|184:72|232:104,1,104.500003189087,8|0,0:0|0:0,0:0:0:0:
260,296,215913,1,2,0:0:0:0:
372,128,216045,1,2,0:0:0:0:
356,328,216177,1,8,0:0:0:0:
196,204,216309,1,0,0:0:0:0:
400,240,216441,6,0,L|503:227,1,104.500003189087,2|0,0:0|0:0,0:0:0:0:
280,120,216705,2,0,L|177:107,1,104.500003189087,8|0,0:0|0:0,0:0:0:0:
176,324,216970,1,2,0:0:0:0:
92,140,217102,1,2,0:0:0:0:
0,300,217234,1,8,0:0:0:0:
16,84,217366,1,0,0:0:0:0:
160,224,217498,6,0,P|216:224|268:196,1,104.500003189087,2|0,0:0|0:0,0:0:0:0:
188,24,217763,2,0,P|132:24|80:52,1,104.500003189087,8|0,0:0|0:0,0:0:0:0:
72,224,218027,1,2,0:0:0:0:
264,116,218159,1,2,0:0:0:0:
176,324,218291,1,8,0:0:0:0:
92,140,218424,1,0,0:0:0:0:
324,272,218556,6,0,P|344:217|345:165,1,104.500003189087,2|0,0:0|0:0,0:0:0:0:
200,12,218820,2,0,P|179:66|179:119,1,104.500003189087,8|0,0:0|0:0,0:0:0:0:
208,304,219084,1,2,0:0:0:0:
264,116,219217,1,2,0:0:0:0:
416,240,219349,1,8,0:0:0:0:
248,320,219481,1,0,0:0:0:0:
364,148,219613,6,0,P|415:134|492:124,1,104.500003189087,2|0,0:0|0:0,0:0:0:0:
349,342,219877,2,0,P|297:333|247:319,1,104.500003189087,8|0,0:0|0:0,0:0:0:0:
264,116,220142,1,2,0:0:0:0:
164,284,220274,1,2,0:0:0:0:
104,84,220406,2,0,P|88:144|88:192,1,104.500003189087,8|0,0:0|0:0,0:0:0:0:
296,224,220670,5,2,0:0:0:0:
172,380,220802,1,0,0:0:0:0:
196,180,220935,1,8,0:0:0:0:
349,342,221067,1,0,0:0:0:0:
264,116,221199,5,2,0:0:0:0:
84,264,221331,1,2,0:0:0:0:
316,360,221463,1,8,0:0:0:0:
164,136,221595,6,0,P|206:32|322:31,1,209.000006378174,4|0,0:0|1:0,0:0:0:0:
388,252,221992,1,8,0:0:0:0:
464,48,222124,1,0,3:0:0:0:
464,48,222190,1,0,3:0:0:0:
464,48,222256,1,2,3:2:0:0:
252,184,222388,1,0,1:0:0:0:
512,260,222520,1,8,0:0:0:0:
304,380,222653,1,0,1:0:0:0:
400,140,222785,6,0,L|516:124,1,113.999996520996,6|0,0:0|0:0,0:0:0:0:
288,280,223049,2,0,L|172:264,1,113.999996520996,8|0,0:0|0:0,0:0:0:0:
96,40,223313,1,2,0:0:0:0:
276,108,223446,1,0,0:0:0:0:
56,208,223578,1,8,0:0:0:0:
280,88,223710,1,0,0:0:0:0:
175,264,223842,6,0,P|160:320|160:384,1,113.999996520996,2|0,0:0|0:0,0:0:0:0:
415,251,224106,2,0,P|413:194|399:139,1,113.999996520996,8|0,0:0|0:0,0:0:0:0:
200,104,224371,1,2,0:0:0:0:
288,280,224503,1,0,0:0:0:0:
400,64,224635,1,8,0:0:0:0:
196,136,224767,1,0,0:0:0:0:
415,251,224899,6,0,L|447:395,1,113.999996520996,2|0,0:0|0:0,0:0:0:0:
184,328,225164,2,0,L|152:184,1,113.999996520996,8|0,0:0|0:0,0:0:0:0:
324,32,225428,1,2,0:0:0:0:
256,220,225560,1,0,0:0:0:0:
88,76,225692,1,8,0:0:0:0:
256,192,225824,1,0,0:0:0:0:
400,64,225957,6,0,P|448:56|520:72,1,113.999996520996,2|0,0:0|0:0,0:0:0:0:
408,304,226221,1,8,0:0:0:0:
328,116,226353,1,0,0:0:0:0:
264,348,226485,5,2,0:0:0:0:
476,224,226617,1,0,0:0:0:0:
188,144,226750,5,12,0:0:0:0:
476,224,226882,1,0,0:0:0:0:
376,384,227014,6,0,L|376:264,1,113.999996520996,6|0,0:0|0:0,0:0:0:0:
248,72,227278,1,8,0:0:0:0:
184,272,227410,1,0,0:0:0:0:
408,148,227543,1,2,0:0:0:0:
224,52,227675,1,0,0:0:0:0:
280,296,227807,1,8,0:0:0:0:
484,128,227939,1,0,0:0:0:0:
296,192,228071,6,0,L|176:192,1,113.999996520996,2|0,0:0|0:0,0:0:0:0:
56,16,228335,1,8,0:0:0:0:
12,220,228468,1,0,0:0:0:0:
256,120,228600,1,2,0:0:0:0:
40,44,228732,1,0,0:0:0:0:
56,296,228864,1,8,0:0:0:0:
296,192,228996,1,0,0:0:0:0:
188,368,229128,6,0,B|132:384|132:384|20:364,1,170.999994781494,6|0,0:0|2:0,0:0:0:0:
0,224,229393,2,0,P|6:157|94:156,1,170.999994781494,8|0,0:0|0:0,0:0:0:0:
157,256,229657,2,0,P|233:256|301:168,1,170.999994781494,0|0,1:0|0:0,0:0:0:0:
272,40,229921,1,8,0:0:0:0:
73,154,230054,6,0,L|44:388,1,227.999993041992,4|0,0:0|0:0,0:0:0:0:
364,256,230450,1,8,0:0:0:0:
92,128,230582,1,8,0:0:0:0:
368,12,230714,1,2,1:2:0:0:
148,256,230846,1,8,0:2:0:0:
420,128,230979,1,8,0:0:0:0:
144,12,231111,1,0,1:0:0:0:
256,328,231243,5,12,0:0:0:0:
