osu file format v14

[General]
AudioFilename: life.mp3
AudioLeadIn: 0
PreviewTime: 83722
Countdown: 0
SampleSet: Soft
StackLeniency: 0.7
Mode: 0
LetterboxInBreaks: 0
EpilepsyWarning: 1
WidescreenStoryboard: 1

[Editor]
Bookmarks: 85472,139657,140318,140979,168864,186573,210362,222785
DistanceSpacing: 1.8
BeatDivisor: 4
GridSize: 4
TimelineZoom: 2.2

[Metadata]
Title:Sendan Life
TitleUnicode:センダンライフ
Artist:Remo Prototype[CV: Hanamori Yumiri]
ArtistUnicode:リモ Prototype[CV:花守ゆみり]
Creator:Lami
Version:Extra
Source:ガラスの花と壊す世界
Tags:vocaloid Chukka やしきん yashikin Glass no Hana to Kowasu Sekai GARAKOWA Restore the World Vitreous Flower Destroy the World dailycare fuyuyu- mamayu kanau pho starrstyx intoon
BeatmapID:972691
BeatmapSetID:416153

[Difficulty]
HPDrainRate:6
CircleSize:4
OverallDifficulty:8.7
ApproachRate:9.6
SliderMultiplier:1.77
SliderTickRate:1

[Events]
//Background and Video events
0,0,"bg.jpg",0,0
//Break Periods
2,104042,109132
2,179637,186048
//Storyboard Layer 0 (Background)
//Storyboard Layer 1 (Fail)
//Storyboard Layer 2 (Pass)
//Storyboard Layer 3 (Foreground)
//Storyboard Sound Samples

[TimingPoints]
36706,264.31718061674,4,2,2,60,1,0
37498,-125,4,2,2,60,0,0
37763,-111.111111111111,4,2,2,60,0,0
41463,-100,4,2,1,70,0,0
49261,-86.9565217391304,4,2,1,70,0,0
50450,-105.263157894737,4,2,1,70,0,0
67366,-133.333333333333,4,2,1,70,0,0
74767,-117.647058823529,4,2,1,70,0,0
75296,-100,4,2,1,70,0,0
84283,-90.9090909090909,4,2,1,70,0,1
90891,-83.3333333333333,4,2,1,70,0,1
92741,-90.9090909090909,4,2,1,70,0,1
101199,-133.333333333333,4,2,1,70,0,0
113886,-200,4,2,1,70,0,0
116926,-105.263157894737,4,2,1,70,0,0
126573,-133.333333333333,4,2,1,70,0,0
134503,-100,4,2,1,70,0,0
143490,-90.9090909090909,4,2,1,70,0,1
150098,-83.3333333333333,4,2,1,70,0,1
151948,-90.9090909090909,4,2,1,70,0,1
160406,-90.9090909090909,4,2,1,70,0,0
168864,-90.9090909090909,4,2,3,70,0,0
178115,-133.333333333333,4,2,3,70,0,0
178380,-200,4,2,3,70,0,0
179437,-200,4,2,4,70,0,0
186573,-166.666666666667,4,2,1,70,0,0
187895,-133.333333333333,4,2,1,70,0,0
197410,-90.9090909090909,4,2,1,70,0,1
204018,-83.3333333333333,4,2,1,70,0,1
205868,-90.9090909090909,4,2,1,70,0,1
214327,-100,4,2,1,70,0,0
222785,-90.9090909090909,4,2,1,70,0,1
229327,-90.9090909090909,4,2,1,5,0,1
229393,-90.9090909090909,4,2,1,70,0,1
229591,-90.9090909090909,4,2,1,5,0,1
229657,-90.9090909090909,4,2,1,70,0,1
229855,-90.9090909090909,4,2,1,5,0,1
229921,-90.9090909090909,4,2,1,70,0,1
230054,-83.3333333333333,4,2,1,70,0,1
231243,-100,4,2,1,70,0,0

[Colours]
Combo1 : 253,183,104
Combo2 : 70,163,255
Combo3 : 60,239,50
Combo4 : 255,85,170

[HitObjects]
116,52,37366,6,0,L|84:40,11,22.125
136,76,37763,6,0,L|140:164,1,79.649997569275,8|0,0:0|0:0,0:0:0:0:
56,252,38027,2,0,L|60:344,1,79.649997569275,8|0,0:0|0:0,0:0:0:0:
184,296,38291,1,8,0:0:0:0:
184,296,38424,2,0,L|188:384,1,79.649997569275,8|0,0:0|0:0,0:0:0:0:
328,372,38688,6,0,P|364:368|400:336,1,79.649997569275,8|0,0:0|0:0,0:0:0:0:
480,260,38952,2,0,P|444:256|408:224,1,79.649997569275,8|0,0:0|0:0,0:0:0:0:
316,152,39217,2,0,P|352:148|388:112,1,79.649997569275,8|0,0:0|0:0,0:0:0:0:
272,8,39481,1,8,0:0:0:0:
200,108,39613,2,0,P|192:168|224:232,1,119.474996353912,8|0,0:0|0:0,0:0:0:0:
236,248,39877,6,0,B|320:264,1,79.649997569275,8|0,0:0|0:0,0:0:0:0:
216,372,40142,2,0,B|132:384,1,79.649997569275,8|0,0:0|0:0,0:0:0:0:
40,248,40406,1,8,0:0:0:0:
40,248,40538,2,0,B|128:264,1,79.649997569275,8|0,0:0|0:0,0:0:0:0:
132,60,40802,6,0,L|148:148,1,79.649997569275,8|0,0:0|0:0,0:0:0:0:
248,100,41067,2,0,L|264:188,1,79.649997569275,8|0,0:0|0:0,0:0:0:0:
288,288,41331,1,8,0:0:0:0:
468,252,41463,6,0,P|516:212|500:132,1,132.75,8|0,0:0|0:0,0:0:0:0:
474,77,41728,2,0,L|462:57,7,22.125
441,95,41992,6,0,L|455:210,1,88.5,6|0,0:0|0:0,0:0:0:0:
316,312,42256,2,0,L|300:192,1,88.5,8|0,0:0|0:0,0:0:0:0:
332,48,42520,1,2,0:0:0:0:
208,220,42653,1,2,0:0:0:0:
372,168,42785,1,8,0:0:0:0:
240,64,42917,1,0,0:0:0:0:
120,236,43049,6,0,P|70:222|31:187,1,88.5,2|0,0:0|0:0,0:0:0:0:
148,48,43313,1,8,0:0:0:0:
208,220,43446,1,0,0:0:0:0:
316,72,43578,1,2,0:0:0:0:
116,136,43710,1,2,0:0:0:0:
287,215,43842,1,8,0:0:0:0:
172,308,43974,1,0,0:0:0:0:
232,136,44106,6,0,L|228:32,1,88.5,2|0,0:0|0:0,0:0:0:0:
376,172,44371,2,0,L|380:276,1,88.5,8|0,0:0|0:0,0:0:0:0:
256,380,44635,1,2,0:0:0:0:
436,344,44767,1,2,0:0:0:0:
288,216,44899,1,8,0:0:0:0:
348,364,45031,1,0,0:0:0:0:
472,256,45164,6,0,P|477:204|457:152,1,88.5,2|0,0:0|0:0,0:0:0:0:
276,128,45428,2,0,L|290:231,1,88.5,8|0,0:0|0:0,0:0:0:0:
436,344,45692,1,2,0:0:0:0:
376,172,45824,1,2,0:0:0:0:
276,296,45957,1,8,0:0:0:0:
204,180,46089,1,0,0:0:0:0:
120,288,46221,6,0,L|24:304,1,88.5,2|0,0:0|0:0,0:0:0:0:
128,136,46485,1,8,0:0:0:0:
287,215,46617,1,0,0:0:0:0:
176,352,46750,1,2,0:0:0:0:
204,180,46882,1,2,0:0:0:0:
348,328,47014,2,0,P|368:284|368:232,1,88.5,8|0,0:0|0:0,0:0:0:0:
228,108,47278,6,0,L|114:112,1,88.5,2|0,0:0|0:0,0:0:0:0:
73,291,47543,2,0,L|187:287,1,88.5,8|0,0:0|0:0,0:0:0:0:
352,152,47807,1,2,0:0:0:0:
252,344,47939,1,2,0:0:0:0:
216,192,48071,1,8,0:0:0:0:
348,328,48203,1,0,0:0:0:0:
432,219,48335,6,0,L|432:124,1,88.5,2|0,0:0|0:0,0:0:0:0:
240,216,48600,1,8,0:0:0:0:
320,72,48732,1,0,0:0:0:0:
348,328,48864,5,2,0:0:0:0:
140,224,48996,1,2,0:0:0:0:
320,72,49128,1,8,0:0:0:0:
236,312,49261,6,0,B|196:336|148:312|148:312|124:328|124:328|84:304|36:320,1,203.550003882408,6|2,0:0|0:0,0:0:0:0:
156,128,49657,1,8,0:0:0:0:
332,276,49789,1,0,3:0:0:0:
332,276,49855,1,0,3:0:0:0:
332,276,49921,1,4,3:0:0:0:
356,72,50054,1,0,1:0:0:0:
188,232,50186,1,8,0:0:0:0:
272,40,50318,1,0,1:0:0:0:
404,220,50450,6,0,L|508:228,1,84.0749977549553,6|0,0:0|0:0,0:0:0:0:
328,145,50714,2,0,L|224:137,1,84.0749977549553,8|2,0:0|0:0,0:0:0:0:
116,188,50979,1,0,0:0:0:0:
248,320,51111,2,0,P|264:288|272:228,1,84.0749977549553,2|8,0:0|0:0,0:0:0:0:
160,104,51375,1,0,0:0:0:0:
128,296,51507,6,0,P|52:276|8:184,1,168.149995509911,2|8,0:0|0:0,0:0:0:0:
96,40,51904,1,2,0:0:0:0:
192,196,52036,1,0,0:0:0:0:
228,60,52168,1,2,0:0:0:0:
104,164,52300,2,0,L|56:268,1,84.0749977549553,8|0,0:0|0:0,0:0:0:0:
212,352,52565,5,2,0:0:0:0:
192,196,52697,1,0,0:0:0:0:
124,320,52829,1,8,0:0:0:0:
104,164,52961,1,2,0:0:0:0:
256,280,53093,2,0,P|308:272|348:240,1,84.0749977549553,0|2,0:0|0:0,0:0:0:0:
248,108,53357,2,0,L|148:96,1,84.0749977549553,8|0,0:0|0:0,0:0:0:0:
344,148,53622,6,0,P|404:144|464:48,1,168.149995509911,2|8,0:0|0:0,0:0:0:0:
284,16,54018,1,2,0:0:0:0:
214,123,54150,2,0,P|212:176|232:224,1,84.0749977549553,0|2,0:0|0:0,0:0:0:0:
312,376,54415,1,8,0:0:0:0:
338,251,54547,1,0,0:0:0:0:
196,352,54679,6,0,L|76:340,1,84.0749977549553,2|0,0:0|0:0,0:0:0:0:
40,156,54943,2,0,P|90:171|121:205,1,84.0749977549553,8|2,0:0|0:0,0:0:0:0:
112,343,55208,1,0,0:0:0:0:
221,205,55340,1,2,0:0:0:0:
312,376,55472,2,0,P|329:334|333:289,1,84.0749977549553,8|0,0:0|0:0,0:0:0:0:
456,132,55736,6,0,P|384:125|312:204,1,168.149995509911,2|8,0:0|0:0,0:0:0:0:
444,340,56133,1,2,0:0:0:0:
476,213,56265,2,0,L|449:106,1,84.0749977549553,0|2,0:0|0:0,0:0:0:0:
309,32,56529,2,0,P|323:75|370:112,1,84.0749977549553,8|0,0:0|0:0,0:0:0:0:
471,36,56794,5,2,0:0:0:0:
380,193,56926,1,0,0:0:0:0:
380,193,57058,2,0,L|346:303,1,84.0749977549553,8|2,0:0|0:0,0:0:0:0:
481,296,57322,2,0,L|452:387,1,84.0749977549553,0|2,0:0|0:0,0:0:0:0:
304,368,57587,1,8,0:0:0:0:
256,248,57719,1,0,0:0:0:0:
164,344,57851,6,0,L|68:336,1,84.0749977549553,2|0,0:0|0:0,0:0:0:0:
76,128,58115,5,8,0:0:0:0:
148,236,58247,1,2,0:0:0:0:
200,56,58380,5,8,0:0:0:0:
231,227,58512,1,2,0:0:0:0:
328,36,58644,6,0,L|414:27,1,84.0749977549553,12|0,0:1|0:0,0:0:0:0:
159,138,58908,6,0,L|59:126,1,84.0749977549553,6|0,0:0|0:0,0:0:0:0:
216,308,59172,2,0,P|233:253|225:201,1,84.0749977549553,8|2,0:0|0:0,0:0:0:0:
64,260,59437,1,0,0:0:0:0:
132,368,59569,1,2,0:0:0:0:
231,227,59701,2,0,L|323:223,1,84.0749977549553,8|0,0:0|0:0,0:0:0:0:
432,364,59965,6,0,P|340:372|288:308,1,168.149995509911,2|8,0:0|0:0,0:0:0:0:
380,148,60362,1,2,0:0:0:0:
472,208,60494,2,0,L|496:296,1,84.0749977549553,0|2,0:0|0:0,0:0:0:0:
512,96,60758,1,8,0:0:0:0:
380,148,60891,6,0,P|296:140|260:68,1,168.149995509911,0|0,0:0|0:0,0:0:0:0:
92,28,61287,1,8,0:0:0:0:
128,144,61419,1,2,0:0:0:0:
260,71,61551,2,0,L|348:64,1,84.0749977549553,0|2,0:0|0:0,0:0:0:0:
272,224,61816,2,0,L|172:212,1,84.0749977549553,8|0,0:0|0:0,0:0:0:0:
312,352,62080,6,0,P|392:356|448:292,1,168.149995509911,2|8,0:0|0:0,0:0:0:0:
420,120,62476,1,2,0:0:0:0:
355,213,62609,2,0,L|271:223,1,84.0749977549553,0|2,0:0|0:0,0:0:0:0:
128,144,62873,1,8,0:0:0:0:
176,52,63005,1,0,0:0:0:0:
188,213,63137,6,0,L|176:317,1,84.0749977549553,2|0,0:0|0:0,0:0:0:0:
292,128,63402,2,0,L|304:24,1,84.0749977549553,8|2,0:0|0:0,0:0:0:0:
420,120,63666,1,0,0:0:0:0:
355,213,63798,1,2,0:0:0:0:
301,44,63930,2,0,P|260:27|209:28,1,84.0749977549553,8|0,0:0|0:0,0:0:0:0:
104,224,64194,6,0,B|188:212,1,84.0749977549553,2|0,0:0|0:0,0:0:0:0:
128,52,64459,1,8,0:0:0:0:
260,131,64591,2,0,P|343:133|395:68,1,168.149995509911,2|2,0:0|0:0,0:0:0:0:
496,200,64987,1,8,0:0:0:0:
512,85,65120,2,0,L|480:8,1,84.0749977549553,0|2,0:0|0:0,0:0:0:0:
368,168,65384,5,0,0:0:0:0:
368,168,65516,2,0,L|340:264,1,84.0749977549553,8|2,0:0|0:0,0:0:0:0:
216,248,65780,1,0,0:0:0:0:
216,248,65913,2,0,L|244:344,1,84.0749977549553,2|8,0:0|0:0,0:0:0:0:
473,310,66177,6,0,P|446:260|317:272,1,168.149995509911,6|2,0:0|0:0,0:0:0:0:
239,328,66573,2,0,P|196:340|152:328,1,84.0749977549553,8|0,0:0|0:0,0:0:0:0:
52,164,66838,1,4,1:3:0:0:
76,364,66970,1,8,0:0:0:0:
124,220,67102,1,2,0:0:0:0:
0,316,67234,1,0,1:0:0:0:
52,164,67366,6,0,L|196:164,1,132.750005064011,6|0,0:0|0:0,0:0:0:0:
308,312,67763,1,8,0:0:0:0:
308,312,68159,2,0,P|245:320|193:276,1,132.750005064011,2|0,0:0|0:0,0:0:0:0:
284,164,68556,2,0,P|347:156|399:200,1,132.750005064011,2|0,0:0|0:0,0:0:0:0:
476,292,68952,2,0,P|483:254|496:204,1,66.3750025320054,8|0,0:0|0:0,0:0:0:0:
512,116,69217,1,2,0:0:0:0:
512,116,69481,6,0,B|428:80|428:80|368:88,1,132.750005064011,2|0,0:0|0:0,0:0:0:0:
200,184,69877,1,8,0:0:0:0:
200,184,70274,2,0,P|266:184|329:166,1,132.750005064011,2|0,0:0|0:0,0:0:0:0:
232,40,70670,2,0,P|165:39|102:57,1,132.750005064011,2|0,0:0|0:0,0:0:0:0:
84,164,71067,2,0,L|77:234,1,66.3750025320054,8|0,0:0|0:0,0:0:0:0:
0,100,71331,2,0,L|6:33,1,66.3750025320054,2|0,0:0|0:0,0:0:0:0:
84,164,71595,6,0,L|220:144,1,132.750005064011,2|0,0:0|0:0,0:0:0:0:
276,272,71992,1,8,0:0:0:0:
276,272,72124,2,0,L|140:292,1,132.750005064011,0|2,0:0|0:0,0:0:0:0:
364,352,72653,6,0,P|372:282|384:212,1,132.750005064011,2|0,0:0|0:0,0:0:0:0:
492,128,73049,1,2,1:3:0:0:
492,128,73181,2,0,P|420:124|380:80,1,132.750005064011,2|2,0:0|0:0,0:0:0:0:
184,16,73710,6,0,L|203:162,1,132.750005064011,2|0,0:0|0:0,0:0:0:0:
128,284,74106,1,8,0:0:0:0:
128,284,74239,2,0,P|88:286|41:262,1,66.3750025320054,0|0,0:0|0:0,0:0:0:0:
96,184,74503,2,0,P|66:157|50:106,1,66.3750025320054,2|0,0:0|0:0,0:0:0:0:
201,147,74767,6,0,L|216:248,1,75.225001434803,0|0,0:0|0:0,0:0:0:0:
212,221,75296,1,8,0:0:0:0:
316,276,75428,1,2,0:0:0:0:
224,348,75560,1,8,0:0:0:0:
300,167,75692,6,0,P|358:105|442:118,1,177,6|2,0:0|0:0,0:0:0:0:
448,296,76089,1,8,0:0:0:0:
387,191,76221,1,0,0:0:0:0:
312,348,76353,2,0,L|220:348,1,88.5,2|2,0:0|0:0,0:0:0:0:
128,196,76617,1,8,0:0:0:0:
64,300,76750,1,0,0:0:0:0:
212,220,76882,6,0,L|224:128,1,88.5,2|0,0:0|0:0,0:0:0:0:
88,16,77146,1,8,0:0:0:0:
24,112,77278,2,0,P|12:156|16:216,1,88.5,0|2,0:0|0:0,0:0:0:0:
144,280,77543,1,2,0:0:0:0:
4,356,77675,1,8,0:0:0:0:
112,192,77807,6,0,L|320:168,1,177,6|2,0:0|0:0,0:0:0:0:
356,356,78203,2,0,P|312:352|272:324,1,88.5,8|0,0:0|0:0,0:0:0:0:
388,168,78468,1,2,0:0:0:0:
436,284,78600,1,2,0:0:0:0:
287,171,78732,2,0,P|272:132|276:80,1,88.5,8|0,0:0|0:0,0:0:0:0:
484,20,78996,6,0,L|476:127,1,88.5,6|0,0:0|0:0,0:0:0:0:
339,262,79261,1,8,0:0:0:0:
287,171,79393,2,0,L|191:159,1,88.5,0|2,0:0|0:0,0:0:0:0:
96,312,79657,1,2,0:0:0:0:
72,132,79789,1,8,0:0:0:0:
195,320,79921,6,0,P|284:323|341:259,1,177,6|2,0:0|0:0,0:0:0:0:
217,73,80318,2,0,L|197:170,1,88.5,8|0,0:0|0:0,0:0:0:0:
96,312,80582,1,2,0:0:0:0:
245,236,80714,1,2,0:0:0:0:
56,196,80846,2,0,P|24:172|4:128,1,88.5,8|0,0:0|0:0,0:0:0:0:
199,159,81111,6,0,L|152:244,1,88.5,2|0,0:0|0:0,0:0:0:0:
364,368,81375,2,0,P|321:345|280:340,1,88.5,8|0,0:0|0:0,0:0:0:0:
128,384,81639,1,2,0:0:0:0:
245,236,81772,1,2,0:0:0:0:
56,196,81904,1,8,0:0:0:0:
195,320,82036,1,2,0:0:0:0:
280,128,82168,6,0,L|376:104,1,88.5,12|0,0:0|0:0,0:0:0:0:
108,300,82432,2,0,L|12:276,1,88.5,8|0,0:0|0:0,0:0:0:0:
168,64,82697,2,0,L|264:40,1,88.5,8|2,0:0|0:0,0:0:0:0:
336,268,82961,1,8,0:0:0:0:
136,140,83093,6,0,P|56:132|0:204,1,177,6|2,0:0|0:0,0:0:0:0:
195,320,83490,1,8,0:0:0:0:
280,128,83622,1,0,3:0:0:0:
280,128,83688,1,0,3:0:0:0:
280,128,83754,5,2,3:2:0:0:
88,216,83886,1,8,0:0:0:0:
292,276,84018,1,2,1:2:0:0:
136,368,84150,1,8,0:0:0:0:
136,140,84283,6,0,L|136:32,1,97.3500029708863,6|0,0:0|0:0,0:0:0:0:
214,263,84547,2,0,L|214:371,1,97.3500029708863,8|0,0:0|0:0,0:0:0:0:
367,217,84811,1,2,0:0:0:0:
304,360,84943,1,2,0:0:0:0:
208,176,85076,1,8,0:0:0:0:
372,304,85208,6,0,P|437:315|484:296,1,97.3500029708863,0|2,0:0|0:0,0:0:0:0:
380,132,85472,2,0,P|318:154|288:192,1,97.3500029708863,0|8,0:0|0:0,0:0:0:0:
304,360,85736,1,0,0:0:0:0:
367,217,85868,1,2,0:0:0:0:
304,360,86001,1,2,0:0:0:0:
208,176,86133,2,0,L|104:148,1,97.3500029708863,8|0,0:0|0:0,0:0:0:0:
52,356,86397,6,0,P|104:352|156:316,1,97.3500029708863,2|0,0:0|0:0,0:0:0:0:
12,120,86661,2,0,L|32:216,1,97.3500029708863,8|0,0:0|0:0,0:0:0:0:
232,264,86926,1,2,0:0:0:0:
113,150,87058,1,2,0:0:0:0:
52,356,87190,1,8,0:0:0:0:
208,176,87322,6,0,P|292:152|368:220,1,194.700005941773,6|2,0:0|0:0,0:0:0:0:
480,380,87719,2,0,P|489:323|500:272,1,97.3500029708863,8|0,0:0|0:0,0:0:0:0:
416,140,87983,1,2,0:0:0:0:
320,292,88115,1,2,0:0:0:0:
264,116,88247,2,0,L|164:100,1,97.3500029708863,8|0,0:0|0:0,0:0:0:0:
96,336,88512,6,0,P|144:332|196:292,1,97.3500029708863,6|0,0:0|0:0,0:0:0:0:
80,72,88776,2,0,L|56:192,1,97.3500029708863,8|0,0:0|0:0,0:0:0:0:
16,344,89040,1,2,0:0:0:0:
140,224,89172,1,2,0:0:0:0:
256,384,89305,2,0,P|286:339|289:295,1,97.3500029708863,8|0,0:0|0:0,0:0:0:0:
60,167,89569,6,0,L|88:384,1,194.700005941773,2|8,0:0|0:0,0:0:0:0:
264,196,89965,2,0,L|236:-21,1,194.700005941773,0|2,0:0|0:0,0:0:0:0:
112,88,90362,1,8,0:0:0:0:
108,252,90494,1,0,0:0:0:0:
224,112,90626,2,0,P|268:96|328:96,1,97.3500029708863,2|0,0:0|0:0,0:0:0:0:
476,328,90891,6,0,P|372:340|312:256,1,212.399993518067,12|2,0:0|0:0,0:0:0:0:
448,48,91287,1,2,0:0:0:0:
414,244,91419,1,8,0:0:0:0:
224,112,91551,6,0,P|120:96|36:208,1,212.399993518067,6|2,0:0|0:0,0:0:0:0:
156,372,91948,1,8,0:0:0:0:
296,176,92080,1,8,0:0:0:0:
112,244,92212,1,2,1:2:0:0:
284,324,92344,1,2,1:2:0:0:
224,112,92476,1,8,1:2:0:0:
80,252,92609,1,8,0:0:0:0:
296,176,92741,6,0,P|319:123|308:68,1,97.3500029708863,6|0,0:0|0:0,0:0:0:0:
100,8,93005,2,0,L|109:104,1,97.3500029708863,8|0,0:0|0:0,0:0:0:0:
204,244,93269,1,2,0:0:0:0:
60,336,93402,1,2,0:0:0:0:
36,152,93534,1,8,0:0:0:0:
152,328,93666,6,0,L|248:340,1,97.3500029708863,0|2,0:0|0:0,0:0:0:0:
392,188,93930,2,0,L|295:175,1,97.3500029708863,0|8,0:0|0:0,0:0:0:0:
112,224,94194,1,0,0:0:0:0:
296,264,94327,1,2,0:0:0:0:
184,144,94459,1,2,0:0:0:0:
152,328,94591,2,0,P|103:328|61:305,1,97.3500029708863,8|0,0:0|0:0,0:0:0:0:
16,88,94855,6,0,L|111:141,1,97.3500029708863,2|0,0:0|0:0,0:0:0:0:
295,175,95120,2,0,L|200:228,1,97.3500029708863,8|0,0:0|0:0,0:0:0:0:
61,305,95384,1,2,0:0:0:0:
184,144,95516,1,2,0:0:0:0:
244,336,95648,1,8,0:0:0:0:
62,201,95780,6,0,L|40:8,1,194.700005941773,6|2,0:0|0:0,0:0:0:0:
209,222,96177,2,0,L|220:318,1,97.3500029708863,8|0,0:0|0:0,0:0:0:0:
380,380,96441,1,2,0:0:0:0:
296,260,96573,1,2,0:0:0:0:
148,368,96705,2,0,P|100:364|60:336,1,97.3500029708863,8|0,0:0|0:0,0:0:0:0:
184,144,96970,6,0,L|291:159,1,97.3500029708863,6|0,0:0|0:0,0:0:0:0:
335,344,97234,2,0,P|303:304|295:260,1,97.3500029708863,8|0,0:0|0:0,0:0:0:0:
452,132,97498,1,2,0:0:0:0:
390,263,97631,1,2,0:0:0:0:
308,80,97763,6,0,B|164:60|164:60|104:88,1,194.700005941773,8|2,0:0|0:0,0:0:0:0:
64,204,98159,1,0,0:0:0:0:
207,290,98291,2,0,P|255:286|299:254,1,97.3500029708863,8|0,0:0|0:0,0:0:0:0:
184,144,98556,1,2,0:0:0:0:
128,312,98688,1,2,0:0:0:0:
272,168,98820,2,0,L|372:159,1,97.3500029708863,8|0,0:0|0:0,0:0:0:0:
284,360,99084,6,0,L|187:368,1,97.3500029708863,6|0,0:0|0:0,0:0:0:0:
104,136,99349,1,8,0:0:0:0:
208,286,99481,1,2,0:0:0:0:
244,76,99613,5,8,0:0:0:0:
295,254,99745,1,2,0:0:0:0:
400,60,99877,5,8,0:0:0:0:
384,248,100009,1,2,0:0:0:0:
184,144,100142,6,0,L|160:28,1,97.3500029708863,8|2,0:0|0:0,0:0:0:0:
320,164,100406,1,8,0:0:0:0:
96,248,100538,1,6,0:0:0:0:
276,64,100670,5,0,1:0:0:0:
256,284,100802,1,2,1:2:0:0:
104,136,100935,1,8,1:2:0:0:
152,344,101067,1,8,1:2:0:0:
320,164,101199,5,6,0:0:0:0:
256,192,101265,12,0,103842,2:0:0:0:
160,128,109657,5,4,0:0:0:0:
300,320,110714,2,0,B|336:332|380:316|380:316|400:328|400:328|452:304|496:316,2,199.125007596016,2|2|2,1:2|1:2|1:2,0:0:0:0:
312,88,111772,5,4,0:0:0:0:
160,272,112697,1,2,0:0:0:0:
160,272,112763,1,2,0:0:0:0:
160,272,112829,1,0,1:0:0:0:
196,176,112961,2,0,L|216:96,1,66.3750025320054,0|2,1:0|0:0,0:0:0:0:
308,180,113225,2,0,P|365:190|421:142,1,132.750005064011,2|2,1:2|0:0,0:0:0:0:
480,276,113622,2,0,L|392:292,1,66.3750025320054,8|0,0:0|0:0,0:0:0:0:
340,368,113886,6,0,P|289:367|248:360,1,88.5,6|0,0:0|0:0,0:0:0:0:
196,176,114415,2,0,P|215:222|224:263,1,88.5,2|0,0:3|0:0,0:0:0:0:
80,184,114943,2,0,P|90:141|107:100,2,88.5,2|0|2,0:0|0:0|0:3,0:0:0:0:
148,332,115736,1,0,0:0:0:0:
296,172,116001,5,2,0:0:0:0:
352,268,116133,2,0,L|401:280,2,44.25,0|0|0,0:0|0:0|0:0,0:0:0:0:
288,344,116529,2,0,L|245:333,2,44.25,2|0|0,0:3|0:0|0:0,0:0:0:0:
464,204,116926,5,12,1:2:0:0:
464,204,117587,1,8,3:2:0:0:
464,204,117653,1,0,3:0:0:0:
464,204,117719,1,2,3:2:0:0:
384,100,117851,2,0,P|327:89|263:127,1,126.112496632433,0|0,0:0|2:0,0:0:0:0:
248,192,118115,6,0,L|229:286,1,84.0749977549553,6|0,0:0|0:0,0:0:0:0:
373,362,118380,2,0,L|392:267,1,84.0749977549553,8|2,0:0|0:0,0:0:0:0:
331,185,118644,1,0,0:0:0:0:
231,273,118776,1,2,0:0:0:0:
180,116,118908,2,0,P|138:104|95:108,1,84.0749977549553,8|0,0:0|0:0,0:0:0:0:
24,271,119172,6,0,P|100:271|161:203,1,168.149995509911,2|8,0:0|0:0,0:0:0:0:
248,24,119569,2,0,L|265:136,1,84.0749977549553,2|0,0:0|0:0,0:0:0:0:
145,51,119833,1,2,0:0:0:0:
248,192,119965,2,0,P|290:203|331:195,1,84.0749977549553,8|0,0:0|0:0,0:0:0:0:
434,28,120230,5,2,0:0:0:0:
407,180,120362,1,0,0:0:0:0:
400,43,120494,1,8,0:0:0:0:
498,161,120626,1,2,0:0:0:0:
373,55,120758,2,0,L|274:32,1,84.0749977549553,0|2,0:0|0:0,0:0:0:0:
248,192,121023,2,0,L|347:214,1,84.0749977549553,8|0,0:0|0:0,0:0:0:0:
187,116,121287,6,0,P|104:127|51:47,1,168.149995509911,2|8,0:0|0:0,0:0:0:0:
206,24,121683,1,2,0:0:0:0:
275,112,121816,2,0,L|245:199,1,84.0749977549553,0|2,0:0|0:0,0:0:0:0:
172,328,122080,1,8,0:0:0:0:
134,214,122212,1,0,0:0:0:0:
284,320,122344,6,0,P|347:317|398:259,1,126.112496632433,2|0,0:0|2:0,0:0:0:0:
400,199,122609,2,0,L|392:104,1,84.0749977549553,8|2,0:0|0:0,0:0:0:0:
291,36,122873,1,0,0:0:0:0:
252,180,123005,1,2,0:0:0:0:
385,32,123137,2,0,P|430:28|483:59,1,84.0749977549553,8|0,0:0|0:0,0:0:0:0:
400,199,123402,6,0,P|316:222|240:154,1,168.149995509911,2|8,0:0|0:0,0:0:0:0:
214,24,123798,1,2,0:0:0:0:
153,116,123930,2,0,L|58:127,1,84.0749977549553,0|2,0:0|0:0,0:0:0:0:
41,305,124194,1,8,0:0:0:0:
132,215,124327,2,0,P|169:203|227:204,1,84.0749977549553,0|2,0:0|0:0,0:0:0:0:
342,340,124591,5,0,0:0:0:0:
342,340,124723,2,0,L|238:324,1,84.0749977549553,8|2,0:0|0:0,0:0:0:0:
316,211,124987,1,0,0:0:0:0:
316,211,125120,2,0,L|420:195,1,84.0749977549553,2|8,0:0|0:0,0:0:0:0:
416,40,125384,6,0,P|336:28|276:92,1,168.149995509911,6|2,0:0|0:0,0:0:0:0:
224,255,125780,2,0,L|208:159,1,84.0749977549553,8|0,0:0|0:0,0:0:0:0:
72,20,126045,1,4,1:3:0:0:
120,212,126177,1,8,0:0:0:0:
180,64,126309,1,2,0:0:0:0:
24,152,126441,1,0,1:0:0:0:
160,288,126573,6,0,L|293:288,1,132.750005064011,6|2,0:0|0:0,0:0:0:0:
160,76,127102,1,8,0:0:0:0:
302,172,127366,2,0,P|352:180|432:128,1,132.750005064011,0|0,0:0|0:0,0:0:0:0:
244,8,127895,1,2,0:0:0:0:
152,164,128159,2,0,P|119:179|80:192,1,66.3750025320054,8|0,0:0|0:0,0:0:0:0:
8,252,128424,2,0,P|38:271|64:292,1,66.3750025320054,0|0,0:0|0:0,0:0:0:0:
144,376,128688,6,0,P|195:326|183:250,1,132.750005064011,2|2,0:0|0:0,0:0:0:0:
112,76,129217,1,8,0:0:0:0:
8,252,129481,1,0,0:0:0:0:
152,164,129745,2,0,L|224:156,1,66.3750025320054,0|0,0:0|0:0,0:0:0:0:
316,148,130009,1,2,0:0:0:0:
400,344,130274,2,0,P|328:348|284:296,1,132.750005064011,8|0,0:0|0:0,0:0:0:0:
492,196,130802,6,0,L|486:344,1,132.750005064011,2|2,0:0|0:0,0:0:0:0:
316,148,131331,2,0,L|322:0,1,132.750005064011,8|0,0:0|0:0,0:0:0:0:
492,104,131860,1,2,0:0:0:0:
364,228,132124,1,2,0:0:0:0:
322,15,132388,1,8,0:0:0:0:
176,132,132653,1,0,0:0:0:0:
264,304,132917,6,0,P|332:308|396:312,1,132.750005064011,2|2,0:0|0:0,0:0:0:0:
268,100,133446,1,8,0:0:0:0:
184,232,133710,2,0,L|173:315,1,66.3750025320054,0|0,0:0|0:0,0:0:0:0:
92,364,133974,6,0,P|44:316|56:252,1,132.750005064011,2|2,0:0|0:0,0:0:0:0:
52,256,134503,1,8,0:0:0:0:
136,164,134635,1,2,0:0:0:0:
16,132,134767,1,8,0:0:0:0:
175,297,134899,6,0,P|240:308|312:232,1,177,6|2,0:0|0:0,0:0:0:0:
216,84,135296,1,8,0:0:0:0:
221,216,135428,1,0,0:0:0:0:
328,88,135560,2,0,L|432:72,1,88.5,2|2,0:0|0:0,0:0:0:0:
484,248,135824,2,0,P|434:242|400:212,1,88.5,8|0,0:0|0:0,0:0:0:0:
512,28,136089,6,0,L|496:156,1,88.5,2|2,0:0|0:0,0:0:0:0:
328,88,136353,1,8,0:0:0:0:
342,198,136485,2,0,L|356:316,1,88.5,0|2,0:0|0:0,0:0:0:0:
484,248,136750,1,2,0:0:0:0:
384,380,136882,1,8,0:0:0:0:
264,216,137014,6,0,P|178:210|125:277,1,177,6|2,0:0|0:0,0:0:0:0:
343,373,137410,2,0,L|354:269,1,88.5,8|0,0:0|0:0,0:0:0:0:
400,140,137675,1,2,0:0:0:0:
500,232,137807,1,2,0:0:0:0:
460,54,137939,2,0,P|401:34|342:53,1,88.5,8|0,0:0|0:0,0:0:0:0:
264,216,138203,6,0,L|252:120,1,88.5,6|0,0:0|0:0,0:0:0:0:
416,224,138468,1,8,0:0:0:0:
348,308,138600,2,0,P|305:324|244:324,1,88.5,0|2,0:0|0:0,0:0:0:0:
164,204,138864,1,2,0:0:0:0:
106,360,138996,1,8,0:0:0:0:
264,216,139128,6,0,P|248:147|144:104,1,177,6|0,0:0|0:0,0:0:0:0:
112,272,139525,2,0,L|106:366,1,88.5,2|0,0:0|0:0,0:0:0:0:
262,326,139789,1,8,0:0:0:0:
164,204,139921,1,0,1:0:0:0:
20,297,140054,1,8,0:0:0:0:
133,184,140186,1,2,0:0:0:0:
264,216,140318,6,0,L|350:199,1,88.5,0|0,0:0|0:0,0:0:0:0:
164,20,140582,2,0,P|116:32|72:64,1,88.5,6|0,0:0|0:0,0:0:0:0:
164,204,140846,1,8,0:0:0:0:
244,88,140979,1,0,0:0:0:0:
56,184,141111,1,8,0:0:0:0:
172,308,141243,1,2,0:0:0:0:
316,128,141375,6,0,L|402:111,1,88.5,12|0,0:0|0:0,0:0:0:0:
264,328,141639,2,0,L|350:311,1,88.5,8|0,0:0|0:0,0:0:0:0:
120,128,141904,5,8,0:0:0:0:
308,220,142036,1,2,0:0:0:0:
180,36,142168,5,8,0:0:0:0:
104,232,142300,1,2,0:0:0:0:
316,128,142432,6,0,L|402:145,1,88.5,8|0,0:0|0:0,0:0:0:0:
440,348,142697,1,4,1:3:0:0:
504,180,142829,1,0,3:0:0:0:
504,180,142895,1,0,3:0:0:0:
504,180,142961,5,2,3:2:0:0:
352,312,143093,1,0,1:0:0:0:
232,144,143225,1,8,0:0:0:0:
400,232,143357,1,0,1:0:0:0:
204,340,143490,6,0,L|79:340,1,97.3500029708863,6|0,0:0|0:0,0:0:0:0:
232,144,143754,2,0,L|356:144,1,97.3500029708863,8|0,0:0|0:0,0:0:0:0:
488,274,144018,1,2,0:0:0:0:
308,232,144150,1,2,0:0:0:0:
472,100,144283,1,8,0:0:0:0:
400,232,144415,6,0,P|392:290|417:339,1,97.3500029708863,0|2,0:0|0:0,0:0:0:0:
472,100,144679,2,0,L|368:76,1,97.3500029708863,0|8,0:0|0:0,0:0:0:0:
308,232,144943,1,0,0:0:0:0:
480,188,145076,1,2,0:0:0:0:
377,78,145208,1,2,0:0:0:0:
224,216,145340,2,0,P|171:211|139:179,1,97.3500029708863,8|0,0:0|0:0,0:0:0:0:
272,8,145604,6,0,L|296:120,1,97.3500029708863,2|0,0:0|0:0,0:0:0:0:
408,276,145868,2,0,L|384:164,1,97.3500029708863,8|0,0:0|0:0,0:0:0:0:
208,136,146133,1,2,0:0:0:0:
312,280,146265,1,2,0:0:0:0:
377,78,146397,1,8,0:0:0:0:
220,272,146529,6,0,P|137:272|66:174,1,194.700005941773,6|2,0:0|0:0,0:0:0:0:
292,103,146926,2,0,P|340:102|400:120,1,97.3500029708863,8|0,0:0|0:0,0:0:0:0:
312,280,147190,1,2,0:0:0:0:
208,136,147322,1,2,0:0:0:0:
388,216,147454,2,0,L|408:328,1,97.3500029708863,8|0,0:0|0:0,0:0:0:0:
472,112,147719,6,0,P|478:64|462:18,1,97.3500029708863,6|0,0:0|0:0,0:0:0:0:
302,186,147983,2,0,P|296:234|312:280,1,97.3500029708863,8|0,0:0|0:0,0:0:0:0:
476,364,148247,1,2,0:0:0:0:
388,216,148380,1,2,0:0:0:0:
276,368,148512,2,0,B|210:363|210:363|176:336,1,97.3500029708863,8|0,0:0|0:0,0:0:0:0:
319,157,148776,6,0,P|410:128|474:191,1,194.700005941773,2|8,0:0|0:0,0:0:0:0:
212,236,149172,2,0,P|209:128|236:44,1,194.700005941773,0|2,0:0|0:0,0:0:0:0:
388,216,149569,1,8,0:0:0:0:
264,312,149701,1,0,0:0:0:0:
180,144,149833,2,0,L|72:128,1,97.3500029708863,2|0,0:0|0:0,0:0:0:0:
177,356,150098,6,0,B|179:143,1,212.399993518067,12|2,0:0|0:0,0:0:0:0:
392,20,150494,1,2,0:0:0:0:
388,216,150626,1,8,0:0:0:0:
235,45,150758,6,0,P|107:59|72:155,1,212.399993518067,6|2,0:0|0:0,0:0:0:0:
304,296,151155,1,8,0:0:0:0:
88,236,151287,1,8,0:0:0:0:
272,128,151419,1,2,1:2:0:0:
212,312,151551,1,2,1:2:0:0:
388,216,151683,1,8,0:0:0:0:
178,143,151816,1,8,1:2:0:0:
104,344,151948,6,0,P|59:363|11:367,1,97.3500029708863,6|0,0:0|0:0,0:0:0:0:
82,160,152212,2,0,L|191:140,1,97.3500029708863,8|0,0:0|0:0,0:0:0:0:
304,296,152476,1,2,0:0:0:0:
144,248,152609,1,2,0:0:0:0:
312,116,152741,1,8,0:0:0:0:
380,272,152873,6,0,L|382:384,1,97.3500029708863,0|2,0:0|0:0,0:0:0:0:
416,140,153137,2,0,L|414:28,1,97.3500029708863,0|8,0:0|0:0,0:0:0:0:
256,192,153402,1,0,0:0:0:0:
288,24,153534,1,2,0:0:0:0:
416,140,153666,1,2,0:0:0:0:
212,72,153798,2,0,P|160:76|112:100,1,97.3500029708863,8|0,0:0|0:0,0:0:0:0:
148,324,154062,6,0,L|180:224,1,97.3500029708863,2|0,0:0|0:0,0:0:0:0:
381,369,154327,2,0,P|324:363|281:329,1,97.3500029708863,8|0,0:0|0:0,0:0:0:0:
228,160,154591,1,2,0:0:0:0:
148,324,154723,1,2,0:0:0:0:
60,144,154855,1,8,0:0:0:0:
276,248,154987,6,0,P|348:172|320:92,1,194.700005941773,6|2,0:0|0:0,0:0:0:0:
128,228,155384,2,0,L|148:328,1,97.3500029708863,8|0,0:0|0:0,0:0:0:0:
228,160,155648,1,2,0:0:0:0:
60,144,155780,1,2,0:0:0:0:
147,323,155913,2,0,P|196:328|244:308,1,97.3500029708863,8|0,0:0|0:0,0:0:0:0:
156,52,156177,6,0,L|144:164,1,97.3500029708863,6|0,0:0|0:0,0:0:0:0:
68,352,156441,2,0,P|52:304|68:260,1,97.3500029708863,8|0,0:0|0:0,0:0:0:0:
228,160,156705,1,2,0:0:0:0:
64,104,156838,1,2,0:0:0:0:
168,260,156970,6,0,B|236:268|236:268|296:244|296:244|368:252,1,194.700005941773,8|2,0:0|0:0,0:0:0:0:
448,348,157366,1,0,0:0:0:0:
408,180,157498,2,0,L|300:167,1,97.3500029708863,8|0,0:0|0:0,0:0:0:0:
168,260,157763,1,2,0:0:0:0:
240,108,157895,1,2,0:0:0:0:
357,250,158027,2,0,P|353:296|340:348,1,97.3500029708863,8|0,0:0|0:0,0:0:0:0:
112,172,158291,6,0,L|208:183,1,97.3500029708863,6|0,0:0|0:0,0:0:0:0:
436,268,158556,1,8,0:0:0:0:
252,312,158688,1,2,0:0:0:0:
408,180,158820,5,8,0:0:0:0:
208,183,158952,1,2,0:0:0:0:
380,92,159084,5,8,0:0:0:0:
188,48,159217,1,2,0:0:0:0:
336,248,159349,6,0,L|348:344,1,97.3500029708863,8|2,0:0|0:0,0:0:0:0:
484,200,159613,1,8,0:0:0:0:
292,88,159745,1,6,0:0:0:0:
456,296,159877,5,0,1:0:0:0:
488,76,160009,1,2,1:2:0:0:
292,176,160142,1,8,1:2:0:0:
444,324,160274,1,8,1:2:0:0:
388,100,160406,6,0,L|292:88,1,97.3500029708863,6|0,0:0|0:0,0:0:0:0:
248,288,160670,1,8,0:0:0:0:
188,132,160802,2,0,P|104:112|28:188,1,194.700005941773,2|2,0:0|0:0,0:0:0:0:
184,356,161199,1,8,0:0:0:0:
125,211,161331,1,0,0:0:0:0:
272,368,161463,6,0,L|380:350,1,97.3500029708863,2|0,0:0|0:0,0:0:0:0:
368,176,161728,1,8,0:0:0:0:
200,268,161860,2,0,P|128:220|176:100,1,194.700005941773,2|2,0:0|0:0,0:0:0:0:
336,48,162256,1,8,0:0:0:0:
276,208,162388,1,0,0:0:0:0:
184,52,162520,6,0,L|72:36,1,97.3500029708863,2|0,0:0|0:0,0:0:0:0:
68,224,162785,1,8,0:0:0:0:
228,136,162917,2,0,P|338:148|358:231,1,194.700005941773,2|2,0:0|0:0,0:0:0:0:
220,363,163313,2,0,P|210:312|197:255,1,97.3500029708863,8|0,0:0|0:0,0:0:0:0:
20,144,163578,5,2,0:0:0:0:
160,192,163710,1,0,0:0:0:0:
28,300,163842,1,8,0:0:0:0:
108,108,163974,2,0,B|180:60|244:80|244:80|280:124,1,194.700005941773,2|2,0:0|0:0,0:0:0:0:
320,312,164371,1,8,0:0:0:0:
160,192,164503,1,8,0:0:0:0:
340,216,164635,6,0,L|440:184,1,97.3500029708863,2|0,0:0|0:0,0:0:0:0:
396,8,164899,1,8,0:0:0:0:
276,119,165031,2,0,B|248:179|248:179|252:235|252:235|220:307,1,194.700005941773,2|2,0:0|0:0,0:0:0:0:
64,224,165428,1,8,0:0:0:0:
96,384,165560,1,0,0:0:0:0:
160,196,165692,6,0,L|168:92,1,97.3500029708863,2|0,0:0|0:0,0:0:0:0:
340,216,165957,1,8,0:0:0:0:
222,301,166089,2,0,B|172:324|172:324|12:296,1,194.700005941773,2|2,0:0|0:0,0:0:0:0:
28,96,166485,1,8,0:0:0:0:
160,196,166617,1,0,0:0:0:0:
232,32,166750,6,0,L|328:12,1,97.3500029708863,2|0,0:0|0:0,0:0:0:0:
424,180,167014,1,8,0:0:0:0:
260,120,167146,2,0,B|200:104|200:104|124:132|124:132|56:116,1,194.700005941773,2|2,0:0|0:0,0:0:0:0:
222,301,167543,2,0,P|232:244|232:192,1,97.3500029708863,8|0,0:0|0:0,0:0:0:0:
112,40,167807,5,2,0:0:0:0:
144,220,167939,1,0,0:0:0:0:
0,88,168071,1,8,0:0:0:0:
184,136,168203,2,0,P|252:132|296:20,1,194.700005941773,2|2,0:0|0:0,0:0:0:0:
68,148,168600,2,0,L|56:262,1,97.3500029708863,8|8,0:0|0:0,0:0:0:0:
256,284,168864,5,6,0:0:0:0:
184,136,168996,1,0,0:0:0:0:
104,324,169128,2,0,L|-4:316,1,97.3500029708863,10|0,0:0|0:0,0:0:0:0:
220,208,169393,2,0,L|328:216,1,97.3500029708863,2|0,0:0|0:0,0:0:0:0:
440,52,169657,1,10,0:0:0:0:
260,120,169789,6,0,B|207:142|148:127|185:105|126:90|73:112,1,194.700005941773,6|0,0:0|0:0,0:0:0:0:
100,324,170186,1,10,0:0:0:0:
24,176,170318,1,0,0:0:0:0:
180,264,170450,2,0,L|196:360,1,97.3500029708863,2|0,0:0|0:0,0:0:0:0:
364,256,170714,2,0,L|348:160,1,97.3500029708863,10|0,0:0|0:0,0:0:0:0:
180,24,170979,5,6,0:0:0:0:
180,176,171111,1,0,0:0:0:0:
316,31,171243,2,0,P|359:11|407:14,1,97.3500029708863,10|0,0:0|0:0,0:0:0:0:
347,159,171507,2,0,P|298:162|255:141,1,97.3500029708863,2|0,0:0|0:0,0:0:0:0:
452,104,171772,1,10,0:0:0:0:
371,248,171904,6,0,B|311:260|311:260|239:252|239:252|159:268,1,194.700005941773,6|0,0:0|0:0,0:0:0:0:
0,320,172300,1,10,0:0:0:0:
156,364,172432,1,0,0:0:0:0:
120,188,172565,2,0,P|72:160|16:164,1,97.3500029708863,2|0,0:0|0:0,0:0:0:0:
179,263,172829,1,10,0:0:0:0:
228,104,172961,1,0,0:0:0:0:
371,248,173093,6,0,L|388:344,1,97.3500029708863,6|0,0:0|0:0,0:0:0:0:
312,152,173357,2,0,P|346:129|416:120,1,97.3500029708863,10|0,0:0|0:0,0:0:0:0:
464,296,173622,1,2,0:0:0:0:
292,232,173754,1,0,0:0:0:0:
480,148,173886,1,10,0:0:0:0:
387,343,174018,6,0,P|285:353|216:284,1,194.700005941773,6|0,0:0|0:0,0:0:0:0:
240,72,174415,1,10,0:0:0:0:
292,232,174547,1,0,0:0:0:0:
400,80,174679,2,0,L|512:64,1,97.3500029708863,2|0,0:0|0:0,0:0:0:0:
383,251,174943,2,0,P|327:251|287:227,1,97.3500029708863,10|0,0:0|0:0,0:0:0:0:
324,24,175208,5,6,0:0:0:0:
412,168,175340,1,0,0:0:0:0:
208,176,175472,1,10,0:0:0:0:
344,104,175604,1,0,0:0:0:0:
240,284,175736,5,2,0:0:0:0:
140,144,175868,1,0,0:0:0:0:
292,44,176001,1,10,0:0:0:0:
224,196,176133,1,0,0:0:0:0:
124,60,176265,6,0,L|24:48,1,97.3500029708863,2|0,0:0|0:0,0:0:0:0:
60,248,176529,2,0,L|156:259,1,97.3500029708863,10|0,0:0|0:0,0:0:0:0:
328,184,176794,5,2,0:0:0:0:
212,324,176926,1,0,0:0:0:0:
140,144,177058,1,10,0:0:0:0:
260,244,177190,1,0,0:0:0:0:
324,64,177322,5,14,0:0:0:0:
348,272,177454,1,0,0:0:0:0:
344,76,177587,1,10,0:0:0:0:
464,300,177719,1,0,1:0:0:0:
248,160,177851,5,10,0:0:0:0:
248,160,178115,2,0,L|328:168,1,66.3750025320054,14|0,0:0|0:0,0:0:0:0:
260,244,178380,6,0,P|196:268|124:192,1,177,0|0,0:0|0:0,0:0:0:0:
256,40,179437,1,4,0:0:0:0:
208,332,186573,6,0,L|155:323,1,53.0999983795166,2|8,0:0|0:0,0:0:0:0:
120,160,186970,2,0,P|103:136|96:112,2,53.0999983795166,8|0|2,0:0|0:0|0:0,0:0:0:0:
200,208,187366,1,0,1:0:0:0:
200,208,187498,1,8,0:0:0:0:
272,144,187631,2,0,L|336:128,1,53.0999983795166,8|2,0:3|0:0,0:0:0:0:
414,242,187895,6,0,P|407:309|402:378,1,132.750005064011,6|0,0:0|0:0,0:0:0:0:
308,352,188291,2,0,P|240:360|188:316,1,132.750005064011,8|0,0:0|0:0,0:0:0:0:
200,208,188688,1,0,0:0:0:0:
200,208,189084,1,0,0:0:0:0:
200,208,189217,2,0,L|64:184,1,132.750005064011,2|8,0:0|0:0,0:0:0:0:
184,64,189613,1,2,0:0:0:0:
184,64,190009,6,0,L|320:84,1,132.750005064011,2|2,0:0|0:0,0:0:0:0:
372,224,190406,2,0,P|308:219|268:163,1,132.750005064011,8|0,0:0|0:0,0:0:0:0:
468,188,190802,2,0,P|460:252|432:316,1,132.750005064011,2|0,0:0|0:0,0:0:0:0:
352,376,191199,2,0,L|272:368,1,66.3750025320054,0|2,0:0|0:0,0:0:0:0:
200,224,191595,1,8,0:0:0:0:
84,308,191860,2,0,L|48:324,3,33.1875012660027
104,280,192124,6,0,B|88:128,1,132.750005064011,2|2,0:0|0:0,0:0:0:0:
200,224,192520,2,0,B|184:68,1,132.750005064011,8|0,0:0|0:0,0:0:0:0:
116,20,192917,1,2,0:0:0:0:
288,136,193181,1,2,0:0:0:0:
288,136,193313,2,0,P|352:144|408:80,1,132.750005064011,8|0,0:0|0:0,0:0:0:0:
444,8,193710,1,2,0:0:0:0:
488,176,193974,6,0,L|472:240,1,66.3750025320054,8|0,0:0|0:0,0:0:0:0:
408,316,194239,2,0,P|340:328|284:268,1,132.750005064011,2|2,0:0|0:0,0:0:0:0:
236,208,194635,2,0,P|183:169|121:183,1,132.750005064011,8|0,0:0|0:0,0:0:0:0:
60,264,195031,1,2,0:0:0:0:
168,60,195296,5,12,0:0:0:0:
352,144,195560,1,2,0:0:0:0:
204,296,195824,1,12,0:0:0:0:
204,296,196882,6,0,L|168:248,5,44.2500016880036,0|0|0|0|0|0,3:0|3:0|3:0|3:0|3:0|3:0,0:0:0:0:
228,324,197410,6,0,L|332:332,1,97.3500029708863,6|0,0:0|0:0,0:0:0:0:
220,156,197675,2,0,L|116:148,1,97.3500029708863,8|0,0:0|0:0,0:0:0:0:
108,304,197939,1,2,0:0:0:0:
264,236,198071,1,2,0:0:0:0:
176,68,198203,1,8,0:0:0:0:
96,224,198335,6,0,P|48:228|0:200,1,97.3500029708863,0|2,0:0|0:0,0:0:0:0:
176,68,198600,2,0,L|196:184,1,97.3500029708863,0|8,0:0|0:0,0:0:0:0:
108,304,198864,1,0,0:0:0:0:
64,144,198996,1,2,0:0:0:0:
108,304,199128,1,2,0:0:0:0:
268,200,199261,2,0,P|284:248|272:304,1,97.3500029708863,8|0,0:0|0:0,0:0:0:0:
136,100,199525,6,0,L|248:84,1,97.3500029708863,2|0,0:0|0:0,0:0:0:0:
357,227,199789,2,0,P|305:223|259:190,1,97.3500029708863,8|0,0:0|0:0,0:0:0:0:
404,48,200054,1,2,0:0:0:0:
267,199,200186,1,2,0:0:0:0:
232,12,200318,1,8,0:0:0:0:
420,168,200450,6,0,B|428:232|428:232|464:284|464:284|476:356,1,194.700005941773,6|2,0:0|0:0,0:0:0:0:
220,316,200846,2,0,P|268:288|316:284,1,97.3500029708863,8|0,0:0|0:0,0:0:0:0:
475,350,201111,1,2,0:0:0:0:
512,192,201243,1,2,0:0:0:0:
384,352,201375,2,0,L|280:372,1,97.3500029708863,8|0,0:0|0:0,0:0:0:0:
216,128,201639,6,0,P|254:167|260:240,1,97.3500029708863,6|0,0:0|0:0,0:0:0:0:
116,376,201904,2,0,L|141:276,1,97.3500029708863,8|0,0:0|0:0,0:0:0:0:
88,96,202168,1,2,0:0:0:0:
56,276,202300,1,2,0:0:0:0:
216,128,202432,2,0,L|320:116,1,97.3500029708863,8|0,0:0|0:0,0:0:0:0:
384,352,202697,6,0,B|324:336|324:336|276:288|276:288|208:268,1,194.700005941773,2|8,0:0|0:0,0:0:0:0:
142,34,203093,2,0,B|202:50|202:50|250:98|250:98|318:118,1,194.700005941773,0|2,0:0|0:0,0:0:0:0:
440,272,203490,1,8,0:0:0:0:
492,120,203622,1,0,0:0:0:0:
348,228,203754,2,0,L|300:316,1,97.3500029708863,2|0,0:0|0:0,0:0:0:0:
76,184,204018,6,0,P|136:108|252:132,1,212.399993518067,12|2,0:0|0:0,0:0:0:0:
220,352,204415,1,2,0:0:0:0:
44,288,204547,1,8,0:0:0:0:
268,232,204679,6,0,B|336:224|336:224|400:252|400:252|488:240,1,212.399993518067,6|2,0:0|0:0,0:0:0:0:
272,44,205076,1,8,0:0:0:0:
176,244,205208,1,8,0:0:0:0:
340,128,205340,1,2,1:2:0:0:
160,68,205472,1,2,1:2:0:0:
268,232,205604,1,8,0:0:0:0:
372,40,205736,1,2,1:2:0:0:
176,156,205868,6,0,L|76:148,1,97.3500029708863,6|0,0:0|0:0,0:0:0:0:
208,324,206133,2,0,L|308:332,1,97.3500029708863,8|0,0:0|0:0,0:0:0:0:
428,168,206397,1,2,0:0:0:0:
268,232,206529,1,2,0:0:0:0:
340,56,206661,1,8,0:0:0:0:
356,224,206794,6,0,P|380:272|420:304,1,97.3500029708863,0|2,0:0|0:0,0:0:0:0:
436,66,207058,2,0,L|332:55,1,97.3500029708863,0|8,0:0|0:0,0:0:0:0:
200,160,207322,1,0,0:0:0:0:
356,224,207454,1,2,0:0:0:0:
248,80,207587,1,2,0:0:0:0:
204,272,207719,2,0,L|180:380,1,97.3500029708863,8|0,0:0|0:0,0:0:0:0:
20,248,207983,6,0,P|68:244|132:212,1,97.3500029708863,2|0,0:0|0:0,0:0:0:0:
248,80,208247,2,0,L|136:56,1,97.3500029708863,8|0,0:0|0:0,0:0:0:0:
268,208,208512,1,2,0:0:0:0:
348,36,208644,1,2,0:0:0:0:
172,152,208776,1,8,0:0:0:0:
368,267,208908,6,0,P|440:207|420:95,1,194.700005941773,6|2,0:0|0:0,0:0:0:0:
241,12,209305,2,0,L|252:109,1,97.3500029708863,8|0,0:0|0:0,0:0:0:0:
168,284,209569,1,2,0:0:0:0:
96,112,209701,1,2,0:0:0:0:
268,207,209833,2,0,P|312:189|342:151,1,97.3500029708863,8|0,0:0|0:0,0:0:0:0:
448,336,210098,6,0,L|338:326,1,97.3500029708863,6|0,0:0|0:0,0:0:0:0:
433,113,210362,2,0,P|440:162|423:209,1,97.3500029708863,8|0,0:0|0:0,0:0:0:0:
260,296,210626,1,2,0:0:0:0:
342,150,210758,1,2,0:0:0:0:
180,248,210891,6,0,P|100:260|16:180,1,194.700005941773,8|2,0:0|0:0,0:0:0:0:
40,48,211287,1,0,0:0:0:0:
196,100,211419,2,0,L|292:72,1,97.3500029708863,8|0,0:0|0:0,0:0:0:0:
424,206,211683,1,2,0:0:0:0:
260,188,211816,1,2,0:0:0:0:
428,104,211948,2,0,P|448:56|452:8,1,97.3500029708863,8|0,0:0|0:0,0:0:0:0:
260,188,212212,6,0,L|272:296,1,97.3500029708863,6|0,0:0|0:0,0:0:0:0:
472,308,212476,1,8,0:0:0:0:
352,160,212609,1,2,0:0:0:0:
164,248,212741,5,8,0:0:0:0:
280,88,212873,1,2,0:0:0:0:
492,160,213005,5,8,0:0:0:0:
348,16,213137,1,2,0:0:0:0:
260,188,213269,6,0,L|156:164,1,97.3500029708863,8|2,0:0|0:0,0:0:0:0:
256,8,213534,1,8,0:0:0:0:
56,64,213666,1,6,0:0:0:0:
164,248,213798,5,0,1:0:0:0:
136,48,213930,1,8,1:2:0:0:
8,216,214062,1,2,1:2:0:0:
196,332,214194,1,8,1:2:0:0:
71,151,214327,6,0,L|55:63,1,88.5,6|0,0:0|0:0,0:0:0:0:
244,100,214591,2,0,L|260:188,1,88.5,8|0,0:0|0:0,0:0:0:0:
116,324,214855,1,2,0:0:0:0:
165,166,214987,1,2,0:0:0:0:
296,288,215120,1,8,0:0:0:0:
164,248,215252,1,0,0:0:0:0:
288,372,215384,6,0,L|372:340,1,88.5,2|0,0:0|0:0,0:0:0:0:
420,160,215648,2,0,P|368:172|320:224,1,88.5,8|0,0:0|0:0,0:0:0:0:
460,336,215913,1,2,0:0:0:0:
512,168,216045,1,2,0:0:0:0:
348,264,216177,1,8,0:0:0:0:
476,316,216309,1,0,0:0:0:0:
340,192,216441,6,0,L|240:168,1,88.5,2|0,0:0|0:0,0:0:0:0:
120,312,216705,1,8,0:0:0:0:
88,160,216838,1,0,0:0:0:0:
248,260,216970,1,2,0:0:0:0:
156,92,217102,1,2,0:0:0:0:
82,237,217234,2,0,P|30:237|-14:201,1,88.5,8|0,0:0|0:0,0:0:0:0:
156,92,217498,6,0,L|264:79,1,88.5,2|0,0:0|0:0,0:0:0:0:
335,249,217763,2,0,L|227:262,1,88.5,8|0,0:0|0:0,0:0:0:0:
344,84,218027,1,2,0:0:0:0:
432,228,218159,1,2,0:0:0:0:
272,160,218291,1,8,0:0:0:0:
432,88,218424,1,0,0:0:0:0:
335,249,218556,6,0,L|336:344,1,88.5,2|0,0:0|0:0,0:0:0:0:
496,280,218820,1,8,0:0:0:0:
360,160,218952,1,0,0:0:0:0:
335,337,219084,1,2,0:0:0:0:
448,178,219217,1,2,0:0:0:0:
335,337,219349,2,0,P|287:345|244:336,1,88.5,8|0,0:0|0:0,0:0:0:0:
276,130,219613,6,0,L|360:160,1,88.5,2|0,0:0|0:0,0:0:0:0:
148,226,219877,2,0,P|105:227|63:212,1,88.5,8|0,0:0|0:0,0:0:0:0:
151,12,220142,1,2,0:0:0:0:
315,52,220274,1,2,0:0:0:0:
242,194,220406,2,0,L|254:290,1,88.5,8|0,0:0|0:0,0:0:0:0:
91,383,220670,6,0,P|65:348|58:305,1,88.5,2|0,0:0|0:0,0:0:0:0:
320,368,220935,2,0,L|226:358,1,88.5,8|0,0:0|0:0,0:0:0:0:
242,194,221199,1,2,0:0:0:0:
388,292,221331,1,2,0:0:0:0:
364,104,221463,1,8,0:0:0:0:
252,281,221595,6,0,P|157:289|92:208,1,177,4|0,0:0|1:0,0:0:0:0:
240,48,221992,1,8,0:0:0:0:
336,208,222124,1,0,3:0:0:0:
336,208,222190,1,0,3:0:0:0:
336,208,222256,1,2,3:2:0:0:
180,132,222388,1,0,1:0:0:0:
364,104,222520,1,8,0:0:0:0:
252,281,222653,1,0,1:0:0:0:
240,48,222785,6,0,P|196:32|124:40,1,97.3500029708863,6|0,0:0|0:0,0:0:0:0:
101,237,223049,2,0,P|147:234|210:199,1,97.3500029708863,8|0,0:0|0:0,0:0:0:0:
364,104,223313,1,2,0:0:0:0:
400,272,223446,1,0,0:0:0:0:
260,140,223578,1,8,0:0:0:0:
384,24,223710,1,0,0:0:0:0:
336,208,223842,6,0,L|312:308,1,97.3500029708863,2|0,0:0|0:0,0:0:0:0:
160,136,224106,2,0,L|184:36,1,97.3500029708863,8|0,0:0|0:0,0:0:0:0:
364,104,224371,1,2,0:0:0:0:
232,220,224503,1,0,0:0:0:0:
424,172,224635,1,8,0:0:0:0:
276,64,224767,1,0,0:0:0:0:
148,224,224899,6,0,L|48:208,1,97.3500029708863,2|0,0:0|0:0,0:0:0:0:
276,64,225164,2,0,L|376:48,1,97.3500029708863,8|0,0:0|0:0,0:0:0:0:
404,248,225428,1,2,0:0:0:0:
232,220,225560,1,0,0:0:0:0:
420,128,225692,1,8,0:0:0:0:
480,296,225824,1,0,0:0:0:0:
332,136,225957,6,0,P|284:125|232:140,1,97.3500029708863,2|0,0:0|0:0,0:0:0:0:
180,336,226221,2,0,P|228:327|270:293,1,97.3500029708863,8|0,0:0|0:0,0:0:0:0:
116,128,226485,5,2,0:0:0:0:
28,308,226617,1,0,0:0:0:0:
232,220,226750,5,12,0:0:0:0:
20,120,226882,1,0,0:0:0:0:
180,336,227014,6,0,L|292:336,1,97.3500029708863,6|0,0:0|0:0,0:0:0:0:
420,128,227278,1,8,0:0:0:0:
368,312,227410,1,0,0:0:0:0:
420,128,227543,1,2,0:0:0:0:
484,312,227675,1,0,0:0:0:0:
320,176,227807,1,8,0:0:0:0:
504,52,227939,1,0,0:0:0:0:
280,256,228071,6,0,L|180:256,1,97.3500029708863,2|0,0:0|0:0,0:0:0:0:
328,84,228335,1,8,0:0:0:0:
512,136,228468,1,0,0:0:0:0:
328,84,228600,1,2,0:0:0:0:
468,220,228732,1,0,0:0:0:0:
424,12,228864,1,8,0:0:0:0:
280,168,228996,1,0,0:0:0:0:
140,44,229128,6,0,B|44:56|44:56|16:104,1,146.025004456329,6|0,0:0|2:0,0:0:0:0:
40,232,229393,2,0,P|108:228|108:156,1,146.025004456329,8|0,0:0|2:0,0:0:0:0:
220,108,229657,2,0,B|388:64,1,146.025004456329,0|0,1:0|2:0,0:0:0:0:
436,184,229921,1,8,0:0:0:0:
288,364,230054,6,0,P|208:288|240:184,1,212.399993518067,4|0,0:0|0:0,0:0:0:0:
448,88,230450,1,8,0:0:0:0:
372,304,230582,1,8,0:0:0:0:
220,108,230714,1,2,1:2:0:0:
448,216,230846,1,8,0:2:0:0:
212,296,230979,1,8,0:0:0:0:
312,60,231111,1,0,1:0:0:0:
472,312,231243,5,12,0:0:0:0:
