osu file format v14

[General]
AudioFilename: audio 1.050x (pitch raised).mp3
AudioLeadIn: 0
PreviewTime: 0
Countdown: 0
SampleSet: None
StackLeniency: 0.7
Mode: 3
LetterboxInBreaks: 0
SpecialStyle: 0
WidescreenStoryboard: 0

[Editor]
DistanceSpacing: 0.8
BeatDivisor: 4
GridSize: 32
TimelineZoom: 2.1

[Metadata]
Title:Sendan Life (katagiri Bootleg)
TitleUnicode:Sendan Life (katagiri Bootleg)
Artist:Remo Prototype
ArtistUnicode:Remo Prototype
Creator:eIviss
Version:stream 1.05x
Source:
Tags:
BeatmapID:3068479
BeatmapSetID:1496945

[Difficulty]
HPDrainRate:8
CircleSize:4
OverallDifficulty:8
ApproachRate:9
SliderMultiplier:1.4
SliderTickRate:1

[Events]
//Background and Video events
0,0,"SENDAN.png",0,0
//Break Periods
//Storyboard Layer 0 (Background)
//Storyboard Layer 1 (Fail)
//Storyboard Layer 2 (Pass)
//Storyboard Layer 3 (Foreground)
//Storyboard Layer 4 (Overlay)
//Storyboard Sound Samples

[TimingPoints]
3699,219.78021978022,4,3,0,100,1,0

[HitObjects]
192,192,3698,5,0,0:0:0:0:
320,192,3698,1,0,0:0:0:0:
448,192,3698,1,0,0:0:0:0:
64,192,3918,1,0,0:0:0:0:
192,192,3918,1,0,0:0:0:0:
320,192,3918,1,0,0:0:0:0:
64,192,4138,1,0,0:0:0:0:
192,192,4138,1,0,0:0:0:0:
320,192,4138,1,0,0:0:0:0:
64,192,4247,1,0,0:0:0:0:
320,192,4247,1,0,0:0:0:0:
448,192,4247,1,0,0:0:0:0:
320,192,4467,1,0,0:0:0:0:
448,192,4467,1,0,0:0:0:0:
192,192,4467,1,0,0:0:0:0:
192,192,4687,1,0,0:0:0:0:
448,192,4687,1,0,0:0:0:0:
320,192,4687,1,0,0:0:0:0:
64,192,4907,1,0,0:0:0:0:
192,192,4907,1,0,0:0:0:0:
320,192,4907,1,0,0:0:0:0:
192,192,5017,1,0,0:0:0:0:
320,192,5017,1,0,0:0:0:0:
192,192,5126,1,0,0:0:0:0:
320,192,5126,1,0,0:0:0:0:
448,192,5126,1,0,0:0:0:0:
64,192,5237,128,0,5457:0:0:0:0:
192,192,5237,128,0,5457:0:0:0:0:
320,192,5457,1,0,0:0:0:0:
448,192,5457,1,0,0:0:0:0:
64,192,5676,1,0,0:0:0:0:
192,192,5676,1,0,0:0:0:0:
320,192,5676,1,0,0:0:0:0:
64,192,5896,1,0,0:0:0:0:
192,192,5896,1,0,0:0:0:0:
320,192,5896,1,0,0:0:0:0:
64,192,6006,1,0,0:0:0:0:
320,192,6006,1,0,0:0:0:0:
448,192,6006,1,0,0:0:0:0:
320,192,6225,1,0,0:0:0:0:
448,192,6225,1,0,0:0:0:0:
192,192,6225,1,0,0:0:0:0:
192,192,6445,1,0,0:0:0:0:
448,192,6445,1,0,0:0:0:0:
320,192,6445,1,0,0:0:0:0:
64,192,6665,1,0,0:0:0:0:
192,192,6665,1,0,0:0:0:0:
320,192,6720,1,0,0:0:0:0:
448,192,6720,1,0,0:0:0:0:
192,192,6775,1,0,0:0:0:0:
64,192,6775,1,0,0:0:0:0:
320,192,6830,1,0,0:0:0:0:
448,192,6830,1,0,0:0:0:0:
192,192,6885,1,0,0:0:0:0:
64,192,6885,1,0,0:0:0:0:
64,192,6995,1,0,0:0:0:0:
192,192,6995,1,0,0:0:0:0:
320,192,6995,1,0,0:0:0:0:
448,192,6995,1,0,0:0:0:0:
320,192,7104,1,0,0:0:0:0:
448,192,7104,1,0,0:0:0:0:
64,192,7215,1,0,0:0:0:0:
192,192,7215,1,0,0:0:0:0:
448,192,7251,1,0,0:0:0:0:
320,192,7288,1,0,0:0:0:0:
64,192,7324,1,0,0:0:0:0:
192,192,7361,1,0,0:0:0:0:
448,192,7398,1,0,0:0:0:0:
64,192,7435,1,0,0:0:0:0:
320,192,7471,1,0,0:0:0:0:
192,192,7508,1,0,0:0:0:0:
448,192,7544,1,0,0:0:0:0:
64,192,7580,1,0,0:0:0:0:
320,192,7618,1,0,0:0:0:0:
448,192,7654,1,0,0:0:0:0:
64,192,7691,1,0,0:0:0:0:
192,192,7727,1,0,0:0:0:0:
448,192,7764,1,0,0:0:0:0:
320,192,7800,1,0,0:0:0:0:
64,192,7838,1,0,0:0:0:0:
448,192,7874,1,0,0:0:0:0:
192,192,7911,1,0,0:0:0:0:
320,192,7947,1,0,0:0:0:0:
64,192,7984,1,0,0:0:0:0:
448,192,8020,1,0,0:0:0:0:
320,192,8057,1,0,0:0:0:0:
64,192,8094,1,0,0:0:0:0:
448,192,8130,1,0,0:0:0:0:
320,192,8167,1,0,0:0:0:0:
64,192,8203,1,0,0:0:0:0:
192,192,8240,1,0,0:0:0:0:
448,192,8277,1,0,0:0:0:0:
64,192,8314,1,0,0:0:0:0:
320,192,8350,1,0,0:0:0:0:
192,192,8387,1,0,0:0:0:0:
448,192,8423,1,0,0:0:0:0:
64,192,8460,1,0,0:0:0:0:
320,192,8497,1,0,0:0:0:0:
448,192,8533,1,0,0:0:0:0:
64,192,8570,1,0,0:0:0:0:
192,192,8606,1,0,0:0:0:0:
448,192,8643,1,0,0:0:0:0:
320,192,8680,1,0,0:0:0:0:
64,192,8717,1,0,0:0:0:0:
448,192,8753,1,0,0:0:0:0:
320,192,8790,1,0,0:0:0:0:
192,192,8826,1,0,0:0:0:0:
64,192,8863,1,0,0:0:0:0:
448,192,8863,1,0,0:0:0:0:
320,192,8900,1,0,0:0:0:0:
192,192,8937,1,0,0:0:0:0:
64,192,8973,1,0,0:0:0:0:
448,192,9009,1,0,0:0:0:0:
320,192,9046,1,0,0:0:0:0:
64,192,9082,1,0,0:0:0:0:
192,192,9120,1,0,0:0:0:0:
448,192,9156,1,0,0:0:0:0:
64,192,9193,1,0,0:0:0:0:
320,192,9229,1,0,0:0:0:0:
192,192,9266,1,0,0:0:0:0:
448,192,9302,1,0,0:0:0:0:
64,192,9340,1,0,0:0:0:0:
320,192,9376,1,0,0:0:0:0:
448,192,9413,1,0,0:0:0:0:
64,192,9449,1,0,0:0:0:0:
192,192,9485,1,0,0:0:0:0:
448,192,9522,1,0,0:0:0:0:
320,192,9559,1,0,0:0:0:0:
64,192,9596,1,0,0:0:0:0:
448,192,9632,1,0,0:0:0:0:
192,192,9669,1,0,0:0:0:0:
320,192,9705,1,0,0:0:0:0:
64,192,9742,1,0,0:0:0:0:
448,192,9779,1,0,0:0:0:0:
320,192,9816,1,0,0:0:0:0:
64,192,9852,1,0,0:0:0:0:
448,192,9889,1,0,0:0:0:0:
320,192,9925,1,0,0:0:0:0:
64,192,9961,1,0,0:0:0:0:
192,192,9999,1,0,0:0:0:0:
448,192,10035,1,0,0:0:0:0:
64,192,10072,1,0,0:0:0:0:
320,192,10108,1,0,0:0:0:0:
192,192,10145,1,0,0:0:0:0:
448,192,10181,1,0,0:0:0:0:
64,192,10219,1,0,0:0:0:0:
320,192,10255,1,0,0:0:0:0:
448,192,10292,1,0,0:0:0:0:
64,192,10328,1,0,0:0:0:0:
192,192,10365,1,0,0:0:0:0:
448,192,10401,1,0,0:0:0:0:
320,192,10438,1,0,0:0:0:0:
64,192,10475,1,0,0:0:0:0:
448,192,10511,1,0,0:0:0:0:
320,192,10548,1,0,0:0:0:0:
192,192,10584,1,0,0:0:0:0:
64,192,10621,1,0,0:0:0:0:
448,192,10621,1,0,0:0:0:0:
320,192,10658,1,0,0:0:0:0:
192,192,10695,1,0,0:0:0:0:
64,192,10731,1,0,0:0:0:0:
448,192,10768,1,0,0:0:0:0:
320,192,10804,1,0,0:0:0:0:
64,192,10841,1,0,0:0:0:0:
192,192,10878,1,0,0:0:0:0:
448,192,10914,1,0,0:0:0:0:
64,192,10951,1,0,0:0:0:0:
320,192,10987,1,0,0:0:0:0:
192,192,11024,1,0,0:0:0:0:
448,192,11060,1,0,0:0:0:0:
64,192,11098,1,0,0:0:0:0:
320,192,11134,1,0,0:0:0:0:
448,192,11171,1,0,0:0:0:0:
64,192,11207,1,0,0:0:0:0:
192,192,11244,1,0,0:0:0:0:
448,192,11280,1,0,0:0:0:0:
320,192,11318,1,0,0:0:0:0:
64,192,11354,1,0,0:0:0:0:
448,192,11390,1,0,0:0:0:0:
192,192,11427,1,0,0:0:0:0:
320,192,11463,1,0,0:0:0:0:
64,192,11500,1,0,0:0:0:0:
448,192,11537,1,0,0:0:0:0:
320,192,11574,1,0,0:0:0:0:
64,192,11610,1,0,0:0:0:0:
448,192,11647,1,0,0:0:0:0:
320,192,11683,1,0,0:0:0:0:
64,192,11720,1,0,0:0:0:0:
192,192,11757,1,0,0:0:0:0:
448,192,11794,1,0,0:0:0:0:
64,192,11830,1,0,0:0:0:0:
320,192,11866,1,0,0:0:0:0:
192,192,11903,1,0,0:0:0:0:
448,192,11940,1,0,0:0:0:0:
64,192,11977,1,0,0:0:0:0:
320,192,12013,1,0,0:0:0:0:
448,192,12050,1,0,0:0:0:0:
64,192,12086,1,0,0:0:0:0:
192,192,12123,1,0,0:0:0:0:
448,192,12160,1,0,0:0:0:0:
320,192,12197,1,0,0:0:0:0:
64,192,12233,1,0,0:0:0:0:
448,192,12270,1,0,0:0:0:0:
320,192,12306,1,0,0:0:0:0:
192,192,12342,1,0,0:0:0:0:
64,192,12380,1,0,0:0:0:0:
448,192,12380,1,0,0:0:0:0:
320,192,12416,1,0,0:0:0:0:
192,192,12453,1,0,0:0:0:0:
64,192,12489,1,0,0:0:0:0:
448,192,12526,1,0,0:0:0:0:
320,192,12562,1,0,0:0:0:0:
64,192,12600,1,0,0:0:0:0:
192,192,12636,1,0,0:0:0:0:
448,192,12673,1,0,0:0:0:0:
64,192,12709,1,0,0:0:0:0:
320,192,12746,1,0,0:0:0:0:
192,192,12782,1,0,0:0:0:0:
448,192,12819,1,0,0:0:0:0:
64,192,12856,1,0,0:0:0:0:
320,192,12892,1,0,0:0:0:0:
448,192,12929,1,0,0:0:0:0:
64,192,12965,1,0,0:0:0:0:
192,192,13002,1,0,0:0:0:0:
448,192,13039,1,0,0:0:0:0:
320,192,13076,1,0,0:0:0:0:
64,192,13112,1,0,0:0:0:0:
448,192,13149,1,0,0:0:0:0:
320,192,13185,1,0,0:0:0:0:
192,192,13222,1,0,0:0:0:0:
64,192,13259,1,0,0:0:0:0:
320,192,13295,1,0,0:0:0:0:
192,192,13332,1,0,0:0:0:0:
448,192,13368,1,0,0:0:0:0:
320,192,13405,1,0,0:0:0:0:
192,192,13479,1,0,0:0:0:0:
64,192,13479,1,0,0:0:0:0:
320,192,13533,1,0,0:0:0:0:
448,192,13533,1,0,0:0:0:0:
192,192,13588,1,0,0:0:0:0:
64,192,13588,1,0,0:0:0:0:
64,192,13699,1,0,0:0:0:0:
192,192,13699,1,0,0:0:0:0:
320,192,13699,1,0,0:0:0:0:
448,192,13699,1,0,0:0:0:0:
64,192,13808,1,0,0:0:0:0:
192,192,13808,1,0,0:0:0:0:
320,192,13808,1,0,0:0:0:0:
448,192,13808,1,0,0:0:0:0:
64,192,13918,1,0,0:0:0:0:
192,192,13918,1,0,0:0:0:0:
320,192,13918,1,0,0:0:0:0:
448,192,13918,1,0,0:0:0:0:
64,192,14028,1,0,0:0:0:0:
192,192,14028,1,0,0:0:0:0:
320,192,14082,1,0,0:0:0:0:
448,192,14082,1,0,0:0:0:0:
192,192,14138,1,0,0:0:0:0:
64,192,14138,1,0,0:0:0:0:
320,192,14193,1,0,0:0:0:0:
448,192,14193,1,0,0:0:0:0:
192,192,14247,1,0,0:0:0:0:
64,192,14247,1,0,0:0:0:0:
320,192,14358,1,0,0:0:0:0:
192,192,14467,1,0,0:0:0:0:
448,192,14467,1,0,0:0:0:0:
64,192,14578,1,0,0:0:0:0:
192,192,14687,1,0,0:0:0:0:
320,192,14687,1,0,0:0:0:0:
448,192,14797,1,0,0:0:0:0:
64,192,14907,1,0,0:0:0:0:
192,192,14907,1,0,0:0:0:0:
320,192,15017,1,0,0:0:0:0:
448,192,15127,1,0,0:0:0:0:
192,192,15127,1,0,0:0:0:0:
64,192,15237,1,0,0:0:0:0:
192,192,15346,1,0,0:0:0:0:
320,192,15346,1,0,0:0:0:0:
448,192,15457,1,0,0:0:0:0:
192,192,15566,1,0,0:0:0:0:
320,192,15566,1,0,0:0:0:0:
64,192,15676,1,0,0:0:0:0:
320,192,15786,1,0,0:0:0:0:
448,192,15786,1,0,0:0:0:0:
192,192,15896,1,0,0:0:0:0:
64,192,16006,1,0,0:0:0:0:
320,192,16006,1,0,0:0:0:0:
448,192,16116,1,0,0:0:0:0:
320,192,16225,1,0,0:0:0:0:
192,192,16225,1,0,0:0:0:0:
64,192,16336,1,0,0:0:0:0:
320,192,16445,1,0,0:0:0:0:
448,192,16445,1,0,0:0:0:0:
192,192,16556,1,0,0:0:0:0:
64,192,16665,1,0,0:0:0:0:
320,192,16665,1,0,0:0:0:0:
448,192,16775,1,0,0:0:0:0:
64,192,16885,1,0,0:0:0:0:
192,192,16885,1,0,0:0:0:0:
320,192,16995,1,0,0:0:0:0:
192,192,17104,1,0,0:0:0:0:
448,192,17104,1,0,0:0:0:0:
64,192,17215,1,0,0:0:0:0:
448,192,17324,1,0,0:0:0:0:
192,192,17324,1,0,0:0:0:0:
320,192,17435,1,0,0:0:0:0:
64,192,17544,1,0,0:0:0:0:
192,192,17544,1,0,0:0:0:0:
64,192,17654,1,0,0:0:0:0:
192,192,17654,1,0,0:0:0:0:
64,192,17764,1,0,0:0:0:0:
192,192,17764,1,0,0:0:0:0:
448,192,17764,1,0,0:0:0:0:
320,192,17874,1,0,0:0:0:0:
64,192,17984,1,0,0:0:0:0:
192,192,17984,1,0,0:0:0:0:
448,192,18094,1,0,0:0:0:0:
192,192,18203,1,0,0:0:0:0:
320,192,18203,1,0,0:0:0:0:
64,192,18314,1,0,0:0:0:0:
320,192,18423,1,0,0:0:0:0:
448,192,18423,1,0,0:0:0:0:
64,192,18533,1,0,0:0:0:0:
192,192,18643,1,0,0:0:0:0:
320,192,18643,1,0,0:0:0:0:
448,192,18753,1,0,0:0:0:0:
320,192,18863,1,0,0:0:0:0:
64,192,18863,1,0,0:0:0:0:
192,192,18973,1,0,0:0:0:0:
64,192,19082,1,0,0:0:0:0:
448,192,19082,1,0,0:0:0:0:
320,192,19193,1,0,0:0:0:0:
192,192,19302,1,0,0:0:0:0:
64,192,19302,1,0,0:0:0:0:
320,192,19413,1,0,0:0:0:0:
192,192,19522,1,0,0:0:0:0:
448,192,19522,1,0,0:0:0:0:
64,192,19632,1,0,0:0:0:0:
192,192,19742,1,0,0:0:0:0:
320,192,19742,1,0,0:0:0:0:
448,192,19852,1,0,0:0:0:0:
64,192,19961,1,0,0:0:0:0:
192,192,19961,1,0,0:0:0:0:
320,192,20072,1,0,0:0:0:0:
448,192,20181,1,0,0:0:0:0:
192,192,20181,1,0,0:0:0:0:
320,192,20292,1,0,0:0:0:0:
64,192,20401,1,0,0:0:0:0:
192,192,20401,1,0,0:0:0:0:
192,192,20621,1,0,0:0:0:0:
64,192,20621,1,0,0:0:0:0:
320,192,20621,1,0,0:0:0:0:
448,192,20621,1,0,0:0:0:0:
192,192,20731,1,0,0:0:0:0:
64,192,20731,1,0,0:0:0:0:
320,192,20841,1,0,0:0:0:0:
448,192,20841,1,0,0:0:0:0:
320,192,20951,1,0,0:0:0:0:
448,192,20951,1,0,0:0:0:0:
192,192,21060,1,0,0:0:0:0:
64,192,21060,1,0,0:0:0:0:
320,192,21116,1,0,0:0:0:0:
448,192,21116,1,0,0:0:0:0:
192,192,21171,1,0,0:0:0:0:
64,192,21171,1,0,0:0:0:0:
320,192,21225,1,0,0:0:0:0:
448,192,21225,1,0,0:0:0:0:
64,192,21280,1,0,0:0:0:0:
192,192,21318,1,0,0:0:0:0:
320,192,21354,1,0,0:0:0:0:
448,192,21390,1,0,0:0:0:0:
320,192,21427,1,0,0:0:0:0:
192,192,21463,1,0,0:0:0:0:
64,192,21500,1,0,0:0:0:0:
448,192,21537,1,0,0:0:0:0:
320,192,21574,1,0,0:0:0:0:
64,192,21610,1,0,0:0:0:0:
448,192,21647,1,0,0:0:0:0:
192,192,21683,1,0,0:0:0:0:
320,192,21720,1,0,0:0:0:0:
64,192,21757,1,0,0:0:0:0:
448,192,21794,1,0,0:0:0:0:
320,192,21830,1,0,0:0:0:0:
192,192,21866,1,0,0:0:0:0:
64,192,21903,1,0,0:0:0:0:
448,192,21940,1,0,0:0:0:0:
320,192,21977,1,0,0:0:0:0:
64,192,22013,1,0,0:0:0:0:
192,192,22050,1,0,0:0:0:0:
448,192,22086,1,0,0:0:0:0:
320,192,22123,1,0,0:0:0:0:
192,192,22160,1,0,0:0:0:0:
64,192,22197,1,0,0:0:0:0:
320,192,22233,1,0,0:0:0:0:
192,192,22270,1,0,0:0:0:0:
448,192,22306,1,0,0:0:0:0:
320,192,22342,1,0,0:0:0:0:
192,192,22380,1,0,0:0:0:0:
64,192,22416,1,0,0:0:0:0:
448,192,22453,1,0,0:0:0:0:
320,192,22489,1,0,0:0:0:0:
64,192,22526,1,0,0:0:0:0:
192,192,22562,1,0,0:0:0:0:
448,192,22600,1,0,0:0:0:0:
64,192,22636,1,0,0:0:0:0:
320,192,22673,1,0,0:0:0:0:
192,192,22709,1,0,0:0:0:0:
448,192,22746,1,0,0:0:0:0:
320,192,22782,1,0,0:0:0:0:
192,192,22819,1,0,0:0:0:0:
64,192,22819,1,0,0:0:0:0:
320,192,22856,1,0,0:0:0:0:
448,192,22892,1,0,0:0:0:0:
64,192,22929,1,0,0:0:0:0:
192,192,22965,1,0,0:0:0:0:
320,192,23002,1,0,0:0:0:0:
64,192,23039,1,0,0:0:0:0:
448,192,23076,1,0,0:0:0:0:
320,192,23112,1,0,0:0:0:0:
64,192,23149,1,0,0:0:0:0:
192,192,23185,1,0,0:0:0:0:
448,192,23222,1,0,0:0:0:0:
320,192,23259,1,0,0:0:0:0:
192,192,23295,1,0,0:0:0:0:
64,192,23332,1,0,0:0:0:0:
192,192,23368,1,0,0:0:0:0:
320,192,23405,1,0,0:0:0:0:
448,192,23441,1,0,0:0:0:0:
64,192,23479,1,0,0:0:0:0:
192,192,23515,1,0,0:0:0:0:
448,192,23552,1,0,0:0:0:0:
320,192,23588,1,0,0:0:0:0:
64,192,23625,1,0,0:0:0:0:
448,192,23661,1,0,0:0:0:0:
192,192,23699,1,0,0:0:0:0:
320,192,23735,1,0,0:0:0:0:
64,192,23771,1,0,0:0:0:0:
192,192,23808,1,0,0:0:0:0:
320,192,23844,1,0,0:0:0:0:
448,192,23881,1,0,0:0:0:0:
192,192,23918,1,0,0:0:0:0:
320,192,23955,1,0,0:0:0:0:
64,192,23991,1,0,0:0:0:0:
192,192,24028,1,0,0:0:0:0:
320,192,24064,1,0,0:0:0:0:
448,192,24101,1,0,0:0:0:0:
64,192,24138,1,0,0:0:0:0:
320,192,24175,1,0,0:0:0:0:
192,192,24211,1,0,0:0:0:0:
448,192,24247,1,0,0:0:0:0:
320,192,24284,1,0,0:0:0:0:
64,192,24320,1,0,0:0:0:0:
448,192,24358,1,0,0:0:0:0:
320,192,24394,1,0,0:0:0:0:
64,192,24431,1,0,0:0:0:0:
192,192,24467,1,0,0:0:0:0:
320,192,24504,1,0,0:0:0:0:
448,192,24540,1,0,0:0:0:0:
64,192,24578,1,0,0:0:0:0:
192,192,24614,1,0,0:0:0:0:
64,192,24651,1,0,0:0:0:0:
448,192,24687,1,0,0:0:0:0:
320,192,24723,1,0,0:0:0:0:
448,192,24760,1,0,0:0:0:0:
64,192,24797,1,0,0:0:0:0:
192,192,24797,1,0,0:0:0:0:
320,192,24834,1,0,0:0:0:0:
448,192,24870,1,0,0:0:0:0:
64,192,24907,1,0,0:0:0:0:
192,192,24943,1,0,0:0:0:0:
320,192,24980,1,0,0:0:0:0:
448,192,25017,1,0,0:0:0:0:
64,192,25054,1,0,0:0:0:0:
192,192,25090,1,0,0:0:0:0:
448,192,25127,1,0,0:0:0:0:
320,192,25163,1,0,0:0:0:0:
64,192,25200,1,0,0:0:0:0:
192,192,25237,1,0,0:0:0:0:
448,192,25273,1,0,0:0:0:0:
64,192,25310,1,0,0:0:0:0:
320,192,25346,1,0,0:0:0:0:
448,192,25383,1,0,0:0:0:0:
192,192,25420,1,0,0:0:0:0:
64,192,25457,1,0,0:0:0:0:
448,192,25493,1,0,0:0:0:0:
320,192,25530,1,0,0:0:0:0:
192,192,25566,1,0,0:0:0:0:
64,192,25603,1,0,0:0:0:0:
448,192,25640,1,0,0:0:0:0:
192,192,25676,1,0,0:0:0:0:
320,192,25713,1,0,0:0:0:0:
64,192,25749,1,0,0:0:0:0:
448,192,25786,1,0,0:0:0:0:
192,192,25822,1,0,0:0:0:0:
320,192,25860,1,0,0:0:0:0:
448,192,25896,1,0,0:0:0:0:
64,192,25933,1,0,0:0:0:0:
192,192,25969,1,0,0:0:0:0:
320,192,26006,1,0,0:0:0:0:
448,192,26042,1,0,0:0:0:0:
64,192,26080,1,0,0:0:0:0:
192,192,26116,1,0,0:0:0:0:
448,192,26152,1,0,0:0:0:0:
320,192,26189,1,0,0:0:0:0:
64,192,26225,1,0,0:0:0:0:
448,192,26262,1,0,0:0:0:0:
192,192,26299,1,0,0:0:0:0:
320,192,26336,1,0,0:0:0:0:
448,192,26372,1,0,0:0:0:0:
64,192,26409,1,0,0:0:0:0:
192,192,26445,1,0,0:0:0:0:
320,192,26482,1,0,0:0:0:0:
192,192,26519,1,0,0:0:0:0:
64,192,26556,1,0,0:0:0:0:
448,192,26556,1,0,0:0:0:0:
320,192,26592,1,0,0:0:0:0:
192,192,26628,1,0,0:0:0:0:
64,192,26665,1,0,0:0:0:0:
320,192,26701,1,0,0:0:0:0:
448,192,26739,1,0,0:0:0:0:
64,192,26775,1,0,0:0:0:0:
320,192,26812,1,0,0:0:0:0:
192,192,26848,1,0,0:0:0:0:
448,192,26885,1,0,0:0:0:0:
64,192,26921,1,0,0:0:0:0:
192,192,26959,1,0,0:0:0:0:
320,192,26995,1,0,0:0:0:0:
64,192,27032,1,0,0:0:0:0:
192,192,27068,1,0,0:0:0:0:
448,192,27104,1,0,0:0:0:0:
64,192,27141,1,0,0:0:0:0:
192,192,27178,1,0,0:0:0:0:
320,192,27215,1,0,0:0:0:0:
448,192,27251,1,0,0:0:0:0:
320,192,27288,1,0,0:0:0:0:
192,192,27324,1,0,0:0:0:0:
64,192,27361,1,0,0:0:0:0:
448,192,27398,1,0,0:0:0:0:
320,192,27435,1,0,0:0:0:0:
192,192,27471,1,0,0:0:0:0:
448,192,27508,1,0,0:0:0:0:
320,192,27544,1,0,0:0:0:0:
64,192,27580,1,0,0:0:0:0:
448,192,27618,1,0,0:0:0:0:
320,192,27654,1,0,0:0:0:0:
192,192,27691,1,0,0:0:0:0:
64,192,27727,1,0,0:0:0:0:
320,192,27764,1,0,0:0:0:0:
192,192,27800,1,0,0:0:0:0:
448,192,27838,1,0,0:0:0:0:
320,192,27874,1,0,0:0:0:0:
192,192,27911,1,0,0:0:0:0:
64,192,27947,1,0,0:0:0:0:
448,192,27984,1,0,0:0:0:0:
320,192,28020,1,0,0:0:0:0:
192,192,28057,1,0,0:0:0:0:
64,192,28094,1,0,0:0:0:0:
192,192,28130,1,0,0:0:0:0:
320,192,28167,1,0,0:0:0:0:
448,192,28203,1,0,0:0:0:0:
320,192,28240,1,0,0:0:0:0:
192,192,28277,1,0,0:0:0:0:
64,192,28314,128,0,28753:0:0:0:0:
192,192,28643,1,0,0:0:0:0:
320,192,28753,1,0,0:0:0:0:
448,192,28753,1,0,0:0:0:0:
192,192,28973,1,0,0:0:0:0:
448,192,28973,1,0,0:0:0:0:
64,192,29193,1,0,0:0:0:0:
64,192,29632,1,0,0:0:0:0:
192,192,29632,1,0,0:0:0:0:
320,192,29742,1,0,0:0:0:0:
448,192,29852,1,0,0:0:0:0:
64,192,30072,1,0,0:0:0:0:
192,192,30072,1,0,0:0:0:0:
320,192,30181,1,0,0:0:0:0:
448,192,30292,1,0,0:0:0:0:
320,192,30401,1,0,0:0:0:0:
448,192,30401,1,0,0:0:0:0:
64,192,30511,1,0,0:0:0:0:
192,192,30621,1,0,0:0:0:0:
320,192,30731,1,0,0:0:0:0:
448,192,30731,1,0,0:0:0:0:
64,192,30951,1,0,0:0:0:0:
192,192,31060,1,0,0:0:0:0:
64,192,31171,1,0,0:0:0:0:
192,192,31280,1,0,0:0:0:0:
320,192,31390,1,0,0:0:0:0:
448,192,31390,1,0,0:0:0:0:
192,192,31500,1,0,0:0:0:0:
64,192,31610,1,0,0:0:0:0:
320,192,31610,1,0,0:0:0:0:
448,192,31720,1,0,0:0:0:0:
320,192,31830,1,0,0:0:0:0:
192,192,31830,1,0,0:0:0:0:
64,192,31940,1,0,0:0:0:0:
448,192,32050,1,0,0:0:0:0:
320,192,32160,1,0,0:0:0:0:
64,192,32160,1,0,0:0:0:0:
192,192,32270,1,0,0:0:0:0:
320,192,32380,1,0,0:0:0:0:
192,192,32489,1,0,0:0:0:0:
64,192,32489,1,0,0:0:0:0:
320,192,32600,1,0,0:0:0:0:
448,192,32709,1,0,0:0:0:0:
192,192,32709,1,0,0:0:0:0:
64,192,32819,1,0,0:0:0:0:
192,192,32929,1,0,0:0:0:0:
320,192,33039,1,0,0:0:0:0:
448,192,33149,1,0,0:0:0:0:
192,192,33149,1,0,0:0:0:0:
64,192,33259,1,0,0:0:0:0:
192,192,33368,1,0,0:0:0:0:
320,192,33368,1,0,0:0:0:0:
448,192,33479,1,0,0:0:0:0:
64,192,33588,1,0,0:0:0:0:
320,192,33643,1,0,0:0:0:0:
192,192,33699,1,0,0:0:0:0:
448,192,33753,1,0,0:0:0:0:
64,192,33808,1,0,0:0:0:0:
192,192,33863,1,0,0:0:0:0:
320,192,33918,1,0,0:0:0:0:
448,192,33918,1,0,0:0:0:0:
320,192,34028,1,0,0:0:0:0:
192,192,34028,1,0,0:0:0:0:
64,192,34028,1,0,0:0:0:0:
448,192,34028,1,0,0:0:0:0:
320,192,34138,1,0,0:0:0:0:
192,192,34138,1,0,0:0:0:0:
64,192,34138,1,0,0:0:0:0:
64,192,34247,1,0,0:0:0:0:
192,192,34247,1,0,0:0:0:0:
64,192,34358,1,0,0:0:0:0:
64,192,34467,1,0,0:0:0:0:
192,192,34467,1,0,0:0:0:0:
320,192,34578,1,0,0:0:0:0:
64,192,34578,1,0,0:0:0:0:
192,192,34687,1,0,0:0:0:0:
320,192,34687,1,0,0:0:0:0:
192,192,34797,1,0,0:0:0:0:
448,192,34797,1,0,0:0:0:0:
320,192,34907,1,0,0:0:0:0:
448,192,34907,1,0,0:0:0:0:
192,192,35017,1,0,0:0:0:0:
64,192,35017,1,0,0:0:0:0:
448,192,35127,128,0,35237:0:0:0:0:
64,192,35346,1,0,0:0:0:0:
192,192,35346,1,0,0:0:0:0:
448,192,35383,1,0,0:0:0:0:
320,192,35420,1,0,0:0:0:0:
64,192,35457,1,0,0:0:0:0:
192,192,35493,1,0,0:0:0:0:
448,192,35530,1,0,0:0:0:0:
64,192,35566,1,0,0:0:0:0:
320,192,35603,1,0,0:0:0:0:
192,192,35640,1,0,0:0:0:0:
448,192,35676,1,0,0:0:0:0:
64,192,35713,1,0,0:0:0:0:
320,192,35749,1,0,0:0:0:0:
448,192,35786,1,0,0:0:0:0:
64,192,35822,1,0,0:0:0:0:
192,192,35860,1,0,0:0:0:0:
448,192,35896,1,0,0:0:0:0:
320,192,35933,1,0,0:0:0:0:
64,192,35969,1,0,0:0:0:0:
448,192,36006,1,0,0:0:0:0:
192,192,36042,1,0,0:0:0:0:
320,192,36080,1,0,0:0:0:0:
64,192,36116,1,0,0:0:0:0:
448,192,36152,1,0,0:0:0:0:
320,192,36189,1,0,0:0:0:0:
64,192,36225,1,0,0:0:0:0:
448,192,36262,1,0,0:0:0:0:
320,192,36299,1,0,0:0:0:0:
64,192,36336,1,0,0:0:0:0:
192,192,36372,1,0,0:0:0:0:
448,192,36409,1,0,0:0:0:0:
64,192,36445,1,0,0:0:0:0:
320,192,36482,1,0,0:0:0:0:
192,192,36519,1,0,0:0:0:0:
448,192,36556,1,0,0:0:0:0:
64,192,36592,1,0,0:0:0:0:
320,192,36628,1,0,0:0:0:0:
448,192,36665,1,0,0:0:0:0:
64,192,36701,1,0,0:0:0:0:
192,192,36739,1,0,0:0:0:0:
320,192,36775,1,0,0:0:0:0:
448,192,36812,1,0,0:0:0:0:
64,192,36812,1,0,0:0:0:0:
192,192,36848,1,0,0:0:0:0:
320,192,36885,1,0,0:0:0:0:
448,192,36921,1,0,0:0:0:0:
64,192,36959,1,0,0:0:0:0:
448,192,36995,1,0,0:0:0:0:
320,192,37032,1,0,0:0:0:0:
448,192,37068,1,0,0:0:0:0:
64,192,37104,1,0,0:0:0:0:
192,192,37141,1,0,0:0:0:0:
320,192,37178,1,0,0:0:0:0:
64,192,37215,1,0,0:0:0:0:
448,192,37251,1,0,0:0:0:0:
192,192,37288,1,0,0:0:0:0:
320,192,37324,1,0,0:0:0:0:
64,192,37361,1,0,0:0:0:0:
448,192,37398,1,0,0:0:0:0:
320,192,37435,1,0,0:0:0:0:
192,192,37471,1,0,0:0:0:0:
64,192,37508,1,0,0:0:0:0:
448,192,37544,1,0,0:0:0:0:
320,192,37580,1,0,0:0:0:0:
64,192,37618,1,0,0:0:0:0:
192,192,37654,1,0,0:0:0:0:
448,192,37691,1,0,0:0:0:0:
320,192,37727,1,0,0:0:0:0:
192,192,37764,1,0,0:0:0:0:
64,192,37800,1,0,0:0:0:0:
320,192,37838,1,0,0:0:0:0:
192,192,37874,1,0,0:0:0:0:
448,192,37911,1,0,0:0:0:0:
320,192,37947,1,0,0:0:0:0:
192,192,37984,1,0,0:0:0:0:
64,192,38020,1,0,0:0:0:0:
448,192,38057,1,0,0:0:0:0:
320,192,38094,1,0,0:0:0:0:
64,192,38130,1,0,0:0:0:0:
192,192,38167,1,0,0:0:0:0:
448,192,38203,1,0,0:0:0:0:
64,192,38240,1,0,0:0:0:0:
320,192,38277,1,0,0:0:0:0:
192,192,38314,1,0,0:0:0:0:
448,192,38350,1,0,0:0:0:0:
320,192,38387,1,0,0:0:0:0:
64,192,38423,1,0,0:0:0:0:
448,192,38460,1,0,0:0:0:0:
320,192,38497,1,0,0:0:0:0:
64,192,38533,1,0,0:0:0:0:
192,192,38570,1,0,0:0:0:0:
320,192,38606,1,0,0:0:0:0:
64,192,38643,1,0,0:0:0:0:
448,192,38680,1,0,0:0:0:0:
320,192,38717,1,0,0:0:0:0:
64,192,38753,1,0,0:0:0:0:
192,192,38790,1,0,0:0:0:0:
448,192,38826,1,0,0:0:0:0:
64,192,38863,1,0,0:0:0:0:
192,192,38900,1,0,0:0:0:0:
320,192,38937,1,0,0:0:0:0:
448,192,38973,1,0,0:0:0:0:
64,192,39009,1,0,0:0:0:0:
192,192,39046,1,0,0:0:0:0:
448,192,39082,1,0,0:0:0:0:
320,192,39120,1,0,0:0:0:0:
64,192,39156,1,0,0:0:0:0:
192,192,39193,1,0,0:0:0:0:
320,192,39229,1,0,0:0:0:0:
448,192,39266,1,0,0:0:0:0:
64,192,39302,1,0,0:0:0:0:
320,192,39340,1,0,0:0:0:0:
192,192,39376,1,0,0:0:0:0:
448,192,39413,1,0,0:0:0:0:
320,192,39449,1,0,0:0:0:0:
192,192,39485,1,0,0:0:0:0:
64,192,39522,1,0,0:0:0:0:
448,192,39559,1,0,0:0:0:0:
320,192,39596,1,0,0:0:0:0:
64,192,39632,1,0,0:0:0:0:
192,192,39669,1,0,0:0:0:0:
448,192,39705,1,0,0:0:0:0:
320,192,39742,1,0,0:0:0:0:
192,192,39779,1,0,0:0:0:0:
64,192,39816,1,0,0:0:0:0:
448,192,39852,1,0,0:0:0:0:
320,192,39889,1,0,0:0:0:0:
64,192,39925,1,0,0:0:0:0:
192,192,39961,1,0,0:0:0:0:
448,192,39999,1,0,0:0:0:0:
320,192,40035,1,0,0:0:0:0:
192,192,40072,1,0,0:0:0:0:
64,192,40108,1,0,0:0:0:0:
448,192,40145,1,0,0:0:0:0:
192,192,40181,1,0,0:0:0:0:
320,192,40219,1,0,0:0:0:0:
64,192,40255,1,0,0:0:0:0:
448,192,40292,1,0,0:0:0:0:
320,192,40328,1,0,0:0:0:0:
64,192,40365,1,0,0:0:0:0:
448,192,40401,1,0,0:0:0:0:
320,192,40438,1,0,0:0:0:0:
448,192,40475,1,0,0:0:0:0:
64,192,40511,1,0,0:0:0:0:
192,192,40548,1,0,0:0:0:0:
64,192,40584,1,0,0:0:0:0:
448,192,40621,1,0,0:0:0:0:
320,192,40658,1,0,0:0:0:0:
192,192,40695,1,0,0:0:0:0:
64,192,40731,1,0,0:0:0:0:
448,192,40731,1,0,0:0:0:0:
320,192,40768,1,0,0:0:0:0:
192,192,40804,1,0,0:0:0:0:
64,192,40841,1,0,0:0:0:0:
448,192,40841,1,0,0:0:0:0:
320,192,40878,1,0,0:0:0:0:
192,192,40914,1,0,0:0:0:0:
64,192,40951,1,0,0:0:0:0:
448,192,40951,1,0,0:0:0:0:
320,192,40987,1,0,0:0:0:0:
64,192,41024,1,0,0:0:0:0:
320,192,41060,1,0,0:0:0:0:
448,192,41060,1,0,0:0:0:0:
192,192,41116,1,0,0:0:0:0:
64,192,41116,1,0,0:0:0:0:
320,192,41171,1,0,0:0:0:0:
448,192,41171,1,0,0:0:0:0:
192,192,41225,1,0,0:0:0:0:
64,192,41225,1,0,0:0:0:0:
320,192,41280,1,0,0:0:0:0:
448,192,41280,1,0,0:0:0:0:
192,192,41336,1,0,0:0:0:0:
64,192,41336,1,0,0:0:0:0:
320,192,41390,1,0,0:0:0:0:
448,192,41390,1,0,0:0:0:0:
192,192,41445,1,0,0:0:0:0:
64,192,41445,1,0,0:0:0:0:
320,192,41500,1,0,0:0:0:0:
448,192,41500,1,0,0:0:0:0:
320,192,41610,1,0,0:0:0:0:
448,192,41610,1,0,0:0:0:0:
64,192,41720,1,0,0:0:0:0:
192,192,41720,1,0,0:0:0:0:
320,192,41720,1,0,0:0:0:0:
448,192,41720,1,0,0:0:0:0:
192,192,41830,1,0,0:0:0:0:
64,192,41830,1,0,0:0:0:0:
64,192,41940,1,0,0:0:0:0:
192,192,41940,1,0,0:0:0:0:
320,192,41940,1,0,0:0:0:0:
448,192,41940,1,0,0:0:0:0:
320,192,42050,1,0,0:0:0:0:
448,192,42050,1,0,0:0:0:0:
320,192,42160,1,0,0:0:0:0:
448,192,42160,1,0,0:0:0:0:
192,192,42160,1,0,0:0:0:0:
64,192,42160,1,0,0:0:0:0:
64,192,42270,1,0,0:0:0:0:
192,192,42270,1,0,0:0:0:0:
448,192,42380,1,0,0:0:0:0:
320,192,42416,1,0,0:0:0:0:
192,192,42453,1,0,0:0:0:0:
64,192,42489,1,0,0:0:0:0:
448,192,42526,1,0,0:0:0:0:
320,192,42562,1,0,0:0:0:0:
64,192,42600,1,0,0:0:0:0:
192,192,42636,1,0,0:0:0:0:
448,192,42673,1,0,0:0:0:0:
320,192,42709,1,0,0:0:0:0:
192,192,42746,1,0,0:0:0:0:
64,192,42782,1,0,0:0:0:0:
448,192,42819,1,0,0:0:0:0:
320,192,42856,1,0,0:0:0:0:
192,192,42892,1,0,0:0:0:0:
64,192,42929,1,0,0:0:0:0:
448,192,42965,1,0,0:0:0:0:
320,192,43002,1,0,0:0:0:0:
64,192,43039,1,0,0:0:0:0:
192,192,43076,1,0,0:0:0:0:
448,192,43112,1,0,0:0:0:0:
64,192,43149,1,0,0:0:0:0:
320,192,43185,1,0,0:0:0:0:
192,192,43222,1,0,0:0:0:0:
448,192,43259,1,0,0:0:0:0:
320,192,43295,1,0,0:0:0:0:
192,192,43332,1,0,0:0:0:0:
64,192,43368,1,0,0:0:0:0:
448,192,43405,1,0,0:0:0:0:
192,192,43441,1,0,0:0:0:0:
320,192,43479,1,0,0:0:0:0:
64,192,43515,1,0,0:0:0:0:
192,192,43552,1,0,0:0:0:0:
320,192,43588,1,0,0:0:0:0:
448,192,43625,1,0,0:0:0:0:
64,192,43661,1,0,0:0:0:0:
192,192,43699,1,0,0:0:0:0:
320,192,43735,1,0,0:0:0:0:
448,192,43771,1,0,0:0:0:0:
64,192,43808,1,0,0:0:0:0:
192,192,43844,1,0,0:0:0:0:
64,192,43881,1,0,0:0:0:0:
448,192,43918,1,0,0:0:0:0:
320,192,43955,1,0,0:0:0:0:
64,192,43991,1,0,0:0:0:0:
448,192,44028,1,0,0:0:0:0:
320,192,44064,1,0,0:0:0:0:
192,192,44101,1,0,0:0:0:0:
448,192,44138,1,0,0:0:0:0:
320,192,44175,1,0,0:0:0:0:
192,192,44211,1,0,0:0:0:0:
64,192,44247,1,0,0:0:0:0:
448,192,44247,1,0,0:0:0:0:
320,192,44284,1,0,0:0:0:0:
192,192,44320,1,0,0:0:0:0:
64,192,44358,1,0,0:0:0:0:
448,192,44394,1,0,0:0:0:0:
320,192,44431,1,0,0:0:0:0:
448,192,44467,1,0,0:0:0:0:
64,192,44504,1,0,0:0:0:0:
192,192,44540,1,0,0:0:0:0:
320,192,44578,1,0,0:0:0:0:
448,192,44614,1,0,0:0:0:0:
64,192,44651,1,0,0:0:0:0:
192,192,44687,1,0,0:0:0:0:
448,192,44723,1,0,0:0:0:0:
320,192,44760,1,0,0:0:0:0:
64,192,44797,1,0,0:0:0:0:
192,192,44834,1,0,0:0:0:0:
320,192,44870,1,0,0:0:0:0:
448,192,44907,1,0,0:0:0:0:
64,192,44943,1,0,0:0:0:0:
320,192,44980,1,0,0:0:0:0:
192,192,45017,1,0,0:0:0:0:
448,192,45054,1,0,0:0:0:0:
64,192,45090,1,0,0:0:0:0:
192,192,45127,1,0,0:0:0:0:
320,192,45163,1,0,0:0:0:0:
448,192,45200,1,0,0:0:0:0:
192,192,45237,1,0,0:0:0:0:
320,192,45273,1,0,0:0:0:0:
64,192,45310,1,0,0:0:0:0:
192,192,45346,1,0,0:0:0:0:
320,192,45383,1,0,0:0:0:0:
448,192,45420,1,0,0:0:0:0:
64,192,45457,1,0,0:0:0:0:
192,192,45493,1,0,0:0:0:0:
320,192,45530,1,0,0:0:0:0:
448,192,45566,1,0,0:0:0:0:
64,192,45603,1,0,0:0:0:0:
320,192,45640,1,0,0:0:0:0:
192,192,45676,1,0,0:0:0:0:
448,192,45713,1,0,0:0:0:0:
320,192,45749,1,0,0:0:0:0:
64,192,45786,1,0,0:0:0:0:
192,192,45822,1,0,0:0:0:0:
64,192,45860,1,0,0:0:0:0:
448,192,45896,1,0,0:0:0:0:
320,192,45933,1,0,0:0:0:0:
64,192,45969,1,0,0:0:0:0:
448,192,46006,1,0,0:0:0:0:
192,192,46042,1,0,0:0:0:0:
64,192,46080,1,0,0:0:0:0:
448,192,46116,1,0,0:0:0:0:
320,192,46152,1,0,0:0:0:0:
192,192,46189,1,0,0:0:0:0:
64,192,46225,1,0,0:0:0:0:
320,192,46262,1,0,0:0:0:0:
192,192,46299,1,0,0:0:0:0:
448,192,46336,1,0,0:0:0:0:
320,192,46372,1,0,0:0:0:0:
192,192,46409,1,0,0:0:0:0:
64,192,46445,1,0,0:0:0:0:
448,192,46482,1,0,0:0:0:0:
320,192,46519,1,0,0:0:0:0:
64,192,46556,1,0,0:0:0:0:
448,192,46592,1,0,0:0:0:0:
192,192,46628,1,0,0:0:0:0:
64,192,46665,1,0,0:0:0:0:
320,192,46701,1,0,0:0:0:0:
192,192,46739,1,0,0:0:0:0:
448,192,46775,1,0,0:0:0:0:
320,192,46812,1,0,0:0:0:0:
192,192,46848,1,0,0:0:0:0:
64,192,46885,1,0,0:0:0:0:
320,192,46921,1,0,0:0:0:0:
192,192,46959,1,0,0:0:0:0:
448,192,46995,1,0,0:0:0:0:
320,192,47032,1,0,0:0:0:0:
192,192,47068,1,0,0:0:0:0:
64,192,47104,1,0,0:0:0:0:
320,192,47141,1,0,0:0:0:0:
192,192,47178,1,0,0:0:0:0:
64,192,47215,1,0,0:0:0:0:
448,192,47251,1,0,0:0:0:0:
320,192,47288,1,0,0:0:0:0:
192,192,47324,1,0,0:0:0:0:
448,192,47361,1,0,0:0:0:0:
64,192,47398,1,0,0:0:0:0:
192,192,47435,1,0,0:0:0:0:
320,192,47471,1,0,0:0:0:0:
448,192,47508,1,0,0:0:0:0:
320,192,47544,1,0,0:0:0:0:
192,192,47580,1,0,0:0:0:0:
64,192,47618,1,0,0:0:0:0:
448,192,47654,1,0,0:0:0:0:
320,192,47691,1,0,0:0:0:0:
192,192,47727,1,0,0:0:0:0:
64,192,47764,1,0,0:0:0:0:
448,192,47764,1,0,0:0:0:0:
320,192,47800,1,0,0:0:0:0:
64,192,47838,1,0,0:0:0:0:
448,192,47874,1,0,0:0:0:0:
320,192,47911,1,0,0:0:0:0:
192,192,47947,1,0,0:0:0:0:
448,192,47984,1,0,0:0:0:0:
320,192,48020,1,0,0:0:0:0:
192,192,48057,1,0,0:0:0:0:
448,192,48094,1,0,0:0:0:0:
320,192,48130,1,0,0:0:0:0:
64,192,48167,1,0,0:0:0:0:
448,192,48203,1,0,0:0:0:0:
320,192,48240,1,0,0:0:0:0:
192,192,48277,1,0,0:0:0:0:
64,192,48314,1,0,0:0:0:0:
192,192,48350,1,0,0:0:0:0:
320,192,48387,1,0,0:0:0:0:
64,192,48423,1,0,0:0:0:0:
192,192,48460,1,0,0:0:0:0:
320,192,48497,1,0,0:0:0:0:
64,192,48533,1,0,0:0:0:0:
192,192,48570,1,0,0:0:0:0:
448,192,48606,1,0,0:0:0:0:
64,192,48643,1,0,0:0:0:0:
192,192,48680,1,0,0:0:0:0:
320,192,48717,1,0,0:0:0:0:
448,192,48753,1,0,0:0:0:0:
192,192,48790,1,0,0:0:0:0:
320,192,48826,1,0,0:0:0:0:
64,192,48863,1,0,0:0:0:0:
448,192,48900,1,0,0:0:0:0:
320,192,48937,1,0,0:0:0:0:
64,192,48973,1,0,0:0:0:0:
192,192,48973,1,0,0:0:0:0:
320,192,49082,1,0,0:0:0:0:
448,192,49082,1,0,0:0:0:0:
192,192,49193,1,0,0:0:0:0:
64,192,49193,1,0,0:0:0:0:
320,192,49247,1,0,0:0:0:0:
448,192,49247,1,0,0:0:0:0:
192,192,49302,1,0,0:0:0:0:
64,192,49302,1,0,0:0:0:0:
320,192,49358,1,0,0:0:0:0:
448,192,49358,1,0,0:0:0:0:
64,192,49413,1,0,0:0:0:0:
320,192,49449,1,0,0:0:0:0:
192,192,49485,1,0,0:0:0:0:
64,192,49522,1,0,0:0:0:0:
448,192,49559,1,0,0:0:0:0:
320,192,49596,1,0,0:0:0:0:
64,192,49632,1,0,0:0:0:0:
192,192,49669,1,0,0:0:0:0:
448,192,49705,1,0,0:0:0:0:
320,192,49742,1,0,0:0:0:0:
192,192,49779,1,0,0:0:0:0:
64,192,49816,1,0,0:0:0:0:
448,192,49852,1,0,0:0:0:0:
320,192,49889,1,0,0:0:0:0:
192,192,49925,1,0,0:0:0:0:
64,192,49961,1,0,0:0:0:0:
448,192,49999,1,0,0:0:0:0:
320,192,50035,1,0,0:0:0:0:
64,192,50072,1,0,0:0:0:0:
192,192,50108,1,0,0:0:0:0:
448,192,50145,1,0,0:0:0:0:
64,192,50181,1,0,0:0:0:0:
320,192,50219,1,0,0:0:0:0:
192,192,50255,1,0,0:0:0:0:
448,192,50292,1,0,0:0:0:0:
320,192,50328,1,0,0:0:0:0:
192,192,50365,1,0,0:0:0:0:
64,192,50401,1,0,0:0:0:0:
448,192,50438,1,0,0:0:0:0:
192,192,50475,1,0,0:0:0:0:
320,192,50511,1,0,0:0:0:0:
64,192,50548,1,0,0:0:0:0:
192,192,50584,1,0,0:0:0:0:
320,192,50621,1,0,0:0:0:0:
448,192,50658,1,0,0:0:0:0:
64,192,50695,1,0,0:0:0:0:
192,192,50731,1,0,0:0:0:0:
320,192,50768,1,0,0:0:0:0:
448,192,50804,1,0,0:0:0:0:
64,192,50841,1,0,0:0:0:0:
192,192,50878,1,0,0:0:0:0:
64,192,50914,1,0,0:0:0:0:
448,192,50951,1,0,0:0:0:0:
320,192,50987,1,0,0:0:0:0:
64,192,51024,1,0,0:0:0:0:
448,192,51060,1,0,0:0:0:0:
320,192,51098,1,0,0:0:0:0:
192,192,51134,1,0,0:0:0:0:
448,192,51171,1,0,0:0:0:0:
320,192,51207,1,0,0:0:0:0:
192,192,51244,1,0,0:0:0:0:
448,192,51280,1,0,0:0:0:0:
64,192,51280,1,0,0:0:0:0:
320,192,51318,1,0,0:0:0:0:
192,192,51354,1,0,0:0:0:0:
64,192,51390,1,0,0:0:0:0:
448,192,51427,1,0,0:0:0:0:
320,192,51463,1,0,0:0:0:0:
448,192,51500,1,0,0:0:0:0:
64,192,51537,1,0,0:0:0:0:
192,192,51574,1,0,0:0:0:0:
320,192,51610,1,0,0:0:0:0:
448,192,51647,1,0,0:0:0:0:
64,192,51683,1,0,0:0:0:0:
192,192,51720,1,0,0:0:0:0:
448,192,51757,1,0,0:0:0:0:
320,192,51794,1,0,0:0:0:0:
64,192,51830,1,0,0:0:0:0:
192,192,51866,1,0,0:0:0:0:
320,192,51903,1,0,0:0:0:0:
448,192,51940,1,0,0:0:0:0:
64,192,51977,1,0,0:0:0:0:
320,192,52013,1,0,0:0:0:0:
192,192,52050,1,0,0:0:0:0:
448,192,52086,1,0,0:0:0:0:
64,192,52123,1,0,0:0:0:0:
192,192,52160,1,0,0:0:0:0:
320,192,52197,1,0,0:0:0:0:
448,192,52233,1,0,0:0:0:0:
192,192,52270,1,0,0:0:0:0:
320,192,52306,1,0,0:0:0:0:
64,192,52342,1,0,0:0:0:0:
192,192,52380,1,0,0:0:0:0:
320,192,52416,1,0,0:0:0:0:
448,192,52453,1,0,0:0:0:0:
64,192,52489,1,0,0:0:0:0:
192,192,52526,1,0,0:0:0:0:
320,192,52562,1,0,0:0:0:0:
448,192,52600,1,0,0:0:0:0:
64,192,52636,1,0,0:0:0:0:
320,192,52673,1,0,0:0:0:0:
192,192,52709,1,0,0:0:0:0:
448,192,52746,1,0,0:0:0:0:
320,192,52782,1,0,0:0:0:0:
64,192,52819,1,0,0:0:0:0:
192,192,52856,1,0,0:0:0:0:
64,192,52892,1,0,0:0:0:0:
448,192,52929,1,0,0:0:0:0:
320,192,52965,1,0,0:0:0:0:
192,192,53002,1,0,0:0:0:0:
64,192,53039,1,0,0:0:0:0:
192,192,53076,1,0,0:0:0:0:
320,192,53112,1,0,0:0:0:0:
448,192,53149,1,0,0:0:0:0:
64,192,53185,1,0,0:0:0:0:
192,192,53222,1,0,0:0:0:0:
448,192,53259,1,0,0:0:0:0:
320,192,53295,1,0,0:0:0:0:
192,192,53332,1,0,0:0:0:0:
64,192,53368,1,0,0:0:0:0:
192,192,53405,1,0,0:0:0:0:
320,192,53441,1,0,0:0:0:0:
448,192,53479,1,0,0:0:0:0:
320,192,53515,1,0,0:0:0:0:
192,192,53552,1,0,0:0:0:0:
64,192,53588,1,0,0:0:0:0:
448,192,53625,1,0,0:0:0:0:
320,192,53661,1,0,0:0:0:0:
64,192,53699,1,0,0:0:0:0:
192,192,53735,1,0,0:0:0:0:
320,192,53771,1,0,0:0:0:0:
448,192,53808,1,0,0:0:0:0:
320,192,53844,1,0,0:0:0:0:
192,192,53881,1,0,0:0:0:0:
64,192,53918,1,0,0:0:0:0:
192,192,53955,1,0,0:0:0:0:
320,192,53991,1,0,0:0:0:0:
448,192,54028,1,0,0:0:0:0:
64,192,54064,1,0,0:0:0:0:
192,192,54101,1,0,0:0:0:0:
448,192,54138,1,0,0:0:0:0:
320,192,54175,1,0,0:0:0:0:
192,192,54211,1,0,0:0:0:0:
64,192,54247,1,0,0:0:0:0:
192,192,54284,1,0,0:0:0:0:
320,192,54320,1,0,0:0:0:0:
448,192,54358,1,0,0:0:0:0:
320,192,54394,1,0,0:0:0:0:
192,192,54431,1,0,0:0:0:0:
64,192,54467,1,0,0:0:0:0:
320,192,54504,1,0,0:0:0:0:
192,192,54540,1,0,0:0:0:0:
448,192,54578,1,0,0:0:0:0:
320,192,54614,1,0,0:0:0:0:
192,192,54651,1,0,0:0:0:0:
64,192,54687,1,0,0:0:0:0:
448,192,54687,1,0,0:0:0:0:
320,192,54723,1,0,0:0:0:0:
64,192,54760,1,0,0:0:0:0:
448,192,54797,1,0,0:0:0:0:
320,192,54834,1,0,0:0:0:0:
192,192,54870,1,0,0:0:0:0:
448,192,54907,1,0,0:0:0:0:
320,192,54943,1,0,0:0:0:0:
64,192,54980,1,0,0:0:0:0:
448,192,55017,1,0,0:0:0:0:
320,192,55054,1,0,0:0:0:0:
192,192,55090,1,0,0:0:0:0:
64,192,55127,1,0,0:0:0:0:
192,192,55163,1,0,0:0:0:0:
448,192,55200,1,0,0:0:0:0:
64,192,55237,1,0,0:0:0:0:
192,192,55273,1,0,0:0:0:0:
320,192,55310,1,0,0:0:0:0:
64,192,55346,1,0,0:0:0:0:
192,192,55383,1,0,0:0:0:0:
448,192,55420,1,0,0:0:0:0:
320,192,55457,1,0,0:0:0:0:
192,192,55493,1,0,0:0:0:0:
64,192,55530,1,0,0:0:0:0:
448,192,55566,1,0,0:0:0:0:
320,192,55566,1,0,0:0:0:0:
192,192,55621,1,0,0:0:0:0:
64,192,55621,1,0,0:0:0:0:
320,192,55676,1,0,0:0:0:0:
448,192,55676,1,0,0:0:0:0:
192,192,55731,1,0,0:0:0:0:
64,192,55731,1,0,0:0:0:0:
320,192,55786,1,0,0:0:0:0:
448,192,55786,1,0,0:0:0:0:
320,192,55896,1,0,0:0:0:0:
448,192,55896,1,0,0:0:0:0:
192,192,56006,1,0,0:0:0:0:
64,192,56006,1,0,0:0:0:0:
192,192,56116,1,0,0:0:0:0:
64,192,56116,1,0,0:0:0:0:
320,192,56171,1,0,0:0:0:0:
448,192,56171,1,0,0:0:0:0:
192,192,56225,1,0,0:0:0:0:
64,192,56225,1,0,0:0:0:0:
320,192,56280,1,0,0:0:0:0:
448,192,56280,1,0,0:0:0:0:
192,192,56336,1,0,0:0:0:0:
64,192,56336,1,0,0:0:0:0:
320,192,56390,1,0,0:0:0:0:
448,192,56390,1,0,0:0:0:0:
64,192,56445,1,0,0:0:0:0:
192,192,56445,1,0,0:0:0:0:
448,192,56482,1,0,0:0:0:0:
320,192,56519,1,0,0:0:0:0:
64,192,56556,1,0,0:0:0:0:
192,192,56592,1,0,0:0:0:0:
448,192,56628,1,0,0:0:0:0:
64,192,56665,1,0,0:0:0:0:
320,192,56701,1,0,0:0:0:0:
192,192,56739,1,0,0:0:0:0:
448,192,56775,1,0,0:0:0:0:
64,192,56812,1,0,0:0:0:0:
320,192,56848,1,0,0:0:0:0:
448,192,56885,1,0,0:0:0:0:
64,192,56921,1,0,0:0:0:0:
192,192,56959,1,0,0:0:0:0:
448,192,56995,1,0,0:0:0:0:
320,192,57032,1,0,0:0:0:0:
64,192,57068,1,0,0:0:0:0:
448,192,57104,1,0,0:0:0:0:
192,192,57141,1,0,0:0:0:0:
320,192,57178,1,0,0:0:0:0:
64,192,57215,1,0,0:0:0:0:
448,192,57251,1,0,0:0:0:0:
320,192,57288,1,0,0:0:0:0:
64,192,57324,1,0,0:0:0:0:
448,192,57361,1,0,0:0:0:0:
320,192,57398,1,0,0:0:0:0:
64,192,57435,1,0,0:0:0:0:
192,192,57471,1,0,0:0:0:0:
448,192,57508,1,0,0:0:0:0:
64,192,57544,1,0,0:0:0:0:
320,192,57580,1,0,0:0:0:0:
192,192,57618,1,0,0:0:0:0:
448,192,57654,1,0,0:0:0:0:
64,192,57691,1,0,0:0:0:0:
320,192,57727,1,0,0:0:0:0:
448,192,57764,1,0,0:0:0:0:
64,192,57800,1,0,0:0:0:0:
192,192,57838,1,0,0:0:0:0:
448,192,57874,1,0,0:0:0:0:
320,192,57911,1,0,0:0:0:0:
64,192,57947,1,0,0:0:0:0:
448,192,57984,1,0,0:0:0:0:
320,192,58020,1,0,0:0:0:0:
192,192,58057,1,0,0:0:0:0:
64,192,58094,1,0,0:0:0:0:
448,192,58094,1,0,0:0:0:0:
320,192,58130,1,0,0:0:0:0:
192,192,58167,1,0,0:0:0:0:
64,192,58203,1,0,0:0:0:0:
448,192,58240,1,0,0:0:0:0:
320,192,58277,1,0,0:0:0:0:
64,192,58314,1,0,0:0:0:0:
192,192,58350,1,0,0:0:0:0:
448,192,58387,1,0,0:0:0:0:
64,192,58423,1,0,0:0:0:0:
320,192,58460,1,0,0:0:0:0:
192,192,58497,1,0,0:0:0:0:
448,192,58533,1,0,0:0:0:0:
64,192,58570,1,0,0:0:0:0:
320,192,58606,1,0,0:0:0:0:
448,192,58643,1,0,0:0:0:0:
64,192,58680,1,0,0:0:0:0:
192,192,58717,1,0,0:0:0:0:
448,192,58753,1,0,0:0:0:0:
320,192,58790,1,0,0:0:0:0:
64,192,58826,1,0,0:0:0:0:
448,192,58863,1,0,0:0:0:0:
192,192,58900,1,0,0:0:0:0:
320,192,58937,1,0,0:0:0:0:
64,192,58973,1,0,0:0:0:0:
448,192,59009,1,0,0:0:0:0:
320,192,59046,1,0,0:0:0:0:
64,192,59082,1,0,0:0:0:0:
448,192,59120,1,0,0:0:0:0:
320,192,59156,1,0,0:0:0:0:
64,192,59193,1,0,0:0:0:0:
192,192,59229,1,0,0:0:0:0:
448,192,59266,1,0,0:0:0:0:
64,192,59302,1,0,0:0:0:0:
320,192,59340,1,0,0:0:0:0:
192,192,59376,1,0,0:0:0:0:
448,192,59413,1,0,0:0:0:0:
64,192,59449,1,0,0:0:0:0:
320,192,59485,1,0,0:0:0:0:
448,192,59522,1,0,0:0:0:0:
64,192,59559,1,0,0:0:0:0:
192,192,59596,1,0,0:0:0:0:
448,192,59632,1,0,0:0:0:0:
320,192,59669,1,0,0:0:0:0:
64,192,59705,1,0,0:0:0:0:
448,192,59742,1,0,0:0:0:0:
320,192,59779,1,0,0:0:0:0:
192,192,59816,1,0,0:0:0:0:
64,192,59852,1,0,0:0:0:0:
448,192,59852,1,0,0:0:0:0:
320,192,59889,1,0,0:0:0:0:
192,192,59925,1,0,0:0:0:0:
64,192,59961,1,0,0:0:0:0:
448,192,59999,1,0,0:0:0:0:
320,192,60035,1,0,0:0:0:0:
64,192,60072,1,0,0:0:0:0:
192,192,60108,1,0,0:0:0:0:
448,192,60145,1,0,0:0:0:0:
64,192,60181,1,0,0:0:0:0:
320,192,60219,1,0,0:0:0:0:
192,192,60255,1,0,0:0:0:0:
448,192,60292,1,0,0:0:0:0:
64,192,60328,1,0,0:0:0:0:
320,192,60365,1,0,0:0:0:0:
448,192,60401,1,0,0:0:0:0:
64,192,60438,1,0,0:0:0:0:
192,192,60475,1,0,0:0:0:0:
448,192,60511,1,0,0:0:0:0:
320,192,60548,1,0,0:0:0:0:
64,192,60584,1,0,0:0:0:0:
448,192,60621,1,0,0:0:0:0:
192,192,60658,1,0,0:0:0:0:
320,192,60695,1,0,0:0:0:0:
64,192,60731,1,0,0:0:0:0:
448,192,60768,1,0,0:0:0:0:
320,192,60804,1,0,0:0:0:0:
64,192,60841,1,0,0:0:0:0:
448,192,60878,1,0,0:0:0:0:
320,192,60914,1,0,0:0:0:0:
64,192,60951,1,0,0:0:0:0:
192,192,60987,1,0,0:0:0:0:
448,192,61024,1,0,0:0:0:0:
64,192,61060,1,0,0:0:0:0:
320,192,61098,1,0,0:0:0:0:
192,192,61134,1,0,0:0:0:0:
448,192,61171,1,0,0:0:0:0:
64,192,61207,1,0,0:0:0:0:
320,192,61244,1,0,0:0:0:0:
448,192,61280,1,0,0:0:0:0:
64,192,61318,1,0,0:0:0:0:
192,192,61354,1,0,0:0:0:0:
448,192,61390,1,0,0:0:0:0:
320,192,61427,1,0,0:0:0:0:
64,192,61463,1,0,0:0:0:0:
448,192,61500,1,0,0:0:0:0:
320,192,61537,1,0,0:0:0:0:
192,192,61574,1,0,0:0:0:0:
64,192,61610,1,0,0:0:0:0:
448,192,61610,1,0,0:0:0:0:
320,192,61647,1,0,0:0:0:0:
192,192,61683,1,0,0:0:0:0:
64,192,61720,1,0,0:0:0:0:
448,192,61757,1,0,0:0:0:0:
320,192,61794,1,0,0:0:0:0:
64,192,61830,1,0,0:0:0:0:
192,192,61866,1,0,0:0:0:0:
448,192,61903,1,0,0:0:0:0:
64,192,61940,1,0,0:0:0:0:
320,192,61977,1,0,0:0:0:0:
192,192,62013,1,0,0:0:0:0:
448,192,62050,1,0,0:0:0:0:
64,192,62086,1,0,0:0:0:0:
320,192,62123,1,0,0:0:0:0:
448,192,62160,1,0,0:0:0:0:
64,192,62197,1,0,0:0:0:0:
192,192,62233,1,0,0:0:0:0:
448,192,62270,1,0,0:0:0:0:
320,192,62306,1,0,0:0:0:0:
64,192,62342,1,0,0:0:0:0:
448,192,62380,1,0,0:0:0:0:
320,192,62416,1,0,0:0:0:0:
192,192,62453,1,0,0:0:0:0:
64,192,62489,1,0,0:0:0:0:
320,192,62526,1,0,0:0:0:0:
192,192,62562,1,0,0:0:0:0:
448,192,62600,1,0,0:0:0:0:
320,192,62636,1,0,0:0:0:0:
192,192,62709,1,0,0:0:0:0:
64,192,62709,1,0,0:0:0:0:
320,192,62764,1,0,0:0:0:0:
448,192,62764,1,0,0:0:0:0:
192,192,62819,1,0,0:0:0:0:
64,192,62819,1,0,0:0:0:0:
64,192,62929,1,0,0:0:0:0:
192,192,62929,1,0,0:0:0:0:
320,192,62929,1,0,0:0:0:0:
448,192,62929,1,0,0:0:0:0:
64,192,63039,1,0,0:0:0:0:
192,192,63039,1,0,0:0:0:0:
320,192,63039,1,0,0:0:0:0:
448,192,63039,1,0,0:0:0:0:
64,192,63149,1,0,0:0:0:0:
192,192,63149,1,0,0:0:0:0:
320,192,63149,1,0,0:0:0:0:
448,192,63149,1,0,0:0:0:0:
64,192,63259,1,0,0:0:0:0:
192,192,63259,1,0,0:0:0:0:
320,192,63314,1,0,0:0:0:0:
448,192,63314,1,0,0:0:0:0:
192,192,63368,1,0,0:0:0:0:
64,192,63368,1,0,0:0:0:0:
320,192,63423,1,0,0:0:0:0:
448,192,63423,1,0,0:0:0:0:
192,192,63479,1,0,0:0:0:0:
64,192,63479,1,0,0:0:0:0:
320,192,64358,1,0,0:0:0:0:
64,192,64358,1,0,0:0:0:0:
448,192,64358,1,0,0:0:0:0:
192,192,64578,1,0,0:0:0:0:
64,192,64687,1,0,0:0:0:0:
320,192,64687,1,0,0:0:0:0:
448,192,64687,1,0,0:0:0:0:
192,192,65017,1,0,0:0:0:0:
64,192,65017,1,0,0:0:0:0:
448,192,65017,1,0,0:0:0:0:
192,192,65127,1,0,0:0:0:0:
64,192,65237,1,0,0:0:0:0:
320,192,65237,1,0,0:0:0:0:
448,192,65237,1,0,0:0:0:0:
64,192,66116,1,0,0:0:0:0:
192,192,66116,1,0,0:0:0:0:
320,192,66116,1,0,0:0:0:0:
448,192,66336,1,0,0:0:0:0:
64,192,66445,1,0,0:0:0:0:
192,192,66445,1,0,0:0:0:0:
320,192,66445,1,0,0:0:0:0:
192,192,66665,1,0,0:0:0:0:
320,192,66665,1,0,0:0:0:0:
64,192,66775,1,0,0:0:0:0:
320,192,66775,1,0,0:0:0:0:
448,192,66775,1,0,0:0:0:0:
192,192,66885,1,0,0:0:0:0:
64,192,66995,1,0,0:0:0:0:
320,192,66995,1,0,0:0:0:0:
448,192,66995,1,0,0:0:0:0:
192,192,67104,1,0,0:0:0:0:
448,192,67215,1,0,0:0:0:0:
64,192,67215,1,0,0:0:0:0:
320,192,67324,1,0,0:0:0:0:
64,192,67435,1,0,0:0:0:0:
192,192,67435,1,0,0:0:0:0:
320,192,67544,1,0,0:0:0:0:
448,192,67654,1,0,0:0:0:0:
64,192,67654,1,0,0:0:0:0:
192,192,67764,1,0,0:0:0:0:
320,192,67874,1,0,0:0:0:0:
448,192,67874,1,0,0:0:0:0:
448,192,67984,1,0,0:0:0:0:
320,192,68094,1,0,0:0:0:0:
192,192,68203,1,0,0:0:0:0:
64,192,68203,1,0,0:0:0:0:
64,192,68314,1,0,0:0:0:0:
192,192,68423,1,0,0:0:0:0:
448,192,68533,1,0,0:0:0:0:
320,192,68643,1,0,0:0:0:0:
192,192,68753,1,0,0:0:0:0:
64,192,68753,1,0,0:0:0:0:
320,192,68863,1,0,0:0:0:0:
64,192,68973,1,0,0:0:0:0:
320,192,69082,1,0,0:0:0:0:
192,192,69193,1,0,0:0:0:0:
64,192,69193,1,0,0:0:0:0:
448,192,69302,1,0,0:0:0:0:
192,192,69413,1,0,0:0:0:0:
64,192,69522,1,0,0:0:0:0:
320,192,69522,1,0,0:0:0:0:
448,192,69742,1,0,0:0:0:0:
448,192,69852,1,0,0:0:0:0:
64,192,69961,1,0,0:0:0:0:
64,192,70072,1,0,0:0:0:0:
192,192,70072,1,0,0:0:0:0:
320,192,70181,1,0,0:0:0:0:
448,192,70181,1,0,0:0:0:0:
64,192,70292,1,0,0:0:0:0:
192,192,70292,1,0,0:0:0:0:
320,192,70292,1,0,0:0:0:0:
448,192,70292,1,0,0:0:0:0:
448,192,70401,1,0,0:0:0:0:
320,192,70401,1,0,0:0:0:0:
192,192,70401,1,0,0:0:0:0:
64,192,70401,1,0,0:0:0:0:
64,192,70511,1,0,0:0:0:0:
448,192,70511,1,0,0:0:0:0:
192,192,70548,1,0,0:0:0:0:
320,192,70584,1,0,0:0:0:0:
448,192,70621,1,0,0:0:0:0:
320,192,70658,1,0,0:0:0:0:
192,192,70695,1,0,0:0:0:0:
64,192,70731,1,0,0:0:0:0:
448,192,70768,1,0,0:0:0:0:
320,192,70804,1,0,0:0:0:0:
64,192,70841,1,0,0:0:0:0:
448,192,70878,1,0,0:0:0:0:
192,192,70914,1,0,0:0:0:0:
320,192,70951,1,0,0:0:0:0:
64,192,70987,1,0,0:0:0:0:
448,192,71024,1,0,0:0:0:0:
320,192,71060,1,0,0:0:0:0:
192,192,71098,1,0,0:0:0:0:
64,192,71134,1,0,0:0:0:0:
448,192,71171,1,0,0:0:0:0:
320,192,71207,1,0,0:0:0:0:
64,192,71244,1,0,0:0:0:0:
192,192,71280,1,0,0:0:0:0:
448,192,71318,1,0,0:0:0:0:
320,192,71354,1,0,0:0:0:0:
192,192,71390,1,0,0:0:0:0:
64,192,71427,1,0,0:0:0:0:
320,192,71463,1,0,0:0:0:0:
192,192,71500,1,0,0:0:0:0:
448,192,71537,1,0,0:0:0:0:
320,192,71574,1,0,0:0:0:0:
192,192,71610,1,0,0:0:0:0:
64,192,71647,1,0,0:0:0:0:
448,192,71683,1,0,0:0:0:0:
320,192,71720,1,0,0:0:0:0:
64,192,71757,1,0,0:0:0:0:
192,192,71794,1,0,0:0:0:0:
448,192,71830,1,0,0:0:0:0:
64,192,71866,1,0,0:0:0:0:
320,192,71903,1,0,0:0:0:0:
192,192,71940,1,0,0:0:0:0:
448,192,71977,1,0,0:0:0:0:
320,192,72013,1,0,0:0:0:0:
192,192,72050,1,0,0:0:0:0:
64,192,72050,1,0,0:0:0:0:
320,192,72086,1,0,0:0:0:0:
448,192,72123,1,0,0:0:0:0:
64,192,72160,1,0,0:0:0:0:
192,192,72197,1,0,0:0:0:0:
320,192,72233,1,0,0:0:0:0:
64,192,72270,1,0,0:0:0:0:
448,192,72306,1,0,0:0:0:0:
320,192,72342,1,0,0:0:0:0:
64,192,72380,1,0,0:0:0:0:
192,192,72416,1,0,0:0:0:0:
448,192,72453,1,0,0:0:0:0:
320,192,72489,1,0,0:0:0:0:
192,192,72526,1,0,0:0:0:0:
64,192,72562,1,0,0:0:0:0:
192,192,72600,1,0,0:0:0:0:
320,192,72636,1,0,0:0:0:0:
448,192,72673,1,0,0:0:0:0:
64,192,72709,1,0,0:0:0:0:
192,192,72746,1,0,0:0:0:0:
448,192,72782,1,0,0:0:0:0:
320,192,72819,1,0,0:0:0:0:
64,192,72856,1,0,0:0:0:0:
448,192,72892,1,0,0:0:0:0:
192,192,72929,1,0,0:0:0:0:
320,192,72965,1,0,0:0:0:0:
64,192,73002,1,0,0:0:0:0:
192,192,73039,1,0,0:0:0:0:
320,192,73076,1,0,0:0:0:0:
448,192,73112,1,0,0:0:0:0:
192,192,73149,1,0,0:0:0:0:
320,192,73185,1,0,0:0:0:0:
64,192,73222,1,0,0:0:0:0:
192,192,73259,1,0,0:0:0:0:
320,192,73295,1,0,0:0:0:0:
448,192,73332,1,0,0:0:0:0:
64,192,73368,1,0,0:0:0:0:
320,192,73405,1,0,0:0:0:0:
192,192,73441,1,0,0:0:0:0:
448,192,73479,1,0,0:0:0:0:
320,192,73515,1,0,0:0:0:0:
64,192,73552,1,0,0:0:0:0:
448,192,73588,1,0,0:0:0:0:
320,192,73625,1,0,0:0:0:0:
64,192,73661,1,0,0:0:0:0:
192,192,73699,1,0,0:0:0:0:
320,192,73735,1,0,0:0:0:0:
448,192,73771,1,0,0:0:0:0:
64,192,73808,1,0,0:0:0:0:
192,192,73844,1,0,0:0:0:0:
64,192,73881,1,0,0:0:0:0:
448,192,73918,1,0,0:0:0:0:
320,192,73955,1,0,0:0:0:0:
448,192,73991,1,0,0:0:0:0:
64,192,74028,1,0,0:0:0:0:
192,192,74028,1,0,0:0:0:0:
320,192,74064,1,0,0:0:0:0:
448,192,74101,1,0,0:0:0:0:
64,192,74138,1,0,0:0:0:0:
192,192,74175,1,0,0:0:0:0:
320,192,74211,1,0,0:0:0:0:
448,192,74247,1,0,0:0:0:0:
64,192,74284,1,0,0:0:0:0:
192,192,74320,1,0,0:0:0:0:
448,192,74358,1,0,0:0:0:0:
320,192,74394,1,0,0:0:0:0:
64,192,74431,1,0,0:0:0:0:
192,192,74467,1,0,0:0:0:0:
448,192,74504,1,0,0:0:0:0:
64,192,74540,1,0,0:0:0:0:
320,192,74578,1,0,0:0:0:0:
448,192,74614,1,0,0:0:0:0:
192,192,74651,1,0,0:0:0:0:
64,192,74687,1,0,0:0:0:0:
448,192,74723,1,0,0:0:0:0:
320,192,74760,1,0,0:0:0:0:
192,192,74797,1,0,0:0:0:0:
64,192,74834,1,0,0:0:0:0:
448,192,74870,1,0,0:0:0:0:
192,192,74907,1,0,0:0:0:0:
320,192,74943,1,0,0:0:0:0:
64,192,74980,1,0,0:0:0:0:
448,192,75017,1,0,0:0:0:0:
192,192,75054,1,0,0:0:0:0:
320,192,75090,1,0,0:0:0:0:
448,192,75127,1,0,0:0:0:0:
64,192,75163,1,0,0:0:0:0:
192,192,75200,1,0,0:0:0:0:
320,192,75237,1,0,0:0:0:0:
448,192,75273,1,0,0:0:0:0:
64,192,75310,1,0,0:0:0:0:
192,192,75346,1,0,0:0:0:0:
448,192,75383,1,0,0:0:0:0:
320,192,75420,1,0,0:0:0:0:
64,192,75457,1,0,0:0:0:0:
448,192,75493,1,0,0:0:0:0:
192,192,75530,1,0,0:0:0:0:
320,192,75566,1,0,0:0:0:0:
448,192,75603,1,0,0:0:0:0:
64,192,75640,1,0,0:0:0:0:
320,192,75676,1,0,0:0:0:0:
192,192,75713,1,0,0:0:0:0:
64,192,75749,1,0,0:0:0:0:
448,192,75786,1,0,0:0:0:0:
320,192,75822,1,0,0:0:0:0:
192,192,75860,1,0,0:0:0:0:
64,192,75896,1,0,0:0:0:0:
192,192,75933,1,0,0:0:0:0:
320,192,75969,1,0,0:0:0:0:
448,192,76006,1,0,0:0:0:0:
64,192,76042,1,0,0:0:0:0:
192,192,76080,1,0,0:0:0:0:
320,192,76116,1,0,0:0:0:0:
448,192,76152,1,0,0:0:0:0:
320,192,76189,1,0,0:0:0:0:
192,192,76225,1,0,0:0:0:0:
64,192,76262,1,0,0:0:0:0:
320,192,76299,1,0,0:0:0:0:
192,192,76336,1,0,0:0:0:0:
448,192,76372,1,0,0:0:0:0:
64,192,76409,1,0,0:0:0:0:
192,192,76445,1,0,0:0:0:0:
320,192,76482,1,0,0:0:0:0:
448,192,76519,1,0,0:0:0:0:
64,192,76556,1,0,0:0:0:0:
192,192,76592,1,0,0:0:0:0:
320,192,76628,1,0,0:0:0:0:
448,192,76665,1,0,0:0:0:0:
192,192,76701,1,0,0:0:0:0:
320,192,76739,1,0,0:0:0:0:
64,192,76775,1,0,0:0:0:0:
192,192,76812,1,0,0:0:0:0:
448,192,76848,1,0,0:0:0:0:
320,192,76885,1,0,0:0:0:0:
192,192,76921,1,0,0:0:0:0:
64,192,76959,1,0,0:0:0:0:
320,192,76995,1,0,0:0:0:0:
192,192,77032,1,0,0:0:0:0:
448,192,77068,1,0,0:0:0:0:
320,192,77104,1,0,0:0:0:0:
192,192,77141,1,0,0:0:0:0:
64,192,77178,1,0,0:0:0:0:
448,192,77215,1,0,0:0:0:0:
320,192,77251,1,0,0:0:0:0:
192,192,77288,1,0,0:0:0:0:
64,192,77324,1,0,0:0:0:0:
192,192,77361,1,0,0:0:0:0:
320,192,77398,1,0,0:0:0:0:
448,192,77435,1,0,0:0:0:0:
320,192,77471,1,0,0:0:0:0:
192,192,77508,1,0,0:0:0:0:
64,192,77544,128,0,77984:0:0:0:0:
320,192,77654,1,0,0:0:0:0:
448,192,77764,1,0,0:0:0:0:
192,192,77874,1,0,0:0:0:0:
320,192,77984,1,0,0:0:0:0:
448,192,77984,1,0,0:0:0:0:
192,192,78203,1,0,0:0:0:0:
448,192,78203,1,0,0:0:0:0:
320,192,78259,1,0,0:0:0:0:
448,192,78314,1,0,0:0:0:0:
320,192,78368,1,0,0:0:0:0:
64,192,78423,1,0,0:0:0:0:
192,192,78423,1,0,0:0:0:0:
64,192,78533,1,0,0:0:0:0:
64,192,78643,1,0,0:0:0:0:
192,192,78643,1,0,0:0:0:0:
320,192,78699,1,0,0:0:0:0:
448,192,78753,1,0,0:0:0:0:
320,192,78808,1,0,0:0:0:0:
64,192,78863,1,0,0:0:0:0:
192,192,78863,1,0,0:0:0:0:
320,192,78973,1,0,0:0:0:0:
448,192,78973,1,0,0:0:0:0:
320,192,79082,1,0,0:0:0:0:
448,192,79082,1,0,0:0:0:0:
320,192,79193,1,0,0:0:0:0:
448,192,79193,1,0,0:0:0:0:
64,192,79302,1,0,0:0:0:0:
192,192,79302,1,0,0:0:0:0:
320,192,79358,1,0,0:0:0:0:
448,192,79413,1,0,0:0:0:0:
192,192,79413,1,0,0:0:0:0:
64,192,79467,1,0,0:0:0:0:
192,192,79522,1,0,0:0:0:0:
320,192,79632,1,0,0:0:0:0:
64,192,79742,1,0,0:0:0:0:
448,192,79742,1,0,0:0:0:0:
192,192,79742,1,0,0:0:0:0:
192,192,79852,1,0,0:0:0:0:
64,192,79852,1,0,0:0:0:0:
320,192,79961,1,0,0:0:0:0:
448,192,79961,1,0,0:0:0:0:
320,192,80072,1,0,0:0:0:0:
448,192,80072,1,0,0:0:0:0:
64,192,80181,1,0,0:0:0:0:
192,192,80181,1,0,0:0:0:0:
192,192,80292,1,0,0:0:0:0:
320,192,80292,1,0,0:0:0:0:
64,192,80401,1,0,0:0:0:0:
448,192,80457,1,0,0:0:0:0:
192,192,80511,1,0,0:0:0:0:
320,192,80566,1,0,0:0:0:0:
448,192,80621,1,0,0:0:0:0:
64,192,80621,1,0,0:0:0:0:
320,192,80676,1,0,0:0:0:0:
192,192,80731,1,0,0:0:0:0:
448,192,80786,1,0,0:0:0:0:
64,192,80841,1,0,0:0:0:0:
320,192,80841,1,0,0:0:0:0:
192,192,80896,1,0,0:0:0:0:
320,192,80951,1,0,0:0:0:0:
64,192,81060,1,0,0:0:0:0:
448,192,81060,1,0,0:0:0:0:
192,192,81116,1,0,0:0:0:0:
320,192,81171,1,0,0:0:0:0:
448,192,81225,1,0,0:0:0:0:
64,192,81225,1,0,0:0:0:0:
192,192,81280,1,0,0:0:0:0:
320,192,81280,1,0,0:0:0:0:
64,192,81390,1,0,0:0:0:0:
192,192,81390,1,0,0:0:0:0:
192,192,81500,1,0,0:0:0:0:
448,192,81500,1,0,0:0:0:0:
320,192,81556,1,0,0:0:0:0:
448,192,81610,1,0,0:0:0:0:
320,192,81665,1,0,0:0:0:0:
192,192,81720,1,0,0:0:0:0:
64,192,81720,1,0,0:0:0:0:
192,192,81830,1,0,0:0:0:0:
448,192,81830,1,0,0:0:0:0:
320,192,81885,1,0,0:0:0:0:
448,192,81940,1,0,0:0:0:0:
192,192,81940,1,0,0:0:0:0:
64,192,82050,1,0,0:0:0:0:
192,192,82050,1,0,0:0:0:0:
192,192,82160,1,0,0:0:0:0:
64,192,82160,1,0,0:0:0:0:
320,192,82215,1,0,0:0:0:0:
192,192,82270,1,0,0:0:0:0:
320,192,82324,1,0,0:0:0:0:
448,192,82380,1,0,0:0:0:0:
192,192,82380,1,0,0:0:0:0:
64,192,82380,1,0,0:0:0:0:
64,192,82489,1,0,0:0:0:0:
192,192,82489,1,0,0:0:0:0:
192,192,82600,1,0,0:0:0:0:
320,192,82600,1,0,0:0:0:0:
448,192,82709,1,0,0:0:0:0:
320,192,82709,1,0,0:0:0:0:
64,192,82819,1,0,0:0:0:0:
320,192,82874,1,0,0:0:0:0:
192,192,82929,1,0,0:0:0:0:
448,192,82984,1,0,0:0:0:0:
64,192,83039,1,0,0:0:0:0:
192,192,83094,1,0,0:0:0:0:
320,192,83149,1,0,0:0:0:0:
448,192,83149,1,0,0:0:0:0:
192,192,83203,1,0,0:0:0:0:
320,192,83259,1,0,0:0:0:0:
64,192,83259,1,0,0:0:0:0:
448,192,83259,1,0,0:0:0:0:
192,192,83368,1,0,0:0:0:0:
320,192,83479,1,0,0:0:0:0:
448,192,83479,1,0,0:0:0:0:
192,192,83588,1,0,0:0:0:0:
64,192,83699,1,0,0:0:0:0:
320,192,83699,1,0,0:0:0:0:
192,192,83808,1,0,0:0:0:0:
320,192,83808,1,0,0:0:0:0:
448,192,83808,1,0,0:0:0:0:
64,192,83918,1,0,0:0:0:0:
192,192,83973,1,0,0:0:0:0:
320,192,84028,1,0,0:0:0:0:
192,192,84082,1,0,0:0:0:0:
320,192,84138,1,0,0:0:0:0:
448,192,84138,1,0,0:0:0:0:
64,192,84138,1,0,0:0:0:0:
192,192,84193,1,0,0:0:0:0:
320,192,84247,1,0,0:0:0:0:
448,192,84302,1,0,0:0:0:0:
192,192,84358,1,0,0:0:0:0:
320,192,84358,1,0,0:0:0:0:
64,192,84413,1,0,0:0:0:0:
448,192,84467,1,0,0:0:0:0:
320,192,84522,1,0,0:0:0:0:
64,192,84578,1,0,0:0:0:0:
192,192,84578,1,0,0:0:0:0:
448,192,84614,1,0,0:0:0:0:
320,192,84651,1,0,0:0:0:0:
64,192,84687,1,0,0:0:0:0:
192,192,84723,1,0,0:0:0:0:
448,192,84760,1,0,0:0:0:0:
64,192,84797,1,0,0:0:0:0:
320,192,84834,1,0,0:0:0:0:
192,192,84870,1,0,0:0:0:0:
448,192,84907,1,0,0:0:0:0:
64,192,84943,1,0,0:0:0:0:
320,192,84980,1,0,0:0:0:0:
448,192,85017,1,0,0:0:0:0:
64,192,85054,1,0,0:0:0:0:
192,192,85090,1,0,0:0:0:0:
448,192,85127,1,0,0:0:0:0:
320,192,85163,1,0,0:0:0:0:
64,192,85200,1,0,0:0:0:0:
448,192,85237,1,0,0:0:0:0:
192,192,85273,1,0,0:0:0:0:
320,192,85310,1,0,0:0:0:0:
64,192,85346,1,0,0:0:0:0:
448,192,85383,1,0,0:0:0:0:
320,192,85420,1,0,0:0:0:0:
64,192,85457,1,0,0:0:0:0:
448,192,85493,1,0,0:0:0:0:
320,192,85530,1,0,0:0:0:0:
64,192,85566,1,0,0:0:0:0:
192,192,85603,1,0,0:0:0:0:
448,192,85640,1,0,0:0:0:0:
64,192,85676,1,0,0:0:0:0:
320,192,85713,1,0,0:0:0:0:
192,192,85749,1,0,0:0:0:0:
448,192,85786,1,0,0:0:0:0:
64,192,85822,1,0,0:0:0:0:
320,192,85860,1,0,0:0:0:0:
448,192,85896,1,0,0:0:0:0:
64,192,85933,1,0,0:0:0:0:
192,192,85969,1,0,0:0:0:0:
320,192,86006,1,0,0:0:0:0:
448,192,86042,1,0,0:0:0:0:
64,192,86042,1,0,0:0:0:0:
192,192,86080,1,0,0:0:0:0:
320,192,86116,1,0,0:0:0:0:
448,192,86152,1,0,0:0:0:0:
64,192,86189,1,0,0:0:0:0:
448,192,86225,1,0,0:0:0:0:
320,192,86262,1,0,0:0:0:0:
448,192,86299,1,0,0:0:0:0:
64,192,86336,1,0,0:0:0:0:
192,192,86372,1,0,0:0:0:0:
320,192,86409,1,0,0:0:0:0:
64,192,86445,1,0,0:0:0:0:
448,192,86482,1,0,0:0:0:0:
192,192,86519,1,0,0:0:0:0:
320,192,86556,1,0,0:0:0:0:
64,192,86592,1,0,0:0:0:0:
448,192,86628,1,0,0:0:0:0:
320,192,86665,1,0,0:0:0:0:
192,192,86701,1,0,0:0:0:0:
64,192,86739,1,0,0:0:0:0:
448,192,86775,1,0,0:0:0:0:
320,192,86812,1,0,0:0:0:0:
64,192,86848,1,0,0:0:0:0:
192,192,86885,1,0,0:0:0:0:
448,192,86921,1,0,0:0:0:0:
320,192,86959,1,0,0:0:0:0:
192,192,86995,1,0,0:0:0:0:
64,192,87032,1,0,0:0:0:0:
320,192,87068,1,0,0:0:0:0:
192,192,87104,1,0,0:0:0:0:
448,192,87141,1,0,0:0:0:0:
320,192,87178,1,0,0:0:0:0:
192,192,87215,1,0,0:0:0:0:
64,192,87251,1,0,0:0:0:0:
448,192,87288,1,0,0:0:0:0:
320,192,87324,1,0,0:0:0:0:
64,192,87361,1,0,0:0:0:0:
192,192,87398,1,0,0:0:0:0:
448,192,87435,1,0,0:0:0:0:
64,192,87471,1,0,0:0:0:0:
320,192,87508,1,0,0:0:0:0:
192,192,87544,1,0,0:0:0:0:
448,192,87580,1,0,0:0:0:0:
320,192,87618,1,0,0:0:0:0:
64,192,87654,1,0,0:0:0:0:
448,192,87691,1,0,0:0:0:0:
320,192,87727,1,0,0:0:0:0:
64,192,87764,1,0,0:0:0:0:
192,192,87800,1,0,0:0:0:0:
320,192,87838,1,0,0:0:0:0:
64,192,87874,1,0,0:0:0:0:
448,192,87911,1,0,0:0:0:0:
320,192,87947,1,0,0:0:0:0:
64,192,87984,1,0,0:0:0:0:
192,192,88020,1,0,0:0:0:0:
448,192,88057,1,0,0:0:0:0:
64,192,88094,1,0,0:0:0:0:
192,192,88130,1,0,0:0:0:0:
320,192,88167,1,0,0:0:0:0:
448,192,88203,1,0,0:0:0:0:
64,192,88240,1,0,0:0:0:0:
192,192,88277,1,0,0:0:0:0:
448,192,88314,1,0,0:0:0:0:
320,192,88350,1,0,0:0:0:0:
64,192,88387,1,0,0:0:0:0:
192,192,88423,1,0,0:0:0:0:
320,192,88460,1,0,0:0:0:0:
448,192,88497,1,0,0:0:0:0:
64,192,88533,1,0,0:0:0:0:
320,192,88570,1,0,0:0:0:0:
192,192,88606,1,0,0:0:0:0:
448,192,88643,1,0,0:0:0:0:
320,192,88680,1,0,0:0:0:0:
192,192,88717,1,0,0:0:0:0:
64,192,88753,1,0,0:0:0:0:
448,192,88790,1,0,0:0:0:0:
320,192,88826,1,0,0:0:0:0:
64,192,88863,1,0,0:0:0:0:
192,192,88900,1,0,0:0:0:0:
448,192,88937,1,0,0:0:0:0:
320,192,88973,1,0,0:0:0:0:
192,192,89009,1,0,0:0:0:0:
64,192,89046,1,0,0:0:0:0:
448,192,89082,1,0,0:0:0:0:
320,192,89120,1,0,0:0:0:0:
64,192,89156,1,0,0:0:0:0:
192,192,89193,1,0,0:0:0:0:
448,192,89229,1,0,0:0:0:0:
320,192,89266,1,0,0:0:0:0:
192,192,89302,1,0,0:0:0:0:
64,192,89340,1,0,0:0:0:0:
448,192,89376,1,0,0:0:0:0:
192,192,89413,1,0,0:0:0:0:
320,192,89449,1,0,0:0:0:0:
64,192,89485,1,0,0:0:0:0:
448,192,89522,1,0,0:0:0:0:
320,192,89559,1,0,0:0:0:0:
64,192,89596,1,0,0:0:0:0:
448,192,89632,1,0,0:0:0:0:
320,192,89669,1,0,0:0:0:0:
448,192,89705,1,0,0:0:0:0:
64,192,89742,1,0,0:0:0:0:
192,192,89779,1,0,0:0:0:0:
64,192,89816,1,0,0:0:0:0:
448,192,89852,1,0,0:0:0:0:
320,192,89889,1,0,0:0:0:0:
192,192,89925,1,0,0:0:0:0:
64,192,89961,1,0,0:0:0:0:
448,192,89961,1,0,0:0:0:0:
320,192,89999,1,0,0:0:0:0:
192,192,90035,1,0,0:0:0:0:
64,192,90072,1,0,0:0:0:0:
448,192,90072,1,0,0:0:0:0:
320,192,90108,1,0,0:0:0:0:
192,192,90145,1,0,0:0:0:0:
64,192,90181,1,0,0:0:0:0:
448,192,90181,1,0,0:0:0:0:
320,192,90219,1,0,0:0:0:0:
64,192,90255,1,0,0:0:0:0:
320,192,90292,1,0,0:0:0:0:
448,192,90292,1,0,0:0:0:0:
192,192,90346,1,0,0:0:0:0:
64,192,90346,1,0,0:0:0:0:
320,192,90401,1,0,0:0:0:0:
448,192,90401,1,0,0:0:0:0:
192,192,90457,1,0,0:0:0:0:
64,192,90457,1,0,0:0:0:0:
320,192,90511,1,0,0:0:0:0:
448,192,90511,1,0,0:0:0:0:
192,192,90566,1,0,0:0:0:0:
64,192,90566,1,0,0:0:0:0:
320,192,90621,1,0,0:0:0:0:
448,192,90621,1,0,0:0:0:0:
192,192,90676,1,0,0:0:0:0:
64,192,90676,1,0,0:0:0:0:
320,192,90731,1,0,0:0:0:0:
448,192,90731,1,0,0:0:0:0:
320,192,90841,1,0,0:0:0:0:
448,192,90841,1,0,0:0:0:0:
64,192,90951,1,0,0:0:0:0:
192,192,90951,1,0,0:0:0:0:
320,192,90951,1,0,0:0:0:0:
448,192,90951,1,0,0:0:0:0:
192,192,91060,1,0,0:0:0:0:
64,192,91060,1,0,0:0:0:0:
64,192,91171,1,0,0:0:0:0:
192,192,91171,1,0,0:0:0:0:
320,192,91171,1,0,0:0:0:0:
448,192,91171,1,0,0:0:0:0:
320,192,91280,1,0,0:0:0:0:
448,192,91280,1,0,0:0:0:0:
320,192,91390,1,0,0:0:0:0:
448,192,91390,1,0,0:0:0:0:
192,192,91390,1,0,0:0:0:0:
64,192,91390,1,0,0:0:0:0:
64,192,91500,1,0,0:0:0:0:
192,192,91500,1,0,0:0:0:0:
448,192,91610,1,0,0:0:0:0:
320,192,91647,1,0,0:0:0:0:
192,192,91683,1,0,0:0:0:0:
64,192,91720,1,0,0:0:0:0:
448,192,91757,1,0,0:0:0:0:
320,192,91794,1,0,0:0:0:0:
64,192,91830,1,0,0:0:0:0:
192,192,91866,1,0,0:0:0:0:
448,192,91903,1,0,0:0:0:0:
320,192,91940,1,0,0:0:0:0:
192,192,91977,1,0,0:0:0:0:
64,192,92013,1,0,0:0:0:0:
448,192,92050,1,0,0:0:0:0:
320,192,92086,1,0,0:0:0:0:
192,192,92123,1,0,0:0:0:0:
64,192,92160,1,0,0:0:0:0:
448,192,92197,1,0,0:0:0:0:
320,192,92233,1,0,0:0:0:0:
64,192,92270,1,0,0:0:0:0:
192,192,92306,1,0,0:0:0:0:
448,192,92342,1,0,0:0:0:0:
64,192,92380,1,0,0:0:0:0:
320,192,92416,1,0,0:0:0:0:
192,192,92453,1,0,0:0:0:0:
448,192,92489,1,0,0:0:0:0:
320,192,92526,1,0,0:0:0:0:
192,192,92562,1,0,0:0:0:0:
64,192,92600,1,0,0:0:0:0:
448,192,92636,1,0,0:0:0:0:
192,192,92673,1,0,0:0:0:0:
320,192,92709,1,0,0:0:0:0:
64,192,92746,1,0,0:0:0:0:
192,192,92782,1,0,0:0:0:0:
320,192,92819,1,0,0:0:0:0:
448,192,92856,1,0,0:0:0:0:
64,192,92892,1,0,0:0:0:0:
192,192,92929,1,0,0:0:0:0:
320,192,92965,1,0,0:0:0:0:
448,192,93002,1,0,0:0:0:0:
64,192,93039,1,0,0:0:0:0:
192,192,93076,1,0,0:0:0:0:
64,192,93112,1,0,0:0:0:0:
448,192,93149,1,0,0:0:0:0:
320,192,93185,1,0,0:0:0:0:
64,192,93222,1,0,0:0:0:0:
448,192,93259,1,0,0:0:0:0:
320,192,93295,1,0,0:0:0:0:
192,192,93332,1,0,0:0:0:0:
448,192,93368,1,0,0:0:0:0:
320,192,93405,1,0,0:0:0:0:
192,192,93441,1,0,0:0:0:0:
64,192,93479,1,0,0:0:0:0:
448,192,93479,1,0,0:0:0:0:
320,192,93515,1,0,0:0:0:0:
192,192,93552,1,0,0:0:0:0:
64,192,93588,1,0,0:0:0:0:
448,192,93625,1,0,0:0:0:0:
320,192,93661,1,0,0:0:0:0:
448,192,93699,1,0,0:0:0:0:
64,192,93735,1,0,0:0:0:0:
192,192,93771,1,0,0:0:0:0:
320,192,93808,1,0,0:0:0:0:
448,192,93844,1,0,0:0:0:0:
64,192,93881,1,0,0:0:0:0:
192,192,93918,1,0,0:0:0:0:
448,192,93955,1,0,0:0:0:0:
320,192,93991,1,0,0:0:0:0:
64,192,94028,1,0,0:0:0:0:
192,192,94064,1,0,0:0:0:0:
320,192,94101,1,0,0:0:0:0:
448,192,94138,1,0,0:0:0:0:
64,192,94175,1,0,0:0:0:0:
320,192,94211,1,0,0:0:0:0:
192,192,94247,1,0,0:0:0:0:
448,192,94284,1,0,0:0:0:0:
64,192,94320,1,0,0:0:0:0:
192,192,94358,1,0,0:0:0:0:
320,192,94394,1,0,0:0:0:0:
448,192,94431,1,0,0:0:0:0:
192,192,94467,1,0,0:0:0:0:
320,192,94504,1,0,0:0:0:0:
64,192,94540,1,0,0:0:0:0:
192,192,94578,1,0,0:0:0:0:
320,192,94614,1,0,0:0:0:0:
448,192,94651,1,0,0:0:0:0:
64,192,94687,1,0,0:0:0:0:
192,192,94723,1,0,0:0:0:0:
320,192,94760,1,0,0:0:0:0:
448,192,94797,1,0,0:0:0:0:
64,192,94834,1,0,0:0:0:0:
320,192,94870,1,0,0:0:0:0:
192,192,94907,1,0,0:0:0:0:
448,192,94943,1,0,0:0:0:0:
320,192,94980,1,0,0:0:0:0:
64,192,95017,1,0,0:0:0:0:
192,192,95054,1,0,0:0:0:0:
64,192,95090,1,0,0:0:0:0:
448,192,95127,1,0,0:0:0:0:
320,192,95163,1,0,0:0:0:0:
64,192,95200,1,0,0:0:0:0:
448,192,95237,1,0,0:0:0:0:
192,192,95273,1,0,0:0:0:0:
64,192,95310,1,0,0:0:0:0:
448,192,95346,1,0,0:0:0:0:
320,192,95383,1,0,0:0:0:0:
192,192,95420,1,0,0:0:0:0:
64,192,95457,1,0,0:0:0:0:
320,192,95493,1,0,0:0:0:0:
192,192,95530,1,0,0:0:0:0:
448,192,95566,1,0,0:0:0:0:
320,192,95603,1,0,0:0:0:0:
192,192,95640,1,0,0:0:0:0:
64,192,95676,1,0,0:0:0:0:
448,192,95713,1,0,0:0:0:0:
320,192,95749,1,0,0:0:0:0:
64,192,95786,1,0,0:0:0:0:
448,192,95822,1,0,0:0:0:0:
192,192,95860,1,0,0:0:0:0:
64,192,95896,1,0,0:0:0:0:
320,192,95933,1,0,0:0:0:0:
192,192,95969,1,0,0:0:0:0:
448,192,96006,1,0,0:0:0:0:
320,192,96042,1,0,0:0:0:0:
192,192,96080,1,0,0:0:0:0:
64,192,96116,1,0,0:0:0:0:
320,192,96152,1,0,0:0:0:0:
192,192,96189,1,0,0:0:0:0:
448,192,96225,1,0,0:0:0:0:
320,192,96262,1,0,0:0:0:0:
192,192,96299,1,0,0:0:0:0:
64,192,96336,1,0,0:0:0:0:
320,192,96372,1,0,0:0:0:0:
192,192,96409,1,0,0:0:0:0:
64,192,96445,1,0,0:0:0:0:
448,192,96482,1,0,0:0:0:0:
320,192,96519,1,0,0:0:0:0:
192,192,96556,1,0,0:0:0:0:
448,192,96592,1,0,0:0:0:0:
64,192,96628,1,0,0:0:0:0:
192,192,96665,1,0,0:0:0:0:
320,192,96701,1,0,0:0:0:0:
448,192,96739,1,0,0:0:0:0:
320,192,96775,1,0,0:0:0:0:
192,192,96812,1,0,0:0:0:0:
64,192,96848,1,0,0:0:0:0:
448,192,96885,1,0,0:0:0:0:
320,192,96921,1,0,0:0:0:0:
192,192,96959,1,0,0:0:0:0:
64,192,96995,1,0,0:0:0:0:
448,192,96995,1,0,0:0:0:0:
320,192,97032,1,0,0:0:0:0:
64,192,97068,1,0,0:0:0:0:
448,192,97104,1,0,0:0:0:0:
320,192,97141,1,0,0:0:0:0:
192,192,97178,1,0,0:0:0:0:
448,192,97215,1,0,0:0:0:0:
320,192,97251,1,0,0:0:0:0:
192,192,97288,1,0,0:0:0:0:
448,192,97324,1,0,0:0:0:0:
320,192,97361,1,0,0:0:0:0:
64,192,97398,1,0,0:0:0:0:
448,192,97435,1,0,0:0:0:0:
320,192,97471,1,0,0:0:0:0:
192,192,97508,1,0,0:0:0:0:
64,192,97544,1,0,0:0:0:0:
192,192,97580,1,0,0:0:0:0:
320,192,97618,1,0,0:0:0:0:
64,192,97654,1,0,0:0:0:0:
192,192,97691,1,0,0:0:0:0:
320,192,97727,1,0,0:0:0:0:
64,192,97764,1,0,0:0:0:0:
192,192,97800,1,0,0:0:0:0:
448,192,97838,1,0,0:0:0:0:
64,192,97874,1,0,0:0:0:0:
192,192,97911,1,0,0:0:0:0:
320,192,97947,1,0,0:0:0:0:
448,192,97984,1,0,0:0:0:0:
192,192,98020,1,0,0:0:0:0:
320,192,98057,1,0,0:0:0:0:
64,192,98094,1,0,0:0:0:0:
448,192,98130,1,0,0:0:0:0:
320,192,98167,1,0,0:0:0:0:
64,192,98203,1,0,0:0:0:0:
192,192,98203,1,0,0:0:0:0:
320,192,98314,1,0,0:0:0:0:
448,192,98314,1,0,0:0:0:0:
192,192,98423,1,0,0:0:0:0:
64,192,98423,1,0,0:0:0:0:
320,192,98479,1,0,0:0:0:0:
448,192,98479,1,0,0:0:0:0:
192,192,98533,1,0,0:0:0:0:
64,192,98533,1,0,0:0:0:0:
320,192,98588,1,0,0:0:0:0:
448,192,98588,1,0,0:0:0:0:
64,192,98643,1,0,0:0:0:0:
320,192,98680,1,0,0:0:0:0:
192,192,98717,1,0,0:0:0:0:
64,192,98753,1,0,0:0:0:0:
448,192,98790,1,0,0:0:0:0:
320,192,98826,1,0,0:0:0:0:
64,192,98863,1,0,0:0:0:0:
192,192,98900,1,0,0:0:0:0:
448,192,98937,1,0,0:0:0:0:
320,192,98973,1,0,0:0:0:0:
192,192,99009,1,0,0:0:0:0:
64,192,99046,1,0,0:0:0:0:
448,192,99082,1,0,0:0:0:0:
320,192,99120,1,0,0:0:0:0:
192,192,99156,1,0,0:0:0:0:
64,192,99193,1,0,0:0:0:0:
448,192,99229,1,0,0:0:0:0:
320,192,99266,1,0,0:0:0:0:
64,192,99302,1,0,0:0:0:0:
192,192,99340,1,0,0:0:0:0:
448,192,99376,1,0,0:0:0:0:
64,192,99413,1,0,0:0:0:0:
320,192,99449,1,0,0:0:0:0:
192,192,99485,1,0,0:0:0:0:
448,192,99522,1,0,0:0:0:0:
320,192,99559,1,0,0:0:0:0:
192,192,99596,1,0,0:0:0:0:
64,192,99632,1,0,0:0:0:0:
448,192,99669,1,0,0:0:0:0:
192,192,99705,1,0,0:0:0:0:
320,192,99742,1,0,0:0:0:0:
64,192,99779,1,0,0:0:0:0:
192,192,99816,1,0,0:0:0:0:
320,192,99852,1,0,0:0:0:0:
448,192,99889,1,0,0:0:0:0:
64,192,99925,1,0,0:0:0:0:
192,192,99961,1,0,0:0:0:0:
320,192,99999,1,0,0:0:0:0:
448,192,100035,1,0,0:0:0:0:
64,192,100072,1,0,0:0:0:0:
192,192,100108,1,0,0:0:0:0:
64,192,100145,1,0,0:0:0:0:
448,192,100181,1,0,0:0:0:0:
320,192,100219,1,0,0:0:0:0:
64,192,100255,1,0,0:0:0:0:
448,192,100292,1,0,0:0:0:0:
320,192,100328,1,0,0:0:0:0:
192,192,100365,1,0,0:0:0:0:
448,192,100401,1,0,0:0:0:0:
320,192,100438,1,0,0:0:0:0:
192,192,100475,1,0,0:0:0:0:
448,192,100511,1,0,0:0:0:0:
64,192,100511,1,0,0:0:0:0:
320,192,100548,1,0,0:0:0:0:
192,192,100584,1,0,0:0:0:0:
64,192,100621,1,0,0:0:0:0:
448,192,100658,1,0,0:0:0:0:
320,192,100695,1,0,0:0:0:0:
448,192,100731,1,0,0:0:0:0:
64,192,100768,1,0,0:0:0:0:
192,192,100804,1,0,0:0:0:0:
320,192,100841,1,0,0:0:0:0:
448,192,100878,1,0,0:0:0:0:
64,192,100914,1,0,0:0:0:0:
192,192,100951,1,0,0:0:0:0:
448,192,100987,1,0,0:0:0:0:
320,192,101024,1,0,0:0:0:0:
64,192,101060,1,0,0:0:0:0:
192,192,101098,1,0,0:0:0:0:
320,192,101134,1,0,0:0:0:0:
448,192,101171,1,0,0:0:0:0:
64,192,101207,1,0,0:0:0:0:
320,192,101244,1,0,0:0:0:0:
192,192,101280,1,0,0:0:0:0:
448,192,101318,1,0,0:0:0:0:
64,192,101354,1,0,0:0:0:0:
192,192,101390,1,0,0:0:0:0:
320,192,101427,1,0,0:0:0:0:
448,192,101463,1,0,0:0:0:0:
192,192,101500,1,0,0:0:0:0:
320,192,101537,1,0,0:0:0:0:
64,192,101574,1,0,0:0:0:0:
192,192,101610,1,0,0:0:0:0:
320,192,101647,1,0,0:0:0:0:
448,192,101683,1,0,0:0:0:0:
64,192,101720,1,0,0:0:0:0:
192,192,101757,1,0,0:0:0:0:
320,192,101794,1,0,0:0:0:0:
448,192,101830,1,0,0:0:0:0:
64,192,101866,1,0,0:0:0:0:
320,192,101903,1,0,0:0:0:0:
192,192,101940,1,0,0:0:0:0:
448,192,101977,1,0,0:0:0:0:
320,192,102013,1,0,0:0:0:0:
64,192,102050,1,0,0:0:0:0:
192,192,102086,1,0,0:0:0:0:
64,192,102123,1,0,0:0:0:0:
448,192,102160,1,0,0:0:0:0:
320,192,102197,1,0,0:0:0:0:
192,192,102233,1,0,0:0:0:0:
64,192,102270,1,0,0:0:0:0:
192,192,102306,1,0,0:0:0:0:
320,192,102342,1,0,0:0:0:0:
448,192,102380,1,0,0:0:0:0:
64,192,102416,1,0,0:0:0:0:
192,192,102453,1,0,0:0:0:0:
448,192,102489,1,0,0:0:0:0:
320,192,102526,1,0,0:0:0:0:
192,192,102562,1,0,0:0:0:0:
64,192,102600,1,0,0:0:0:0:
192,192,102636,1,0,0:0:0:0:
320,192,102673,1,0,0:0:0:0:
448,192,102709,1,0,0:0:0:0:
320,192,102746,1,0,0:0:0:0:
192,192,102782,1,0,0:0:0:0:
64,192,102819,1,0,0:0:0:0:
448,192,102856,1,0,0:0:0:0:
320,192,102892,1,0,0:0:0:0:
64,192,102929,1,0,0:0:0:0:
192,192,102965,1,0,0:0:0:0:
320,192,103002,1,0,0:0:0:0:
448,192,103039,1,0,0:0:0:0:
320,192,103076,1,0,0:0:0:0:
192,192,103112,1,0,0:0:0:0:
64,192,103149,1,0,0:0:0:0:
192,192,103185,1,0,0:0:0:0:
320,192,103222,1,0,0:0:0:0:
448,192,103259,1,0,0:0:0:0:
64,192,103295,1,0,0:0:0:0:
192,192,103332,1,0,0:0:0:0:
448,192,103368,1,0,0:0:0:0:
320,192,103405,1,0,0:0:0:0:
192,192,103441,1,0,0:0:0:0:
64,192,103479,1,0,0:0:0:0:
192,192,103515,1,0,0:0:0:0:
320,192,103552,1,0,0:0:0:0:
448,192,103588,1,0,0:0:0:0:
320,192,103625,1,0,0:0:0:0:
192,192,103661,1,0,0:0:0:0:
64,192,103699,1,0,0:0:0:0:
320,192,103735,1,0,0:0:0:0:
192,192,103771,1,0,0:0:0:0:
448,192,103808,1,0,0:0:0:0:
320,192,103844,1,0,0:0:0:0:
192,192,103881,1,0,0:0:0:0:
64,192,103918,1,0,0:0:0:0:
448,192,103918,1,0,0:0:0:0:
320,192,103955,1,0,0:0:0:0:
64,192,103991,1,0,0:0:0:0:
448,192,104028,1,0,0:0:0:0:
320,192,104064,1,0,0:0:0:0:
192,192,104101,1,0,0:0:0:0:
448,192,104138,1,0,0:0:0:0:
320,192,104175,1,0,0:0:0:0:
64,192,104211,1,0,0:0:0:0:
448,192,104247,1,0,0:0:0:0:
320,192,104284,1,0,0:0:0:0:
192,192,104320,1,0,0:0:0:0:
64,192,104358,1,0,0:0:0:0:
192,192,104394,1,0,0:0:0:0:
448,192,104431,1,0,0:0:0:0:
64,192,104467,1,0,0:0:0:0:
192,192,104504,1,0,0:0:0:0:
320,192,104540,1,0,0:0:0:0:
64,192,104578,1,0,0:0:0:0:
192,192,104614,1,0,0:0:0:0:
448,192,104651,1,0,0:0:0:0:
320,192,104687,1,0,0:0:0:0:
192,192,104723,1,0,0:0:0:0:
64,192,104760,1,0,0:0:0:0:
448,192,104797,1,0,0:0:0:0:
320,192,104797,1,0,0:0:0:0:
192,192,104852,1,0,0:0:0:0:
64,192,104852,1,0,0:0:0:0:
320,192,104907,1,0,0:0:0:0:
448,192,104907,1,0,0:0:0:0:
192,192,104961,1,0,0:0:0:0:
64,192,104961,1,0,0:0:0:0:
320,192,105017,1,0,0:0:0:0:
448,192,105017,1,0,0:0:0:0:
320,192,105127,1,0,0:0:0:0:
448,192,105127,1,0,0:0:0:0:
192,192,105237,1,0,0:0:0:0:
64,192,105237,1,0,0:0:0:0:
192,192,105346,1,0,0:0:0:0:
64,192,105346,1,0,0:0:0:0:
320,192,105401,1,0,0:0:0:0:
448,192,105401,1,0,0:0:0:0:
192,192,105457,1,0,0:0:0:0:
64,192,105457,1,0,0:0:0:0:
320,192,105511,1,0,0:0:0:0:
448,192,105511,1,0,0:0:0:0:
192,192,105566,1,0,0:0:0:0:
64,192,105566,1,0,0:0:0:0:
320,192,105621,1,0,0:0:0:0:
448,192,105621,1,0,0:0:0:0:
64,192,105676,1,0,0:0:0:0:
192,192,105676,1,0,0:0:0:0:
448,192,105713,1,0,0:0:0:0:
320,192,105749,1,0,0:0:0:0:
64,192,105786,1,0,0:0:0:0:
192,192,105822,1,0,0:0:0:0:
448,192,105860,1,0,0:0:0:0:
64,192,105896,1,0,0:0:0:0:
320,192,105933,1,0,0:0:0:0:
192,192,105969,1,0,0:0:0:0:
448,192,106006,1,0,0:0:0:0:
64,192,106042,1,0,0:0:0:0:
320,192,106080,1,0,0:0:0:0:
448,192,106116,1,0,0:0:0:0:
64,192,106152,1,0,0:0:0:0:
192,192,106189,1,0,0:0:0:0:
448,192,106225,1,0,0:0:0:0:
320,192,106262,1,0,0:0:0:0:
64,192,106299,1,0,0:0:0:0:
448,192,106336,1,0,0:0:0:0:
192,192,106372,1,0,0:0:0:0:
320,192,106409,1,0,0:0:0:0:
64,192,106445,1,0,0:0:0:0:
448,192,106482,1,0,0:0:0:0:
320,192,106519,1,0,0:0:0:0:
64,192,106556,1,0,0:0:0:0:
448,192,106592,1,0,0:0:0:0:
320,192,106628,1,0,0:0:0:0:
64,192,106665,1,0,0:0:0:0:
192,192,106701,1,0,0:0:0:0:
448,192,106739,1,0,0:0:0:0:
64,192,106775,1,0,0:0:0:0:
320,192,106812,1,0,0:0:0:0:
192,192,106848,1,0,0:0:0:0:
448,192,106885,1,0,0:0:0:0:
64,192,106921,1,0,0:0:0:0:
320,192,106959,1,0,0:0:0:0:
448,192,106995,1,0,0:0:0:0:
64,192,107032,1,0,0:0:0:0:
192,192,107068,1,0,0:0:0:0:
448,192,107104,1,0,0:0:0:0:
320,192,107141,1,0,0:0:0:0:
64,192,107178,1,0,0:0:0:0:
448,192,107215,1,0,0:0:0:0:
320,192,107251,1,0,0:0:0:0:
192,192,107288,1,0,0:0:0:0:
64,192,107324,1,0,0:0:0:0:
448,192,107324,1,0,0:0:0:0:
320,192,107361,1,0,0:0:0:0:
192,192,107398,1,0,0:0:0:0:
64,192,107435,1,0,0:0:0:0:
448,192,107471,1,0,0:0:0:0:
320,192,107508,1,0,0:0:0:0:
64,192,107544,1,0,0:0:0:0:
192,192,107580,1,0,0:0:0:0:
448,192,107618,1,0,0:0:0:0:
64,192,107654,1,0,0:0:0:0:
320,192,107691,1,0,0:0:0:0:
192,192,107727,1,0,0:0:0:0:
448,192,107764,1,0,0:0:0:0:
64,192,107800,1,0,0:0:0:0:
320,192,107838,1,0,0:0:0:0:
448,192,107874,1,0,0:0:0:0:
64,192,107911,1,0,0:0:0:0:
192,192,107947,1,0,0:0:0:0:
448,192,107984,1,0,0:0:0:0:
320,192,108020,1,0,0:0:0:0:
64,192,108057,1,0,0:0:0:0:
448,192,108094,1,0,0:0:0:0:
192,192,108130,1,0,0:0:0:0:
320,192,108167,1,0,0:0:0:0:
64,192,108203,1,0,0:0:0:0:
448,192,108240,1,0,0:0:0:0:
320,192,108277,1,0,0:0:0:0:
64,192,108314,1,0,0:0:0:0:
448,192,108350,1,0,0:0:0:0:
320,192,108387,1,0,0:0:0:0:
64,192,108423,1,0,0:0:0:0:
192,192,108460,1,0,0:0:0:0:
448,192,108497,1,0,0:0:0:0:
64,192,108533,1,0,0:0:0:0:
320,192,108570,1,0,0:0:0:0:
192,192,108606,1,0,0:0:0:0:
448,192,108643,1,0,0:0:0:0:
64,192,108680,1,0,0:0:0:0:
320,192,108717,1,0,0:0:0:0:
448,192,108753,1,0,0:0:0:0:
64,192,108790,1,0,0:0:0:0:
192,192,108826,1,0,0:0:0:0:
448,192,108863,1,0,0:0:0:0:
320,192,108900,1,0,0:0:0:0:
64,192,108937,1,0,0:0:0:0:
448,192,108973,1,0,0:0:0:0:
320,192,109009,1,0,0:0:0:0:
192,192,109046,1,0,0:0:0:0:
64,192,109082,1,0,0:0:0:0:
448,192,109082,1,0,0:0:0:0:
320,192,109120,1,0,0:0:0:0:
192,192,109156,1,0,0:0:0:0:
64,192,109193,1,0,0:0:0:0:
448,192,109229,1,0,0:0:0:0:
320,192,109266,1,0,0:0:0:0:
64,192,109302,1,0,0:0:0:0:
192,192,109340,1,0,0:0:0:0:
448,192,109376,1,0,0:0:0:0:
64,192,109413,1,0,0:0:0:0:
320,192,109449,1,0,0:0:0:0:
192,192,109485,1,0,0:0:0:0:
448,192,109522,1,0,0:0:0:0:
64,192,109559,1,0,0:0:0:0:
320,192,109596,1,0,0:0:0:0:
448,192,109632,1,0,0:0:0:0:
64,192,109669,1,0,0:0:0:0:
192,192,109705,1,0,0:0:0:0:
448,192,109742,1,0,0:0:0:0:
320,192,109779,1,0,0:0:0:0:
64,192,109816,1,0,0:0:0:0:
448,192,109852,1,0,0:0:0:0:
192,192,109889,1,0,0:0:0:0:
320,192,109925,1,0,0:0:0:0:
64,192,109961,1,0,0:0:0:0:
448,192,109999,1,0,0:0:0:0:
320,192,110035,1,0,0:0:0:0:
64,192,110072,1,0,0:0:0:0:
448,192,110108,1,0,0:0:0:0:
320,192,110145,1,0,0:0:0:0:
64,192,110181,1,0,0:0:0:0:
192,192,110219,1,0,0:0:0:0:
448,192,110255,1,0,0:0:0:0:
64,192,110292,1,0,0:0:0:0:
320,192,110328,1,0,0:0:0:0:
192,192,110365,1,0,0:0:0:0:
448,192,110401,1,0,0:0:0:0:
64,192,110438,1,0,0:0:0:0:
320,192,110475,1,0,0:0:0:0:
448,192,110511,1,0,0:0:0:0:
64,192,110548,1,0,0:0:0:0:
192,192,110584,1,0,0:0:0:0:
448,192,110621,1,0,0:0:0:0:
320,192,110658,1,0,0:0:0:0:
64,192,110695,1,0,0:0:0:0:
448,192,110731,1,0,0:0:0:0:
320,192,110768,1,0,0:0:0:0:
192,192,110804,1,0,0:0:0:0:
64,192,110841,1,0,0:0:0:0:
448,192,110841,1,0,0:0:0:0:
320,192,110878,1,0,0:0:0:0:
192,192,110914,1,0,0:0:0:0:
64,192,110951,1,0,0:0:0:0:
448,192,110987,1,0,0:0:0:0:
320,192,111024,1,0,0:0:0:0:
64,192,111060,1,0,0:0:0:0:
192,192,111098,1,0,0:0:0:0:
448,192,111134,1,0,0:0:0:0:
64,192,111171,1,0,0:0:0:0:
320,192,111207,1,0,0:0:0:0:
192,192,111244,1,0,0:0:0:0:
448,192,111280,1,0,0:0:0:0:
64,192,111318,1,0,0:0:0:0:
320,192,111354,1,0,0:0:0:0:
448,192,111390,1,0,0:0:0:0:
64,192,111427,1,0,0:0:0:0:
192,192,111463,1,0,0:0:0:0:
448,192,111500,1,0,0:0:0:0:
320,192,111537,1,0,0:0:0:0:
64,192,111574,1,0,0:0:0:0:
448,192,111610,1,0,0:0:0:0:
320,192,111647,1,0,0:0:0:0:
192,192,111683,1,0,0:0:0:0:
64,192,111720,1,0,0:0:0:0:
320,192,111757,1,0,0:0:0:0:
192,192,111794,1,0,0:0:0:0:
448,192,111830,1,0,0:0:0:0:
320,192,111866,1,0,0:0:0:0:
64,192,111903,1,0,0:0:0:0:
192,192,111940,1,0,0:0:0:0:
320,192,111977,1,0,0:0:0:0:
448,192,112013,1,0,0:0:0:0:
64,192,112050,1,0,0:0:0:0:
192,192,112086,1,0,0:0:0:0:
448,192,112123,1,0,0:0:0:0:
64,192,112160,1,0,0:0:0:0:
192,192,112197,1,0,0:0:0:0:
320,192,112233,1,0,0:0:0:0:
448,192,112270,1,0,0:0:0:0:
320,192,112306,1,0,0:0:0:0:
192,192,112342,1,0,0:0:0:0:
64,192,112380,1,0,0:0:0:0:
192,192,112416,1,0,0:0:0:0:
320,192,112453,1,0,0:0:0:0:
64,192,112489,1,0,0:0:0:0:
448,192,112489,1,0,0:0:0:0:
192,192,112526,1,0,0:0:0:0:
320,192,112562,1,0,0:0:0:0:
448,192,112600,1,0,0:0:0:0:
64,192,112600,1,0,0:0:0:0:
192,192,112636,1,0,0:0:0:0:
320,192,112673,1,0,0:0:0:0:
448,192,112709,1,0,0:0:0:0:
320,192,112746,1,0,0:0:0:0:
192,192,112782,1,0,0:0:0:0:
64,192,112819,1,0,0:0:0:0:
320,192,112856,1,0,0:0:0:0:
192,192,112892,1,0,0:0:0:0:
448,192,112929,1,0,0:0:0:0:
320,192,112965,1,0,0:0:0:0:
192,192,113002,1,0,0:0:0:0:
64,192,113039,1,0,0:0:0:0:
448,192,113076,1,0,0:0:0:0:
192,192,113112,1,0,0:0:0:0:
320,192,113149,1,0,0:0:0:0:
64,192,113185,1,0,0:0:0:0:
192,192,113222,1,0,0:0:0:0:
320,192,113259,1,0,0:0:0:0:
448,192,113295,1,0,0:0:0:0:
192,192,113332,1,0,0:0:0:0:
320,192,113368,1,0,0:0:0:0:
64,192,113405,1,0,0:0:0:0:
448,192,113441,1,0,0:0:0:0:
64,192,113479,1,0,0:0:0:0:
192,192,113515,1,0,0:0:0:0:
320,192,113552,1,0,0:0:0:0:
192,192,113588,1,0,0:0:0:0:
64,192,113625,1,0,0:0:0:0:
448,192,113661,1,0,0:0:0:0:
320,192,113699,1,0,0:0:0:0:
192,192,113735,1,0,0:0:0:0:
64,192,113771,1,0,0:0:0:0:
320,192,113808,1,0,0:0:0:0:
192,192,113844,1,0,0:0:0:0:
448,192,113881,1,0,0:0:0:0:
320,192,113918,1,0,0:0:0:0:
64,192,113955,1,0,0:0:0:0:
192,192,113991,1,0,0:0:0:0:
448,192,114028,1,0,0:0:0:0:
320,192,114064,1,0,0:0:0:0:
192,192,114101,1,0,0:0:0:0:
64,192,114138,1,0,0:0:0:0:
320,192,114175,1,0,0:0:0:0:
192,192,114211,1,0,0:0:0:0:
448,192,114247,1,0,0:0:0:0:
320,192,114284,1,0,0:0:0:0:
192,192,114320,1,0,0:0:0:0:
64,192,114358,1,0,0:0:0:0:
448,192,114358,1,0,0:0:0:0:
320,192,114394,1,0,0:0:0:0:
192,192,114431,1,0,0:0:0:0:
64,192,114467,1,0,0:0:0:0:
192,192,114504,1,0,0:0:0:0:
320,192,114540,1,0,0:0:0:0:
448,192,114578,1,0,0:0:0:0:
64,192,114614,1,0,0:0:0:0:
320,192,114651,1,0,0:0:0:0:
192,192,114687,1,0,0:0:0:0:
448,192,114723,1,0,0:0:0:0:
320,192,114760,1,0,0:0:0:0:
192,192,114797,1,0,0:0:0:0:
64,192,114834,1,0,0:0:0:0:
448,192,114870,1,0,0:0:0:0:
320,192,114907,1,0,0:0:0:0:
64,192,114943,1,0,0:0:0:0:
192,192,114980,1,0,0:0:0:0:
320,192,115017,1,0,0:0:0:0:
448,192,115054,1,0,0:0:0:0:
320,192,115090,1,0,0:0:0:0:
192,192,115127,1,0,0:0:0:0:
64,192,115163,1,0,0:0:0:0:
448,192,115200,1,0,0:0:0:0:
320,192,115237,1,0,0:0:0:0:
448,192,115273,1,0,0:0:0:0:
64,192,115310,1,0,0:0:0:0:
192,192,115346,1,0,0:0:0:0:
448,192,115383,1,0,0:0:0:0:
320,192,115420,1,0,0:0:0:0:
192,192,115457,1,0,0:0:0:0:
64,192,115493,1,0,0:0:0:0:
320,192,115530,1,0,0:0:0:0:
448,192,115566,1,0,0:0:0:0:
64,192,115603,1,0,0:0:0:0:
192,192,115640,1,0,0:0:0:0:
320,192,115676,1,0,0:0:0:0:
448,192,115713,1,0,0:0:0:0:
192,192,115749,1,0,0:0:0:0:
320,192,115786,1,0,0:0:0:0:
64,192,115822,1,0,0:0:0:0:
448,192,115860,1,0,0:0:0:0:
320,192,115896,1,0,0:0:0:0:
192,192,115933,1,0,0:0:0:0:
64,192,115969,1,0,0:0:0:0:
448,192,116006,1,0,0:0:0:0:
320,192,116042,1,0,0:0:0:0:
192,192,116080,1,0,0:0:0:0:
64,192,116116,1,0,0:0:0:0:
448,192,116116,1,0,0:0:0:0:
320,192,116152,1,0,0:0:0:0:
192,192,116189,1,0,0:0:0:0:
64,192,116225,1,0,0:0:0:0:
320,192,116262,1,0,0:0:0:0:
192,192,116299,1,0,0:0:0:0:
448,192,116336,1,0,0:0:0:0:
320,192,116372,1,0,0:0:0:0:
64,192,116409,1,0,0:0:0:0:
192,192,116445,1,0,0:0:0:0:
320,192,116482,1,0,0:0:0:0:
448,192,116519,1,0,0:0:0:0:
192,192,116556,1,0,0:0:0:0:
320,192,116592,1,0,0:0:0:0:
64,192,116628,1,0,0:0:0:0:
192,192,116665,1,0,0:0:0:0:
448,192,116701,1,0,0:0:0:0:
320,192,116739,1,0,0:0:0:0:
64,192,116775,1,0,0:0:0:0:
448,192,116812,1,0,0:0:0:0:
192,192,116848,1,0,0:0:0:0:
320,192,116885,1,0,0:0:0:0:
64,192,116921,1,0,0:0:0:0:
192,192,116959,1,0,0:0:0:0:
320,192,116995,1,0,0:0:0:0:
448,192,117032,1,0,0:0:0:0:
64,192,117068,1,0,0:0:0:0:
320,192,117104,1,0,0:0:0:0:
192,192,117141,1,0,0:0:0:0:
64,192,117178,1,0,0:0:0:0:
320,192,117215,1,0,0:0:0:0:
448,192,117251,1,0,0:0:0:0:
64,192,117288,1,0,0:0:0:0:
192,192,117324,1,0,0:0:0:0:
320,192,117361,1,0,0:0:0:0:
448,192,117398,1,0,0:0:0:0:
64,192,117435,1,0,0:0:0:0:
192,192,117471,1,0,0:0:0:0:
448,192,117508,1,0,0:0:0:0:
320,192,117544,1,0,0:0:0:0:
64,192,117580,1,0,0:0:0:0:
448,192,117618,1,0,0:0:0:0:
320,192,117654,1,0,0:0:0:0:
192,192,117691,1,0,0:0:0:0:
64,192,117727,1,0,0:0:0:0:
448,192,117764,1,0,0:0:0:0:
320,192,117800,1,0,0:0:0:0:
192,192,117838,1,0,0:0:0:0:
64,192,117874,1,0,0:0:0:0:
448,192,117874,1,0,0:0:0:0:
320,192,117911,1,0,0:0:0:0:
192,192,117947,1,0,0:0:0:0:
64,192,117984,1,0,0:0:0:0:
192,192,118020,1,0,0:0:0:0:
320,192,118057,1,0,0:0:0:0:
448,192,118094,1,0,0:0:0:0:
192,192,118130,1,0,0:0:0:0:
320,192,118167,1,0,0:0:0:0:
64,192,118203,1,0,0:0:0:0:
192,192,118240,1,0,0:0:0:0:
320,192,118277,1,0,0:0:0:0:
448,192,118314,1,0,0:0:0:0:
64,192,118350,1,0,0:0:0:0:
320,192,118387,1,0,0:0:0:0:
192,192,118423,1,0,0:0:0:0:
448,192,118460,1,0,0:0:0:0:
320,192,118497,1,0,0:0:0:0:
192,192,118533,1,0,0:0:0:0:
64,192,118570,1,0,0:0:0:0:
320,192,118606,1,0,0:0:0:0:
192,192,118643,1,0,0:0:0:0:
448,192,118680,1,0,0:0:0:0:
64,192,118717,1,0,0:0:0:0:
448,192,118753,1,0,0:0:0:0:
320,192,118790,1,0,0:0:0:0:
192,192,118826,1,0,0:0:0:0:
320,192,118863,1,0,0:0:0:0:
448,192,118900,1,0,0:0:0:0:
64,192,118937,1,0,0:0:0:0:
192,192,118973,1,0,0:0:0:0:
320,192,119009,1,0,0:0:0:0:
448,192,119046,1,0,0:0:0:0:
192,192,119082,1,0,0:0:0:0:
320,192,119120,1,0,0:0:0:0:
64,192,119156,1,0,0:0:0:0:
192,192,119193,1,0,0:0:0:0:
448,192,119229,1,0,0:0:0:0:
320,192,119266,1,0,0:0:0:0:
64,192,119302,1,0,0:0:0:0:
192,192,119340,1,0,0:0:0:0:
320,192,119376,1,0,0:0:0:0:
448,192,119413,1,0,0:0:0:0:
192,192,119449,1,0,0:0:0:0:
320,192,119485,1,0,0:0:0:0:
64,192,119522,1,0,0:0:0:0:
192,192,119559,1,0,0:0:0:0:
320,192,119596,1,0,0:0:0:0:
448,192,119632,1,0,0:0:0:0:
64,192,119632,1,0,0:0:0:0:
192,192,119669,1,0,0:0:0:0:
64,192,119705,1,0,0:0:0:0:
320,192,119742,128,0,120072:0:0:0:0:
448,192,119742,128,0,120072:0:0:0:0:
64,192,120072,1,0,0:0:0:0:
192,192,120072,1,0,0:0:0:0:
192,192,120181,128,0,120292:0:0:0:0:
64,192,120181,128,0,120292:0:0:0:0:
64,192,120401,1,0,0:0:0:0:
320,192,120438,1,0,0:0:0:0:
192,192,120475,1,0,0:0:0:0:
448,192,120511,1,0,0:0:0:0:
64,192,120548,1,0,0:0:0:0:
320,192,120584,1,0,0:0:0:0:
192,192,120621,1,0,0:0:0:0:
448,192,120658,1,0,0:0:0:0:
64,192,120695,1,0,0:0:0:0:
320,192,120731,1,0,0:0:0:0:
192,192,120768,1,0,0:0:0:0:
448,192,120804,1,0,0:0:0:0:
64,192,120841,1,0,0:0:0:0:
320,192,120878,1,0,0:0:0:0:
192,192,120914,1,0,0:0:0:0:
448,192,120951,1,0,0:0:0:0:
64,192,120987,1,0,0:0:0:0:
320,192,121024,1,0,0:0:0:0:
192,192,121060,1,0,0:0:0:0:
448,192,121098,1,0,0:0:0:0:
64,192,121134,1,0,0:0:0:0:
320,192,121171,1,0,0:0:0:0:
192,192,121207,1,0,0:0:0:0:
448,192,121244,1,0,0:0:0:0:
64,192,121280,1,0,0:0:0:0:
320,192,121318,1,0,0:0:0:0:
192,192,121354,1,0,0:0:0:0:
448,192,121390,1,0,0:0:0:0:
64,192,121427,1,0,0:0:0:0:
192,192,121463,1,0,0:0:0:0:
320,192,121500,1,0,0:0:0:0:
448,192,121500,1,0,0:0:0:0:
192,192,121720,1,0,0:0:0:0:
64,192,121720,1,0,0:0:0:0:
192,192,121940,1,0,0:0:0:0:
448,192,121940,1,0,0:0:0:0:
320,192,122050,1,0,0:0:0:0:
64,192,122160,1,0,0:0:0:0:
64,192,122270,1,0,0:0:0:0:
192,192,122270,1,0,0:0:0:0:
448,192,122380,1,0,0:0:0:0:
320,192,122489,1,0,0:0:0:0:
192,192,122600,1,0,0:0:0:0:
320,192,122709,1,0,0:0:0:0:
448,192,122709,1,0,0:0:0:0:
64,192,122819,1,0,0:0:0:0:
192,192,122929,1,0,0:0:0:0:
320,192,122929,1,0,0:0:0:0:
448,192,123039,1,0,0:0:0:0:
192,192,123149,1,0,0:0:0:0:
64,192,123149,1,0,0:0:0:0:
192,192,123259,1,0,0:0:0:0:
320,192,123259,1,0,0:0:0:0:
64,192,123368,1,0,0:0:0:0:
448,192,123368,1,0,0:0:0:0:
320,192,123479,1,0,0:0:0:0:
192,192,123588,1,0,0:0:0:0:
64,192,123588,1,0,0:0:0:0:
64,192,123699,1,0,0:0:0:0:
192,192,123808,1,0,0:0:0:0:
448,192,123918,1,0,0:0:0:0:
320,192,124028,1,0,0:0:0:0:
448,192,124028,1,0,0:0:0:0:
448,192,124247,1,0,0:0:0:0:
320,192,124467,1,0,0:0:0:0:
320,192,124578,1,0,0:0:0:0:
320,192,124797,1,0,0:0:0:0:
192,192,125017,1,0,0:0:0:0:
448,192,125017,1,0,0:0:0:0:
320,192,125127,1,0,0:0:0:0:
448,192,125237,1,0,0:0:0:0:
64,192,125237,1,0,0:0:0:0:
320,192,125346,1,0,0:0:0:0:
192,192,125457,1,0,0:0:0:0:
64,192,125457,1,0,0:0:0:0:
448,192,125457,1,0,0:0:0:0:
192,192,125676,1,0,0:0:0:0:
320,192,125676,1,0,0:0:0:0:
320,192,125896,1,0,0:0:0:0:
448,192,125896,128,0,126225:0:0:0:0:
192,192,126225,1,0,0:0:0:0:
320,192,126225,128,0,126556:0:0:0:0:
64,192,126556,128,0,126775:0:0:0:0:
192,192,126556,1,0,0:0:0:0:
448,192,126775,1,0,0:0:0:0:
192,192,126885,1,0,0:0:0:0:
64,192,126995,1,0,0:0:0:0:
448,192,126995,128,0,127435:0:0:0:0:
192,192,127104,1,0,0:0:0:0:
320,192,127215,1,0,0:0:0:0:
192,192,127324,1,0,0:0:0:0:
64,192,127435,128,0,127874:0:0:0:0:
192,192,127544,1,0,0:0:0:0:
320,192,127654,1,0,0:0:0:0:
192,192,127764,1,0,0:0:0:0:
448,192,127874,128,0,128314:0:0:0:0:
192,192,127984,1,0,0:0:0:0:
64,192,128094,1,0,0:0:0:0:
320,192,128203,1,0,0:0:0:0:
64,192,128314,1,0,0:0:0:0:
192,192,128314,1,0,0:0:0:0:
320,192,128423,1,0,0:0:0:0:
192,192,128533,1,0,0:0:0:0:
320,192,128533,1,0,0:0:0:0:
448,192,128533,1,0,0:0:0:0:
64,192,128643,1,0,0:0:0:0:
192,192,128753,1,0,0:0:0:0:
320,192,128863,1,0,0:0:0:0:
448,192,128863,1,0,0:0:0:0:
192,192,128973,1,0,0:0:0:0:
64,192,128973,1,0,0:0:0:0:
448,192,128973,1,0,0:0:0:0:
320,192,129082,1,0,0:0:0:0:
192,192,129193,1,0,0:0:0:0:
64,192,129193,1,0,0:0:0:0:
64,192,129302,1,0,0:0:0:0:
192,192,129413,1,0,0:0:0:0:
320,192,129522,1,0,0:0:0:0:
64,192,129632,1,0,0:0:0:0:
448,192,129632,1,0,0:0:0:0:
320,192,129742,1,0,0:0:0:0:
192,192,129852,1,0,0:0:0:0:
64,192,129852,1,0,0:0:0:0:
448,192,129961,1,0,0:0:0:0:
320,192,130072,1,0,0:0:0:0:
192,192,130072,1,0,0:0:0:0:
320,192,130181,1,0,0:0:0:0:
64,192,130292,1,0,0:0:0:0:
320,192,130292,1,0,0:0:0:0:
448,192,130292,1,0,0:0:0:0:
192,192,130401,1,0,0:0:0:0:
320,192,130511,1,0,0:0:0:0:
192,192,130511,1,0,0:0:0:0:
64,192,130621,1,0,0:0:0:0:
192,192,130731,1,0,0:0:0:0:
320,192,130731,1,0,0:0:0:0:
448,192,130841,1,0,0:0:0:0:
320,192,130951,1,0,0:0:0:0:
192,192,130951,1,0,0:0:0:0:
64,192,130951,1,0,0:0:0:0:
448,192,131060,1,0,0:0:0:0:
320,192,131171,1,0,0:0:0:0:
64,192,131171,1,0,0:0:0:0:
448,192,131280,1,0,0:0:0:0:
320,192,131390,1,0,0:0:0:0:
192,192,131390,1,0,0:0:0:0:
64,192,131500,1,0,0:0:0:0:
192,192,131610,1,0,0:0:0:0:
320,192,131610,1,0,0:0:0:0:
448,192,131610,1,0,0:0:0:0:
64,192,131720,1,0,0:0:0:0:
448,192,131830,128,0,132929:0:0:0:0:
192,192,131830,1,0,0:0:0:0:
320,192,131940,1,0,0:0:0:0:
64,192,132050,1,0,0:0:0:0:
192,192,132050,1,0,0:0:0:0:
320,192,132160,1,0,0:0:0:0:
192,192,132270,1,0,0:0:0:0:
64,192,132380,1,0,0:0:0:0:
192,192,132489,1,0,0:0:0:0:
320,192,132489,1,0,0:0:0:0:
64,192,132600,1,0,0:0:0:0:
320,192,132709,1,0,0:0:0:0:
192,192,132709,1,0,0:0:0:0:
64,192,132819,1,0,0:0:0:0:
192,192,132929,1,0,0:0:0:0:
320,192,133039,1,0,0:0:0:0:
448,192,133039,1,0,0:0:0:0:
192,192,133149,1,0,0:0:0:0:
64,192,133149,1,0,0:0:0:0:
448,192,133259,1,0,0:0:0:0:
320,192,133368,1,0,0:0:0:0:
192,192,133368,1,0,0:0:0:0:
64,192,133479,1,0,0:0:0:0:
192,192,133588,1,0,0:0:0:0:
320,192,133588,1,0,0:0:0:0:
448,192,133588,1,0,0:0:0:0:
64,192,133699,1,0,0:0:0:0:
320,192,133808,1,0,0:0:0:0:
448,192,133808,1,0,0:0:0:0:
192,192,133918,1,0,0:0:0:0:
64,192,134028,1,0,0:0:0:0:
320,192,134028,1,0,0:0:0:0:
192,192,134138,1,0,0:0:0:0:
320,192,134247,1,0,0:0:0:0:
448,192,134247,1,0,0:0:0:0:
64,192,134247,1,0,0:0:0:0:
192,192,134358,1,0,0:0:0:0:
320,192,134467,1,0,0:0:0:0:
64,192,134467,1,0,0:0:0:0:
448,192,134578,1,0,0:0:0:0:
320,192,134687,1,0,0:0:0:0:
192,192,134687,1,0,0:0:0:0:
64,192,134687,1,0,0:0:0:0:
192,192,134797,1,0,0:0:0:0:
320,192,134907,1,0,0:0:0:0:
448,192,134907,1,0,0:0:0:0:
64,192,135017,1,0,0:0:0:0:
64,192,135127,128,0,135896:0:0:0:0:
192,192,135127,128,0,135896:0:0:0:0:
320,192,135127,128,0,135896:0:0:0:0:
448,192,135127,128,0,135896:0:0:0:0:
448,192,136006,1,0,0:0:0:0:
320,192,136060,1,0,0:0:0:0:
192,192,136116,1,0,0:0:0:0:
64,192,136171,1,0,0:0:0:0:
320,192,136225,1,0,0:0:0:0:
448,192,136225,1,0,0:0:0:0:
192,192,136280,1,0,0:0:0:0:
64,192,136280,1,0,0:0:0:0:
320,192,136336,1,0,0:0:0:0:
448,192,136336,1,0,0:0:0:0:
192,192,136390,1,0,0:0:0:0:
64,192,136390,1,0,0:0:0:0:
448,192,136445,1,0,0:0:0:0:
320,192,136482,1,0,0:0:0:0:
192,192,136519,1,0,0:0:0:0:
64,192,136556,1,0,0:0:0:0:
448,192,136592,1,0,0:0:0:0:
320,192,136628,1,0,0:0:0:0:
64,192,136665,1,0,0:0:0:0:
192,192,136701,1,0,0:0:0:0:
448,192,136739,1,0,0:0:0:0:
320,192,136775,1,0,0:0:0:0:
192,192,136812,1,0,0:0:0:0:
64,192,136848,1,0,0:0:0:0:
448,192,136885,1,0,0:0:0:0:
320,192,136921,1,0,0:0:0:0:
192,192,136959,1,0,0:0:0:0:
64,192,136995,1,0,0:0:0:0:
448,192,137032,1,0,0:0:0:0:
320,192,137068,1,0,0:0:0:0:
64,192,137104,1,0,0:0:0:0:
192,192,137141,1,0,0:0:0:0:
448,192,137178,1,0,0:0:0:0:
64,192,137215,1,0,0:0:0:0:
320,192,137251,1,0,0:0:0:0:
192,192,137288,1,0,0:0:0:0:
448,192,137324,1,0,0:0:0:0:
320,192,137361,1,0,0:0:0:0:
192,192,137398,1,0,0:0:0:0:
64,192,137435,1,0,0:0:0:0:
448,192,137471,1,0,0:0:0:0:
192,192,137508,1,0,0:0:0:0:
320,192,137544,1,0,0:0:0:0:
64,192,137580,1,0,0:0:0:0:
192,192,137618,1,0,0:0:0:0:
320,192,137654,1,0,0:0:0:0:
448,192,137691,1,0,0:0:0:0:
64,192,137727,1,0,0:0:0:0:
192,192,137764,1,0,0:0:0:0:
320,192,137800,1,0,0:0:0:0:
448,192,137838,1,0,0:0:0:0:
64,192,137874,1,0,0:0:0:0:
192,192,137911,1,0,0:0:0:0:
64,192,137947,1,0,0:0:0:0:
448,192,137984,1,0,0:0:0:0:
320,192,138020,1,0,0:0:0:0:
64,192,138057,1,0,0:0:0:0:
448,192,138094,1,0,0:0:0:0:
320,192,138130,1,0,0:0:0:0:
192,192,138167,1,0,0:0:0:0:
448,192,138203,1,0,0:0:0:0:
320,192,138240,1,0,0:0:0:0:
192,192,138277,1,0,0:0:0:0:
64,192,138314,1,0,0:0:0:0:
448,192,138314,1,0,0:0:0:0:
320,192,138350,1,0,0:0:0:0:
192,192,138387,1,0,0:0:0:0:
64,192,138423,1,0,0:0:0:0:
448,192,138460,1,0,0:0:0:0:
320,192,138497,1,0,0:0:0:0:
448,192,138533,1,0,0:0:0:0:
64,192,138570,1,0,0:0:0:0:
192,192,138606,1,0,0:0:0:0:
320,192,138643,1,0,0:0:0:0:
448,192,138680,1,0,0:0:0:0:
64,192,138717,1,0,0:0:0:0:
192,192,138753,1,0,0:0:0:0:
448,192,138790,1,0,0:0:0:0:
320,192,138826,1,0,0:0:0:0:
64,192,138863,1,0,0:0:0:0:
192,192,138900,1,0,0:0:0:0:
320,192,138937,1,0,0:0:0:0:
448,192,138973,1,0,0:0:0:0:
64,192,139009,1,0,0:0:0:0:
320,192,139046,1,0,0:0:0:0:
192,192,139082,1,0,0:0:0:0:
448,192,139120,1,0,0:0:0:0:
64,192,139156,1,0,0:0:0:0:
192,192,139193,1,0,0:0:0:0:
320,192,139229,1,0,0:0:0:0:
448,192,139266,1,0,0:0:0:0:
192,192,139302,1,0,0:0:0:0:
320,192,139340,1,0,0:0:0:0:
64,192,139376,1,0,0:0:0:0:
192,192,139413,1,0,0:0:0:0:
320,192,139449,1,0,0:0:0:0:
448,192,139485,1,0,0:0:0:0:
64,192,139522,1,0,0:0:0:0:
192,192,139559,1,0,0:0:0:0:
320,192,139596,1,0,0:0:0:0:
448,192,139632,1,0,0:0:0:0:
64,192,139669,1,0,0:0:0:0:
320,192,139705,1,0,0:0:0:0:
192,192,139742,1,0,0:0:0:0:
448,192,139779,1,0,0:0:0:0:
320,192,139816,1,0,0:0:0:0:
64,192,139852,1,0,0:0:0:0:
192,192,139889,1,0,0:0:0:0:
64,192,139925,1,0,0:0:0:0:
448,192,139961,1,0,0:0:0:0:
320,192,139999,1,0,0:0:0:0:
64,192,140035,1,0,0:0:0:0:
448,192,140072,1,0,0:0:0:0:
192,192,140108,1,0,0:0:0:0:
64,192,140145,1,0,0:0:0:0:
448,192,140181,1,0,0:0:0:0:
320,192,140219,1,0,0:0:0:0:
192,192,140255,1,0,0:0:0:0:
64,192,140292,1,0,0:0:0:0:
320,192,140328,1,0,0:0:0:0:
192,192,140365,1,0,0:0:0:0:
448,192,140401,1,0,0:0:0:0:
320,192,140438,1,0,0:0:0:0:
192,192,140475,1,0,0:0:0:0:
64,192,140511,1,0,0:0:0:0:
448,192,140548,1,0,0:0:0:0:
320,192,140584,1,0,0:0:0:0:
64,192,140621,1,0,0:0:0:0:
448,192,140658,1,0,0:0:0:0:
192,192,140695,1,0,0:0:0:0:
64,192,140731,1,0,0:0:0:0:
320,192,140768,1,0,0:0:0:0:
192,192,140804,1,0,0:0:0:0:
448,192,140841,1,0,0:0:0:0:
320,192,140878,1,0,0:0:0:0:
192,192,140914,1,0,0:0:0:0:
64,192,140951,1,0,0:0:0:0:
320,192,140987,1,0,0:0:0:0:
192,192,141024,1,0,0:0:0:0:
448,192,141060,1,0,0:0:0:0:
320,192,141098,1,0,0:0:0:0:
192,192,141134,1,0,0:0:0:0:
64,192,141171,1,0,0:0:0:0:
320,192,141207,1,0,0:0:0:0:
192,192,141244,1,0,0:0:0:0:
64,192,141280,1,0,0:0:0:0:
448,192,141318,1,0,0:0:0:0:
320,192,141354,1,0,0:0:0:0:
192,192,141390,1,0,0:0:0:0:
448,192,141427,1,0,0:0:0:0:
64,192,141463,1,0,0:0:0:0:
192,192,141500,1,0,0:0:0:0:
320,192,141537,1,0,0:0:0:0:
448,192,141574,1,0,0:0:0:0:
320,192,141610,1,0,0:0:0:0:
192,192,141647,1,0,0:0:0:0:
64,192,141683,1,0,0:0:0:0:
448,192,141720,1,0,0:0:0:0:
320,192,141757,1,0,0:0:0:0:
192,192,141794,1,0,0:0:0:0:
64,192,141830,1,0,0:0:0:0:
448,192,141830,1,0,0:0:0:0:
320,192,141866,1,0,0:0:0:0:
64,192,141903,1,0,0:0:0:0:
448,192,141940,1,0,0:0:0:0:
320,192,141977,1,0,0:0:0:0:
192,192,142013,1,0,0:0:0:0:
448,192,142050,1,0,0:0:0:0:
320,192,142086,1,0,0:0:0:0:
192,192,142123,1,0,0:0:0:0:
448,192,142160,1,0,0:0:0:0:
320,192,142197,1,0,0:0:0:0:
64,192,142233,1,0,0:0:0:0:
448,192,142270,1,0,0:0:0:0:
320,192,142306,1,0,0:0:0:0:
192,192,142342,1,0,0:0:0:0:
64,192,142380,1,0,0:0:0:0:
192,192,142416,1,0,0:0:0:0:
320,192,142453,1,0,0:0:0:0:
64,192,142489,1,0,0:0:0:0:
192,192,142526,1,0,0:0:0:0:
320,192,142562,1,0,0:0:0:0:
64,192,142600,1,0,0:0:0:0:
192,192,142636,1,0,0:0:0:0:
448,192,142673,1,0,0:0:0:0:
64,192,142709,1,0,0:0:0:0:
192,192,142746,1,0,0:0:0:0:
320,192,142782,1,0,0:0:0:0:
448,192,142819,1,0,0:0:0:0:
192,192,142856,1,0,0:0:0:0:
320,192,142892,1,0,0:0:0:0:
64,192,142929,1,0,0:0:0:0:
448,192,142965,1,0,0:0:0:0:
320,192,143002,1,0,0:0:0:0:
64,192,143039,1,0,0:0:0:0:
192,192,143039,1,0,0:0:0:0:
320,192,143149,1,0,0:0:0:0:
448,192,143149,1,0,0:0:0:0:
192,192,143259,1,0,0:0:0:0:
64,192,143259,1,0,0:0:0:0:
320,192,143314,1,0,0:0:0:0:
448,192,143314,1,0,0:0:0:0:
192,192,143368,1,0,0:0:0:0:
64,192,143368,1,0,0:0:0:0:
320,192,143423,1,0,0:0:0:0:
448,192,143423,1,0,0:0:0:0:
64,192,143479,1,0,0:0:0:0:
320,192,143515,1,0,0:0:0:0:
192,192,143552,1,0,0:0:0:0:
64,192,143588,1,0,0:0:0:0:
448,192,143625,1,0,0:0:0:0:
320,192,143661,1,0,0:0:0:0:
64,192,143699,1,0,0:0:0:0:
192,192,143735,1,0,0:0:0:0:
448,192,143771,1,0,0:0:0:0:
320,192,143808,1,0,0:0:0:0:
192,192,143844,1,0,0:0:0:0:
64,192,143881,1,0,0:0:0:0:
448,192,143918,1,0,0:0:0:0:
320,192,143955,1,0,0:0:0:0:
192,192,143991,1,0,0:0:0:0:
64,192,144028,1,0,0:0:0:0:
448,192,144064,1,0,0:0:0:0:
320,192,144101,1,0,0:0:0:0:
64,192,144138,1,0,0:0:0:0:
192,192,144175,1,0,0:0:0:0:
448,192,144211,1,0,0:0:0:0:
64,192,144247,1,0,0:0:0:0:
320,192,144284,1,0,0:0:0:0:
192,192,144320,1,0,0:0:0:0:
448,192,144358,1,0,0:0:0:0:
320,192,144394,1,0,0:0:0:0:
192,192,144431,1,0,0:0:0:0:
64,192,144467,1,0,0:0:0:0:
448,192,144504,1,0,0:0:0:0:
192,192,144540,1,0,0:0:0:0:
320,192,144578,1,0,0:0:0:0:
64,192,144614,1,0,0:0:0:0:
192,192,144651,1,0,0:0:0:0:
320,192,144687,1,0,0:0:0:0:
448,192,144723,1,0,0:0:0:0:
64,192,144760,1,0,0:0:0:0:
192,192,144797,1,0,0:0:0:0:
320,192,144834,1,0,0:0:0:0:
448,192,144870,1,0,0:0:0:0:
64,192,144907,1,0,0:0:0:0:
192,192,144943,1,0,0:0:0:0:
64,192,144980,1,0,0:0:0:0:
448,192,145017,1,0,0:0:0:0:
320,192,145054,1,0,0:0:0:0:
64,192,145090,1,0,0:0:0:0:
448,192,145127,1,0,0:0:0:0:
320,192,145163,1,0,0:0:0:0:
192,192,145200,1,0,0:0:0:0:
448,192,145237,1,0,0:0:0:0:
320,192,145273,1,0,0:0:0:0:
192,192,145310,1,0,0:0:0:0:
448,192,145346,1,0,0:0:0:0:
64,192,145346,1,0,0:0:0:0:
320,192,145383,1,0,0:0:0:0:
192,192,145420,1,0,0:0:0:0:
64,192,145457,1,0,0:0:0:0:
448,192,145493,1,0,0:0:0:0:
320,192,145530,1,0,0:0:0:0:
448,192,145566,1,0,0:0:0:0:
64,192,145603,1,0,0:0:0:0:
192,192,145640,1,0,0:0:0:0:
320,192,145676,1,0,0:0:0:0:
448,192,145713,1,0,0:0:0:0:
64,192,145749,1,0,0:0:0:0:
192,192,145786,1,0,0:0:0:0:
448,192,145822,1,0,0:0:0:0:
320,192,145860,1,0,0:0:0:0:
64,192,145896,1,0,0:0:0:0:
192,192,145933,1,0,0:0:0:0:
320,192,145969,1,0,0:0:0:0:
448,192,146006,1,0,0:0:0:0:
64,192,146042,1,0,0:0:0:0:
320,192,146080,1,0,0:0:0:0:
192,192,146116,1,0,0:0:0:0:
448,192,146152,1,0,0:0:0:0:
64,192,146189,1,0,0:0:0:0:
192,192,146225,1,0,0:0:0:0:
320,192,146262,1,0,0:0:0:0:
448,192,146299,1,0,0:0:0:0:
192,192,146336,1,0,0:0:0:0:
320,192,146372,1,0,0:0:0:0:
64,192,146409,1,0,0:0:0:0:
192,192,146445,1,0,0:0:0:0:
320,192,146482,1,0,0:0:0:0:
448,192,146519,1,0,0:0:0:0:
64,192,146556,1,0,0:0:0:0:
192,192,146592,1,0,0:0:0:0:
320,192,146628,1,0,0:0:0:0:
448,192,146665,1,0,0:0:0:0:
64,192,146701,1,0,0:0:0:0:
320,192,146739,1,0,0:0:0:0:
192,192,146775,1,0,0:0:0:0:
448,192,146812,1,0,0:0:0:0:
320,192,146848,1,0,0:0:0:0:
64,192,146885,1,0,0:0:0:0:
192,192,146921,1,0,0:0:0:0:
64,192,146959,1,0,0:0:0:0:
448,192,146995,1,0,0:0:0:0:
320,192,147032,1,0,0:0:0:0:
192,192,147068,1,0,0:0:0:0:
64,192,147104,1,0,0:0:0:0:
192,192,147141,1,0,0:0:0:0:
320,192,147178,1,0,0:0:0:0:
448,192,147215,1,0,0:0:0:0:
64,192,147251,1,0,0:0:0:0:
192,192,147288,1,0,0:0:0:0:
448,192,147324,1,0,0:0:0:0:
320,192,147361,1,0,0:0:0:0:
192,192,147398,1,0,0:0:0:0:
64,192,147435,1,0,0:0:0:0:
192,192,147471,1,0,0:0:0:0:
320,192,147508,1,0,0:0:0:0:
448,192,147544,1,0,0:0:0:0:
320,192,147580,1,0,0:0:0:0:
192,192,147618,1,0,0:0:0:0:
64,192,147654,1,0,0:0:0:0:
448,192,147691,1,0,0:0:0:0:
320,192,147727,1,0,0:0:0:0:
64,192,147764,1,0,0:0:0:0:
192,192,147800,1,0,0:0:0:0:
320,192,147838,1,0,0:0:0:0:
448,192,147874,1,0,0:0:0:0:
320,192,147911,1,0,0:0:0:0:
192,192,147947,1,0,0:0:0:0:
64,192,147984,1,0,0:0:0:0:
192,192,148020,1,0,0:0:0:0:
320,192,148057,1,0,0:0:0:0:
448,192,148094,1,0,0:0:0:0:
64,192,148130,1,0,0:0:0:0:
192,192,148167,1,0,0:0:0:0:
448,192,148203,1,0,0:0:0:0:
320,192,148240,1,0,0:0:0:0:
192,192,148277,1,0,0:0:0:0:
64,192,148314,1,0,0:0:0:0:
192,192,148350,1,0,0:0:0:0:
320,192,148387,1,0,0:0:0:0:
448,192,148423,1,0,0:0:0:0:
320,192,148460,1,0,0:0:0:0:
192,192,148497,1,0,0:0:0:0:
64,192,148533,1,0,0:0:0:0:
320,192,148570,1,0,0:0:0:0:
192,192,148606,1,0,0:0:0:0:
448,192,148643,1,0,0:0:0:0:
320,192,148680,1,0,0:0:0:0:
192,192,148717,1,0,0:0:0:0:
64,192,148753,1,0,0:0:0:0:
448,192,148753,1,0,0:0:0:0:
320,192,148790,1,0,0:0:0:0:
64,192,148826,1,0,0:0:0:0:
448,192,148863,1,0,0:0:0:0:
320,192,148900,1,0,0:0:0:0:
192,192,148937,1,0,0:0:0:0:
448,192,148973,1,0,0:0:0:0:
320,192,149009,1,0,0:0:0:0:
64,192,149046,1,0,0:0:0:0:
448,192,149082,1,0,0:0:0:0:
320,192,149120,1,0,0:0:0:0:
192,192,149156,1,0,0:0:0:0:
64,192,149193,1,0,0:0:0:0:
192,192,149229,1,0,0:0:0:0:
448,192,149266,1,0,0:0:0:0:
64,192,149302,1,0,0:0:0:0:
192,192,149340,1,0,0:0:0:0:
320,192,149376,1,0,0:0:0:0:
64,192,149413,1,0,0:0:0:0:
192,192,149449,1,0,0:0:0:0:
448,192,149485,1,0,0:0:0:0:
320,192,149522,1,0,0:0:0:0:
192,192,149559,1,0,0:0:0:0:
64,192,149596,1,0,0:0:0:0:
448,192,149632,1,0,0:0:0:0:
320,192,149632,1,0,0:0:0:0:
192,192,149687,1,0,0:0:0:0:
64,192,149687,1,0,0:0:0:0:
320,192,149742,1,0,0:0:0:0:
448,192,149742,1,0,0:0:0:0:
192,192,149797,1,0,0:0:0:0:
64,192,149797,1,0,0:0:0:0:
320,192,149852,1,0,0:0:0:0:
448,192,149852,1,0,0:0:0:0:
320,192,149961,1,0,0:0:0:0:
448,192,149961,1,0,0:0:0:0:
192,192,150072,1,0,0:0:0:0:
64,192,150072,1,0,0:0:0:0:
192,192,150181,1,0,0:0:0:0:
64,192,150181,1,0,0:0:0:0:
320,192,150237,1,0,0:0:0:0:
448,192,150237,1,0,0:0:0:0:
192,192,150292,1,0,0:0:0:0:
64,192,150292,1,0,0:0:0:0:
320,192,150346,1,0,0:0:0:0:
448,192,150346,1,0,0:0:0:0:
192,192,150401,1,0,0:0:0:0:
64,192,150401,1,0,0:0:0:0:
320,192,150457,1,0,0:0:0:0:
448,192,150457,1,0,0:0:0:0:
64,192,150511,1,0,0:0:0:0:
192,192,150511,1,0,0:0:0:0:
448,192,150548,1,0,0:0:0:0:
320,192,150584,1,0,0:0:0:0:
64,192,150621,1,0,0:0:0:0:
192,192,150658,1,0,0:0:0:0:
448,192,150695,1,0,0:0:0:0:
64,192,150731,1,0,0:0:0:0:
320,192,150768,1,0,0:0:0:0:
192,192,150804,1,0,0:0:0:0:
448,192,150841,1,0,0:0:0:0:
64,192,150878,1,0,0:0:0:0:
320,192,150914,1,0,0:0:0:0:
448,192,150951,1,0,0:0:0:0:
64,192,150987,1,0,0:0:0:0:
192,192,151024,1,0,0:0:0:0:
448,192,151060,1,0,0:0:0:0:
320,192,151098,1,0,0:0:0:0:
64,192,151134,1,0,0:0:0:0:
448,192,151171,1,0,0:0:0:0:
192,192,151207,1,0,0:0:0:0:
320,192,151244,1,0,0:0:0:0:
64,192,151280,1,0,0:0:0:0:
448,192,151318,1,0,0:0:0:0:
320,192,151354,1,0,0:0:0:0:
64,192,151390,1,0,0:0:0:0:
448,192,151427,1,0,0:0:0:0:
320,192,151463,1,0,0:0:0:0:
64,192,151500,1,0,0:0:0:0:
192,192,151537,1,0,0:0:0:0:
448,192,151574,1,0,0:0:0:0:
64,192,151610,1,0,0:0:0:0:
320,192,151647,1,0,0:0:0:0:
192,192,151683,1,0,0:0:0:0:
448,192,151720,1,0,0:0:0:0:
64,192,151757,1,0,0:0:0:0:
320,192,151794,1,0,0:0:0:0:
448,192,151830,1,0,0:0:0:0:
64,192,151866,1,0,0:0:0:0:
192,192,151903,1,0,0:0:0:0:
448,192,151940,1,0,0:0:0:0:
320,192,151977,1,0,0:0:0:0:
64,192,152013,1,0,0:0:0:0:
448,192,152050,1,0,0:0:0:0:
320,192,152086,1,0,0:0:0:0:
192,192,152123,1,0,0:0:0:0:
64,192,152160,1,0,0:0:0:0:
448,192,152160,1,0,0:0:0:0:
320,192,152197,1,0,0:0:0:0:
192,192,152233,1,0,0:0:0:0:
64,192,152270,1,0,0:0:0:0:
448,192,152306,1,0,0:0:0:0:
320,192,152342,1,0,0:0:0:0:
64,192,152380,1,0,0:0:0:0:
192,192,152416,1,0,0:0:0:0:
448,192,152453,1,0,0:0:0:0:
64,192,152489,1,0,0:0:0:0:
320,192,152526,1,0,0:0:0:0:
192,192,152562,1,0,0:0:0:0:
448,192,152600,1,0,0:0:0:0:
64,192,152636,1,0,0:0:0:0:
320,192,152673,1,0,0:0:0:0:
448,192,152709,1,0,0:0:0:0:
64,192,152746,1,0,0:0:0:0:
192,192,152782,1,0,0:0:0:0:
448,192,152819,1,0,0:0:0:0:
320,192,152856,1,0,0:0:0:0:
64,192,152892,1,0,0:0:0:0:
448,192,152929,1,0,0:0:0:0:
192,192,152965,1,0,0:0:0:0:
320,192,153002,1,0,0:0:0:0:
64,192,153039,1,0,0:0:0:0:
448,192,153076,1,0,0:0:0:0:
320,192,153112,1,0,0:0:0:0:
64,192,153149,1,0,0:0:0:0:
448,192,153185,1,0,0:0:0:0:
320,192,153222,1,0,0:0:0:0:
64,192,153259,1,0,0:0:0:0:
192,192,153295,1,0,0:0:0:0:
448,192,153332,1,0,0:0:0:0:
64,192,153368,1,0,0:0:0:0:
320,192,153405,1,0,0:0:0:0:
192,192,153441,1,0,0:0:0:0:
448,192,153479,1,0,0:0:0:0:
64,192,153515,1,0,0:0:0:0:
320,192,153552,1,0,0:0:0:0:
448,192,153588,1,0,0:0:0:0:
64,192,153625,1,0,0:0:0:0:
192,192,153661,1,0,0:0:0:0:
448,192,153699,1,0,0:0:0:0:
320,192,153735,1,0,0:0:0:0:
64,192,153771,1,0,0:0:0:0:
448,192,153808,1,0,0:0:0:0:
320,192,153844,1,0,0:0:0:0:
192,192,153881,1,0,0:0:0:0:
64,192,153918,1,0,0:0:0:0:
448,192,153918,1,0,0:0:0:0:
320,192,153955,1,0,0:0:0:0:
192,192,153991,1,0,0:0:0:0:
64,192,154028,1,0,0:0:0:0:
448,192,154064,1,0,0:0:0:0:
320,192,154101,1,0,0:0:0:0:
64,192,154138,1,0,0:0:0:0:
192,192,154175,1,0,0:0:0:0:
448,192,154211,1,0,0:0:0:0:
64,192,154247,1,0,0:0:0:0:
320,192,154284,1,0,0:0:0:0:
192,192,154320,1,0,0:0:0:0:
448,192,154358,1,0,0:0:0:0:
64,192,154394,1,0,0:0:0:0:
320,192,154431,1,0,0:0:0:0:
448,192,154467,1,0,0:0:0:0:
64,192,154504,1,0,0:0:0:0:
192,192,154540,1,0,0:0:0:0:
448,192,154578,1,0,0:0:0:0:
320,192,154614,1,0,0:0:0:0:
64,192,154651,1,0,0:0:0:0:
448,192,154687,1,0,0:0:0:0:
192,192,154723,1,0,0:0:0:0:
320,192,154760,1,0,0:0:0:0:
64,192,154797,1,0,0:0:0:0:
448,192,154834,1,0,0:0:0:0:
320,192,154870,1,0,0:0:0:0:
64,192,154907,1,0,0:0:0:0:
448,192,154943,1,0,0:0:0:0:
320,192,154980,1,0,0:0:0:0:
64,192,155017,1,0,0:0:0:0:
192,192,155054,1,0,0:0:0:0:
448,192,155090,1,0,0:0:0:0:
64,192,155127,1,0,0:0:0:0:
320,192,155163,1,0,0:0:0:0:
192,192,155200,1,0,0:0:0:0:
448,192,155237,1,0,0:0:0:0:
64,192,155273,1,0,0:0:0:0:
320,192,155310,1,0,0:0:0:0:
448,192,155346,1,0,0:0:0:0:
64,192,155383,1,0,0:0:0:0:
192,192,155420,1,0,0:0:0:0:
448,192,155457,1,0,0:0:0:0:
320,192,155493,1,0,0:0:0:0:
64,192,155530,1,0,0:0:0:0:
448,192,155566,1,0,0:0:0:0:
320,192,155603,1,0,0:0:0:0:
192,192,155640,1,0,0:0:0:0:
64,192,155676,1,0,0:0:0:0:
448,192,155676,1,0,0:0:0:0:
320,192,155713,1,0,0:0:0:0:
192,192,155749,1,0,0:0:0:0:
64,192,155786,1,0,0:0:0:0:
448,192,155822,1,0,0:0:0:0:
320,192,155860,1,0,0:0:0:0:
64,192,155896,1,0,0:0:0:0:
192,192,155933,1,0,0:0:0:0:
448,192,155969,1,0,0:0:0:0:
64,192,156006,1,0,0:0:0:0:
320,192,156042,1,0,0:0:0:0:
192,192,156080,1,0,0:0:0:0:
448,192,156116,1,0,0:0:0:0:
64,192,156152,1,0,0:0:0:0:
320,192,156189,1,0,0:0:0:0:
448,192,156225,1,0,0:0:0:0:
64,192,156262,1,0,0:0:0:0:
192,192,156299,1,0,0:0:0:0:
448,192,156336,1,0,0:0:0:0:
320,192,156372,1,0,0:0:0:0:
64,192,156409,1,0,0:0:0:0:
448,192,156445,1,0,0:0:0:0:
320,192,156482,1,0,0:0:0:0:
192,192,156519,1,0,0:0:0:0:
64,192,156556,1,0,0:0:0:0:
320,192,156592,1,0,0:0:0:0:
192,192,156628,1,0,0:0:0:0:
448,192,156665,1,0,0:0:0:0:
320,192,156701,1,0,0:0:0:0:
192,192,156775,1,0,0:0:0:0:
64,192,156775,1,0,0:0:0:0:
320,192,156830,1,0,0:0:0:0:
448,192,156830,1,0,0:0:0:0:
192,192,156885,1,0,0:0:0:0:
64,192,156885,1,0,0:0:0:0:
64,192,156995,1,0,0:0:0:0:
192,192,156995,1,0,0:0:0:0:
320,192,156995,1,0,0:0:0:0:
448,192,156995,1,0,0:0:0:0:
64,192,157104,1,0,0:0:0:0:
192,192,157104,1,0,0:0:0:0:
320,192,157104,1,0,0:0:0:0:
448,192,157104,1,0,0:0:0:0:
64,192,157215,1,0,0:0:0:0:
192,192,157215,1,0,0:0:0:0:
320,192,157215,1,0,0:0:0:0:
448,192,157215,1,0,0:0:0:0:
64,192,157324,1,0,0:0:0:0:
192,192,157324,1,0,0:0:0:0:
320,192,157380,1,0,0:0:0:0:
448,192,157380,1,0,0:0:0:0:
192,192,157435,1,0,0:0:0:0:
64,192,157435,1,0,0:0:0:0:
320,192,157489,1,0,0:0:0:0:
448,192,157489,1,0,0:0:0:0:
64,192,157544,1,0,0:0:0:0:
192,192,157580,1,0,0:0:0:0:
448,192,157618,1,0,0:0:0:0:
320,192,157654,1,0,0:0:0:0:
64,192,157691,1,0,0:0:0:0:
448,192,157727,1,0,0:0:0:0:
192,192,157764,1,0,0:0:0:0:
320,192,157800,1,0,0:0:0:0:
64,192,157838,1,0,0:0:0:0:
448,192,157874,1,0,0:0:0:0:
192,192,157911,1,0,0:0:0:0:
64,192,157947,1,0,0:0:0:0:
448,192,157984,1,0,0:0:0:0:
320,192,158020,1,0,0:0:0:0:
64,192,158057,1,0,0:0:0:0:
192,192,158094,1,0,0:0:0:0:
448,192,158130,1,0,0:0:0:0:
64,192,158167,1,0,0:0:0:0:
320,192,158203,1,0,0:0:0:0:
192,192,158240,1,0,0:0:0:0:
448,192,158277,1,0,0:0:0:0:
64,192,158314,1,0,0:0:0:0:
192,192,158350,1,0,0:0:0:0:
448,192,158387,1,0,0:0:0:0:
64,192,158423,1,0,0:0:0:0:
192,192,158460,1,0,0:0:0:0:
448,192,158497,1,0,0:0:0:0:
320,192,158533,1,0,0:0:0:0:
64,192,158570,1,0,0:0:0:0:
448,192,158606,1,0,0:0:0:0:
192,192,158643,1,0,0:0:0:0:
320,192,158680,1,0,0:0:0:0:
64,192,158717,1,0,0:0:0:0:
448,192,158753,1,0,0:0:0:0:
192,192,158790,1,0,0:0:0:0:
64,192,158826,1,0,0:0:0:0:
448,192,158863,1,0,0:0:0:0:
320,192,158900,1,0,0:0:0:0:
64,192,158937,1,0,0:0:0:0:
192,192,158973,1,0,0:0:0:0:
448,192,159009,1,0,0:0:0:0:
64,192,159046,1,0,0:0:0:0:
192,192,159082,1,0,0:0:0:0:
320,192,159120,1,0,0:0:0:0:
448,192,159156,1,0,0:0:0:0:
64,192,159156,1,0,0:0:0:0:
192,192,159193,1,0,0:0:0:0:
320,192,159229,1,0,0:0:0:0:
448,192,159266,1,0,0:0:0:0:
64,192,159302,1,0,0:0:0:0:
192,192,159340,1,0,0:0:0:0:
448,192,159376,1,0,0:0:0:0:
320,192,159413,1,0,0:0:0:0:
64,192,159449,1,0,0:0:0:0:
448,192,159485,1,0,0:0:0:0:
192,192,159522,1,0,0:0:0:0:
320,192,159559,1,0,0:0:0:0:
64,192,159596,1,0,0:0:0:0:
448,192,159632,1,0,0:0:0:0:
192,192,159669,1,0,0:0:0:0:
64,192,159705,1,0,0:0:0:0:
448,192,159742,1,0,0:0:0:0:
320,192,159779,1,0,0:0:0:0:
64,192,159816,1,0,0:0:0:0:
192,192,159852,1,0,0:0:0:0:
448,192,159889,1,0,0:0:0:0:
64,192,159925,1,0,0:0:0:0:
320,192,159961,1,0,0:0:0:0:
192,192,159999,1,0,0:0:0:0:
448,192,160035,1,0,0:0:0:0:
64,192,160072,1,0,0:0:0:0:
192,192,160108,1,0,0:0:0:0:
448,192,160145,1,0,0:0:0:0:
64,192,160181,1,0,0:0:0:0:
192,192,160219,1,0,0:0:0:0:
448,192,160255,1,0,0:0:0:0:
320,192,160292,1,0,0:0:0:0:
64,192,160328,1,0,0:0:0:0:
448,192,160365,1,0,0:0:0:0:
192,192,160401,1,0,0:0:0:0:
320,192,160438,1,0,0:0:0:0:
64,192,160475,1,0,0:0:0:0:
448,192,160511,1,0,0:0:0:0:
192,192,160548,1,0,0:0:0:0:
64,192,160584,1,0,0:0:0:0:
448,192,160621,1,0,0:0:0:0:
320,192,160658,1,0,0:0:0:0:
64,192,160695,1,0,0:0:0:0:
192,192,160731,1,0,0:0:0:0:
448,192,160768,1,0,0:0:0:0:
64,192,160804,1,0,0:0:0:0:
192,192,160841,1,0,0:0:0:0:
320,192,160878,1,0,0:0:0:0:
448,192,160914,1,0,0:0:0:0:
64,192,160914,1,0,0:0:0:0:
192,192,160951,1,0,0:0:0:0:
320,192,160987,1,0,0:0:0:0:
448,192,161024,1,0,0:0:0:0:
64,192,161060,1,0,0:0:0:0:
192,192,161098,1,0,0:0:0:0:
320,192,161134,1,0,0:0:0:0:
448,192,161171,1,0,0:0:0:0:
320,192,161207,1,0,0:0:0:0:
192,192,161244,1,0,0:0:0:0:
64,192,161280,1,0,0:0:0:0:
448,192,161318,1,0,0:0:0:0:
320,192,161354,1,0,0:0:0:0:
192,192,161390,1,0,0:0:0:0:
64,192,161427,1,0,0:0:0:0:
192,192,161463,1,0,0:0:0:0:
320,192,161500,1,0,0:0:0:0:
448,192,161537,1,0,0:0:0:0:
192,192,161574,1,0,0:0:0:0:
320,192,161610,1,0,0:0:0:0:
64,192,161647,1,0,0:0:0:0:
192,192,161683,1,0,0:0:0:0:
448,192,161720,1,0,0:0:0:0:
320,192,161757,1,0,0:0:0:0:
192,192,161794,1,0,0:0:0:0:
64,192,161830,1,0,0:0:0:0:
448,192,161866,1,0,0:0:0:0:
320,192,161903,1,0,0:0:0:0:
64,192,161940,1,0,0:0:0:0:
192,192,161977,1,0,0:0:0:0:
320,192,162013,1,0,0:0:0:0:
448,192,162050,1,0,0:0:0:0:
320,192,162086,1,0,0:0:0:0:
192,192,162123,1,0,0:0:0:0:
64,192,162160,1,0,0:0:0:0:
448,192,162197,1,0,0:0:0:0:
320,192,162233,1,0,0:0:0:0:
192,192,162270,1,0,0:0:0:0:
64,192,162306,1,0,0:0:0:0:
192,192,162342,1,0,0:0:0:0:
320,192,162380,1,0,0:0:0:0:
448,192,162416,1,0,0:0:0:0:
192,192,162453,1,0,0:0:0:0:
320,192,162489,1,0,0:0:0:0:
64,192,162526,1,0,0:0:0:0:
192,192,162562,1,0,0:0:0:0:
448,192,162600,1,0,0:0:0:0:
320,192,162600,1,0,0:0:0:0:
192,192,162654,1,0,0:0:0:0:
64,192,162654,1,0,0:0:0:0:
320,192,162709,1,0,0:0:0:0:
448,192,162709,1,0,0:0:0:0:
192,192,162764,1,0,0:0:0:0:
64,192,162764,1,0,0:0:0:0:
320,192,162819,1,0,0:0:0:0:
448,192,162819,1,0,0:0:0:0:
320,192,162929,1,0,0:0:0:0:
448,192,162929,1,0,0:0:0:0:
192,192,163039,1,0,0:0:0:0:
64,192,163039,1,0,0:0:0:0:
320,192,163039,1,0,0:0:0:0:
448,192,163039,1,0,0:0:0:0:
192,192,163149,1,0,0:0:0:0:
64,192,163149,1,0,0:0:0:0:
64,192,163259,1,0,0:0:0:0:
192,192,163259,1,0,0:0:0:0:
320,192,163259,1,0,0:0:0:0:
448,192,163259,1,0,0:0:0:0:
448,192,163368,1,0,0:0:0:0:
320,192,163368,1,0,0:0:0:0:
64,192,163479,1,0,0:0:0:0:
192,192,163479,1,0,0:0:0:0:
320,192,163479,1,0,0:0:0:0:
448,192,163479,1,0,0:0:0:0:
64,192,163588,1,0,0:0:0:0:
192,192,163588,1,0,0:0:0:0:
320,192,163643,1,0,0:0:0:0:
448,192,163643,1,0,0:0:0:0:
192,192,163699,1,0,0:0:0:0:
64,192,163699,1,0,0:0:0:0:
320,192,163753,1,0,0:0:0:0:
448,192,163753,1,0,0:0:0:0:
192,192,163808,1,0,0:0:0:0:
64,192,163808,1,0,0:0:0:0:
192,192,163918,1,0,0:0:0:0:
320,192,163918,1,0,0:0:0:0:
320,192,164028,1,0,0:0:0:0:
448,192,164028,1,0,0:0:0:0:
192,192,164138,1,0,0:0:0:0:
448,192,164138,1,0,0:0:0:0:
64,192,164138,1,0,0:0:0:0:
64,192,164247,1,0,0:0:0:0:
448,192,164247,1,0,0:0:0:0:
320,192,164247,1,0,0:0:0:0:
64,192,164358,1,0,0:0:0:0:
192,192,164358,1,0,0:0:0:0:
320,192,164358,1,0,0:0:0:0:
192,192,164467,1,0,0:0:0:0:
448,192,164467,1,0,0:0:0:0:
64,192,164578,1,0,0:0:0:0:
192,192,164578,1,0,0:0:0:0:
