osu file format v14

[General]
AudioFilename: audio 0.950x (pitch lowered).mp3
AudioLeadIn: 0
PreviewTime: -1
Countdown: 0
SampleSet: None
StackLeniency: 0.7
Mode: 3
LetterboxInBreaks: 0
SpecialStyle: 0
WidescreenStoryboard: 0

[Editor]
DistanceSpacing: 0.8
BeatDivisor: 4
GridSize: 32
TimelineZoom: 2.1

[Metadata]
Title:Sendan Life (katagiri Bootleg)
TitleUnicode:Sendan Life (katagiri Bootleg)
Artist:Remo Prototype
ArtistUnicode:Remo Prototype
Creator:eIviss
Version:stream 0.95x (247bpm) OD8
Source:
Tags: osutrainer
BeatmapID:3068483
BeatmapSetID:1496945

[Difficulty]
HPDrainRate:8.0
CircleSize:4
OverallDifficulty:8.0
ApproachRate:9
SliderMultiplier:1.4
SliderTickRate:1

[Events]
//Background and Video events
0,0,"SENDAN.png",0,0
//Break Periods
//Storyboard Layer 0 (Background)
//Storyboard Layer 1 (Fail)
//Storyboard Layer 2 (Pass)
//Storyboard Layer 3 (Foreground)
//Storyboard Layer 4 (Overlay)
//Storyboard Sound Samples

[TimingPoints]
4088,242.91497975708526315789473684,4,3,0,100,1,0

[HitObjects]
192,192,4087,5,0,0:0:0:0:
320,192,4087,1,0,0:0:0:0:
448,192,4087,1,0,0:0:0:0:
64,192,4330,1,0,0:0:0:0:
192,192,4330,1,0,0:0:0:0:
320,192,4330,1,0,0:0:0:0:
64,192,4573,1,0,0:0:0:0:
192,192,4573,1,0,0:0:0:0:
320,192,4573,1,0,0:0:0:0:
64,192,4694,1,0,0:0:0:0:
320,192,4694,1,0,0:0:0:0:
448,192,4694,1,0,0:0:0:0:
320,192,4937,1,0,0:0:0:0:
448,192,4937,1,0,0:0:0:0:
192,192,4937,1,0,0:0:0:0:
192,192,5181,1,0,0:0:0:0:
448,192,5181,1,0,0:0:0:0:
320,192,5181,1,0,0:0:0:0:
64,192,5424,1,0,0:0:0:0:
192,192,5424,1,0,0:0:0:0:
320,192,5424,1,0,0:0:0:0:
192,192,5545,1,0,0:0:0:0:
320,192,5545,1,0,0:0:0:0:
192,192,5666,1,0,0:0:0:0:
320,192,5666,1,0,0:0:0:0:
448,192,5666,1,0,0:0:0:0:
64,192,5788,128,0,6031:0:0:0:0:
192,192,5788,128,0,6031:0:0:0:0:
320,192,6031,1,0,0:0:0:0:
448,192,6031,1,0,0:0:0:0:
64,192,6273,1,0,0:0:0:0:
192,192,6273,1,0,0:0:0:0:
320,192,6273,1,0,0:0:0:0:
64,192,6516,1,0,0:0:0:0:
192,192,6516,1,0,0:0:0:0:
320,192,6516,1,0,0:0:0:0:
64,192,6638,1,0,0:0:0:0:
320,192,6638,1,0,0:0:0:0:
448,192,6638,1,0,0:0:0:0:
320,192,6881,1,0,0:0:0:0:
448,192,6881,1,0,0:0:0:0:
192,192,6881,1,0,0:0:0:0:
192,192,7124,1,0,0:0:0:0:
448,192,7124,1,0,0:0:0:0:
320,192,7124,1,0,0:0:0:0:
64,192,7367,1,0,0:0:0:0:
192,192,7367,1,0,0:0:0:0:
320,192,7428,1,0,0:0:0:0:
448,192,7428,1,0,0:0:0:0:
192,192,7488,1,0,0:0:0:0:
64,192,7488,1,0,0:0:0:0:
320,192,7549,1,0,0:0:0:0:
448,192,7549,1,0,0:0:0:0:
192,192,7610,1,0,0:0:0:0:
64,192,7610,1,0,0:0:0:0:
64,192,7731,1,0,0:0:0:0:
192,192,7731,1,0,0:0:0:0:
320,192,7731,1,0,0:0:0:0:
448,192,7731,1,0,0:0:0:0:
320,192,7852,1,0,0:0:0:0:
448,192,7852,1,0,0:0:0:0:
64,192,7974,1,0,0:0:0:0:
192,192,7974,1,0,0:0:0:0:
448,192,8014,1,0,0:0:0:0:
320,192,8055,1,0,0:0:0:0:
64,192,8095,1,0,0:0:0:0:
192,192,8136,1,0,0:0:0:0:
448,192,8176,1,0,0:0:0:0:
64,192,8217,1,0,0:0:0:0:
320,192,8257,1,0,0:0:0:0:
192,192,8298,1,0,0:0:0:0:
448,192,8338,1,0,0:0:0:0:
64,192,8378,1,0,0:0:0:0:
320,192,8420,1,0,0:0:0:0:
448,192,8460,1,0,0:0:0:0:
64,192,8501,1,0,0:0:0:0:
192,192,8541,1,0,0:0:0:0:
448,192,8582,1,0,0:0:0:0:
320,192,8622,1,0,0:0:0:0:
64,192,8663,1,0,0:0:0:0:
448,192,8703,1,0,0:0:0:0:
192,192,8744,1,0,0:0:0:0:
320,192,8784,1,0,0:0:0:0:
64,192,8825,1,0,0:0:0:0:
448,192,8865,1,0,0:0:0:0:
320,192,8905,1,0,0:0:0:0:
64,192,8946,1,0,0:0:0:0:
448,192,8986,1,0,0:0:0:0:
320,192,9027,1,0,0:0:0:0:
64,192,9067,1,0,0:0:0:0:
192,192,9108,1,0,0:0:0:0:
448,192,9148,1,0,0:0:0:0:
64,192,9189,1,0,0:0:0:0:
320,192,9229,1,0,0:0:0:0:
192,192,9270,1,0,0:0:0:0:
448,192,9310,1,0,0:0:0:0:
64,192,9351,1,0,0:0:0:0:
320,192,9391,1,0,0:0:0:0:
448,192,9431,1,0,0:0:0:0:
64,192,9472,1,0,0:0:0:0:
192,192,9512,1,0,0:0:0:0:
448,192,9553,1,0,0:0:0:0:
320,192,9593,1,0,0:0:0:0:
64,192,9634,1,0,0:0:0:0:
448,192,9674,1,0,0:0:0:0:
320,192,9715,1,0,0:0:0:0:
192,192,9755,1,0,0:0:0:0:
64,192,9796,1,0,0:0:0:0:
448,192,9796,1,0,0:0:0:0:
320,192,9836,1,0,0:0:0:0:
192,192,9877,1,0,0:0:0:0:
64,192,9917,1,0,0:0:0:0:
448,192,9957,1,0,0:0:0:0:
320,192,9998,1,0,0:0:0:0:
64,192,10038,1,0,0:0:0:0:
192,192,10080,1,0,0:0:0:0:
448,192,10120,1,0,0:0:0:0:
64,192,10161,1,0,0:0:0:0:
320,192,10201,1,0,0:0:0:0:
192,192,10242,1,0,0:0:0:0:
448,192,10282,1,0,0:0:0:0:
64,192,10323,1,0,0:0:0:0:
320,192,10363,1,0,0:0:0:0:
448,192,10404,1,0,0:0:0:0:
64,192,10444,1,0,0:0:0:0:
192,192,10484,1,0,0:0:0:0:
448,192,10525,1,0,0:0:0:0:
320,192,10565,1,0,0:0:0:0:
64,192,10606,1,0,0:0:0:0:
448,192,10646,1,0,0:0:0:0:
192,192,10687,1,0,0:0:0:0:
320,192,10727,1,0,0:0:0:0:
64,192,10768,1,0,0:0:0:0:
448,192,10808,1,0,0:0:0:0:
320,192,10849,1,0,0:0:0:0:
64,192,10889,1,0,0:0:0:0:
448,192,10930,1,0,0:0:0:0:
320,192,10970,1,0,0:0:0:0:
64,192,11010,1,0,0:0:0:0:
192,192,11051,1,0,0:0:0:0:
448,192,11091,1,0,0:0:0:0:
64,192,11132,1,0,0:0:0:0:
320,192,11172,1,0,0:0:0:0:
192,192,11213,1,0,0:0:0:0:
448,192,11253,1,0,0:0:0:0:
64,192,11294,1,0,0:0:0:0:
320,192,11334,1,0,0:0:0:0:
448,192,11375,1,0,0:0:0:0:
64,192,11415,1,0,0:0:0:0:
192,192,11456,1,0,0:0:0:0:
448,192,11496,1,0,0:0:0:0:
320,192,11536,1,0,0:0:0:0:
64,192,11577,1,0,0:0:0:0:
448,192,11617,1,0,0:0:0:0:
320,192,11658,1,0,0:0:0:0:
192,192,11698,1,0,0:0:0:0:
64,192,11740,1,0,0:0:0:0:
448,192,11740,1,0,0:0:0:0:
320,192,11780,1,0,0:0:0:0:
192,192,11821,1,0,0:0:0:0:
64,192,11861,1,0,0:0:0:0:
448,192,11902,1,0,0:0:0:0:
320,192,11942,1,0,0:0:0:0:
64,192,11983,1,0,0:0:0:0:
192,192,12023,1,0,0:0:0:0:
448,192,12063,1,0,0:0:0:0:
64,192,12104,1,0,0:0:0:0:
320,192,12144,1,0,0:0:0:0:
192,192,12185,1,0,0:0:0:0:
448,192,12225,1,0,0:0:0:0:
64,192,12266,1,0,0:0:0:0:
320,192,12306,1,0,0:0:0:0:
448,192,12347,1,0,0:0:0:0:
64,192,12387,1,0,0:0:0:0:
192,192,12428,1,0,0:0:0:0:
448,192,12468,1,0,0:0:0:0:
320,192,12509,1,0,0:0:0:0:
64,192,12549,1,0,0:0:0:0:
448,192,12589,1,0,0:0:0:0:
192,192,12630,1,0,0:0:0:0:
320,192,12670,1,0,0:0:0:0:
64,192,12711,1,0,0:0:0:0:
448,192,12751,1,0,0:0:0:0:
320,192,12792,1,0,0:0:0:0:
64,192,12832,1,0,0:0:0:0:
448,192,12873,1,0,0:0:0:0:
320,192,12913,1,0,0:0:0:0:
64,192,12954,1,0,0:0:0:0:
192,192,12994,1,0,0:0:0:0:
448,192,13035,1,0,0:0:0:0:
64,192,13075,1,0,0:0:0:0:
320,192,13115,1,0,0:0:0:0:
192,192,13156,1,0,0:0:0:0:
448,192,13196,1,0,0:0:0:0:
64,192,13237,1,0,0:0:0:0:
320,192,13277,1,0,0:0:0:0:
448,192,13318,1,0,0:0:0:0:
64,192,13358,1,0,0:0:0:0:
192,192,13400,1,0,0:0:0:0:
448,192,13440,1,0,0:0:0:0:
320,192,13481,1,0,0:0:0:0:
64,192,13521,1,0,0:0:0:0:
448,192,13562,1,0,0:0:0:0:
320,192,13602,1,0,0:0:0:0:
192,192,13642,1,0,0:0:0:0:
64,192,13683,1,0,0:0:0:0:
448,192,13683,1,0,0:0:0:0:
320,192,13723,1,0,0:0:0:0:
192,192,13764,1,0,0:0:0:0:
64,192,13804,1,0,0:0:0:0:
448,192,13845,1,0,0:0:0:0:
320,192,13885,1,0,0:0:0:0:
64,192,13926,1,0,0:0:0:0:
192,192,13966,1,0,0:0:0:0:
448,192,14007,1,0,0:0:0:0:
64,192,14047,1,0,0:0:0:0:
320,192,14088,1,0,0:0:0:0:
192,192,14128,1,0,0:0:0:0:
448,192,14168,1,0,0:0:0:0:
64,192,14209,1,0,0:0:0:0:
320,192,14249,1,0,0:0:0:0:
448,192,14290,1,0,0:0:0:0:
64,192,14330,1,0,0:0:0:0:
192,192,14371,1,0,0:0:0:0:
448,192,14411,1,0,0:0:0:0:
320,192,14452,1,0,0:0:0:0:
64,192,14492,1,0,0:0:0:0:
448,192,14533,1,0,0:0:0:0:
320,192,14573,1,0,0:0:0:0:
192,192,14614,1,0,0:0:0:0:
64,192,14654,1,0,0:0:0:0:
320,192,14694,1,0,0:0:0:0:
192,192,14735,1,0,0:0:0:0:
448,192,14775,1,0,0:0:0:0:
320,192,14816,1,0,0:0:0:0:
192,192,14897,1,0,0:0:0:0:
64,192,14897,1,0,0:0:0:0:
320,192,14957,1,0,0:0:0:0:
448,192,14957,1,0,0:0:0:0:
192,192,15018,1,0,0:0:0:0:
64,192,15018,1,0,0:0:0:0:
64,192,15141,1,0,0:0:0:0:
192,192,15141,1,0,0:0:0:0:
320,192,15141,1,0,0:0:0:0:
448,192,15141,1,0,0:0:0:0:
64,192,15262,1,0,0:0:0:0:
192,192,15262,1,0,0:0:0:0:
320,192,15262,1,0,0:0:0:0:
448,192,15262,1,0,0:0:0:0:
64,192,15383,1,0,0:0:0:0:
192,192,15383,1,0,0:0:0:0:
320,192,15383,1,0,0:0:0:0:
448,192,15383,1,0,0:0:0:0:
64,192,15505,1,0,0:0:0:0:
192,192,15505,1,0,0:0:0:0:
320,192,15565,1,0,0:0:0:0:
448,192,15565,1,0,0:0:0:0:
192,192,15626,1,0,0:0:0:0:
64,192,15626,1,0,0:0:0:0:
320,192,15687,1,0,0:0:0:0:
448,192,15687,1,0,0:0:0:0:
192,192,15747,1,0,0:0:0:0:
64,192,15747,1,0,0:0:0:0:
320,192,15869,1,0,0:0:0:0:
192,192,15990,1,0,0:0:0:0:
448,192,15990,1,0,0:0:0:0:
64,192,16112,1,0,0:0:0:0:
192,192,16233,1,0,0:0:0:0:
320,192,16233,1,0,0:0:0:0:
448,192,16354,1,0,0:0:0:0:
64,192,16476,1,0,0:0:0:0:
192,192,16476,1,0,0:0:0:0:
320,192,16597,1,0,0:0:0:0:
448,192,16720,1,0,0:0:0:0:
192,192,16720,1,0,0:0:0:0:
64,192,16841,1,0,0:0:0:0:
192,192,16962,1,0,0:0:0:0:
320,192,16962,1,0,0:0:0:0:
448,192,17084,1,0,0:0:0:0:
192,192,17205,1,0,0:0:0:0:
320,192,17205,1,0,0:0:0:0:
64,192,17326,1,0,0:0:0:0:
320,192,17448,1,0,0:0:0:0:
448,192,17448,1,0,0:0:0:0:
192,192,17569,1,0,0:0:0:0:
64,192,17691,1,0,0:0:0:0:
320,192,17691,1,0,0:0:0:0:
448,192,17812,1,0,0:0:0:0:
320,192,17933,1,0,0:0:0:0:
192,192,17933,1,0,0:0:0:0:
64,192,18055,1,0,0:0:0:0:
320,192,18176,1,0,0:0:0:0:
448,192,18176,1,0,0:0:0:0:
192,192,18298,1,0,0:0:0:0:
64,192,18420,1,0,0:0:0:0:
320,192,18420,1,0,0:0:0:0:
448,192,18541,1,0,0:0:0:0:
64,192,18663,1,0,0:0:0:0:
192,192,18663,1,0,0:0:0:0:
320,192,18784,1,0,0:0:0:0:
192,192,18905,1,0,0:0:0:0:
448,192,18905,1,0,0:0:0:0:
64,192,19027,1,0,0:0:0:0:
448,192,19148,1,0,0:0:0:0:
192,192,19148,1,0,0:0:0:0:
320,192,19270,1,0,0:0:0:0:
64,192,19391,1,0,0:0:0:0:
192,192,19391,1,0,0:0:0:0:
64,192,19512,1,0,0:0:0:0:
192,192,19512,1,0,0:0:0:0:
64,192,19634,1,0,0:0:0:0:
192,192,19634,1,0,0:0:0:0:
448,192,19634,1,0,0:0:0:0:
320,192,19755,1,0,0:0:0:0:
64,192,19877,1,0,0:0:0:0:
192,192,19877,1,0,0:0:0:0:
448,192,19998,1,0,0:0:0:0:
192,192,20120,1,0,0:0:0:0:
320,192,20120,1,0,0:0:0:0:
64,192,20242,1,0,0:0:0:0:
320,192,20363,1,0,0:0:0:0:
448,192,20363,1,0,0:0:0:0:
64,192,20484,1,0,0:0:0:0:
192,192,20606,1,0,0:0:0:0:
320,192,20606,1,0,0:0:0:0:
448,192,20727,1,0,0:0:0:0:
320,192,20849,1,0,0:0:0:0:
64,192,20849,1,0,0:0:0:0:
192,192,20970,1,0,0:0:0:0:
64,192,21091,1,0,0:0:0:0:
448,192,21091,1,0,0:0:0:0:
320,192,21213,1,0,0:0:0:0:
192,192,21334,1,0,0:0:0:0:
64,192,21334,1,0,0:0:0:0:
320,192,21456,1,0,0:0:0:0:
192,192,21577,1,0,0:0:0:0:
448,192,21577,1,0,0:0:0:0:
64,192,21698,1,0,0:0:0:0:
192,192,21821,1,0,0:0:0:0:
320,192,21821,1,0,0:0:0:0:
448,192,21942,1,0,0:0:0:0:
64,192,22063,1,0,0:0:0:0:
192,192,22063,1,0,0:0:0:0:
320,192,22185,1,0,0:0:0:0:
448,192,22306,1,0,0:0:0:0:
192,192,22306,1,0,0:0:0:0:
320,192,22428,1,0,0:0:0:0:
64,192,22549,1,0,0:0:0:0:
192,192,22549,1,0,0:0:0:0:
192,192,22792,1,0,0:0:0:0:
64,192,22792,1,0,0:0:0:0:
320,192,22792,1,0,0:0:0:0:
448,192,22792,1,0,0:0:0:0:
192,192,22913,1,0,0:0:0:0:
64,192,22913,1,0,0:0:0:0:
320,192,23035,1,0,0:0:0:0:
448,192,23035,1,0,0:0:0:0:
320,192,23156,1,0,0:0:0:0:
448,192,23156,1,0,0:0:0:0:
192,192,23277,1,0,0:0:0:0:
64,192,23277,1,0,0:0:0:0:
320,192,23338,1,0,0:0:0:0:
448,192,23338,1,0,0:0:0:0:
192,192,23400,1,0,0:0:0:0:
64,192,23400,1,0,0:0:0:0:
320,192,23460,1,0,0:0:0:0:
448,192,23460,1,0,0:0:0:0:
64,192,23521,1,0,0:0:0:0:
192,192,23562,1,0,0:0:0:0:
320,192,23602,1,0,0:0:0:0:
448,192,23642,1,0,0:0:0:0:
320,192,23683,1,0,0:0:0:0:
192,192,23723,1,0,0:0:0:0:
64,192,23764,1,0,0:0:0:0:
448,192,23804,1,0,0:0:0:0:
320,192,23845,1,0,0:0:0:0:
64,192,23885,1,0,0:0:0:0:
448,192,23926,1,0,0:0:0:0:
192,192,23966,1,0,0:0:0:0:
320,192,24007,1,0,0:0:0:0:
64,192,24047,1,0,0:0:0:0:
448,192,24088,1,0,0:0:0:0:
320,192,24128,1,0,0:0:0:0:
192,192,24168,1,0,0:0:0:0:
64,192,24209,1,0,0:0:0:0:
448,192,24249,1,0,0:0:0:0:
320,192,24290,1,0,0:0:0:0:
64,192,24330,1,0,0:0:0:0:
192,192,24371,1,0,0:0:0:0:
448,192,24411,1,0,0:0:0:0:
320,192,24452,1,0,0:0:0:0:
192,192,24492,1,0,0:0:0:0:
64,192,24533,1,0,0:0:0:0:
320,192,24573,1,0,0:0:0:0:
192,192,24614,1,0,0:0:0:0:
448,192,24654,1,0,0:0:0:0:
320,192,24694,1,0,0:0:0:0:
192,192,24735,1,0,0:0:0:0:
64,192,24775,1,0,0:0:0:0:
448,192,24816,1,0,0:0:0:0:
320,192,24856,1,0,0:0:0:0:
64,192,24897,1,0,0:0:0:0:
192,192,24937,1,0,0:0:0:0:
448,192,24978,1,0,0:0:0:0:
64,192,25018,1,0,0:0:0:0:
320,192,25060,1,0,0:0:0:0:
192,192,25100,1,0,0:0:0:0:
448,192,25141,1,0,0:0:0:0:
320,192,25181,1,0,0:0:0:0:
192,192,25221,1,0,0:0:0:0:
64,192,25221,1,0,0:0:0:0:
320,192,25262,1,0,0:0:0:0:
448,192,25302,1,0,0:0:0:0:
64,192,25343,1,0,0:0:0:0:
192,192,25383,1,0,0:0:0:0:
320,192,25424,1,0,0:0:0:0:
64,192,25464,1,0,0:0:0:0:
448,192,25505,1,0,0:0:0:0:
320,192,25545,1,0,0:0:0:0:
64,192,25586,1,0,0:0:0:0:
192,192,25626,1,0,0:0:0:0:
448,192,25667,1,0,0:0:0:0:
320,192,25707,1,0,0:0:0:0:
192,192,25747,1,0,0:0:0:0:
64,192,25788,1,0,0:0:0:0:
192,192,25828,1,0,0:0:0:0:
320,192,25869,1,0,0:0:0:0:
448,192,25909,1,0,0:0:0:0:
64,192,25950,1,0,0:0:0:0:
192,192,25990,1,0,0:0:0:0:
448,192,26031,1,0,0:0:0:0:
320,192,26071,1,0,0:0:0:0:
64,192,26112,1,0,0:0:0:0:
448,192,26152,1,0,0:0:0:0:
192,192,26193,1,0,0:0:0:0:
320,192,26233,1,0,0:0:0:0:
64,192,26273,1,0,0:0:0:0:
192,192,26314,1,0,0:0:0:0:
320,192,26354,1,0,0:0:0:0:
448,192,26395,1,0,0:0:0:0:
192,192,26435,1,0,0:0:0:0:
320,192,26476,1,0,0:0:0:0:
64,192,26516,1,0,0:0:0:0:
192,192,26557,1,0,0:0:0:0:
320,192,26597,1,0,0:0:0:0:
448,192,26638,1,0,0:0:0:0:
64,192,26678,1,0,0:0:0:0:
320,192,26720,1,0,0:0:0:0:
192,192,26760,1,0,0:0:0:0:
448,192,26800,1,0,0:0:0:0:
320,192,26841,1,0,0:0:0:0:
64,192,26881,1,0,0:0:0:0:
448,192,26922,1,0,0:0:0:0:
320,192,26962,1,0,0:0:0:0:
64,192,27003,1,0,0:0:0:0:
192,192,27043,1,0,0:0:0:0:
320,192,27084,1,0,0:0:0:0:
448,192,27124,1,0,0:0:0:0:
64,192,27165,1,0,0:0:0:0:
192,192,27205,1,0,0:0:0:0:
64,192,27246,1,0,0:0:0:0:
448,192,27286,1,0,0:0:0:0:
320,192,27326,1,0,0:0:0:0:
448,192,27367,1,0,0:0:0:0:
64,192,27407,1,0,0:0:0:0:
192,192,27407,1,0,0:0:0:0:
320,192,27448,1,0,0:0:0:0:
448,192,27488,1,0,0:0:0:0:
64,192,27529,1,0,0:0:0:0:
192,192,27569,1,0,0:0:0:0:
320,192,27610,1,0,0:0:0:0:
448,192,27650,1,0,0:0:0:0:
64,192,27691,1,0,0:0:0:0:
192,192,27731,1,0,0:0:0:0:
448,192,27772,1,0,0:0:0:0:
320,192,27812,1,0,0:0:0:0:
64,192,27852,1,0,0:0:0:0:
192,192,27893,1,0,0:0:0:0:
448,192,27933,1,0,0:0:0:0:
64,192,27974,1,0,0:0:0:0:
320,192,28014,1,0,0:0:0:0:
448,192,28055,1,0,0:0:0:0:
192,192,28095,1,0,0:0:0:0:
64,192,28136,1,0,0:0:0:0:
448,192,28176,1,0,0:0:0:0:
320,192,28217,1,0,0:0:0:0:
192,192,28257,1,0,0:0:0:0:
64,192,28298,1,0,0:0:0:0:
448,192,28338,1,0,0:0:0:0:
192,192,28378,1,0,0:0:0:0:
320,192,28420,1,0,0:0:0:0:
64,192,28460,1,0,0:0:0:0:
448,192,28501,1,0,0:0:0:0:
192,192,28541,1,0,0:0:0:0:
320,192,28582,1,0,0:0:0:0:
448,192,28622,1,0,0:0:0:0:
64,192,28663,1,0,0:0:0:0:
192,192,28703,1,0,0:0:0:0:
320,192,28744,1,0,0:0:0:0:
448,192,28784,1,0,0:0:0:0:
64,192,28825,1,0,0:0:0:0:
192,192,28865,1,0,0:0:0:0:
448,192,28905,1,0,0:0:0:0:
320,192,28946,1,0,0:0:0:0:
64,192,28986,1,0,0:0:0:0:
448,192,29027,1,0,0:0:0:0:
192,192,29067,1,0,0:0:0:0:
320,192,29108,1,0,0:0:0:0:
448,192,29148,1,0,0:0:0:0:
64,192,29189,1,0,0:0:0:0:
192,192,29229,1,0,0:0:0:0:
320,192,29270,1,0,0:0:0:0:
192,192,29310,1,0,0:0:0:0:
64,192,29351,1,0,0:0:0:0:
448,192,29351,1,0,0:0:0:0:
320,192,29391,1,0,0:0:0:0:
192,192,29431,1,0,0:0:0:0:
64,192,29472,1,0,0:0:0:0:
320,192,29512,1,0,0:0:0:0:
448,192,29553,1,0,0:0:0:0:
64,192,29593,1,0,0:0:0:0:
320,192,29634,1,0,0:0:0:0:
192,192,29674,1,0,0:0:0:0:
448,192,29715,1,0,0:0:0:0:
64,192,29755,1,0,0:0:0:0:
192,192,29796,1,0,0:0:0:0:
320,192,29836,1,0,0:0:0:0:
64,192,29877,1,0,0:0:0:0:
192,192,29917,1,0,0:0:0:0:
448,192,29957,1,0,0:0:0:0:
64,192,29998,1,0,0:0:0:0:
192,192,30038,1,0,0:0:0:0:
320,192,30080,1,0,0:0:0:0:
448,192,30120,1,0,0:0:0:0:
320,192,30161,1,0,0:0:0:0:
192,192,30201,1,0,0:0:0:0:
64,192,30242,1,0,0:0:0:0:
448,192,30282,1,0,0:0:0:0:
320,192,30323,1,0,0:0:0:0:
192,192,30363,1,0,0:0:0:0:
448,192,30404,1,0,0:0:0:0:
320,192,30444,1,0,0:0:0:0:
64,192,30484,1,0,0:0:0:0:
448,192,30525,1,0,0:0:0:0:
320,192,30565,1,0,0:0:0:0:
192,192,30606,1,0,0:0:0:0:
64,192,30646,1,0,0:0:0:0:
320,192,30687,1,0,0:0:0:0:
192,192,30727,1,0,0:0:0:0:
448,192,30768,1,0,0:0:0:0:
320,192,30808,1,0,0:0:0:0:
192,192,30849,1,0,0:0:0:0:
64,192,30889,1,0,0:0:0:0:
448,192,30930,1,0,0:0:0:0:
320,192,30970,1,0,0:0:0:0:
192,192,31010,1,0,0:0:0:0:
64,192,31051,1,0,0:0:0:0:
192,192,31091,1,0,0:0:0:0:
320,192,31132,1,0,0:0:0:0:
448,192,31172,1,0,0:0:0:0:
320,192,31213,1,0,0:0:0:0:
192,192,31253,1,0,0:0:0:0:
64,192,31294,128,0,31780:0:0:0:0:
192,192,31658,1,0,0:0:0:0:
320,192,31780,1,0,0:0:0:0:
448,192,31780,1,0,0:0:0:0:
192,192,32023,1,0,0:0:0:0:
448,192,32023,1,0,0:0:0:0:
64,192,32266,1,0,0:0:0:0:
64,192,32751,1,0,0:0:0:0:
192,192,32751,1,0,0:0:0:0:
320,192,32873,1,0,0:0:0:0:
448,192,32994,1,0,0:0:0:0:
64,192,33237,1,0,0:0:0:0:
192,192,33237,1,0,0:0:0:0:
320,192,33358,1,0,0:0:0:0:
448,192,33481,1,0,0:0:0:0:
320,192,33602,1,0,0:0:0:0:
448,192,33602,1,0,0:0:0:0:
64,192,33723,1,0,0:0:0:0:
192,192,33845,1,0,0:0:0:0:
320,192,33966,1,0,0:0:0:0:
448,192,33966,1,0,0:0:0:0:
64,192,34209,1,0,0:0:0:0:
192,192,34330,1,0,0:0:0:0:
64,192,34452,1,0,0:0:0:0:
192,192,34573,1,0,0:0:0:0:
320,192,34694,1,0,0:0:0:0:
448,192,34694,1,0,0:0:0:0:
192,192,34816,1,0,0:0:0:0:
64,192,34937,1,0,0:0:0:0:
320,192,34937,1,0,0:0:0:0:
448,192,35060,1,0,0:0:0:0:
320,192,35181,1,0,0:0:0:0:
192,192,35181,1,0,0:0:0:0:
64,192,35302,1,0,0:0:0:0:
448,192,35424,1,0,0:0:0:0:
320,192,35545,1,0,0:0:0:0:
64,192,35545,1,0,0:0:0:0:
192,192,35667,1,0,0:0:0:0:
320,192,35788,1,0,0:0:0:0:
192,192,35909,1,0,0:0:0:0:
64,192,35909,1,0,0:0:0:0:
320,192,36031,1,0,0:0:0:0:
448,192,36152,1,0,0:0:0:0:
192,192,36152,1,0,0:0:0:0:
64,192,36273,1,0,0:0:0:0:
192,192,36395,1,0,0:0:0:0:
320,192,36516,1,0,0:0:0:0:
448,192,36638,1,0,0:0:0:0:
192,192,36638,1,0,0:0:0:0:
64,192,36760,1,0,0:0:0:0:
192,192,36881,1,0,0:0:0:0:
320,192,36881,1,0,0:0:0:0:
448,192,37003,1,0,0:0:0:0:
64,192,37124,1,0,0:0:0:0:
320,192,37185,1,0,0:0:0:0:
192,192,37246,1,0,0:0:0:0:
448,192,37306,1,0,0:0:0:0:
64,192,37367,1,0,0:0:0:0:
192,192,37428,1,0,0:0:0:0:
320,192,37488,1,0,0:0:0:0:
448,192,37488,1,0,0:0:0:0:
320,192,37610,1,0,0:0:0:0:
192,192,37610,1,0,0:0:0:0:
64,192,37610,1,0,0:0:0:0:
448,192,37610,1,0,0:0:0:0:
320,192,37731,1,0,0:0:0:0:
192,192,37731,1,0,0:0:0:0:
64,192,37731,1,0,0:0:0:0:
64,192,37852,1,0,0:0:0:0:
192,192,37852,1,0,0:0:0:0:
64,192,37974,1,0,0:0:0:0:
64,192,38095,1,0,0:0:0:0:
192,192,38095,1,0,0:0:0:0:
320,192,38217,1,0,0:0:0:0:
64,192,38217,1,0,0:0:0:0:
192,192,38338,1,0,0:0:0:0:
320,192,38338,1,0,0:0:0:0:
192,192,38460,1,0,0:0:0:0:
448,192,38460,1,0,0:0:0:0:
320,192,38582,1,0,0:0:0:0:
448,192,38582,1,0,0:0:0:0:
192,192,38703,1,0,0:0:0:0:
64,192,38703,1,0,0:0:0:0:
448,192,38825,128,0,38946:0:0:0:0:
64,192,39067,1,0,0:0:0:0:
192,192,39067,1,0,0:0:0:0:
448,192,39108,1,0,0:0:0:0:
320,192,39148,1,0,0:0:0:0:
64,192,39189,1,0,0:0:0:0:
192,192,39229,1,0,0:0:0:0:
448,192,39270,1,0,0:0:0:0:
64,192,39310,1,0,0:0:0:0:
320,192,39351,1,0,0:0:0:0:
192,192,39391,1,0,0:0:0:0:
448,192,39431,1,0,0:0:0:0:
64,192,39472,1,0,0:0:0:0:
320,192,39512,1,0,0:0:0:0:
448,192,39553,1,0,0:0:0:0:
64,192,39593,1,0,0:0:0:0:
192,192,39634,1,0,0:0:0:0:
448,192,39674,1,0,0:0:0:0:
320,192,39715,1,0,0:0:0:0:
64,192,39755,1,0,0:0:0:0:
448,192,39796,1,0,0:0:0:0:
192,192,39836,1,0,0:0:0:0:
320,192,39877,1,0,0:0:0:0:
64,192,39917,1,0,0:0:0:0:
448,192,39957,1,0,0:0:0:0:
320,192,39998,1,0,0:0:0:0:
64,192,40038,1,0,0:0:0:0:
448,192,40080,1,0,0:0:0:0:
320,192,40120,1,0,0:0:0:0:
64,192,40161,1,0,0:0:0:0:
192,192,40201,1,0,0:0:0:0:
448,192,40242,1,0,0:0:0:0:
64,192,40282,1,0,0:0:0:0:
320,192,40323,1,0,0:0:0:0:
192,192,40363,1,0,0:0:0:0:
448,192,40404,1,0,0:0:0:0:
64,192,40444,1,0,0:0:0:0:
320,192,40484,1,0,0:0:0:0:
448,192,40525,1,0,0:0:0:0:
64,192,40565,1,0,0:0:0:0:
192,192,40606,1,0,0:0:0:0:
320,192,40646,1,0,0:0:0:0:
448,192,40687,1,0,0:0:0:0:
64,192,40687,1,0,0:0:0:0:
192,192,40727,1,0,0:0:0:0:
320,192,40768,1,0,0:0:0:0:
448,192,40808,1,0,0:0:0:0:
64,192,40849,1,0,0:0:0:0:
448,192,40889,1,0,0:0:0:0:
320,192,40930,1,0,0:0:0:0:
448,192,40970,1,0,0:0:0:0:
64,192,41010,1,0,0:0:0:0:
192,192,41051,1,0,0:0:0:0:
320,192,41091,1,0,0:0:0:0:
64,192,41132,1,0,0:0:0:0:
448,192,41172,1,0,0:0:0:0:
192,192,41213,1,0,0:0:0:0:
320,192,41253,1,0,0:0:0:0:
64,192,41294,1,0,0:0:0:0:
448,192,41334,1,0,0:0:0:0:
320,192,41375,1,0,0:0:0:0:
192,192,41415,1,0,0:0:0:0:
64,192,41456,1,0,0:0:0:0:
448,192,41496,1,0,0:0:0:0:
320,192,41536,1,0,0:0:0:0:
64,192,41577,1,0,0:0:0:0:
192,192,41617,1,0,0:0:0:0:
448,192,41658,1,0,0:0:0:0:
320,192,41698,1,0,0:0:0:0:
192,192,41740,1,0,0:0:0:0:
64,192,41780,1,0,0:0:0:0:
320,192,41821,1,0,0:0:0:0:
192,192,41861,1,0,0:0:0:0:
448,192,41902,1,0,0:0:0:0:
320,192,41942,1,0,0:0:0:0:
192,192,41983,1,0,0:0:0:0:
64,192,42023,1,0,0:0:0:0:
448,192,42063,1,0,0:0:0:0:
320,192,42104,1,0,0:0:0:0:
64,192,42144,1,0,0:0:0:0:
192,192,42185,1,0,0:0:0:0:
448,192,42225,1,0,0:0:0:0:
64,192,42266,1,0,0:0:0:0:
320,192,42306,1,0,0:0:0:0:
192,192,42347,1,0,0:0:0:0:
448,192,42387,1,0,0:0:0:0:
320,192,42428,1,0,0:0:0:0:
64,192,42468,1,0,0:0:0:0:
448,192,42509,1,0,0:0:0:0:
320,192,42549,1,0,0:0:0:0:
64,192,42589,1,0,0:0:0:0:
192,192,42630,1,0,0:0:0:0:
320,192,42670,1,0,0:0:0:0:
64,192,42711,1,0,0:0:0:0:
448,192,42751,1,0,0:0:0:0:
320,192,42792,1,0,0:0:0:0:
64,192,42832,1,0,0:0:0:0:
192,192,42873,1,0,0:0:0:0:
448,192,42913,1,0,0:0:0:0:
64,192,42954,1,0,0:0:0:0:
192,192,42994,1,0,0:0:0:0:
320,192,43035,1,0,0:0:0:0:
448,192,43075,1,0,0:0:0:0:
64,192,43115,1,0,0:0:0:0:
192,192,43156,1,0,0:0:0:0:
448,192,43196,1,0,0:0:0:0:
320,192,43237,1,0,0:0:0:0:
64,192,43277,1,0,0:0:0:0:
192,192,43318,1,0,0:0:0:0:
320,192,43358,1,0,0:0:0:0:
448,192,43400,1,0,0:0:0:0:
64,192,43440,1,0,0:0:0:0:
320,192,43481,1,0,0:0:0:0:
192,192,43521,1,0,0:0:0:0:
448,192,43562,1,0,0:0:0:0:
320,192,43602,1,0,0:0:0:0:
192,192,43642,1,0,0:0:0:0:
64,192,43683,1,0,0:0:0:0:
448,192,43723,1,0,0:0:0:0:
320,192,43764,1,0,0:0:0:0:
64,192,43804,1,0,0:0:0:0:
192,192,43845,1,0,0:0:0:0:
448,192,43885,1,0,0:0:0:0:
320,192,43926,1,0,0:0:0:0:
192,192,43966,1,0,0:0:0:0:
64,192,44007,1,0,0:0:0:0:
448,192,44047,1,0,0:0:0:0:
320,192,44088,1,0,0:0:0:0:
64,192,44128,1,0,0:0:0:0:
192,192,44168,1,0,0:0:0:0:
448,192,44209,1,0,0:0:0:0:
320,192,44249,1,0,0:0:0:0:
192,192,44290,1,0,0:0:0:0:
64,192,44330,1,0,0:0:0:0:
448,192,44371,1,0,0:0:0:0:
192,192,44411,1,0,0:0:0:0:
320,192,44452,1,0,0:0:0:0:
64,192,44492,1,0,0:0:0:0:
448,192,44533,1,0,0:0:0:0:
320,192,44573,1,0,0:0:0:0:
64,192,44614,1,0,0:0:0:0:
448,192,44654,1,0,0:0:0:0:
320,192,44694,1,0,0:0:0:0:
448,192,44735,1,0,0:0:0:0:
64,192,44775,1,0,0:0:0:0:
192,192,44816,1,0,0:0:0:0:
64,192,44856,1,0,0:0:0:0:
448,192,44897,1,0,0:0:0:0:
320,192,44937,1,0,0:0:0:0:
192,192,44978,1,0,0:0:0:0:
64,192,45018,1,0,0:0:0:0:
448,192,45018,1,0,0:0:0:0:
320,192,45060,1,0,0:0:0:0:
192,192,45100,1,0,0:0:0:0:
64,192,45141,1,0,0:0:0:0:
448,192,45141,1,0,0:0:0:0:
320,192,45181,1,0,0:0:0:0:
192,192,45221,1,0,0:0:0:0:
64,192,45262,1,0,0:0:0:0:
448,192,45262,1,0,0:0:0:0:
320,192,45302,1,0,0:0:0:0:
64,192,45343,1,0,0:0:0:0:
320,192,45383,1,0,0:0:0:0:
448,192,45383,1,0,0:0:0:0:
192,192,45444,1,0,0:0:0:0:
64,192,45444,1,0,0:0:0:0:
320,192,45505,1,0,0:0:0:0:
448,192,45505,1,0,0:0:0:0:
192,192,45565,1,0,0:0:0:0:
64,192,45565,1,0,0:0:0:0:
320,192,45626,1,0,0:0:0:0:
448,192,45626,1,0,0:0:0:0:
192,192,45687,1,0,0:0:0:0:
64,192,45687,1,0,0:0:0:0:
320,192,45747,1,0,0:0:0:0:
448,192,45747,1,0,0:0:0:0:
192,192,45808,1,0,0:0:0:0:
64,192,45808,1,0,0:0:0:0:
320,192,45869,1,0,0:0:0:0:
448,192,45869,1,0,0:0:0:0:
320,192,45990,1,0,0:0:0:0:
448,192,45990,1,0,0:0:0:0:
64,192,46112,1,0,0:0:0:0:
192,192,46112,1,0,0:0:0:0:
320,192,46112,1,0,0:0:0:0:
448,192,46112,1,0,0:0:0:0:
192,192,46233,1,0,0:0:0:0:
64,192,46233,1,0,0:0:0:0:
64,192,46354,1,0,0:0:0:0:
192,192,46354,1,0,0:0:0:0:
320,192,46354,1,0,0:0:0:0:
448,192,46354,1,0,0:0:0:0:
320,192,46476,1,0,0:0:0:0:
448,192,46476,1,0,0:0:0:0:
320,192,46597,1,0,0:0:0:0:
448,192,46597,1,0,0:0:0:0:
192,192,46597,1,0,0:0:0:0:
64,192,46597,1,0,0:0:0:0:
64,192,46720,1,0,0:0:0:0:
192,192,46720,1,0,0:0:0:0:
448,192,46841,1,0,0:0:0:0:
320,192,46881,1,0,0:0:0:0:
192,192,46922,1,0,0:0:0:0:
64,192,46962,1,0,0:0:0:0:
448,192,47003,1,0,0:0:0:0:
320,192,47043,1,0,0:0:0:0:
64,192,47084,1,0,0:0:0:0:
192,192,47124,1,0,0:0:0:0:
448,192,47165,1,0,0:0:0:0:
320,192,47205,1,0,0:0:0:0:
192,192,47246,1,0,0:0:0:0:
64,192,47286,1,0,0:0:0:0:
448,192,47326,1,0,0:0:0:0:
320,192,47367,1,0,0:0:0:0:
192,192,47407,1,0,0:0:0:0:
64,192,47448,1,0,0:0:0:0:
448,192,47488,1,0,0:0:0:0:
320,192,47529,1,0,0:0:0:0:
64,192,47569,1,0,0:0:0:0:
192,192,47610,1,0,0:0:0:0:
448,192,47650,1,0,0:0:0:0:
64,192,47691,1,0,0:0:0:0:
320,192,47731,1,0,0:0:0:0:
192,192,47772,1,0,0:0:0:0:
448,192,47812,1,0,0:0:0:0:
320,192,47852,1,0,0:0:0:0:
192,192,47893,1,0,0:0:0:0:
64,192,47933,1,0,0:0:0:0:
448,192,47974,1,0,0:0:0:0:
192,192,48014,1,0,0:0:0:0:
320,192,48055,1,0,0:0:0:0:
64,192,48095,1,0,0:0:0:0:
192,192,48136,1,0,0:0:0:0:
320,192,48176,1,0,0:0:0:0:
448,192,48217,1,0,0:0:0:0:
64,192,48257,1,0,0:0:0:0:
192,192,48298,1,0,0:0:0:0:
320,192,48338,1,0,0:0:0:0:
448,192,48378,1,0,0:0:0:0:
64,192,48420,1,0,0:0:0:0:
192,192,48460,1,0,0:0:0:0:
64,192,48501,1,0,0:0:0:0:
448,192,48541,1,0,0:0:0:0:
320,192,48582,1,0,0:0:0:0:
64,192,48622,1,0,0:0:0:0:
448,192,48663,1,0,0:0:0:0:
320,192,48703,1,0,0:0:0:0:
192,192,48744,1,0,0:0:0:0:
448,192,48784,1,0,0:0:0:0:
320,192,48825,1,0,0:0:0:0:
192,192,48865,1,0,0:0:0:0:
64,192,48905,1,0,0:0:0:0:
448,192,48905,1,0,0:0:0:0:
320,192,48946,1,0,0:0:0:0:
192,192,48986,1,0,0:0:0:0:
64,192,49027,1,0,0:0:0:0:
448,192,49067,1,0,0:0:0:0:
320,192,49108,1,0,0:0:0:0:
448,192,49148,1,0,0:0:0:0:
64,192,49189,1,0,0:0:0:0:
192,192,49229,1,0,0:0:0:0:
320,192,49270,1,0,0:0:0:0:
448,192,49310,1,0,0:0:0:0:
64,192,49351,1,0,0:0:0:0:
192,192,49391,1,0,0:0:0:0:
448,192,49431,1,0,0:0:0:0:
320,192,49472,1,0,0:0:0:0:
64,192,49512,1,0,0:0:0:0:
192,192,49553,1,0,0:0:0:0:
320,192,49593,1,0,0:0:0:0:
448,192,49634,1,0,0:0:0:0:
64,192,49674,1,0,0:0:0:0:
320,192,49715,1,0,0:0:0:0:
192,192,49755,1,0,0:0:0:0:
448,192,49796,1,0,0:0:0:0:
64,192,49836,1,0,0:0:0:0:
192,192,49877,1,0,0:0:0:0:
320,192,49917,1,0,0:0:0:0:
448,192,49957,1,0,0:0:0:0:
192,192,49998,1,0,0:0:0:0:
320,192,50038,1,0,0:0:0:0:
64,192,50080,1,0,0:0:0:0:
192,192,50120,1,0,0:0:0:0:
320,192,50161,1,0,0:0:0:0:
448,192,50201,1,0,0:0:0:0:
64,192,50242,1,0,0:0:0:0:
192,192,50282,1,0,0:0:0:0:
320,192,50323,1,0,0:0:0:0:
448,192,50363,1,0,0:0:0:0:
64,192,50404,1,0,0:0:0:0:
320,192,50444,1,0,0:0:0:0:
192,192,50484,1,0,0:0:0:0:
448,192,50525,1,0,0:0:0:0:
320,192,50565,1,0,0:0:0:0:
64,192,50606,1,0,0:0:0:0:
192,192,50646,1,0,0:0:0:0:
64,192,50687,1,0,0:0:0:0:
448,192,50727,1,0,0:0:0:0:
320,192,50768,1,0,0:0:0:0:
64,192,50808,1,0,0:0:0:0:
448,192,50849,1,0,0:0:0:0:
192,192,50889,1,0,0:0:0:0:
64,192,50930,1,0,0:0:0:0:
448,192,50970,1,0,0:0:0:0:
320,192,51010,1,0,0:0:0:0:
192,192,51051,1,0,0:0:0:0:
64,192,51091,1,0,0:0:0:0:
320,192,51132,1,0,0:0:0:0:
192,192,51172,1,0,0:0:0:0:
448,192,51213,1,0,0:0:0:0:
320,192,51253,1,0,0:0:0:0:
192,192,51294,1,0,0:0:0:0:
64,192,51334,1,0,0:0:0:0:
448,192,51375,1,0,0:0:0:0:
320,192,51415,1,0,0:0:0:0:
64,192,51456,1,0,0:0:0:0:
448,192,51496,1,0,0:0:0:0:
192,192,51536,1,0,0:0:0:0:
64,192,51577,1,0,0:0:0:0:
320,192,51617,1,0,0:0:0:0:
192,192,51658,1,0,0:0:0:0:
448,192,51698,1,0,0:0:0:0:
320,192,51740,1,0,0:0:0:0:
192,192,51780,1,0,0:0:0:0:
64,192,51821,1,0,0:0:0:0:
320,192,51861,1,0,0:0:0:0:
192,192,51902,1,0,0:0:0:0:
448,192,51942,1,0,0:0:0:0:
320,192,51983,1,0,0:0:0:0:
192,192,52023,1,0,0:0:0:0:
64,192,52063,1,0,0:0:0:0:
320,192,52104,1,0,0:0:0:0:
192,192,52144,1,0,0:0:0:0:
64,192,52185,1,0,0:0:0:0:
448,192,52225,1,0,0:0:0:0:
320,192,52266,1,0,0:0:0:0:
192,192,52306,1,0,0:0:0:0:
448,192,52347,1,0,0:0:0:0:
64,192,52387,1,0,0:0:0:0:
192,192,52428,1,0,0:0:0:0:
320,192,52468,1,0,0:0:0:0:
448,192,52509,1,0,0:0:0:0:
320,192,52549,1,0,0:0:0:0:
192,192,52589,1,0,0:0:0:0:
64,192,52630,1,0,0:0:0:0:
448,192,52670,1,0,0:0:0:0:
320,192,52711,1,0,0:0:0:0:
192,192,52751,1,0,0:0:0:0:
64,192,52792,1,0,0:0:0:0:
448,192,52792,1,0,0:0:0:0:
320,192,52832,1,0,0:0:0:0:
64,192,52873,1,0,0:0:0:0:
448,192,52913,1,0,0:0:0:0:
320,192,52954,1,0,0:0:0:0:
192,192,52994,1,0,0:0:0:0:
448,192,53035,1,0,0:0:0:0:
320,192,53075,1,0,0:0:0:0:
192,192,53115,1,0,0:0:0:0:
448,192,53156,1,0,0:0:0:0:
320,192,53196,1,0,0:0:0:0:
64,192,53237,1,0,0:0:0:0:
448,192,53277,1,0,0:0:0:0:
320,192,53318,1,0,0:0:0:0:
192,192,53358,1,0,0:0:0:0:
64,192,53400,1,0,0:0:0:0:
192,192,53440,1,0,0:0:0:0:
320,192,53481,1,0,0:0:0:0:
64,192,53521,1,0,0:0:0:0:
192,192,53562,1,0,0:0:0:0:
320,192,53602,1,0,0:0:0:0:
64,192,53642,1,0,0:0:0:0:
192,192,53683,1,0,0:0:0:0:
448,192,53723,1,0,0:0:0:0:
64,192,53764,1,0,0:0:0:0:
192,192,53804,1,0,0:0:0:0:
320,192,53845,1,0,0:0:0:0:
448,192,53885,1,0,0:0:0:0:
192,192,53926,1,0,0:0:0:0:
320,192,53966,1,0,0:0:0:0:
64,192,54007,1,0,0:0:0:0:
448,192,54047,1,0,0:0:0:0:
320,192,54088,1,0,0:0:0:0:
64,192,54128,1,0,0:0:0:0:
192,192,54128,1,0,0:0:0:0:
320,192,54249,1,0,0:0:0:0:
448,192,54249,1,0,0:0:0:0:
192,192,54371,1,0,0:0:0:0:
64,192,54371,1,0,0:0:0:0:
320,192,54431,1,0,0:0:0:0:
448,192,54431,1,0,0:0:0:0:
192,192,54492,1,0,0:0:0:0:
64,192,54492,1,0,0:0:0:0:
320,192,54553,1,0,0:0:0:0:
448,192,54553,1,0,0:0:0:0:
64,192,54614,1,0,0:0:0:0:
320,192,54654,1,0,0:0:0:0:
192,192,54694,1,0,0:0:0:0:
64,192,54735,1,0,0:0:0:0:
448,192,54775,1,0,0:0:0:0:
320,192,54816,1,0,0:0:0:0:
64,192,54856,1,0,0:0:0:0:
192,192,54897,1,0,0:0:0:0:
448,192,54937,1,0,0:0:0:0:
320,192,54978,1,0,0:0:0:0:
192,192,55018,1,0,0:0:0:0:
64,192,55060,1,0,0:0:0:0:
448,192,55100,1,0,0:0:0:0:
320,192,55141,1,0,0:0:0:0:
192,192,55181,1,0,0:0:0:0:
64,192,55221,1,0,0:0:0:0:
448,192,55262,1,0,0:0:0:0:
320,192,55302,1,0,0:0:0:0:
64,192,55343,1,0,0:0:0:0:
192,192,55383,1,0,0:0:0:0:
448,192,55424,1,0,0:0:0:0:
64,192,55464,1,0,0:0:0:0:
320,192,55505,1,0,0:0:0:0:
192,192,55545,1,0,0:0:0:0:
448,192,55586,1,0,0:0:0:0:
320,192,55626,1,0,0:0:0:0:
192,192,55667,1,0,0:0:0:0:
64,192,55707,1,0,0:0:0:0:
448,192,55747,1,0,0:0:0:0:
192,192,55788,1,0,0:0:0:0:
320,192,55828,1,0,0:0:0:0:
64,192,55869,1,0,0:0:0:0:
192,192,55909,1,0,0:0:0:0:
320,192,55950,1,0,0:0:0:0:
448,192,55990,1,0,0:0:0:0:
64,192,56031,1,0,0:0:0:0:
192,192,56071,1,0,0:0:0:0:
320,192,56112,1,0,0:0:0:0:
448,192,56152,1,0,0:0:0:0:
64,192,56193,1,0,0:0:0:0:
192,192,56233,1,0,0:0:0:0:
64,192,56273,1,0,0:0:0:0:
448,192,56314,1,0,0:0:0:0:
320,192,56354,1,0,0:0:0:0:
64,192,56395,1,0,0:0:0:0:
448,192,56435,1,0,0:0:0:0:
320,192,56476,1,0,0:0:0:0:
192,192,56516,1,0,0:0:0:0:
448,192,56557,1,0,0:0:0:0:
320,192,56597,1,0,0:0:0:0:
192,192,56638,1,0,0:0:0:0:
448,192,56678,1,0,0:0:0:0:
64,192,56678,1,0,0:0:0:0:
320,192,56720,1,0,0:0:0:0:
192,192,56760,1,0,0:0:0:0:
64,192,56800,1,0,0:0:0:0:
448,192,56841,1,0,0:0:0:0:
320,192,56881,1,0,0:0:0:0:
448,192,56922,1,0,0:0:0:0:
64,192,56962,1,0,0:0:0:0:
192,192,57003,1,0,0:0:0:0:
320,192,57043,1,0,0:0:0:0:
448,192,57084,1,0,0:0:0:0:
64,192,57124,1,0,0:0:0:0:
192,192,57165,1,0,0:0:0:0:
448,192,57205,1,0,0:0:0:0:
320,192,57246,1,0,0:0:0:0:
64,192,57286,1,0,0:0:0:0:
192,192,57326,1,0,0:0:0:0:
320,192,57367,1,0,0:0:0:0:
448,192,57407,1,0,0:0:0:0:
64,192,57448,1,0,0:0:0:0:
320,192,57488,1,0,0:0:0:0:
192,192,57529,1,0,0:0:0:0:
448,192,57569,1,0,0:0:0:0:
64,192,57610,1,0,0:0:0:0:
192,192,57650,1,0,0:0:0:0:
320,192,57691,1,0,0:0:0:0:
448,192,57731,1,0,0:0:0:0:
192,192,57772,1,0,0:0:0:0:
320,192,57812,1,0,0:0:0:0:
64,192,57852,1,0,0:0:0:0:
192,192,57893,1,0,0:0:0:0:
320,192,57933,1,0,0:0:0:0:
448,192,57974,1,0,0:0:0:0:
64,192,58014,1,0,0:0:0:0:
192,192,58055,1,0,0:0:0:0:
320,192,58095,1,0,0:0:0:0:
448,192,58136,1,0,0:0:0:0:
64,192,58176,1,0,0:0:0:0:
320,192,58217,1,0,0:0:0:0:
192,192,58257,1,0,0:0:0:0:
448,192,58298,1,0,0:0:0:0:
320,192,58338,1,0,0:0:0:0:
64,192,58378,1,0,0:0:0:0:
192,192,58420,1,0,0:0:0:0:
64,192,58460,1,0,0:0:0:0:
448,192,58501,1,0,0:0:0:0:
320,192,58541,1,0,0:0:0:0:
192,192,58582,1,0,0:0:0:0:
64,192,58622,1,0,0:0:0:0:
192,192,58663,1,0,0:0:0:0:
320,192,58703,1,0,0:0:0:0:
448,192,58744,1,0,0:0:0:0:
64,192,58784,1,0,0:0:0:0:
192,192,58825,1,0,0:0:0:0:
448,192,58865,1,0,0:0:0:0:
320,192,58905,1,0,0:0:0:0:
192,192,58946,1,0,0:0:0:0:
64,192,58986,1,0,0:0:0:0:
192,192,59027,1,0,0:0:0:0:
320,192,59067,1,0,0:0:0:0:
448,192,59108,1,0,0:0:0:0:
320,192,59148,1,0,0:0:0:0:
192,192,59189,1,0,0:0:0:0:
64,192,59229,1,0,0:0:0:0:
448,192,59270,1,0,0:0:0:0:
320,192,59310,1,0,0:0:0:0:
64,192,59351,1,0,0:0:0:0:
192,192,59391,1,0,0:0:0:0:
320,192,59431,1,0,0:0:0:0:
448,192,59472,1,0,0:0:0:0:
320,192,59512,1,0,0:0:0:0:
192,192,59553,1,0,0:0:0:0:
64,192,59593,1,0,0:0:0:0:
192,192,59634,1,0,0:0:0:0:
320,192,59674,1,0,0:0:0:0:
448,192,59715,1,0,0:0:0:0:
64,192,59755,1,0,0:0:0:0:
192,192,59796,1,0,0:0:0:0:
448,192,59836,1,0,0:0:0:0:
320,192,59877,1,0,0:0:0:0:
192,192,59917,1,0,0:0:0:0:
64,192,59957,1,0,0:0:0:0:
192,192,59998,1,0,0:0:0:0:
320,192,60038,1,0,0:0:0:0:
448,192,60080,1,0,0:0:0:0:
320,192,60120,1,0,0:0:0:0:
192,192,60161,1,0,0:0:0:0:
64,192,60201,1,0,0:0:0:0:
320,192,60242,1,0,0:0:0:0:
192,192,60282,1,0,0:0:0:0:
448,192,60323,1,0,0:0:0:0:
320,192,60363,1,0,0:0:0:0:
192,192,60404,1,0,0:0:0:0:
64,192,60444,1,0,0:0:0:0:
448,192,60444,1,0,0:0:0:0:
320,192,60484,1,0,0:0:0:0:
64,192,60525,1,0,0:0:0:0:
448,192,60565,1,0,0:0:0:0:
320,192,60606,1,0,0:0:0:0:
192,192,60646,1,0,0:0:0:0:
448,192,60687,1,0,0:0:0:0:
320,192,60727,1,0,0:0:0:0:
64,192,60768,1,0,0:0:0:0:
448,192,60808,1,0,0:0:0:0:
320,192,60849,1,0,0:0:0:0:
192,192,60889,1,0,0:0:0:0:
64,192,60930,1,0,0:0:0:0:
192,192,60970,1,0,0:0:0:0:
448,192,61010,1,0,0:0:0:0:
64,192,61051,1,0,0:0:0:0:
192,192,61091,1,0,0:0:0:0:
320,192,61132,1,0,0:0:0:0:
64,192,61172,1,0,0:0:0:0:
192,192,61213,1,0,0:0:0:0:
448,192,61253,1,0,0:0:0:0:
320,192,61294,1,0,0:0:0:0:
192,192,61334,1,0,0:0:0:0:
64,192,61375,1,0,0:0:0:0:
448,192,61415,1,0,0:0:0:0:
320,192,61415,1,0,0:0:0:0:
192,192,61476,1,0,0:0:0:0:
64,192,61476,1,0,0:0:0:0:
320,192,61536,1,0,0:0:0:0:
448,192,61536,1,0,0:0:0:0:
192,192,61597,1,0,0:0:0:0:
64,192,61597,1,0,0:0:0:0:
320,192,61658,1,0,0:0:0:0:
448,192,61658,1,0,0:0:0:0:
320,192,61780,1,0,0:0:0:0:
448,192,61780,1,0,0:0:0:0:
192,192,61902,1,0,0:0:0:0:
64,192,61902,1,0,0:0:0:0:
192,192,62023,1,0,0:0:0:0:
64,192,62023,1,0,0:0:0:0:
320,192,62084,1,0,0:0:0:0:
448,192,62084,1,0,0:0:0:0:
192,192,62144,1,0,0:0:0:0:
64,192,62144,1,0,0:0:0:0:
320,192,62205,1,0,0:0:0:0:
448,192,62205,1,0,0:0:0:0:
192,192,62266,1,0,0:0:0:0:
64,192,62266,1,0,0:0:0:0:
320,192,62326,1,0,0:0:0:0:
448,192,62326,1,0,0:0:0:0:
64,192,62387,1,0,0:0:0:0:
192,192,62387,1,0,0:0:0:0:
448,192,62428,1,0,0:0:0:0:
320,192,62468,1,0,0:0:0:0:
64,192,62509,1,0,0:0:0:0:
192,192,62549,1,0,0:0:0:0:
448,192,62589,1,0,0:0:0:0:
64,192,62630,1,0,0:0:0:0:
320,192,62670,1,0,0:0:0:0:
192,192,62711,1,0,0:0:0:0:
448,192,62751,1,0,0:0:0:0:
64,192,62792,1,0,0:0:0:0:
320,192,62832,1,0,0:0:0:0:
448,192,62873,1,0,0:0:0:0:
64,192,62913,1,0,0:0:0:0:
192,192,62954,1,0,0:0:0:0:
448,192,62994,1,0,0:0:0:0:
320,192,63035,1,0,0:0:0:0:
64,192,63075,1,0,0:0:0:0:
448,192,63115,1,0,0:0:0:0:
192,192,63156,1,0,0:0:0:0:
320,192,63196,1,0,0:0:0:0:
64,192,63237,1,0,0:0:0:0:
448,192,63277,1,0,0:0:0:0:
320,192,63318,1,0,0:0:0:0:
64,192,63358,1,0,0:0:0:0:
448,192,63400,1,0,0:0:0:0:
320,192,63440,1,0,0:0:0:0:
64,192,63481,1,0,0:0:0:0:
192,192,63521,1,0,0:0:0:0:
448,192,63562,1,0,0:0:0:0:
64,192,63602,1,0,0:0:0:0:
320,192,63642,1,0,0:0:0:0:
192,192,63683,1,0,0:0:0:0:
448,192,63723,1,0,0:0:0:0:
64,192,63764,1,0,0:0:0:0:
320,192,63804,1,0,0:0:0:0:
448,192,63845,1,0,0:0:0:0:
64,192,63885,1,0,0:0:0:0:
192,192,63926,1,0,0:0:0:0:
448,192,63966,1,0,0:0:0:0:
320,192,64007,1,0,0:0:0:0:
64,192,64047,1,0,0:0:0:0:
448,192,64088,1,0,0:0:0:0:
320,192,64128,1,0,0:0:0:0:
192,192,64168,1,0,0:0:0:0:
64,192,64209,1,0,0:0:0:0:
448,192,64209,1,0,0:0:0:0:
320,192,64249,1,0,0:0:0:0:
192,192,64290,1,0,0:0:0:0:
64,192,64330,1,0,0:0:0:0:
448,192,64371,1,0,0:0:0:0:
320,192,64411,1,0,0:0:0:0:
64,192,64452,1,0,0:0:0:0:
192,192,64492,1,0,0:0:0:0:
448,192,64533,1,0,0:0:0:0:
64,192,64573,1,0,0:0:0:0:
320,192,64614,1,0,0:0:0:0:
192,192,64654,1,0,0:0:0:0:
448,192,64694,1,0,0:0:0:0:
64,192,64735,1,0,0:0:0:0:
320,192,64775,1,0,0:0:0:0:
448,192,64816,1,0,0:0:0:0:
64,192,64856,1,0,0:0:0:0:
192,192,64897,1,0,0:0:0:0:
448,192,64937,1,0,0:0:0:0:
320,192,64978,1,0,0:0:0:0:
64,192,65018,1,0,0:0:0:0:
448,192,65060,1,0,0:0:0:0:
192,192,65100,1,0,0:0:0:0:
320,192,65141,1,0,0:0:0:0:
64,192,65181,1,0,0:0:0:0:
448,192,65221,1,0,0:0:0:0:
320,192,65262,1,0,0:0:0:0:
64,192,65302,1,0,0:0:0:0:
448,192,65343,1,0,0:0:0:0:
320,192,65383,1,0,0:0:0:0:
64,192,65424,1,0,0:0:0:0:
192,192,65464,1,0,0:0:0:0:
448,192,65505,1,0,0:0:0:0:
64,192,65545,1,0,0:0:0:0:
320,192,65586,1,0,0:0:0:0:
192,192,65626,1,0,0:0:0:0:
448,192,65667,1,0,0:0:0:0:
64,192,65707,1,0,0:0:0:0:
320,192,65747,1,0,0:0:0:0:
448,192,65788,1,0,0:0:0:0:
64,192,65828,1,0,0:0:0:0:
192,192,65869,1,0,0:0:0:0:
448,192,65909,1,0,0:0:0:0:
320,192,65950,1,0,0:0:0:0:
64,192,65990,1,0,0:0:0:0:
448,192,66031,1,0,0:0:0:0:
320,192,66071,1,0,0:0:0:0:
192,192,66112,1,0,0:0:0:0:
64,192,66152,1,0,0:0:0:0:
448,192,66152,1,0,0:0:0:0:
320,192,66193,1,0,0:0:0:0:
192,192,66233,1,0,0:0:0:0:
64,192,66273,1,0,0:0:0:0:
448,192,66314,1,0,0:0:0:0:
320,192,66354,1,0,0:0:0:0:
64,192,66395,1,0,0:0:0:0:
192,192,66435,1,0,0:0:0:0:
448,192,66476,1,0,0:0:0:0:
64,192,66516,1,0,0:0:0:0:
320,192,66557,1,0,0:0:0:0:
192,192,66597,1,0,0:0:0:0:
448,192,66638,1,0,0:0:0:0:
64,192,66678,1,0,0:0:0:0:
320,192,66720,1,0,0:0:0:0:
448,192,66760,1,0,0:0:0:0:
64,192,66800,1,0,0:0:0:0:
192,192,66841,1,0,0:0:0:0:
448,192,66881,1,0,0:0:0:0:
320,192,66922,1,0,0:0:0:0:
64,192,66962,1,0,0:0:0:0:
448,192,67003,1,0,0:0:0:0:
192,192,67043,1,0,0:0:0:0:
320,192,67084,1,0,0:0:0:0:
64,192,67124,1,0,0:0:0:0:
448,192,67165,1,0,0:0:0:0:
320,192,67205,1,0,0:0:0:0:
64,192,67246,1,0,0:0:0:0:
448,192,67286,1,0,0:0:0:0:
320,192,67326,1,0,0:0:0:0:
64,192,67367,1,0,0:0:0:0:
192,192,67407,1,0,0:0:0:0:
448,192,67448,1,0,0:0:0:0:
64,192,67488,1,0,0:0:0:0:
320,192,67529,1,0,0:0:0:0:
192,192,67569,1,0,0:0:0:0:
448,192,67610,1,0,0:0:0:0:
64,192,67650,1,0,0:0:0:0:
320,192,67691,1,0,0:0:0:0:
448,192,67731,1,0,0:0:0:0:
64,192,67772,1,0,0:0:0:0:
192,192,67812,1,0,0:0:0:0:
448,192,67852,1,0,0:0:0:0:
320,192,67893,1,0,0:0:0:0:
64,192,67933,1,0,0:0:0:0:
448,192,67974,1,0,0:0:0:0:
320,192,68014,1,0,0:0:0:0:
192,192,68055,1,0,0:0:0:0:
64,192,68095,1,0,0:0:0:0:
448,192,68095,1,0,0:0:0:0:
320,192,68136,1,0,0:0:0:0:
192,192,68176,1,0,0:0:0:0:
64,192,68217,1,0,0:0:0:0:
448,192,68257,1,0,0:0:0:0:
320,192,68298,1,0,0:0:0:0:
64,192,68338,1,0,0:0:0:0:
192,192,68378,1,0,0:0:0:0:
448,192,68420,1,0,0:0:0:0:
64,192,68460,1,0,0:0:0:0:
320,192,68501,1,0,0:0:0:0:
192,192,68541,1,0,0:0:0:0:
448,192,68582,1,0,0:0:0:0:
64,192,68622,1,0,0:0:0:0:
320,192,68663,1,0,0:0:0:0:
448,192,68703,1,0,0:0:0:0:
64,192,68744,1,0,0:0:0:0:
192,192,68784,1,0,0:0:0:0:
448,192,68825,1,0,0:0:0:0:
320,192,68865,1,0,0:0:0:0:
64,192,68905,1,0,0:0:0:0:
448,192,68946,1,0,0:0:0:0:
320,192,68986,1,0,0:0:0:0:
192,192,69027,1,0,0:0:0:0:
64,192,69067,1,0,0:0:0:0:
320,192,69108,1,0,0:0:0:0:
192,192,69148,1,0,0:0:0:0:
448,192,69189,1,0,0:0:0:0:
320,192,69229,1,0,0:0:0:0:
192,192,69310,1,0,0:0:0:0:
64,192,69310,1,0,0:0:0:0:
320,192,69371,1,0,0:0:0:0:
448,192,69371,1,0,0:0:0:0:
192,192,69431,1,0,0:0:0:0:
64,192,69431,1,0,0:0:0:0:
64,192,69553,1,0,0:0:0:0:
192,192,69553,1,0,0:0:0:0:
320,192,69553,1,0,0:0:0:0:
448,192,69553,1,0,0:0:0:0:
64,192,69674,1,0,0:0:0:0:
192,192,69674,1,0,0:0:0:0:
320,192,69674,1,0,0:0:0:0:
448,192,69674,1,0,0:0:0:0:
64,192,69796,1,0,0:0:0:0:
192,192,69796,1,0,0:0:0:0:
320,192,69796,1,0,0:0:0:0:
448,192,69796,1,0,0:0:0:0:
64,192,69917,1,0,0:0:0:0:
192,192,69917,1,0,0:0:0:0:
320,192,69978,1,0,0:0:0:0:
448,192,69978,1,0,0:0:0:0:
192,192,70038,1,0,0:0:0:0:
64,192,70038,1,0,0:0:0:0:
320,192,70100,1,0,0:0:0:0:
448,192,70100,1,0,0:0:0:0:
192,192,70161,1,0,0:0:0:0:
64,192,70161,1,0,0:0:0:0:
320,192,71132,1,0,0:0:0:0:
64,192,71132,1,0,0:0:0:0:
448,192,71132,1,0,0:0:0:0:
192,192,71375,1,0,0:0:0:0:
64,192,71496,1,0,0:0:0:0:
320,192,71496,1,0,0:0:0:0:
448,192,71496,1,0,0:0:0:0:
192,192,71861,1,0,0:0:0:0:
64,192,71861,1,0,0:0:0:0:
448,192,71861,1,0,0:0:0:0:
192,192,71983,1,0,0:0:0:0:
64,192,72104,1,0,0:0:0:0:
320,192,72104,1,0,0:0:0:0:
448,192,72104,1,0,0:0:0:0:
64,192,73075,1,0,0:0:0:0:
192,192,73075,1,0,0:0:0:0:
320,192,73075,1,0,0:0:0:0:
448,192,73318,1,0,0:0:0:0:
64,192,73440,1,0,0:0:0:0:
192,192,73440,1,0,0:0:0:0:
320,192,73440,1,0,0:0:0:0:
192,192,73683,1,0,0:0:0:0:
320,192,73683,1,0,0:0:0:0:
64,192,73804,1,0,0:0:0:0:
320,192,73804,1,0,0:0:0:0:
448,192,73804,1,0,0:0:0:0:
192,192,73926,1,0,0:0:0:0:
64,192,74047,1,0,0:0:0:0:
320,192,74047,1,0,0:0:0:0:
448,192,74047,1,0,0:0:0:0:
192,192,74168,1,0,0:0:0:0:
448,192,74290,1,0,0:0:0:0:
64,192,74290,1,0,0:0:0:0:
320,192,74411,1,0,0:0:0:0:
64,192,74533,1,0,0:0:0:0:
192,192,74533,1,0,0:0:0:0:
320,192,74654,1,0,0:0:0:0:
448,192,74775,1,0,0:0:0:0:
64,192,74775,1,0,0:0:0:0:
192,192,74897,1,0,0:0:0:0:
320,192,75018,1,0,0:0:0:0:
448,192,75018,1,0,0:0:0:0:
448,192,75141,1,0,0:0:0:0:
320,192,75262,1,0,0:0:0:0:
192,192,75383,1,0,0:0:0:0:
64,192,75383,1,0,0:0:0:0:
64,192,75505,1,0,0:0:0:0:
192,192,75626,1,0,0:0:0:0:
448,192,75747,1,0,0:0:0:0:
320,192,75869,1,0,0:0:0:0:
192,192,75990,1,0,0:0:0:0:
64,192,75990,1,0,0:0:0:0:
320,192,76112,1,0,0:0:0:0:
64,192,76233,1,0,0:0:0:0:
320,192,76354,1,0,0:0:0:0:
192,192,76476,1,0,0:0:0:0:
64,192,76476,1,0,0:0:0:0:
448,192,76597,1,0,0:0:0:0:
192,192,76720,1,0,0:0:0:0:
64,192,76841,1,0,0:0:0:0:
320,192,76841,1,0,0:0:0:0:
448,192,77084,1,0,0:0:0:0:
448,192,77205,1,0,0:0:0:0:
64,192,77326,1,0,0:0:0:0:
64,192,77448,1,0,0:0:0:0:
192,192,77448,1,0,0:0:0:0:
320,192,77569,1,0,0:0:0:0:
448,192,77569,1,0,0:0:0:0:
64,192,77691,1,0,0:0:0:0:
192,192,77691,1,0,0:0:0:0:
320,192,77691,1,0,0:0:0:0:
448,192,77691,1,0,0:0:0:0:
448,192,77812,1,0,0:0:0:0:
320,192,77812,1,0,0:0:0:0:
192,192,77812,1,0,0:0:0:0:
64,192,77812,1,0,0:0:0:0:
64,192,77933,1,0,0:0:0:0:
448,192,77933,1,0,0:0:0:0:
192,192,77974,1,0,0:0:0:0:
320,192,78014,1,0,0:0:0:0:
448,192,78055,1,0,0:0:0:0:
320,192,78095,1,0,0:0:0:0:
192,192,78136,1,0,0:0:0:0:
64,192,78176,1,0,0:0:0:0:
448,192,78217,1,0,0:0:0:0:
320,192,78257,1,0,0:0:0:0:
64,192,78298,1,0,0:0:0:0:
448,192,78338,1,0,0:0:0:0:
192,192,78378,1,0,0:0:0:0:
320,192,78420,1,0,0:0:0:0:
64,192,78460,1,0,0:0:0:0:
448,192,78501,1,0,0:0:0:0:
320,192,78541,1,0,0:0:0:0:
192,192,78582,1,0,0:0:0:0:
64,192,78622,1,0,0:0:0:0:
448,192,78663,1,0,0:0:0:0:
320,192,78703,1,0,0:0:0:0:
64,192,78744,1,0,0:0:0:0:
192,192,78784,1,0,0:0:0:0:
448,192,78825,1,0,0:0:0:0:
320,192,78865,1,0,0:0:0:0:
192,192,78905,1,0,0:0:0:0:
64,192,78946,1,0,0:0:0:0:
320,192,78986,1,0,0:0:0:0:
192,192,79027,1,0,0:0:0:0:
448,192,79067,1,0,0:0:0:0:
320,192,79108,1,0,0:0:0:0:
192,192,79148,1,0,0:0:0:0:
64,192,79189,1,0,0:0:0:0:
448,192,79229,1,0,0:0:0:0:
320,192,79270,1,0,0:0:0:0:
64,192,79310,1,0,0:0:0:0:
192,192,79351,1,0,0:0:0:0:
448,192,79391,1,0,0:0:0:0:
64,192,79431,1,0,0:0:0:0:
320,192,79472,1,0,0:0:0:0:
192,192,79512,1,0,0:0:0:0:
448,192,79553,1,0,0:0:0:0:
320,192,79593,1,0,0:0:0:0:
192,192,79634,1,0,0:0:0:0:
64,192,79634,1,0,0:0:0:0:
320,192,79674,1,0,0:0:0:0:
448,192,79715,1,0,0:0:0:0:
64,192,79755,1,0,0:0:0:0:
192,192,79796,1,0,0:0:0:0:
320,192,79836,1,0,0:0:0:0:
64,192,79877,1,0,0:0:0:0:
448,192,79917,1,0,0:0:0:0:
320,192,79957,1,0,0:0:0:0:
64,192,79998,1,0,0:0:0:0:
192,192,80038,1,0,0:0:0:0:
448,192,80080,1,0,0:0:0:0:
320,192,80120,1,0,0:0:0:0:
192,192,80161,1,0,0:0:0:0:
64,192,80201,1,0,0:0:0:0:
192,192,80242,1,0,0:0:0:0:
320,192,80282,1,0,0:0:0:0:
448,192,80323,1,0,0:0:0:0:
64,192,80363,1,0,0:0:0:0:
192,192,80404,1,0,0:0:0:0:
448,192,80444,1,0,0:0:0:0:
320,192,80484,1,0,0:0:0:0:
64,192,80525,1,0,0:0:0:0:
448,192,80565,1,0,0:0:0:0:
192,192,80606,1,0,0:0:0:0:
320,192,80646,1,0,0:0:0:0:
64,192,80687,1,0,0:0:0:0:
192,192,80727,1,0,0:0:0:0:
320,192,80768,1,0,0:0:0:0:
448,192,80808,1,0,0:0:0:0:
192,192,80849,1,0,0:0:0:0:
320,192,80889,1,0,0:0:0:0:
64,192,80930,1,0,0:0:0:0:
192,192,80970,1,0,0:0:0:0:
320,192,81010,1,0,0:0:0:0:
448,192,81051,1,0,0:0:0:0:
64,192,81091,1,0,0:0:0:0:
320,192,81132,1,0,0:0:0:0:
192,192,81172,1,0,0:0:0:0:
448,192,81213,1,0,0:0:0:0:
320,192,81253,1,0,0:0:0:0:
64,192,81294,1,0,0:0:0:0:
448,192,81334,1,0,0:0:0:0:
320,192,81375,1,0,0:0:0:0:
64,192,81415,1,0,0:0:0:0:
192,192,81456,1,0,0:0:0:0:
320,192,81496,1,0,0:0:0:0:
448,192,81536,1,0,0:0:0:0:
64,192,81577,1,0,0:0:0:0:
192,192,81617,1,0,0:0:0:0:
64,192,81658,1,0,0:0:0:0:
448,192,81698,1,0,0:0:0:0:
320,192,81740,1,0,0:0:0:0:
448,192,81780,1,0,0:0:0:0:
64,192,81821,1,0,0:0:0:0:
192,192,81821,1,0,0:0:0:0:
320,192,81861,1,0,0:0:0:0:
448,192,81902,1,0,0:0:0:0:
64,192,81942,1,0,0:0:0:0:
192,192,81983,1,0,0:0:0:0:
320,192,82023,1,0,0:0:0:0:
448,192,82063,1,0,0:0:0:0:
64,192,82104,1,0,0:0:0:0:
192,192,82144,1,0,0:0:0:0:
448,192,82185,1,0,0:0:0:0:
320,192,82225,1,0,0:0:0:0:
64,192,82266,1,0,0:0:0:0:
192,192,82306,1,0,0:0:0:0:
448,192,82347,1,0,0:0:0:0:
64,192,82387,1,0,0:0:0:0:
320,192,82428,1,0,0:0:0:0:
448,192,82468,1,0,0:0:0:0:
192,192,82509,1,0,0:0:0:0:
64,192,82549,1,0,0:0:0:0:
448,192,82589,1,0,0:0:0:0:
320,192,82630,1,0,0:0:0:0:
192,192,82670,1,0,0:0:0:0:
64,192,82711,1,0,0:0:0:0:
448,192,82751,1,0,0:0:0:0:
192,192,82792,1,0,0:0:0:0:
320,192,82832,1,0,0:0:0:0:
64,192,82873,1,0,0:0:0:0:
448,192,82913,1,0,0:0:0:0:
192,192,82954,1,0,0:0:0:0:
320,192,82994,1,0,0:0:0:0:
448,192,83035,1,0,0:0:0:0:
64,192,83075,1,0,0:0:0:0:
192,192,83115,1,0,0:0:0:0:
320,192,83156,1,0,0:0:0:0:
448,192,83196,1,0,0:0:0:0:
64,192,83237,1,0,0:0:0:0:
192,192,83277,1,0,0:0:0:0:
448,192,83318,1,0,0:0:0:0:
320,192,83358,1,0,0:0:0:0:
64,192,83400,1,0,0:0:0:0:
448,192,83440,1,0,0:0:0:0:
192,192,83481,1,0,0:0:0:0:
320,192,83521,1,0,0:0:0:0:
448,192,83562,1,0,0:0:0:0:
64,192,83602,1,0,0:0:0:0:
320,192,83642,1,0,0:0:0:0:
192,192,83683,1,0,0:0:0:0:
64,192,83723,1,0,0:0:0:0:
448,192,83764,1,0,0:0:0:0:
320,192,83804,1,0,0:0:0:0:
192,192,83845,1,0,0:0:0:0:
64,192,83885,1,0,0:0:0:0:
192,192,83926,1,0,0:0:0:0:
320,192,83966,1,0,0:0:0:0:
448,192,84007,1,0,0:0:0:0:
64,192,84047,1,0,0:0:0:0:
192,192,84088,1,0,0:0:0:0:
320,192,84128,1,0,0:0:0:0:
448,192,84168,1,0,0:0:0:0:
320,192,84209,1,0,0:0:0:0:
192,192,84249,1,0,0:0:0:0:
64,192,84290,1,0,0:0:0:0:
320,192,84330,1,0,0:0:0:0:
192,192,84371,1,0,0:0:0:0:
448,192,84411,1,0,0:0:0:0:
64,192,84452,1,0,0:0:0:0:
192,192,84492,1,0,0:0:0:0:
320,192,84533,1,0,0:0:0:0:
448,192,84573,1,0,0:0:0:0:
64,192,84614,1,0,0:0:0:0:
192,192,84654,1,0,0:0:0:0:
320,192,84694,1,0,0:0:0:0:
448,192,84735,1,0,0:0:0:0:
192,192,84775,1,0,0:0:0:0:
320,192,84816,1,0,0:0:0:0:
64,192,84856,1,0,0:0:0:0:
192,192,84897,1,0,0:0:0:0:
448,192,84937,1,0,0:0:0:0:
320,192,84978,1,0,0:0:0:0:
192,192,85018,1,0,0:0:0:0:
64,192,85060,1,0,0:0:0:0:
320,192,85100,1,0,0:0:0:0:
192,192,85141,1,0,0:0:0:0:
448,192,85181,1,0,0:0:0:0:
320,192,85221,1,0,0:0:0:0:
192,192,85262,1,0,0:0:0:0:
64,192,85302,1,0,0:0:0:0:
448,192,85343,1,0,0:0:0:0:
320,192,85383,1,0,0:0:0:0:
192,192,85424,1,0,0:0:0:0:
64,192,85464,1,0,0:0:0:0:
192,192,85505,1,0,0:0:0:0:
320,192,85545,1,0,0:0:0:0:
448,192,85586,1,0,0:0:0:0:
320,192,85626,1,0,0:0:0:0:
192,192,85667,1,0,0:0:0:0:
64,192,85707,128,0,86193:0:0:0:0:
320,192,85828,1,0,0:0:0:0:
448,192,85950,1,0,0:0:0:0:
192,192,86071,1,0,0:0:0:0:
320,192,86193,1,0,0:0:0:0:
448,192,86193,1,0,0:0:0:0:
192,192,86435,1,0,0:0:0:0:
448,192,86435,1,0,0:0:0:0:
320,192,86496,1,0,0:0:0:0:
448,192,86557,1,0,0:0:0:0:
320,192,86617,1,0,0:0:0:0:
64,192,86678,1,0,0:0:0:0:
192,192,86678,1,0,0:0:0:0:
64,192,86800,1,0,0:0:0:0:
64,192,86922,1,0,0:0:0:0:
192,192,86922,1,0,0:0:0:0:
320,192,86983,1,0,0:0:0:0:
448,192,87043,1,0,0:0:0:0:
320,192,87104,1,0,0:0:0:0:
64,192,87165,1,0,0:0:0:0:
192,192,87165,1,0,0:0:0:0:
320,192,87286,1,0,0:0:0:0:
448,192,87286,1,0,0:0:0:0:
320,192,87407,1,0,0:0:0:0:
448,192,87407,1,0,0:0:0:0:
320,192,87529,1,0,0:0:0:0:
448,192,87529,1,0,0:0:0:0:
64,192,87650,1,0,0:0:0:0:
192,192,87650,1,0,0:0:0:0:
320,192,87711,1,0,0:0:0:0:
448,192,87772,1,0,0:0:0:0:
192,192,87772,1,0,0:0:0:0:
64,192,87832,1,0,0:0:0:0:
192,192,87893,1,0,0:0:0:0:
320,192,88014,1,0,0:0:0:0:
64,192,88136,1,0,0:0:0:0:
448,192,88136,1,0,0:0:0:0:
192,192,88136,1,0,0:0:0:0:
192,192,88257,1,0,0:0:0:0:
64,192,88257,1,0,0:0:0:0:
320,192,88378,1,0,0:0:0:0:
448,192,88378,1,0,0:0:0:0:
320,192,88501,1,0,0:0:0:0:
448,192,88501,1,0,0:0:0:0:
64,192,88622,1,0,0:0:0:0:
192,192,88622,1,0,0:0:0:0:
192,192,88744,1,0,0:0:0:0:
320,192,88744,1,0,0:0:0:0:
64,192,88865,1,0,0:0:0:0:
448,192,88926,1,0,0:0:0:0:
192,192,88986,1,0,0:0:0:0:
320,192,89047,1,0,0:0:0:0:
448,192,89108,1,0,0:0:0:0:
64,192,89108,1,0,0:0:0:0:
320,192,89168,1,0,0:0:0:0:
192,192,89229,1,0,0:0:0:0:
448,192,89290,1,0,0:0:0:0:
64,192,89351,1,0,0:0:0:0:
320,192,89351,1,0,0:0:0:0:
192,192,89411,1,0,0:0:0:0:
320,192,89472,1,0,0:0:0:0:
64,192,89593,1,0,0:0:0:0:
448,192,89593,1,0,0:0:0:0:
192,192,89654,1,0,0:0:0:0:
320,192,89715,1,0,0:0:0:0:
448,192,89775,1,0,0:0:0:0:
64,192,89775,1,0,0:0:0:0:
192,192,89836,1,0,0:0:0:0:
320,192,89836,1,0,0:0:0:0:
64,192,89957,1,0,0:0:0:0:
192,192,89957,1,0,0:0:0:0:
192,192,90080,1,0,0:0:0:0:
448,192,90080,1,0,0:0:0:0:
320,192,90141,1,0,0:0:0:0:
448,192,90201,1,0,0:0:0:0:
320,192,90262,1,0,0:0:0:0:
192,192,90323,1,0,0:0:0:0:
64,192,90323,1,0,0:0:0:0:
192,192,90444,1,0,0:0:0:0:
448,192,90444,1,0,0:0:0:0:
320,192,90505,1,0,0:0:0:0:
448,192,90565,1,0,0:0:0:0:
192,192,90565,1,0,0:0:0:0:
64,192,90687,1,0,0:0:0:0:
192,192,90687,1,0,0:0:0:0:
192,192,90808,1,0,0:0:0:0:
64,192,90808,1,0,0:0:0:0:
320,192,90869,1,0,0:0:0:0:
192,192,90930,1,0,0:0:0:0:
320,192,90990,1,0,0:0:0:0:
448,192,91051,1,0,0:0:0:0:
192,192,91051,1,0,0:0:0:0:
64,192,91051,1,0,0:0:0:0:
64,192,91172,1,0,0:0:0:0:
192,192,91172,1,0,0:0:0:0:
192,192,91294,1,0,0:0:0:0:
320,192,91294,1,0,0:0:0:0:
448,192,91415,1,0,0:0:0:0:
320,192,91415,1,0,0:0:0:0:
64,192,91536,1,0,0:0:0:0:
320,192,91597,1,0,0:0:0:0:
192,192,91658,1,0,0:0:0:0:
448,192,91720,1,0,0:0:0:0:
64,192,91780,1,0,0:0:0:0:
192,192,91841,1,0,0:0:0:0:
320,192,91902,1,0,0:0:0:0:
448,192,91902,1,0,0:0:0:0:
192,192,91962,1,0,0:0:0:0:
320,192,92023,1,0,0:0:0:0:
64,192,92023,1,0,0:0:0:0:
448,192,92023,1,0,0:0:0:0:
192,192,92144,1,0,0:0:0:0:
320,192,92266,1,0,0:0:0:0:
448,192,92266,1,0,0:0:0:0:
192,192,92387,1,0,0:0:0:0:
64,192,92509,1,0,0:0:0:0:
320,192,92509,1,0,0:0:0:0:
192,192,92630,1,0,0:0:0:0:
320,192,92630,1,0,0:0:0:0:
448,192,92630,1,0,0:0:0:0:
64,192,92751,1,0,0:0:0:0:
192,192,92812,1,0,0:0:0:0:
320,192,92873,1,0,0:0:0:0:
192,192,92933,1,0,0:0:0:0:
320,192,92994,1,0,0:0:0:0:
448,192,92994,1,0,0:0:0:0:
64,192,92994,1,0,0:0:0:0:
192,192,93055,1,0,0:0:0:0:
320,192,93115,1,0,0:0:0:0:
448,192,93176,1,0,0:0:0:0:
192,192,93237,1,0,0:0:0:0:
320,192,93237,1,0,0:0:0:0:
64,192,93298,1,0,0:0:0:0:
448,192,93358,1,0,0:0:0:0:
320,192,93420,1,0,0:0:0:0:
64,192,93481,1,0,0:0:0:0:
192,192,93481,1,0,0:0:0:0:
448,192,93521,1,0,0:0:0:0:
320,192,93562,1,0,0:0:0:0:
64,192,93602,1,0,0:0:0:0:
192,192,93642,1,0,0:0:0:0:
448,192,93683,1,0,0:0:0:0:
64,192,93723,1,0,0:0:0:0:
320,192,93764,1,0,0:0:0:0:
192,192,93804,1,0,0:0:0:0:
448,192,93845,1,0,0:0:0:0:
64,192,93885,1,0,0:0:0:0:
320,192,93926,1,0,0:0:0:0:
448,192,93966,1,0,0:0:0:0:
64,192,94007,1,0,0:0:0:0:
192,192,94047,1,0,0:0:0:0:
448,192,94088,1,0,0:0:0:0:
320,192,94128,1,0,0:0:0:0:
64,192,94168,1,0,0:0:0:0:
448,192,94209,1,0,0:0:0:0:
192,192,94249,1,0,0:0:0:0:
320,192,94290,1,0,0:0:0:0:
64,192,94330,1,0,0:0:0:0:
448,192,94371,1,0,0:0:0:0:
320,192,94411,1,0,0:0:0:0:
64,192,94452,1,0,0:0:0:0:
448,192,94492,1,0,0:0:0:0:
320,192,94533,1,0,0:0:0:0:
64,192,94573,1,0,0:0:0:0:
192,192,94614,1,0,0:0:0:0:
448,192,94654,1,0,0:0:0:0:
64,192,94694,1,0,0:0:0:0:
320,192,94735,1,0,0:0:0:0:
192,192,94775,1,0,0:0:0:0:
448,192,94816,1,0,0:0:0:0:
64,192,94856,1,0,0:0:0:0:
320,192,94897,1,0,0:0:0:0:
448,192,94937,1,0,0:0:0:0:
64,192,94978,1,0,0:0:0:0:
192,192,95018,1,0,0:0:0:0:
320,192,95060,1,0,0:0:0:0:
448,192,95100,1,0,0:0:0:0:
64,192,95100,1,0,0:0:0:0:
192,192,95141,1,0,0:0:0:0:
320,192,95181,1,0,0:0:0:0:
448,192,95221,1,0,0:0:0:0:
64,192,95262,1,0,0:0:0:0:
448,192,95302,1,0,0:0:0:0:
320,192,95343,1,0,0:0:0:0:
448,192,95383,1,0,0:0:0:0:
64,192,95424,1,0,0:0:0:0:
192,192,95464,1,0,0:0:0:0:
320,192,95505,1,0,0:0:0:0:
64,192,95545,1,0,0:0:0:0:
448,192,95586,1,0,0:0:0:0:
192,192,95626,1,0,0:0:0:0:
320,192,95667,1,0,0:0:0:0:
64,192,95707,1,0,0:0:0:0:
448,192,95747,1,0,0:0:0:0:
320,192,95788,1,0,0:0:0:0:
192,192,95828,1,0,0:0:0:0:
64,192,95869,1,0,0:0:0:0:
448,192,95909,1,0,0:0:0:0:
320,192,95950,1,0,0:0:0:0:
64,192,95990,1,0,0:0:0:0:
192,192,96031,1,0,0:0:0:0:
448,192,96071,1,0,0:0:0:0:
320,192,96112,1,0,0:0:0:0:
192,192,96152,1,0,0:0:0:0:
64,192,96193,1,0,0:0:0:0:
320,192,96233,1,0,0:0:0:0:
192,192,96273,1,0,0:0:0:0:
448,192,96314,1,0,0:0:0:0:
320,192,96354,1,0,0:0:0:0:
192,192,96395,1,0,0:0:0:0:
64,192,96435,1,0,0:0:0:0:
448,192,96476,1,0,0:0:0:0:
320,192,96516,1,0,0:0:0:0:
64,192,96557,1,0,0:0:0:0:
192,192,96597,1,0,0:0:0:0:
448,192,96638,1,0,0:0:0:0:
64,192,96678,1,0,0:0:0:0:
320,192,96720,1,0,0:0:0:0:
192,192,96760,1,0,0:0:0:0:
448,192,96800,1,0,0:0:0:0:
320,192,96841,1,0,0:0:0:0:
64,192,96881,1,0,0:0:0:0:
448,192,96922,1,0,0:0:0:0:
320,192,96962,1,0,0:0:0:0:
64,192,97003,1,0,0:0:0:0:
192,192,97043,1,0,0:0:0:0:
320,192,97084,1,0,0:0:0:0:
64,192,97124,1,0,0:0:0:0:
448,192,97165,1,0,0:0:0:0:
320,192,97205,1,0,0:0:0:0:
64,192,97246,1,0,0:0:0:0:
192,192,97286,1,0,0:0:0:0:
448,192,97326,1,0,0:0:0:0:
64,192,97367,1,0,0:0:0:0:
192,192,97407,1,0,0:0:0:0:
320,192,97448,1,0,0:0:0:0:
448,192,97488,1,0,0:0:0:0:
64,192,97529,1,0,0:0:0:0:
192,192,97569,1,0,0:0:0:0:
448,192,97610,1,0,0:0:0:0:
320,192,97650,1,0,0:0:0:0:
64,192,97691,1,0,0:0:0:0:
192,192,97731,1,0,0:0:0:0:
320,192,97772,1,0,0:0:0:0:
448,192,97812,1,0,0:0:0:0:
64,192,97852,1,0,0:0:0:0:
320,192,97893,1,0,0:0:0:0:
192,192,97933,1,0,0:0:0:0:
448,192,97974,1,0,0:0:0:0:
320,192,98014,1,0,0:0:0:0:
192,192,98055,1,0,0:0:0:0:
64,192,98095,1,0,0:0:0:0:
448,192,98136,1,0,0:0:0:0:
320,192,98176,1,0,0:0:0:0:
64,192,98217,1,0,0:0:0:0:
192,192,98257,1,0,0:0:0:0:
448,192,98298,1,0,0:0:0:0:
320,192,98338,1,0,0:0:0:0:
192,192,98378,1,0,0:0:0:0:
64,192,98420,1,0,0:0:0:0:
448,192,98460,1,0,0:0:0:0:
320,192,98501,1,0,0:0:0:0:
64,192,98541,1,0,0:0:0:0:
192,192,98582,1,0,0:0:0:0:
448,192,98622,1,0,0:0:0:0:
320,192,98663,1,0,0:0:0:0:
192,192,98703,1,0,0:0:0:0:
64,192,98744,1,0,0:0:0:0:
448,192,98784,1,0,0:0:0:0:
192,192,98825,1,0,0:0:0:0:
320,192,98865,1,0,0:0:0:0:
64,192,98905,1,0,0:0:0:0:
448,192,98946,1,0,0:0:0:0:
320,192,98986,1,0,0:0:0:0:
64,192,99027,1,0,0:0:0:0:
448,192,99067,1,0,0:0:0:0:
320,192,99108,1,0,0:0:0:0:
448,192,99148,1,0,0:0:0:0:
64,192,99189,1,0,0:0:0:0:
192,192,99229,1,0,0:0:0:0:
64,192,99270,1,0,0:0:0:0:
448,192,99310,1,0,0:0:0:0:
320,192,99351,1,0,0:0:0:0:
192,192,99391,1,0,0:0:0:0:
64,192,99431,1,0,0:0:0:0:
448,192,99431,1,0,0:0:0:0:
320,192,99472,1,0,0:0:0:0:
192,192,99512,1,0,0:0:0:0:
64,192,99553,1,0,0:0:0:0:
448,192,99553,1,0,0:0:0:0:
320,192,99593,1,0,0:0:0:0:
192,192,99634,1,0,0:0:0:0:
64,192,99674,1,0,0:0:0:0:
448,192,99674,1,0,0:0:0:0:
320,192,99715,1,0,0:0:0:0:
64,192,99755,1,0,0:0:0:0:
320,192,99796,1,0,0:0:0:0:
448,192,99796,1,0,0:0:0:0:
192,192,99856,1,0,0:0:0:0:
64,192,99856,1,0,0:0:0:0:
320,192,99917,1,0,0:0:0:0:
448,192,99917,1,0,0:0:0:0:
192,192,99978,1,0,0:0:0:0:
64,192,99978,1,0,0:0:0:0:
320,192,100038,1,0,0:0:0:0:
448,192,100038,1,0,0:0:0:0:
192,192,100100,1,0,0:0:0:0:
64,192,100100,1,0,0:0:0:0:
320,192,100161,1,0,0:0:0:0:
448,192,100161,1,0,0:0:0:0:
192,192,100221,1,0,0:0:0:0:
64,192,100221,1,0,0:0:0:0:
320,192,100282,1,0,0:0:0:0:
448,192,100282,1,0,0:0:0:0:
320,192,100404,1,0,0:0:0:0:
448,192,100404,1,0,0:0:0:0:
64,192,100525,1,0,0:0:0:0:
192,192,100525,1,0,0:0:0:0:
320,192,100525,1,0,0:0:0:0:
448,192,100525,1,0,0:0:0:0:
192,192,100646,1,0,0:0:0:0:
64,192,100646,1,0,0:0:0:0:
64,192,100768,1,0,0:0:0:0:
192,192,100768,1,0,0:0:0:0:
320,192,100768,1,0,0:0:0:0:
448,192,100768,1,0,0:0:0:0:
320,192,100889,1,0,0:0:0:0:
448,192,100889,1,0,0:0:0:0:
320,192,101010,1,0,0:0:0:0:
448,192,101010,1,0,0:0:0:0:
192,192,101010,1,0,0:0:0:0:
64,192,101010,1,0,0:0:0:0:
64,192,101132,1,0,0:0:0:0:
192,192,101132,1,0,0:0:0:0:
448,192,101253,1,0,0:0:0:0:
320,192,101294,1,0,0:0:0:0:
192,192,101334,1,0,0:0:0:0:
64,192,101375,1,0,0:0:0:0:
448,192,101415,1,0,0:0:0:0:
320,192,101456,1,0,0:0:0:0:
64,192,101496,1,0,0:0:0:0:
192,192,101536,1,0,0:0:0:0:
448,192,101577,1,0,0:0:0:0:
320,192,101617,1,0,0:0:0:0:
192,192,101658,1,0,0:0:0:0:
64,192,101698,1,0,0:0:0:0:
448,192,101740,1,0,0:0:0:0:
320,192,101780,1,0,0:0:0:0:
192,192,101821,1,0,0:0:0:0:
64,192,101861,1,0,0:0:0:0:
448,192,101902,1,0,0:0:0:0:
320,192,101942,1,0,0:0:0:0:
64,192,101983,1,0,0:0:0:0:
192,192,102023,1,0,0:0:0:0:
448,192,102063,1,0,0:0:0:0:
64,192,102104,1,0,0:0:0:0:
320,192,102144,1,0,0:0:0:0:
192,192,102185,1,0,0:0:0:0:
448,192,102225,1,0,0:0:0:0:
320,192,102266,1,0,0:0:0:0:
192,192,102306,1,0,0:0:0:0:
64,192,102347,1,0,0:0:0:0:
448,192,102387,1,0,0:0:0:0:
192,192,102428,1,0,0:0:0:0:
320,192,102468,1,0,0:0:0:0:
64,192,102509,1,0,0:0:0:0:
192,192,102549,1,0,0:0:0:0:
320,192,102589,1,0,0:0:0:0:
448,192,102630,1,0,0:0:0:0:
64,192,102670,1,0,0:0:0:0:
192,192,102711,1,0,0:0:0:0:
320,192,102751,1,0,0:0:0:0:
448,192,102792,1,0,0:0:0:0:
64,192,102832,1,0,0:0:0:0:
192,192,102873,1,0,0:0:0:0:
64,192,102913,1,0,0:0:0:0:
448,192,102954,1,0,0:0:0:0:
320,192,102994,1,0,0:0:0:0:
64,192,103035,1,0,0:0:0:0:
448,192,103075,1,0,0:0:0:0:
320,192,103115,1,0,0:0:0:0:
192,192,103156,1,0,0:0:0:0:
448,192,103196,1,0,0:0:0:0:
320,192,103237,1,0,0:0:0:0:
192,192,103277,1,0,0:0:0:0:
64,192,103318,1,0,0:0:0:0:
448,192,103318,1,0,0:0:0:0:
320,192,103358,1,0,0:0:0:0:
192,192,103400,1,0,0:0:0:0:
64,192,103440,1,0,0:0:0:0:
448,192,103481,1,0,0:0:0:0:
320,192,103521,1,0,0:0:0:0:
448,192,103562,1,0,0:0:0:0:
64,192,103602,1,0,0:0:0:0:
192,192,103642,1,0,0:0:0:0:
320,192,103683,1,0,0:0:0:0:
448,192,103723,1,0,0:0:0:0:
64,192,103764,1,0,0:0:0:0:
192,192,103804,1,0,0:0:0:0:
448,192,103845,1,0,0:0:0:0:
320,192,103885,1,0,0:0:0:0:
64,192,103926,1,0,0:0:0:0:
192,192,103966,1,0,0:0:0:0:
320,192,104007,1,0,0:0:0:0:
448,192,104047,1,0,0:0:0:0:
64,192,104088,1,0,0:0:0:0:
320,192,104128,1,0,0:0:0:0:
192,192,104168,1,0,0:0:0:0:
448,192,104209,1,0,0:0:0:0:
64,192,104249,1,0,0:0:0:0:
192,192,104290,1,0,0:0:0:0:
320,192,104330,1,0,0:0:0:0:
448,192,104371,1,0,0:0:0:0:
192,192,104411,1,0,0:0:0:0:
320,192,104452,1,0,0:0:0:0:
64,192,104492,1,0,0:0:0:0:
192,192,104533,1,0,0:0:0:0:
320,192,104573,1,0,0:0:0:0:
448,192,104614,1,0,0:0:0:0:
64,192,104654,1,0,0:0:0:0:
192,192,104694,1,0,0:0:0:0:
320,192,104735,1,0,0:0:0:0:
448,192,104775,1,0,0:0:0:0:
64,192,104816,1,0,0:0:0:0:
320,192,104856,1,0,0:0:0:0:
192,192,104897,1,0,0:0:0:0:
448,192,104937,1,0,0:0:0:0:
320,192,104978,1,0,0:0:0:0:
64,192,105018,1,0,0:0:0:0:
192,192,105060,1,0,0:0:0:0:
64,192,105100,1,0,0:0:0:0:
448,192,105141,1,0,0:0:0:0:
320,192,105181,1,0,0:0:0:0:
64,192,105221,1,0,0:0:0:0:
448,192,105262,1,0,0:0:0:0:
192,192,105302,1,0,0:0:0:0:
64,192,105343,1,0,0:0:0:0:
448,192,105383,1,0,0:0:0:0:
320,192,105424,1,0,0:0:0:0:
192,192,105464,1,0,0:0:0:0:
64,192,105505,1,0,0:0:0:0:
320,192,105545,1,0,0:0:0:0:
192,192,105586,1,0,0:0:0:0:
448,192,105626,1,0,0:0:0:0:
320,192,105667,1,0,0:0:0:0:
192,192,105707,1,0,0:0:0:0:
64,192,105747,1,0,0:0:0:0:
448,192,105788,1,0,0:0:0:0:
320,192,105828,1,0,0:0:0:0:
64,192,105869,1,0,0:0:0:0:
448,192,105909,1,0,0:0:0:0:
192,192,105950,1,0,0:0:0:0:
64,192,105990,1,0,0:0:0:0:
320,192,106031,1,0,0:0:0:0:
192,192,106071,1,0,0:0:0:0:
448,192,106112,1,0,0:0:0:0:
320,192,106152,1,0,0:0:0:0:
192,192,106193,1,0,0:0:0:0:
64,192,106233,1,0,0:0:0:0:
320,192,106273,1,0,0:0:0:0:
192,192,106314,1,0,0:0:0:0:
448,192,106354,1,0,0:0:0:0:
320,192,106395,1,0,0:0:0:0:
192,192,106435,1,0,0:0:0:0:
64,192,106476,1,0,0:0:0:0:
320,192,106516,1,0,0:0:0:0:
192,192,106557,1,0,0:0:0:0:
64,192,106597,1,0,0:0:0:0:
448,192,106638,1,0,0:0:0:0:
320,192,106678,1,0,0:0:0:0:
192,192,106720,1,0,0:0:0:0:
448,192,106760,1,0,0:0:0:0:
64,192,106800,1,0,0:0:0:0:
192,192,106841,1,0,0:0:0:0:
320,192,106881,1,0,0:0:0:0:
448,192,106922,1,0,0:0:0:0:
320,192,106962,1,0,0:0:0:0:
192,192,107003,1,0,0:0:0:0:
64,192,107043,1,0,0:0:0:0:
448,192,107084,1,0,0:0:0:0:
320,192,107124,1,0,0:0:0:0:
192,192,107165,1,0,0:0:0:0:
64,192,107205,1,0,0:0:0:0:
448,192,107205,1,0,0:0:0:0:
320,192,107246,1,0,0:0:0:0:
64,192,107286,1,0,0:0:0:0:
448,192,107326,1,0,0:0:0:0:
320,192,107367,1,0,0:0:0:0:
192,192,107407,1,0,0:0:0:0:
448,192,107448,1,0,0:0:0:0:
320,192,107488,1,0,0:0:0:0:
192,192,107529,1,0,0:0:0:0:
448,192,107569,1,0,0:0:0:0:
320,192,107610,1,0,0:0:0:0:
64,192,107650,1,0,0:0:0:0:
448,192,107691,1,0,0:0:0:0:
320,192,107731,1,0,0:0:0:0:
192,192,107772,1,0,0:0:0:0:
64,192,107812,1,0,0:0:0:0:
192,192,107852,1,0,0:0:0:0:
320,192,107893,1,0,0:0:0:0:
64,192,107933,1,0,0:0:0:0:
192,192,107974,1,0,0:0:0:0:
320,192,108014,1,0,0:0:0:0:
64,192,108055,1,0,0:0:0:0:
192,192,108095,1,0,0:0:0:0:
448,192,108136,1,0,0:0:0:0:
64,192,108176,1,0,0:0:0:0:
192,192,108217,1,0,0:0:0:0:
320,192,108257,1,0,0:0:0:0:
448,192,108298,1,0,0:0:0:0:
192,192,108338,1,0,0:0:0:0:
320,192,108378,1,0,0:0:0:0:
64,192,108420,1,0,0:0:0:0:
448,192,108460,1,0,0:0:0:0:
320,192,108501,1,0,0:0:0:0:
64,192,108541,1,0,0:0:0:0:
192,192,108541,1,0,0:0:0:0:
320,192,108663,1,0,0:0:0:0:
448,192,108663,1,0,0:0:0:0:
192,192,108784,1,0,0:0:0:0:
64,192,108784,1,0,0:0:0:0:
320,192,108845,1,0,0:0:0:0:
448,192,108845,1,0,0:0:0:0:
192,192,108905,1,0,0:0:0:0:
64,192,108905,1,0,0:0:0:0:
320,192,108966,1,0,0:0:0:0:
448,192,108966,1,0,0:0:0:0:
64,192,109027,1,0,0:0:0:0:
320,192,109067,1,0,0:0:0:0:
192,192,109108,1,0,0:0:0:0:
64,192,109148,1,0,0:0:0:0:
448,192,109189,1,0,0:0:0:0:
320,192,109229,1,0,0:0:0:0:
64,192,109270,1,0,0:0:0:0:
192,192,109310,1,0,0:0:0:0:
448,192,109351,1,0,0:0:0:0:
320,192,109391,1,0,0:0:0:0:
192,192,109431,1,0,0:0:0:0:
64,192,109472,1,0,0:0:0:0:
448,192,109512,1,0,0:0:0:0:
320,192,109553,1,0,0:0:0:0:
192,192,109593,1,0,0:0:0:0:
64,192,109634,1,0,0:0:0:0:
448,192,109674,1,0,0:0:0:0:
320,192,109715,1,0,0:0:0:0:
64,192,109755,1,0,0:0:0:0:
192,192,109796,1,0,0:0:0:0:
448,192,109836,1,0,0:0:0:0:
64,192,109877,1,0,0:0:0:0:
320,192,109917,1,0,0:0:0:0:
192,192,109957,1,0,0:0:0:0:
448,192,109998,1,0,0:0:0:0:
320,192,110038,1,0,0:0:0:0:
192,192,110080,1,0,0:0:0:0:
64,192,110120,1,0,0:0:0:0:
448,192,110161,1,0,0:0:0:0:
192,192,110201,1,0,0:0:0:0:
320,192,110242,1,0,0:0:0:0:
64,192,110282,1,0,0:0:0:0:
192,192,110323,1,0,0:0:0:0:
320,192,110363,1,0,0:0:0:0:
448,192,110404,1,0,0:0:0:0:
64,192,110444,1,0,0:0:0:0:
192,192,110484,1,0,0:0:0:0:
320,192,110525,1,0,0:0:0:0:
448,192,110565,1,0,0:0:0:0:
64,192,110606,1,0,0:0:0:0:
192,192,110646,1,0,0:0:0:0:
64,192,110687,1,0,0:0:0:0:
448,192,110727,1,0,0:0:0:0:
320,192,110768,1,0,0:0:0:0:
64,192,110808,1,0,0:0:0:0:
448,192,110849,1,0,0:0:0:0:
320,192,110889,1,0,0:0:0:0:
192,192,110930,1,0,0:0:0:0:
448,192,110970,1,0,0:0:0:0:
320,192,111010,1,0,0:0:0:0:
192,192,111051,1,0,0:0:0:0:
448,192,111091,1,0,0:0:0:0:
64,192,111091,1,0,0:0:0:0:
320,192,111132,1,0,0:0:0:0:
192,192,111172,1,0,0:0:0:0:
64,192,111213,1,0,0:0:0:0:
448,192,111253,1,0,0:0:0:0:
320,192,111294,1,0,0:0:0:0:
448,192,111334,1,0,0:0:0:0:
64,192,111375,1,0,0:0:0:0:
192,192,111415,1,0,0:0:0:0:
320,192,111456,1,0,0:0:0:0:
448,192,111496,1,0,0:0:0:0:
64,192,111536,1,0,0:0:0:0:
192,192,111577,1,0,0:0:0:0:
448,192,111617,1,0,0:0:0:0:
320,192,111658,1,0,0:0:0:0:
64,192,111698,1,0,0:0:0:0:
192,192,111740,1,0,0:0:0:0:
320,192,111780,1,0,0:0:0:0:
448,192,111821,1,0,0:0:0:0:
64,192,111861,1,0,0:0:0:0:
320,192,111902,1,0,0:0:0:0:
192,192,111942,1,0,0:0:0:0:
448,192,111983,1,0,0:0:0:0:
64,192,112023,1,0,0:0:0:0:
192,192,112063,1,0,0:0:0:0:
320,192,112104,1,0,0:0:0:0:
448,192,112144,1,0,0:0:0:0:
192,192,112185,1,0,0:0:0:0:
320,192,112225,1,0,0:0:0:0:
64,192,112266,1,0,0:0:0:0:
192,192,112306,1,0,0:0:0:0:
320,192,112347,1,0,0:0:0:0:
448,192,112387,1,0,0:0:0:0:
64,192,112428,1,0,0:0:0:0:
192,192,112468,1,0,0:0:0:0:
320,192,112509,1,0,0:0:0:0:
448,192,112549,1,0,0:0:0:0:
64,192,112589,1,0,0:0:0:0:
320,192,112630,1,0,0:0:0:0:
192,192,112670,1,0,0:0:0:0:
448,192,112711,1,0,0:0:0:0:
320,192,112751,1,0,0:0:0:0:
64,192,112792,1,0,0:0:0:0:
192,192,112832,1,0,0:0:0:0:
64,192,112873,1,0,0:0:0:0:
448,192,112913,1,0,0:0:0:0:
320,192,112954,1,0,0:0:0:0:
192,192,112994,1,0,0:0:0:0:
64,192,113035,1,0,0:0:0:0:
192,192,113075,1,0,0:0:0:0:
320,192,113115,1,0,0:0:0:0:
448,192,113156,1,0,0:0:0:0:
64,192,113196,1,0,0:0:0:0:
192,192,113237,1,0,0:0:0:0:
448,192,113277,1,0,0:0:0:0:
320,192,113318,1,0,0:0:0:0:
192,192,113358,1,0,0:0:0:0:
64,192,113400,1,0,0:0:0:0:
192,192,113440,1,0,0:0:0:0:
320,192,113481,1,0,0:0:0:0:
448,192,113521,1,0,0:0:0:0:
320,192,113562,1,0,0:0:0:0:
192,192,113602,1,0,0:0:0:0:
64,192,113642,1,0,0:0:0:0:
448,192,113683,1,0,0:0:0:0:
320,192,113723,1,0,0:0:0:0:
64,192,113764,1,0,0:0:0:0:
192,192,113804,1,0,0:0:0:0:
320,192,113845,1,0,0:0:0:0:
448,192,113885,1,0,0:0:0:0:
320,192,113926,1,0,0:0:0:0:
192,192,113966,1,0,0:0:0:0:
64,192,114007,1,0,0:0:0:0:
192,192,114047,1,0,0:0:0:0:
320,192,114088,1,0,0:0:0:0:
448,192,114128,1,0,0:0:0:0:
64,192,114168,1,0,0:0:0:0:
192,192,114209,1,0,0:0:0:0:
448,192,114249,1,0,0:0:0:0:
320,192,114290,1,0,0:0:0:0:
192,192,114330,1,0,0:0:0:0:
64,192,114371,1,0,0:0:0:0:
192,192,114411,1,0,0:0:0:0:
320,192,114452,1,0,0:0:0:0:
448,192,114492,1,0,0:0:0:0:
320,192,114533,1,0,0:0:0:0:
192,192,114573,1,0,0:0:0:0:
64,192,114614,1,0,0:0:0:0:
320,192,114654,1,0,0:0:0:0:
192,192,114694,1,0,0:0:0:0:
448,192,114735,1,0,0:0:0:0:
320,192,114775,1,0,0:0:0:0:
192,192,114816,1,0,0:0:0:0:
64,192,114856,1,0,0:0:0:0:
448,192,114856,1,0,0:0:0:0:
320,192,114897,1,0,0:0:0:0:
64,192,114937,1,0,0:0:0:0:
448,192,114978,1,0,0:0:0:0:
320,192,115018,1,0,0:0:0:0:
192,192,115060,1,0,0:0:0:0:
448,192,115100,1,0,0:0:0:0:
320,192,115141,1,0,0:0:0:0:
64,192,115181,1,0,0:0:0:0:
448,192,115221,1,0,0:0:0:0:
320,192,115262,1,0,0:0:0:0:
192,192,115302,1,0,0:0:0:0:
64,192,115343,1,0,0:0:0:0:
192,192,115383,1,0,0:0:0:0:
448,192,115424,1,0,0:0:0:0:
64,192,115464,1,0,0:0:0:0:
192,192,115505,1,0,0:0:0:0:
320,192,115545,1,0,0:0:0:0:
64,192,115586,1,0,0:0:0:0:
192,192,115626,1,0,0:0:0:0:
448,192,115667,1,0,0:0:0:0:
320,192,115707,1,0,0:0:0:0:
192,192,115747,1,0,0:0:0:0:
64,192,115788,1,0,0:0:0:0:
448,192,115828,1,0,0:0:0:0:
320,192,115828,1,0,0:0:0:0:
192,192,115889,1,0,0:0:0:0:
64,192,115889,1,0,0:0:0:0:
320,192,115950,1,0,0:0:0:0:
448,192,115950,1,0,0:0:0:0:
192,192,116010,1,0,0:0:0:0:
64,192,116010,1,0,0:0:0:0:
320,192,116071,1,0,0:0:0:0:
448,192,116071,1,0,0:0:0:0:
320,192,116193,1,0,0:0:0:0:
448,192,116193,1,0,0:0:0:0:
192,192,116314,1,0,0:0:0:0:
64,192,116314,1,0,0:0:0:0:
192,192,116435,1,0,0:0:0:0:
64,192,116435,1,0,0:0:0:0:
320,192,116496,1,0,0:0:0:0:
448,192,116496,1,0,0:0:0:0:
192,192,116557,1,0,0:0:0:0:
64,192,116557,1,0,0:0:0:0:
320,192,116617,1,0,0:0:0:0:
448,192,116617,1,0,0:0:0:0:
192,192,116678,1,0,0:0:0:0:
64,192,116678,1,0,0:0:0:0:
320,192,116740,1,0,0:0:0:0:
448,192,116740,1,0,0:0:0:0:
64,192,116800,1,0,0:0:0:0:
192,192,116800,1,0,0:0:0:0:
448,192,116841,1,0,0:0:0:0:
320,192,116881,1,0,0:0:0:0:
64,192,116922,1,0,0:0:0:0:
192,192,116962,1,0,0:0:0:0:
448,192,117003,1,0,0:0:0:0:
64,192,117043,1,0,0:0:0:0:
320,192,117084,1,0,0:0:0:0:
192,192,117124,1,0,0:0:0:0:
448,192,117165,1,0,0:0:0:0:
64,192,117205,1,0,0:0:0:0:
320,192,117246,1,0,0:0:0:0:
448,192,117286,1,0,0:0:0:0:
64,192,117326,1,0,0:0:0:0:
192,192,117367,1,0,0:0:0:0:
448,192,117407,1,0,0:0:0:0:
320,192,117448,1,0,0:0:0:0:
64,192,117488,1,0,0:0:0:0:
448,192,117529,1,0,0:0:0:0:
192,192,117569,1,0,0:0:0:0:
320,192,117610,1,0,0:0:0:0:
64,192,117650,1,0,0:0:0:0:
448,192,117691,1,0,0:0:0:0:
320,192,117731,1,0,0:0:0:0:
64,192,117772,1,0,0:0:0:0:
448,192,117812,1,0,0:0:0:0:
320,192,117852,1,0,0:0:0:0:
64,192,117893,1,0,0:0:0:0:
192,192,117933,1,0,0:0:0:0:
448,192,117974,1,0,0:0:0:0:
64,192,118014,1,0,0:0:0:0:
320,192,118055,1,0,0:0:0:0:
192,192,118095,1,0,0:0:0:0:
448,192,118136,1,0,0:0:0:0:
64,192,118176,1,0,0:0:0:0:
320,192,118217,1,0,0:0:0:0:
448,192,118257,1,0,0:0:0:0:
64,192,118298,1,0,0:0:0:0:
192,192,118338,1,0,0:0:0:0:
448,192,118378,1,0,0:0:0:0:
320,192,118420,1,0,0:0:0:0:
64,192,118460,1,0,0:0:0:0:
448,192,118501,1,0,0:0:0:0:
320,192,118541,1,0,0:0:0:0:
192,192,118582,1,0,0:0:0:0:
64,192,118622,1,0,0:0:0:0:
448,192,118622,1,0,0:0:0:0:
320,192,118663,1,0,0:0:0:0:
192,192,118703,1,0,0:0:0:0:
64,192,118744,1,0,0:0:0:0:
448,192,118784,1,0,0:0:0:0:
320,192,118825,1,0,0:0:0:0:
64,192,118865,1,0,0:0:0:0:
192,192,118905,1,0,0:0:0:0:
448,192,118946,1,0,0:0:0:0:
64,192,118986,1,0,0:0:0:0:
320,192,119027,1,0,0:0:0:0:
192,192,119067,1,0,0:0:0:0:
448,192,119108,1,0,0:0:0:0:
64,192,119148,1,0,0:0:0:0:
320,192,119189,1,0,0:0:0:0:
448,192,119229,1,0,0:0:0:0:
64,192,119270,1,0,0:0:0:0:
192,192,119310,1,0,0:0:0:0:
448,192,119351,1,0,0:0:0:0:
320,192,119391,1,0,0:0:0:0:
64,192,119431,1,0,0:0:0:0:
448,192,119472,1,0,0:0:0:0:
192,192,119512,1,0,0:0:0:0:
320,192,119553,1,0,0:0:0:0:
64,192,119593,1,0,0:0:0:0:
448,192,119634,1,0,0:0:0:0:
320,192,119674,1,0,0:0:0:0:
64,192,119715,1,0,0:0:0:0:
448,192,119755,1,0,0:0:0:0:
320,192,119796,1,0,0:0:0:0:
64,192,119836,1,0,0:0:0:0:
192,192,119877,1,0,0:0:0:0:
448,192,119917,1,0,0:0:0:0:
64,192,119957,1,0,0:0:0:0:
320,192,119998,1,0,0:0:0:0:
192,192,120038,1,0,0:0:0:0:
448,192,120080,1,0,0:0:0:0:
64,192,120120,1,0,0:0:0:0:
320,192,120161,1,0,0:0:0:0:
448,192,120201,1,0,0:0:0:0:
64,192,120242,1,0,0:0:0:0:
192,192,120282,1,0,0:0:0:0:
448,192,120323,1,0,0:0:0:0:
320,192,120363,1,0,0:0:0:0:
64,192,120404,1,0,0:0:0:0:
448,192,120444,1,0,0:0:0:0:
320,192,120484,1,0,0:0:0:0:
192,192,120525,1,0,0:0:0:0:
64,192,120565,1,0,0:0:0:0:
448,192,120565,1,0,0:0:0:0:
320,192,120606,1,0,0:0:0:0:
192,192,120646,1,0,0:0:0:0:
64,192,120687,1,0,0:0:0:0:
448,192,120727,1,0,0:0:0:0:
320,192,120768,1,0,0:0:0:0:
64,192,120808,1,0,0:0:0:0:
192,192,120849,1,0,0:0:0:0:
448,192,120889,1,0,0:0:0:0:
64,192,120930,1,0,0:0:0:0:
320,192,120970,1,0,0:0:0:0:
192,192,121010,1,0,0:0:0:0:
448,192,121051,1,0,0:0:0:0:
64,192,121091,1,0,0:0:0:0:
320,192,121132,1,0,0:0:0:0:
448,192,121172,1,0,0:0:0:0:
64,192,121213,1,0,0:0:0:0:
192,192,121253,1,0,0:0:0:0:
448,192,121294,1,0,0:0:0:0:
320,192,121334,1,0,0:0:0:0:
64,192,121375,1,0,0:0:0:0:
448,192,121415,1,0,0:0:0:0:
192,192,121456,1,0,0:0:0:0:
320,192,121496,1,0,0:0:0:0:
64,192,121536,1,0,0:0:0:0:
448,192,121577,1,0,0:0:0:0:
320,192,121617,1,0,0:0:0:0:
64,192,121658,1,0,0:0:0:0:
448,192,121698,1,0,0:0:0:0:
320,192,121740,1,0,0:0:0:0:
64,192,121780,1,0,0:0:0:0:
192,192,121821,1,0,0:0:0:0:
448,192,121861,1,0,0:0:0:0:
64,192,121902,1,0,0:0:0:0:
320,192,121942,1,0,0:0:0:0:
192,192,121983,1,0,0:0:0:0:
448,192,122023,1,0,0:0:0:0:
64,192,122063,1,0,0:0:0:0:
320,192,122104,1,0,0:0:0:0:
448,192,122144,1,0,0:0:0:0:
64,192,122185,1,0,0:0:0:0:
192,192,122225,1,0,0:0:0:0:
448,192,122266,1,0,0:0:0:0:
320,192,122306,1,0,0:0:0:0:
64,192,122347,1,0,0:0:0:0:
448,192,122387,1,0,0:0:0:0:
320,192,122428,1,0,0:0:0:0:
192,192,122468,1,0,0:0:0:0:
64,192,122509,1,0,0:0:0:0:
448,192,122509,1,0,0:0:0:0:
320,192,122549,1,0,0:0:0:0:
192,192,122589,1,0,0:0:0:0:
64,192,122630,1,0,0:0:0:0:
448,192,122670,1,0,0:0:0:0:
320,192,122711,1,0,0:0:0:0:
64,192,122751,1,0,0:0:0:0:
192,192,122792,1,0,0:0:0:0:
448,192,122832,1,0,0:0:0:0:
64,192,122873,1,0,0:0:0:0:
320,192,122913,1,0,0:0:0:0:
192,192,122954,1,0,0:0:0:0:
448,192,122994,1,0,0:0:0:0:
64,192,123035,1,0,0:0:0:0:
320,192,123075,1,0,0:0:0:0:
448,192,123115,1,0,0:0:0:0:
64,192,123156,1,0,0:0:0:0:
192,192,123196,1,0,0:0:0:0:
448,192,123237,1,0,0:0:0:0:
320,192,123277,1,0,0:0:0:0:
64,192,123318,1,0,0:0:0:0:
448,192,123358,1,0,0:0:0:0:
320,192,123400,1,0,0:0:0:0:
192,192,123440,1,0,0:0:0:0:
64,192,123481,1,0,0:0:0:0:
320,192,123521,1,0,0:0:0:0:
192,192,123562,1,0,0:0:0:0:
448,192,123602,1,0,0:0:0:0:
320,192,123642,1,0,0:0:0:0:
64,192,123683,1,0,0:0:0:0:
192,192,123723,1,0,0:0:0:0:
320,192,123764,1,0,0:0:0:0:
448,192,123804,1,0,0:0:0:0:
64,192,123845,1,0,0:0:0:0:
192,192,123885,1,0,0:0:0:0:
448,192,123926,1,0,0:0:0:0:
64,192,123966,1,0,0:0:0:0:
192,192,124007,1,0,0:0:0:0:
320,192,124047,1,0,0:0:0:0:
448,192,124088,1,0,0:0:0:0:
320,192,124128,1,0,0:0:0:0:
192,192,124168,1,0,0:0:0:0:
64,192,124209,1,0,0:0:0:0:
192,192,124249,1,0,0:0:0:0:
320,192,124290,1,0,0:0:0:0:
64,192,124330,1,0,0:0:0:0:
448,192,124330,1,0,0:0:0:0:
192,192,124371,1,0,0:0:0:0:
320,192,124411,1,0,0:0:0:0:
448,192,124452,1,0,0:0:0:0:
64,192,124452,1,0,0:0:0:0:
192,192,124492,1,0,0:0:0:0:
320,192,124533,1,0,0:0:0:0:
448,192,124573,1,0,0:0:0:0:
320,192,124614,1,0,0:0:0:0:
192,192,124654,1,0,0:0:0:0:
64,192,124694,1,0,0:0:0:0:
320,192,124735,1,0,0:0:0:0:
192,192,124775,1,0,0:0:0:0:
448,192,124816,1,0,0:0:0:0:
320,192,124856,1,0,0:0:0:0:
192,192,124897,1,0,0:0:0:0:
64,192,124937,1,0,0:0:0:0:
448,192,124978,1,0,0:0:0:0:
192,192,125018,1,0,0:0:0:0:
320,192,125060,1,0,0:0:0:0:
64,192,125100,1,0,0:0:0:0:
192,192,125141,1,0,0:0:0:0:
320,192,125181,1,0,0:0:0:0:
448,192,125221,1,0,0:0:0:0:
192,192,125262,1,0,0:0:0:0:
320,192,125302,1,0,0:0:0:0:
64,192,125343,1,0,0:0:0:0:
448,192,125383,1,0,0:0:0:0:
64,192,125424,1,0,0:0:0:0:
192,192,125464,1,0,0:0:0:0:
320,192,125505,1,0,0:0:0:0:
192,192,125545,1,0,0:0:0:0:
64,192,125586,1,0,0:0:0:0:
448,192,125626,1,0,0:0:0:0:
320,192,125667,1,0,0:0:0:0:
192,192,125707,1,0,0:0:0:0:
64,192,125747,1,0,0:0:0:0:
320,192,125788,1,0,0:0:0:0:
192,192,125828,1,0,0:0:0:0:
448,192,125869,1,0,0:0:0:0:
320,192,125909,1,0,0:0:0:0:
64,192,125950,1,0,0:0:0:0:
192,192,125990,1,0,0:0:0:0:
448,192,126031,1,0,0:0:0:0:
320,192,126071,1,0,0:0:0:0:
192,192,126112,1,0,0:0:0:0:
64,192,126152,1,0,0:0:0:0:
320,192,126193,1,0,0:0:0:0:
192,192,126233,1,0,0:0:0:0:
448,192,126273,1,0,0:0:0:0:
320,192,126314,1,0,0:0:0:0:
192,192,126354,1,0,0:0:0:0:
64,192,126395,1,0,0:0:0:0:
448,192,126395,1,0,0:0:0:0:
320,192,126435,1,0,0:0:0:0:
192,192,126476,1,0,0:0:0:0:
64,192,126516,1,0,0:0:0:0:
192,192,126557,1,0,0:0:0:0:
320,192,126597,1,0,0:0:0:0:
448,192,126638,1,0,0:0:0:0:
64,192,126678,1,0,0:0:0:0:
320,192,126720,1,0,0:0:0:0:
192,192,126760,1,0,0:0:0:0:
448,192,126800,1,0,0:0:0:0:
320,192,126841,1,0,0:0:0:0:
192,192,126881,1,0,0:0:0:0:
64,192,126922,1,0,0:0:0:0:
448,192,126962,1,0,0:0:0:0:
320,192,127003,1,0,0:0:0:0:
64,192,127043,1,0,0:0:0:0:
192,192,127084,1,0,0:0:0:0:
320,192,127124,1,0,0:0:0:0:
448,192,127165,1,0,0:0:0:0:
320,192,127205,1,0,0:0:0:0:
192,192,127246,1,0,0:0:0:0:
64,192,127286,1,0,0:0:0:0:
448,192,127326,1,0,0:0:0:0:
320,192,127367,1,0,0:0:0:0:
448,192,127407,1,0,0:0:0:0:
64,192,127448,1,0,0:0:0:0:
192,192,127488,1,0,0:0:0:0:
448,192,127529,1,0,0:0:0:0:
320,192,127569,1,0,0:0:0:0:
192,192,127610,1,0,0:0:0:0:
64,192,127650,1,0,0:0:0:0:
320,192,127691,1,0,0:0:0:0:
448,192,127731,1,0,0:0:0:0:
64,192,127772,1,0,0:0:0:0:
192,192,127812,1,0,0:0:0:0:
320,192,127852,1,0,0:0:0:0:
448,192,127893,1,0,0:0:0:0:
192,192,127933,1,0,0:0:0:0:
320,192,127974,1,0,0:0:0:0:
64,192,128014,1,0,0:0:0:0:
448,192,128055,1,0,0:0:0:0:
320,192,128095,1,0,0:0:0:0:
192,192,128136,1,0,0:0:0:0:
64,192,128176,1,0,0:0:0:0:
448,192,128217,1,0,0:0:0:0:
320,192,128257,1,0,0:0:0:0:
192,192,128298,1,0,0:0:0:0:
64,192,128338,1,0,0:0:0:0:
448,192,128338,1,0,0:0:0:0:
320,192,128378,1,0,0:0:0:0:
192,192,128420,1,0,0:0:0:0:
64,192,128460,1,0,0:0:0:0:
320,192,128501,1,0,0:0:0:0:
192,192,128541,1,0,0:0:0:0:
448,192,128582,1,0,0:0:0:0:
320,192,128622,1,0,0:0:0:0:
64,192,128663,1,0,0:0:0:0:
192,192,128703,1,0,0:0:0:0:
320,192,128744,1,0,0:0:0:0:
448,192,128784,1,0,0:0:0:0:
192,192,128825,1,0,0:0:0:0:
320,192,128865,1,0,0:0:0:0:
64,192,128905,1,0,0:0:0:0:
192,192,128946,1,0,0:0:0:0:
448,192,128986,1,0,0:0:0:0:
320,192,129027,1,0,0:0:0:0:
64,192,129067,1,0,0:0:0:0:
448,192,129108,1,0,0:0:0:0:
192,192,129148,1,0,0:0:0:0:
320,192,129189,1,0,0:0:0:0:
64,192,129229,1,0,0:0:0:0:
192,192,129270,1,0,0:0:0:0:
320,192,129310,1,0,0:0:0:0:
448,192,129351,1,0,0:0:0:0:
64,192,129391,1,0,0:0:0:0:
320,192,129431,1,0,0:0:0:0:
192,192,129472,1,0,0:0:0:0:
64,192,129512,1,0,0:0:0:0:
320,192,129553,1,0,0:0:0:0:
448,192,129593,1,0,0:0:0:0:
64,192,129634,1,0,0:0:0:0:
192,192,129674,1,0,0:0:0:0:
320,192,129715,1,0,0:0:0:0:
448,192,129755,1,0,0:0:0:0:
64,192,129796,1,0,0:0:0:0:
192,192,129836,1,0,0:0:0:0:
448,192,129877,1,0,0:0:0:0:
320,192,129917,1,0,0:0:0:0:
64,192,129957,1,0,0:0:0:0:
448,192,129998,1,0,0:0:0:0:
320,192,130038,1,0,0:0:0:0:
192,192,130080,1,0,0:0:0:0:
64,192,130120,1,0,0:0:0:0:
448,192,130161,1,0,0:0:0:0:
320,192,130201,1,0,0:0:0:0:
192,192,130242,1,0,0:0:0:0:
64,192,130282,1,0,0:0:0:0:
448,192,130282,1,0,0:0:0:0:
320,192,130323,1,0,0:0:0:0:
192,192,130363,1,0,0:0:0:0:
64,192,130404,1,0,0:0:0:0:
192,192,130444,1,0,0:0:0:0:
320,192,130484,1,0,0:0:0:0:
448,192,130525,1,0,0:0:0:0:
192,192,130565,1,0,0:0:0:0:
320,192,130606,1,0,0:0:0:0:
64,192,130646,1,0,0:0:0:0:
192,192,130687,1,0,0:0:0:0:
320,192,130727,1,0,0:0:0:0:
448,192,130768,1,0,0:0:0:0:
64,192,130808,1,0,0:0:0:0:
320,192,130849,1,0,0:0:0:0:
192,192,130889,1,0,0:0:0:0:
448,192,130930,1,0,0:0:0:0:
320,192,130970,1,0,0:0:0:0:
192,192,131010,1,0,0:0:0:0:
64,192,131051,1,0,0:0:0:0:
320,192,131091,1,0,0:0:0:0:
192,192,131132,1,0,0:0:0:0:
448,192,131172,1,0,0:0:0:0:
64,192,131213,1,0,0:0:0:0:
448,192,131253,1,0,0:0:0:0:
320,192,131294,1,0,0:0:0:0:
192,192,131334,1,0,0:0:0:0:
320,192,131375,1,0,0:0:0:0:
448,192,131415,1,0,0:0:0:0:
64,192,131456,1,0,0:0:0:0:
192,192,131496,1,0,0:0:0:0:
320,192,131536,1,0,0:0:0:0:
448,192,131577,1,0,0:0:0:0:
192,192,131617,1,0,0:0:0:0:
320,192,131658,1,0,0:0:0:0:
64,192,131698,1,0,0:0:0:0:
192,192,131740,1,0,0:0:0:0:
448,192,131780,1,0,0:0:0:0:
320,192,131821,1,0,0:0:0:0:
64,192,131861,1,0,0:0:0:0:
192,192,131902,1,0,0:0:0:0:
320,192,131942,1,0,0:0:0:0:
448,192,131983,1,0,0:0:0:0:
192,192,132023,1,0,0:0:0:0:
320,192,132063,1,0,0:0:0:0:
64,192,132104,1,0,0:0:0:0:
192,192,132144,1,0,0:0:0:0:
320,192,132185,1,0,0:0:0:0:
448,192,132225,1,0,0:0:0:0:
64,192,132225,1,0,0:0:0:0:
192,192,132266,1,0,0:0:0:0:
64,192,132306,1,0,0:0:0:0:
320,192,132347,128,0,132711:0:0:0:0:
448,192,132347,128,0,132711:0:0:0:0:
64,192,132711,1,0,0:0:0:0:
192,192,132711,1,0,0:0:0:0:
192,192,132832,128,0,132954:0:0:0:0:
64,192,132832,128,0,132954:0:0:0:0:
64,192,133075,1,0,0:0:0:0:
320,192,133115,1,0,0:0:0:0:
192,192,133156,1,0,0:0:0:0:
448,192,133196,1,0,0:0:0:0:
64,192,133237,1,0,0:0:0:0:
320,192,133277,1,0,0:0:0:0:
192,192,133318,1,0,0:0:0:0:
448,192,133358,1,0,0:0:0:0:
64,192,133400,1,0,0:0:0:0:
320,192,133440,1,0,0:0:0:0:
192,192,133481,1,0,0:0:0:0:
448,192,133521,1,0,0:0:0:0:
64,192,133562,1,0,0:0:0:0:
320,192,133602,1,0,0:0:0:0:
192,192,133642,1,0,0:0:0:0:
448,192,133683,1,0,0:0:0:0:
64,192,133723,1,0,0:0:0:0:
320,192,133764,1,0,0:0:0:0:
192,192,133804,1,0,0:0:0:0:
448,192,133845,1,0,0:0:0:0:
64,192,133885,1,0,0:0:0:0:
320,192,133926,1,0,0:0:0:0:
192,192,133966,1,0,0:0:0:0:
448,192,134007,1,0,0:0:0:0:
64,192,134047,1,0,0:0:0:0:
320,192,134088,1,0,0:0:0:0:
192,192,134128,1,0,0:0:0:0:
448,192,134168,1,0,0:0:0:0:
64,192,134209,1,0,0:0:0:0:
192,192,134249,1,0,0:0:0:0:
320,192,134290,1,0,0:0:0:0:
448,192,134290,1,0,0:0:0:0:
192,192,134533,1,0,0:0:0:0:
64,192,134533,1,0,0:0:0:0:
192,192,134775,1,0,0:0:0:0:
448,192,134775,1,0,0:0:0:0:
320,192,134897,1,0,0:0:0:0:
64,192,135018,1,0,0:0:0:0:
64,192,135141,1,0,0:0:0:0:
192,192,135141,1,0,0:0:0:0:
448,192,135262,1,0,0:0:0:0:
320,192,135383,1,0,0:0:0:0:
192,192,135505,1,0,0:0:0:0:
320,192,135626,1,0,0:0:0:0:
448,192,135626,1,0,0:0:0:0:
64,192,135747,1,0,0:0:0:0:
192,192,135869,1,0,0:0:0:0:
320,192,135869,1,0,0:0:0:0:
448,192,135990,1,0,0:0:0:0:
192,192,136112,1,0,0:0:0:0:
64,192,136112,1,0,0:0:0:0:
192,192,136233,1,0,0:0:0:0:
320,192,136233,1,0,0:0:0:0:
64,192,136354,1,0,0:0:0:0:
448,192,136354,1,0,0:0:0:0:
320,192,136476,1,0,0:0:0:0:
192,192,136597,1,0,0:0:0:0:
64,192,136597,1,0,0:0:0:0:
64,192,136720,1,0,0:0:0:0:
192,192,136841,1,0,0:0:0:0:
448,192,136962,1,0,0:0:0:0:
320,192,137084,1,0,0:0:0:0:
448,192,137084,1,0,0:0:0:0:
448,192,137326,1,0,0:0:0:0:
320,192,137569,1,0,0:0:0:0:
320,192,137691,1,0,0:0:0:0:
320,192,137933,1,0,0:0:0:0:
192,192,138176,1,0,0:0:0:0:
448,192,138176,1,0,0:0:0:0:
320,192,138298,1,0,0:0:0:0:
448,192,138420,1,0,0:0:0:0:
64,192,138420,1,0,0:0:0:0:
320,192,138541,1,0,0:0:0:0:
192,192,138663,1,0,0:0:0:0:
64,192,138663,1,0,0:0:0:0:
448,192,138663,1,0,0:0:0:0:
192,192,138905,1,0,0:0:0:0:
320,192,138905,1,0,0:0:0:0:
320,192,139148,1,0,0:0:0:0:
448,192,139148,128,0,139512:0:0:0:0:
192,192,139512,1,0,0:0:0:0:
320,192,139512,128,0,139877:0:0:0:0:
64,192,139877,128,0,140120:0:0:0:0:
192,192,139877,1,0,0:0:0:0:
448,192,140120,1,0,0:0:0:0:
192,192,140242,1,0,0:0:0:0:
64,192,140363,1,0,0:0:0:0:
448,192,140363,128,0,140849:0:0:0:0:
192,192,140484,1,0,0:0:0:0:
320,192,140606,1,0,0:0:0:0:
192,192,140727,1,0,0:0:0:0:
64,192,140849,128,0,141334:0:0:0:0:
192,192,140970,1,0,0:0:0:0:
320,192,141091,1,0,0:0:0:0:
192,192,141213,1,0,0:0:0:0:
448,192,141334,128,0,141821:0:0:0:0:
192,192,141456,1,0,0:0:0:0:
64,192,141577,1,0,0:0:0:0:
320,192,141698,1,0,0:0:0:0:
64,192,141821,1,0,0:0:0:0:
192,192,141821,1,0,0:0:0:0:
320,192,141942,1,0,0:0:0:0:
192,192,142063,1,0,0:0:0:0:
320,192,142063,1,0,0:0:0:0:
448,192,142063,1,0,0:0:0:0:
64,192,142185,1,0,0:0:0:0:
192,192,142306,1,0,0:0:0:0:
320,192,142428,1,0,0:0:0:0:
448,192,142428,1,0,0:0:0:0:
192,192,142549,1,0,0:0:0:0:
64,192,142549,1,0,0:0:0:0:
448,192,142549,1,0,0:0:0:0:
320,192,142670,1,0,0:0:0:0:
192,192,142792,1,0,0:0:0:0:
64,192,142792,1,0,0:0:0:0:
64,192,142913,1,0,0:0:0:0:
192,192,143035,1,0,0:0:0:0:
320,192,143156,1,0,0:0:0:0:
64,192,143277,1,0,0:0:0:0:
448,192,143277,1,0,0:0:0:0:
320,192,143400,1,0,0:0:0:0:
192,192,143521,1,0,0:0:0:0:
64,192,143521,1,0,0:0:0:0:
448,192,143642,1,0,0:0:0:0:
320,192,143764,1,0,0:0:0:0:
192,192,143764,1,0,0:0:0:0:
320,192,143885,1,0,0:0:0:0:
64,192,144007,1,0,0:0:0:0:
320,192,144007,1,0,0:0:0:0:
448,192,144007,1,0,0:0:0:0:
192,192,144128,1,0,0:0:0:0:
320,192,144249,1,0,0:0:0:0:
192,192,144249,1,0,0:0:0:0:
64,192,144371,1,0,0:0:0:0:
192,192,144492,1,0,0:0:0:0:
320,192,144492,1,0,0:0:0:0:
448,192,144614,1,0,0:0:0:0:
320,192,144735,1,0,0:0:0:0:
192,192,144735,1,0,0:0:0:0:
64,192,144735,1,0,0:0:0:0:
448,192,144856,1,0,0:0:0:0:
320,192,144978,1,0,0:0:0:0:
64,192,144978,1,0,0:0:0:0:
448,192,145100,1,0,0:0:0:0:
320,192,145221,1,0,0:0:0:0:
192,192,145221,1,0,0:0:0:0:
64,192,145343,1,0,0:0:0:0:
192,192,145464,1,0,0:0:0:0:
320,192,145464,1,0,0:0:0:0:
448,192,145464,1,0,0:0:0:0:
64,192,145586,1,0,0:0:0:0:
448,192,145707,128,0,146922:0:0:0:0:
192,192,145707,1,0,0:0:0:0:
320,192,145828,1,0,0:0:0:0:
64,192,145950,1,0,0:0:0:0:
192,192,145950,1,0,0:0:0:0:
320,192,146071,1,0,0:0:0:0:
192,192,146193,1,0,0:0:0:0:
64,192,146314,1,0,0:0:0:0:
192,192,146435,1,0,0:0:0:0:
320,192,146435,1,0,0:0:0:0:
64,192,146557,1,0,0:0:0:0:
320,192,146678,1,0,0:0:0:0:
192,192,146678,1,0,0:0:0:0:
64,192,146800,1,0,0:0:0:0:
192,192,146922,1,0,0:0:0:0:
320,192,147043,1,0,0:0:0:0:
448,192,147043,1,0,0:0:0:0:
192,192,147165,1,0,0:0:0:0:
64,192,147165,1,0,0:0:0:0:
448,192,147286,1,0,0:0:0:0:
320,192,147407,1,0,0:0:0:0:
192,192,147407,1,0,0:0:0:0:
64,192,147529,1,0,0:0:0:0:
192,192,147650,1,0,0:0:0:0:
320,192,147650,1,0,0:0:0:0:
448,192,147650,1,0,0:0:0:0:
64,192,147772,1,0,0:0:0:0:
320,192,147893,1,0,0:0:0:0:
448,192,147893,1,0,0:0:0:0:
192,192,148014,1,0,0:0:0:0:
64,192,148136,1,0,0:0:0:0:
320,192,148136,1,0,0:0:0:0:
192,192,148257,1,0,0:0:0:0:
320,192,148378,1,0,0:0:0:0:
448,192,148378,1,0,0:0:0:0:
64,192,148378,1,0,0:0:0:0:
192,192,148501,1,0,0:0:0:0:
320,192,148622,1,0,0:0:0:0:
64,192,148622,1,0,0:0:0:0:
448,192,148744,1,0,0:0:0:0:
320,192,148865,1,0,0:0:0:0:
192,192,148865,1,0,0:0:0:0:
64,192,148865,1,0,0:0:0:0:
192,192,148986,1,0,0:0:0:0:
320,192,149108,1,0,0:0:0:0:
448,192,149108,1,0,0:0:0:0:
64,192,149229,1,0,0:0:0:0:
64,192,149351,128,0,150201:0:0:0:0:
192,192,149351,128,0,150201:0:0:0:0:
320,192,149351,128,0,150201:0:0:0:0:
448,192,149351,128,0,150201:0:0:0:0:
448,192,150323,1,0,0:0:0:0:
320,192,150383,1,0,0:0:0:0:
192,192,150444,1,0,0:0:0:0:
64,192,150505,1,0,0:0:0:0:
320,192,150565,1,0,0:0:0:0:
448,192,150565,1,0,0:0:0:0:
192,192,150626,1,0,0:0:0:0:
64,192,150626,1,0,0:0:0:0:
320,192,150687,1,0,0:0:0:0:
448,192,150687,1,0,0:0:0:0:
192,192,150747,1,0,0:0:0:0:
64,192,150747,1,0,0:0:0:0:
448,192,150808,1,0,0:0:0:0:
320,192,150849,1,0,0:0:0:0:
192,192,150889,1,0,0:0:0:0:
64,192,150930,1,0,0:0:0:0:
448,192,150970,1,0,0:0:0:0:
320,192,151010,1,0,0:0:0:0:
64,192,151051,1,0,0:0:0:0:
192,192,151091,1,0,0:0:0:0:
448,192,151132,1,0,0:0:0:0:
320,192,151172,1,0,0:0:0:0:
192,192,151213,1,0,0:0:0:0:
64,192,151253,1,0,0:0:0:0:
448,192,151294,1,0,0:0:0:0:
320,192,151334,1,0,0:0:0:0:
192,192,151375,1,0,0:0:0:0:
64,192,151415,1,0,0:0:0:0:
448,192,151456,1,0,0:0:0:0:
320,192,151496,1,0,0:0:0:0:
64,192,151536,1,0,0:0:0:0:
192,192,151577,1,0,0:0:0:0:
448,192,151617,1,0,0:0:0:0:
64,192,151658,1,0,0:0:0:0:
320,192,151698,1,0,0:0:0:0:
192,192,151740,1,0,0:0:0:0:
448,192,151780,1,0,0:0:0:0:
320,192,151821,1,0,0:0:0:0:
192,192,151861,1,0,0:0:0:0:
64,192,151902,1,0,0:0:0:0:
448,192,151942,1,0,0:0:0:0:
192,192,151983,1,0,0:0:0:0:
320,192,152023,1,0,0:0:0:0:
64,192,152063,1,0,0:0:0:0:
192,192,152104,1,0,0:0:0:0:
320,192,152144,1,0,0:0:0:0:
448,192,152185,1,0,0:0:0:0:
64,192,152225,1,0,0:0:0:0:
192,192,152266,1,0,0:0:0:0:
320,192,152306,1,0,0:0:0:0:
448,192,152347,1,0,0:0:0:0:
64,192,152387,1,0,0:0:0:0:
192,192,152428,1,0,0:0:0:0:
64,192,152468,1,0,0:0:0:0:
448,192,152509,1,0,0:0:0:0:
320,192,152549,1,0,0:0:0:0:
64,192,152589,1,0,0:0:0:0:
448,192,152630,1,0,0:0:0:0:
320,192,152670,1,0,0:0:0:0:
192,192,152711,1,0,0:0:0:0:
448,192,152751,1,0,0:0:0:0:
320,192,152792,1,0,0:0:0:0:
192,192,152832,1,0,0:0:0:0:
64,192,152873,1,0,0:0:0:0:
448,192,152873,1,0,0:0:0:0:
320,192,152913,1,0,0:0:0:0:
192,192,152954,1,0,0:0:0:0:
64,192,152994,1,0,0:0:0:0:
448,192,153035,1,0,0:0:0:0:
320,192,153075,1,0,0:0:0:0:
448,192,153115,1,0,0:0:0:0:
64,192,153156,1,0,0:0:0:0:
192,192,153196,1,0,0:0:0:0:
320,192,153237,1,0,0:0:0:0:
448,192,153277,1,0,0:0:0:0:
64,192,153318,1,0,0:0:0:0:
192,192,153358,1,0,0:0:0:0:
448,192,153400,1,0,0:0:0:0:
320,192,153440,1,0,0:0:0:0:
64,192,153481,1,0,0:0:0:0:
192,192,153521,1,0,0:0:0:0:
320,192,153562,1,0,0:0:0:0:
448,192,153602,1,0,0:0:0:0:
64,192,153642,1,0,0:0:0:0:
320,192,153683,1,0,0:0:0:0:
192,192,153723,1,0,0:0:0:0:
448,192,153764,1,0,0:0:0:0:
64,192,153804,1,0,0:0:0:0:
192,192,153845,1,0,0:0:0:0:
320,192,153885,1,0,0:0:0:0:
448,192,153926,1,0,0:0:0:0:
192,192,153966,1,0,0:0:0:0:
320,192,154007,1,0,0:0:0:0:
64,192,154047,1,0,0:0:0:0:
192,192,154088,1,0,0:0:0:0:
320,192,154128,1,0,0:0:0:0:
448,192,154168,1,0,0:0:0:0:
64,192,154209,1,0,0:0:0:0:
192,192,154249,1,0,0:0:0:0:
320,192,154290,1,0,0:0:0:0:
448,192,154330,1,0,0:0:0:0:
64,192,154371,1,0,0:0:0:0:
320,192,154411,1,0,0:0:0:0:
192,192,154452,1,0,0:0:0:0:
448,192,154492,1,0,0:0:0:0:
320,192,154533,1,0,0:0:0:0:
64,192,154573,1,0,0:0:0:0:
192,192,154614,1,0,0:0:0:0:
64,192,154654,1,0,0:0:0:0:
448,192,154694,1,0,0:0:0:0:
320,192,154735,1,0,0:0:0:0:
64,192,154775,1,0,0:0:0:0:
448,192,154816,1,0,0:0:0:0:
192,192,154856,1,0,0:0:0:0:
64,192,154897,1,0,0:0:0:0:
448,192,154937,1,0,0:0:0:0:
320,192,154978,1,0,0:0:0:0:
192,192,155018,1,0,0:0:0:0:
64,192,155060,1,0,0:0:0:0:
320,192,155100,1,0,0:0:0:0:
192,192,155141,1,0,0:0:0:0:
448,192,155181,1,0,0:0:0:0:
320,192,155221,1,0,0:0:0:0:
192,192,155262,1,0,0:0:0:0:
64,192,155302,1,0,0:0:0:0:
448,192,155343,1,0,0:0:0:0:
320,192,155383,1,0,0:0:0:0:
64,192,155424,1,0,0:0:0:0:
448,192,155464,1,0,0:0:0:0:
192,192,155505,1,0,0:0:0:0:
64,192,155545,1,0,0:0:0:0:
320,192,155586,1,0,0:0:0:0:
192,192,155626,1,0,0:0:0:0:
448,192,155667,1,0,0:0:0:0:
320,192,155707,1,0,0:0:0:0:
192,192,155747,1,0,0:0:0:0:
64,192,155788,1,0,0:0:0:0:
320,192,155828,1,0,0:0:0:0:
192,192,155869,1,0,0:0:0:0:
448,192,155909,1,0,0:0:0:0:
320,192,155950,1,0,0:0:0:0:
192,192,155990,1,0,0:0:0:0:
64,192,156031,1,0,0:0:0:0:
320,192,156071,1,0,0:0:0:0:
192,192,156112,1,0,0:0:0:0:
64,192,156152,1,0,0:0:0:0:
448,192,156193,1,0,0:0:0:0:
320,192,156233,1,0,0:0:0:0:
192,192,156273,1,0,0:0:0:0:
448,192,156314,1,0,0:0:0:0:
64,192,156354,1,0,0:0:0:0:
192,192,156395,1,0,0:0:0:0:
320,192,156435,1,0,0:0:0:0:
448,192,156476,1,0,0:0:0:0:
320,192,156516,1,0,0:0:0:0:
192,192,156557,1,0,0:0:0:0:
64,192,156597,1,0,0:0:0:0:
448,192,156638,1,0,0:0:0:0:
320,192,156678,1,0,0:0:0:0:
192,192,156720,1,0,0:0:0:0:
64,192,156760,1,0,0:0:0:0:
448,192,156760,1,0,0:0:0:0:
320,192,156800,1,0,0:0:0:0:
64,192,156841,1,0,0:0:0:0:
448,192,156881,1,0,0:0:0:0:
320,192,156922,1,0,0:0:0:0:
192,192,156962,1,0,0:0:0:0:
448,192,157003,1,0,0:0:0:0:
320,192,157043,1,0,0:0:0:0:
192,192,157084,1,0,0:0:0:0:
448,192,157124,1,0,0:0:0:0:
320,192,157165,1,0,0:0:0:0:
64,192,157205,1,0,0:0:0:0:
448,192,157246,1,0,0:0:0:0:
320,192,157286,1,0,0:0:0:0:
192,192,157326,1,0,0:0:0:0:
64,192,157367,1,0,0:0:0:0:
192,192,157407,1,0,0:0:0:0:
320,192,157448,1,0,0:0:0:0:
64,192,157488,1,0,0:0:0:0:
192,192,157529,1,0,0:0:0:0:
320,192,157569,1,0,0:0:0:0:
64,192,157610,1,0,0:0:0:0:
192,192,157650,1,0,0:0:0:0:
448,192,157691,1,0,0:0:0:0:
64,192,157731,1,0,0:0:0:0:
192,192,157772,1,0,0:0:0:0:
320,192,157812,1,0,0:0:0:0:
448,192,157852,1,0,0:0:0:0:
192,192,157893,1,0,0:0:0:0:
320,192,157933,1,0,0:0:0:0:
64,192,157974,1,0,0:0:0:0:
448,192,158014,1,0,0:0:0:0:
320,192,158055,1,0,0:0:0:0:
64,192,158095,1,0,0:0:0:0:
192,192,158095,1,0,0:0:0:0:
320,192,158217,1,0,0:0:0:0:
448,192,158217,1,0,0:0:0:0:
192,192,158338,1,0,0:0:0:0:
64,192,158338,1,0,0:0:0:0:
320,192,158400,1,0,0:0:0:0:
448,192,158400,1,0,0:0:0:0:
192,192,158460,1,0,0:0:0:0:
64,192,158460,1,0,0:0:0:0:
320,192,158521,1,0,0:0:0:0:
448,192,158521,1,0,0:0:0:0:
64,192,158582,1,0,0:0:0:0:
320,192,158622,1,0,0:0:0:0:
192,192,158663,1,0,0:0:0:0:
64,192,158703,1,0,0:0:0:0:
448,192,158744,1,0,0:0:0:0:
320,192,158784,1,0,0:0:0:0:
64,192,158825,1,0,0:0:0:0:
192,192,158865,1,0,0:0:0:0:
448,192,158905,1,0,0:0:0:0:
320,192,158946,1,0,0:0:0:0:
192,192,158986,1,0,0:0:0:0:
64,192,159027,1,0,0:0:0:0:
448,192,159067,1,0,0:0:0:0:
320,192,159108,1,0,0:0:0:0:
192,192,159148,1,0,0:0:0:0:
64,192,159189,1,0,0:0:0:0:
448,192,159229,1,0,0:0:0:0:
320,192,159270,1,0,0:0:0:0:
64,192,159310,1,0,0:0:0:0:
192,192,159351,1,0,0:0:0:0:
448,192,159391,1,0,0:0:0:0:
64,192,159431,1,0,0:0:0:0:
320,192,159472,1,0,0:0:0:0:
192,192,159512,1,0,0:0:0:0:
448,192,159553,1,0,0:0:0:0:
320,192,159593,1,0,0:0:0:0:
192,192,159634,1,0,0:0:0:0:
64,192,159674,1,0,0:0:0:0:
448,192,159715,1,0,0:0:0:0:
192,192,159755,1,0,0:0:0:0:
320,192,159796,1,0,0:0:0:0:
64,192,159836,1,0,0:0:0:0:
192,192,159877,1,0,0:0:0:0:
320,192,159917,1,0,0:0:0:0:
448,192,159957,1,0,0:0:0:0:
64,192,159998,1,0,0:0:0:0:
192,192,160038,1,0,0:0:0:0:
320,192,160080,1,0,0:0:0:0:
448,192,160120,1,0,0:0:0:0:
64,192,160161,1,0,0:0:0:0:
192,192,160201,1,0,0:0:0:0:
64,192,160242,1,0,0:0:0:0:
448,192,160282,1,0,0:0:0:0:
320,192,160323,1,0,0:0:0:0:
64,192,160363,1,0,0:0:0:0:
448,192,160404,1,0,0:0:0:0:
320,192,160444,1,0,0:0:0:0:
192,192,160484,1,0,0:0:0:0:
448,192,160525,1,0,0:0:0:0:
320,192,160565,1,0,0:0:0:0:
192,192,160606,1,0,0:0:0:0:
448,192,160646,1,0,0:0:0:0:
64,192,160646,1,0,0:0:0:0:
320,192,160687,1,0,0:0:0:0:
192,192,160727,1,0,0:0:0:0:
64,192,160768,1,0,0:0:0:0:
448,192,160808,1,0,0:0:0:0:
320,192,160849,1,0,0:0:0:0:
448,192,160889,1,0,0:0:0:0:
64,192,160930,1,0,0:0:0:0:
192,192,160970,1,0,0:0:0:0:
320,192,161010,1,0,0:0:0:0:
448,192,161051,1,0,0:0:0:0:
64,192,161091,1,0,0:0:0:0:
192,192,161132,1,0,0:0:0:0:
448,192,161172,1,0,0:0:0:0:
320,192,161213,1,0,0:0:0:0:
64,192,161253,1,0,0:0:0:0:
192,192,161294,1,0,0:0:0:0:
320,192,161334,1,0,0:0:0:0:
448,192,161375,1,0,0:0:0:0:
64,192,161415,1,0,0:0:0:0:
320,192,161456,1,0,0:0:0:0:
192,192,161496,1,0,0:0:0:0:
448,192,161536,1,0,0:0:0:0:
64,192,161577,1,0,0:0:0:0:
192,192,161617,1,0,0:0:0:0:
320,192,161658,1,0,0:0:0:0:
448,192,161698,1,0,0:0:0:0:
192,192,161740,1,0,0:0:0:0:
320,192,161780,1,0,0:0:0:0:
64,192,161821,1,0,0:0:0:0:
192,192,161861,1,0,0:0:0:0:
320,192,161902,1,0,0:0:0:0:
448,192,161942,1,0,0:0:0:0:
64,192,161983,1,0,0:0:0:0:
192,192,162023,1,0,0:0:0:0:
320,192,162063,1,0,0:0:0:0:
448,192,162104,1,0,0:0:0:0:
64,192,162144,1,0,0:0:0:0:
320,192,162185,1,0,0:0:0:0:
192,192,162225,1,0,0:0:0:0:
448,192,162266,1,0,0:0:0:0:
320,192,162306,1,0,0:0:0:0:
64,192,162347,1,0,0:0:0:0:
192,192,162387,1,0,0:0:0:0:
64,192,162428,1,0,0:0:0:0:
448,192,162468,1,0,0:0:0:0:
320,192,162509,1,0,0:0:0:0:
192,192,162549,1,0,0:0:0:0:
64,192,162589,1,0,0:0:0:0:
192,192,162630,1,0,0:0:0:0:
320,192,162670,1,0,0:0:0:0:
448,192,162711,1,0,0:0:0:0:
64,192,162751,1,0,0:0:0:0:
192,192,162792,1,0,0:0:0:0:
448,192,162832,1,0,0:0:0:0:
320,192,162873,1,0,0:0:0:0:
192,192,162913,1,0,0:0:0:0:
64,192,162954,1,0,0:0:0:0:
192,192,162994,1,0,0:0:0:0:
320,192,163035,1,0,0:0:0:0:
448,192,163075,1,0,0:0:0:0:
320,192,163115,1,0,0:0:0:0:
192,192,163156,1,0,0:0:0:0:
64,192,163196,1,0,0:0:0:0:
448,192,163237,1,0,0:0:0:0:
320,192,163277,1,0,0:0:0:0:
64,192,163318,1,0,0:0:0:0:
192,192,163358,1,0,0:0:0:0:
320,192,163400,1,0,0:0:0:0:
448,192,163440,1,0,0:0:0:0:
320,192,163481,1,0,0:0:0:0:
192,192,163521,1,0,0:0:0:0:
64,192,163562,1,0,0:0:0:0:
192,192,163602,1,0,0:0:0:0:
320,192,163642,1,0,0:0:0:0:
448,192,163683,1,0,0:0:0:0:
64,192,163723,1,0,0:0:0:0:
192,192,163764,1,0,0:0:0:0:
448,192,163804,1,0,0:0:0:0:
320,192,163845,1,0,0:0:0:0:
192,192,163885,1,0,0:0:0:0:
64,192,163926,1,0,0:0:0:0:
192,192,163966,1,0,0:0:0:0:
320,192,164007,1,0,0:0:0:0:
448,192,164047,1,0,0:0:0:0:
320,192,164088,1,0,0:0:0:0:
192,192,164128,1,0,0:0:0:0:
64,192,164168,1,0,0:0:0:0:
320,192,164209,1,0,0:0:0:0:
192,192,164249,1,0,0:0:0:0:
448,192,164290,1,0,0:0:0:0:
320,192,164330,1,0,0:0:0:0:
192,192,164371,1,0,0:0:0:0:
64,192,164411,1,0,0:0:0:0:
448,192,164411,1,0,0:0:0:0:
320,192,164452,1,0,0:0:0:0:
64,192,164492,1,0,0:0:0:0:
448,192,164533,1,0,0:0:0:0:
320,192,164573,1,0,0:0:0:0:
192,192,164614,1,0,0:0:0:0:
448,192,164654,1,0,0:0:0:0:
320,192,164694,1,0,0:0:0:0:
64,192,164735,1,0,0:0:0:0:
448,192,164775,1,0,0:0:0:0:
320,192,164816,1,0,0:0:0:0:
192,192,164856,1,0,0:0:0:0:
64,192,164897,1,0,0:0:0:0:
192,192,164937,1,0,0:0:0:0:
448,192,164978,1,0,0:0:0:0:
64,192,165018,1,0,0:0:0:0:
192,192,165060,1,0,0:0:0:0:
320,192,165100,1,0,0:0:0:0:
64,192,165141,1,0,0:0:0:0:
192,192,165181,1,0,0:0:0:0:
448,192,165221,1,0,0:0:0:0:
320,192,165262,1,0,0:0:0:0:
192,192,165302,1,0,0:0:0:0:
64,192,165343,1,0,0:0:0:0:
448,192,165383,1,0,0:0:0:0:
320,192,165383,1,0,0:0:0:0:
192,192,165444,1,0,0:0:0:0:
64,192,165444,1,0,0:0:0:0:
320,192,165505,1,0,0:0:0:0:
448,192,165505,1,0,0:0:0:0:
192,192,165565,1,0,0:0:0:0:
64,192,165565,1,0,0:0:0:0:
320,192,165626,1,0,0:0:0:0:
448,192,165626,1,0,0:0:0:0:
320,192,165747,1,0,0:0:0:0:
448,192,165747,1,0,0:0:0:0:
192,192,165869,1,0,0:0:0:0:
64,192,165869,1,0,0:0:0:0:
192,192,165990,1,0,0:0:0:0:
64,192,165990,1,0,0:0:0:0:
320,192,166051,1,0,0:0:0:0:
448,192,166051,1,0,0:0:0:0:
192,192,166112,1,0,0:0:0:0:
64,192,166112,1,0,0:0:0:0:
320,192,166172,1,0,0:0:0:0:
448,192,166172,1,0,0:0:0:0:
192,192,166233,1,0,0:0:0:0:
64,192,166233,1,0,0:0:0:0:
320,192,166294,1,0,0:0:0:0:
448,192,166294,1,0,0:0:0:0:
64,192,166354,1,0,0:0:0:0:
192,192,166354,1,0,0:0:0:0:
448,192,166395,1,0,0:0:0:0:
320,192,166435,1,0,0:0:0:0:
64,192,166476,1,0,0:0:0:0:
192,192,166516,1,0,0:0:0:0:
448,192,166557,1,0,0:0:0:0:
64,192,166597,1,0,0:0:0:0:
320,192,166638,1,0,0:0:0:0:
192,192,166678,1,0,0:0:0:0:
448,192,166720,1,0,0:0:0:0:
64,192,166760,1,0,0:0:0:0:
320,192,166800,1,0,0:0:0:0:
448,192,166841,1,0,0:0:0:0:
64,192,166881,1,0,0:0:0:0:
192,192,166922,1,0,0:0:0:0:
448,192,166962,1,0,0:0:0:0:
320,192,167003,1,0,0:0:0:0:
64,192,167043,1,0,0:0:0:0:
448,192,167084,1,0,0:0:0:0:
192,192,167124,1,0,0:0:0:0:
320,192,167165,1,0,0:0:0:0:
64,192,167205,1,0,0:0:0:0:
448,192,167246,1,0,0:0:0:0:
320,192,167286,1,0,0:0:0:0:
64,192,167326,1,0,0:0:0:0:
448,192,167367,1,0,0:0:0:0:
320,192,167407,1,0,0:0:0:0:
64,192,167448,1,0,0:0:0:0:
192,192,167488,1,0,0:0:0:0:
448,192,167529,1,0,0:0:0:0:
64,192,167569,1,0,0:0:0:0:
320,192,167610,1,0,0:0:0:0:
192,192,167650,1,0,0:0:0:0:
448,192,167691,1,0,0:0:0:0:
64,192,167731,1,0,0:0:0:0:
320,192,167772,1,0,0:0:0:0:
448,192,167812,1,0,0:0:0:0:
64,192,167852,1,0,0:0:0:0:
192,192,167893,1,0,0:0:0:0:
448,192,167933,1,0,0:0:0:0:
320,192,167974,1,0,0:0:0:0:
64,192,168014,1,0,0:0:0:0:
448,192,168055,1,0,0:0:0:0:
320,192,168095,1,0,0:0:0:0:
192,192,168136,1,0,0:0:0:0:
64,192,168176,1,0,0:0:0:0:
448,192,168176,1,0,0:0:0:0:
320,192,168217,1,0,0:0:0:0:
192,192,168257,1,0,0:0:0:0:
64,192,168298,1,0,0:0:0:0:
448,192,168338,1,0,0:0:0:0:
320,192,168378,1,0,0:0:0:0:
64,192,168420,1,0,0:0:0:0:
192,192,168460,1,0,0:0:0:0:
448,192,168501,1,0,0:0:0:0:
64,192,168541,1,0,0:0:0:0:
320,192,168582,1,0,0:0:0:0:
192,192,168622,1,0,0:0:0:0:
448,192,168663,1,0,0:0:0:0:
64,192,168703,1,0,0:0:0:0:
320,192,168744,1,0,0:0:0:0:
448,192,168784,1,0,0:0:0:0:
64,192,168825,1,0,0:0:0:0:
192,192,168865,1,0,0:0:0:0:
448,192,168905,1,0,0:0:0:0:
320,192,168946,1,0,0:0:0:0:
64,192,168986,1,0,0:0:0:0:
448,192,169027,1,0,0:0:0:0:
192,192,169067,1,0,0:0:0:0:
320,192,169108,1,0,0:0:0:0:
64,192,169148,1,0,0:0:0:0:
448,192,169189,1,0,0:0:0:0:
320,192,169229,1,0,0:0:0:0:
64,192,169270,1,0,0:0:0:0:
448,192,169310,1,0,0:0:0:0:
320,192,169351,1,0,0:0:0:0:
64,192,169391,1,0,0:0:0:0:
192,192,169431,1,0,0:0:0:0:
448,192,169472,1,0,0:0:0:0:
64,192,169512,1,0,0:0:0:0:
320,192,169553,1,0,0:0:0:0:
192,192,169593,1,0,0:0:0:0:
448,192,169634,1,0,0:0:0:0:
64,192,169674,1,0,0:0:0:0:
320,192,169715,1,0,0:0:0:0:
448,192,169755,1,0,0:0:0:0:
64,192,169796,1,0,0:0:0:0:
192,192,169836,1,0,0:0:0:0:
448,192,169877,1,0,0:0:0:0:
320,192,169917,1,0,0:0:0:0:
64,192,169957,1,0,0:0:0:0:
448,192,169998,1,0,0:0:0:0:
320,192,170038,1,0,0:0:0:0:
192,192,170080,1,0,0:0:0:0:
64,192,170120,1,0,0:0:0:0:
448,192,170120,1,0,0:0:0:0:
320,192,170161,1,0,0:0:0:0:
192,192,170201,1,0,0:0:0:0:
64,192,170242,1,0,0:0:0:0:
448,192,170282,1,0,0:0:0:0:
320,192,170323,1,0,0:0:0:0:
64,192,170363,1,0,0:0:0:0:
192,192,170404,1,0,0:0:0:0:
448,192,170444,1,0,0:0:0:0:
64,192,170484,1,0,0:0:0:0:
320,192,170525,1,0,0:0:0:0:
192,192,170565,1,0,0:0:0:0:
448,192,170606,1,0,0:0:0:0:
64,192,170646,1,0,0:0:0:0:
320,192,170687,1,0,0:0:0:0:
448,192,170727,1,0,0:0:0:0:
64,192,170768,1,0,0:0:0:0:
192,192,170808,1,0,0:0:0:0:
448,192,170849,1,0,0:0:0:0:
320,192,170889,1,0,0:0:0:0:
64,192,170930,1,0,0:0:0:0:
448,192,170970,1,0,0:0:0:0:
192,192,171010,1,0,0:0:0:0:
320,192,171051,1,0,0:0:0:0:
64,192,171091,1,0,0:0:0:0:
448,192,171132,1,0,0:0:0:0:
320,192,171172,1,0,0:0:0:0:
64,192,171213,1,0,0:0:0:0:
448,192,171253,1,0,0:0:0:0:
320,192,171294,1,0,0:0:0:0:
64,192,171334,1,0,0:0:0:0:
192,192,171375,1,0,0:0:0:0:
448,192,171415,1,0,0:0:0:0:
64,192,171456,1,0,0:0:0:0:
320,192,171496,1,0,0:0:0:0:
192,192,171536,1,0,0:0:0:0:
448,192,171577,1,0,0:0:0:0:
64,192,171617,1,0,0:0:0:0:
320,192,171658,1,0,0:0:0:0:
448,192,171698,1,0,0:0:0:0:
64,192,171740,1,0,0:0:0:0:
192,192,171780,1,0,0:0:0:0:
448,192,171821,1,0,0:0:0:0:
320,192,171861,1,0,0:0:0:0:
64,192,171902,1,0,0:0:0:0:
448,192,171942,1,0,0:0:0:0:
320,192,171983,1,0,0:0:0:0:
192,192,172023,1,0,0:0:0:0:
64,192,172063,1,0,0:0:0:0:
448,192,172063,1,0,0:0:0:0:
320,192,172104,1,0,0:0:0:0:
192,192,172144,1,0,0:0:0:0:
64,192,172185,1,0,0:0:0:0:
448,192,172225,1,0,0:0:0:0:
320,192,172266,1,0,0:0:0:0:
64,192,172306,1,0,0:0:0:0:
192,192,172347,1,0,0:0:0:0:
448,192,172387,1,0,0:0:0:0:
64,192,172428,1,0,0:0:0:0:
320,192,172468,1,0,0:0:0:0:
192,192,172509,1,0,0:0:0:0:
448,192,172549,1,0,0:0:0:0:
64,192,172589,1,0,0:0:0:0:
320,192,172630,1,0,0:0:0:0:
448,192,172670,1,0,0:0:0:0:
64,192,172711,1,0,0:0:0:0:
192,192,172751,1,0,0:0:0:0:
448,192,172792,1,0,0:0:0:0:
320,192,172832,1,0,0:0:0:0:
64,192,172873,1,0,0:0:0:0:
448,192,172913,1,0,0:0:0:0:
320,192,172954,1,0,0:0:0:0:
192,192,172994,1,0,0:0:0:0:
64,192,173035,1,0,0:0:0:0:
320,192,173075,1,0,0:0:0:0:
192,192,173115,1,0,0:0:0:0:
448,192,173156,1,0,0:0:0:0:
320,192,173196,1,0,0:0:0:0:
192,192,173277,1,0,0:0:0:0:
64,192,173277,1,0,0:0:0:0:
320,192,173338,1,0,0:0:0:0:
448,192,173338,1,0,0:0:0:0:
192,192,173400,1,0,0:0:0:0:
64,192,173400,1,0,0:0:0:0:
64,192,173521,1,0,0:0:0:0:
192,192,173521,1,0,0:0:0:0:
320,192,173521,1,0,0:0:0:0:
448,192,173521,1,0,0:0:0:0:
64,192,173642,1,0,0:0:0:0:
192,192,173642,1,0,0:0:0:0:
320,192,173642,1,0,0:0:0:0:
448,192,173642,1,0,0:0:0:0:
64,192,173764,1,0,0:0:0:0:
192,192,173764,1,0,0:0:0:0:
320,192,173764,1,0,0:0:0:0:
448,192,173764,1,0,0:0:0:0:
64,192,173885,1,0,0:0:0:0:
192,192,173885,1,0,0:0:0:0:
320,192,173946,1,0,0:0:0:0:
448,192,173946,1,0,0:0:0:0:
192,192,174007,1,0,0:0:0:0:
64,192,174007,1,0,0:0:0:0:
320,192,174067,1,0,0:0:0:0:
448,192,174067,1,0,0:0:0:0:
64,192,174128,1,0,0:0:0:0:
192,192,174168,1,0,0:0:0:0:
448,192,174209,1,0,0:0:0:0:
320,192,174249,1,0,0:0:0:0:
64,192,174290,1,0,0:0:0:0:
448,192,174330,1,0,0:0:0:0:
192,192,174371,1,0,0:0:0:0:
320,192,174411,1,0,0:0:0:0:
64,192,174452,1,0,0:0:0:0:
448,192,174492,1,0,0:0:0:0:
192,192,174533,1,0,0:0:0:0:
64,192,174573,1,0,0:0:0:0:
448,192,174614,1,0,0:0:0:0:
320,192,174654,1,0,0:0:0:0:
64,192,174694,1,0,0:0:0:0:
192,192,174735,1,0,0:0:0:0:
448,192,174775,1,0,0:0:0:0:
64,192,174816,1,0,0:0:0:0:
320,192,174856,1,0,0:0:0:0:
192,192,174897,1,0,0:0:0:0:
448,192,174937,1,0,0:0:0:0:
64,192,174978,1,0,0:0:0:0:
192,192,175018,1,0,0:0:0:0:
448,192,175060,1,0,0:0:0:0:
64,192,175100,1,0,0:0:0:0:
192,192,175141,1,0,0:0:0:0:
448,192,175181,1,0,0:0:0:0:
320,192,175221,1,0,0:0:0:0:
64,192,175262,1,0,0:0:0:0:
448,192,175302,1,0,0:0:0:0:
192,192,175343,1,0,0:0:0:0:
320,192,175383,1,0,0:0:0:0:
64,192,175424,1,0,0:0:0:0:
448,192,175464,1,0,0:0:0:0:
192,192,175505,1,0,0:0:0:0:
64,192,175545,1,0,0:0:0:0:
448,192,175586,1,0,0:0:0:0:
320,192,175626,1,0,0:0:0:0:
64,192,175667,1,0,0:0:0:0:
192,192,175707,1,0,0:0:0:0:
448,192,175747,1,0,0:0:0:0:
64,192,175788,1,0,0:0:0:0:
192,192,175828,1,0,0:0:0:0:
320,192,175869,1,0,0:0:0:0:
448,192,175909,1,0,0:0:0:0:
64,192,175909,1,0,0:0:0:0:
192,192,175950,1,0,0:0:0:0:
320,192,175990,1,0,0:0:0:0:
448,192,176031,1,0,0:0:0:0:
64,192,176071,1,0,0:0:0:0:
192,192,176112,1,0,0:0:0:0:
448,192,176152,1,0,0:0:0:0:
320,192,176193,1,0,0:0:0:0:
64,192,176233,1,0,0:0:0:0:
448,192,176273,1,0,0:0:0:0:
192,192,176314,1,0,0:0:0:0:
320,192,176354,1,0,0:0:0:0:
64,192,176395,1,0,0:0:0:0:
448,192,176435,1,0,0:0:0:0:
192,192,176476,1,0,0:0:0:0:
64,192,176516,1,0,0:0:0:0:
448,192,176557,1,0,0:0:0:0:
320,192,176597,1,0,0:0:0:0:
64,192,176638,1,0,0:0:0:0:
192,192,176678,1,0,0:0:0:0:
448,192,176720,1,0,0:0:0:0:
64,192,176760,1,0,0:0:0:0:
320,192,176800,1,0,0:0:0:0:
192,192,176841,1,0,0:0:0:0:
448,192,176881,1,0,0:0:0:0:
64,192,176922,1,0,0:0:0:0:
192,192,176962,1,0,0:0:0:0:
448,192,177003,1,0,0:0:0:0:
64,192,177043,1,0,0:0:0:0:
192,192,177084,1,0,0:0:0:0:
448,192,177124,1,0,0:0:0:0:
320,192,177165,1,0,0:0:0:0:
64,192,177205,1,0,0:0:0:0:
448,192,177246,1,0,0:0:0:0:
192,192,177286,1,0,0:0:0:0:
320,192,177326,1,0,0:0:0:0:
64,192,177367,1,0,0:0:0:0:
448,192,177407,1,0,0:0:0:0:
192,192,177448,1,0,0:0:0:0:
64,192,177488,1,0,0:0:0:0:
448,192,177529,1,0,0:0:0:0:
320,192,177569,1,0,0:0:0:0:
64,192,177610,1,0,0:0:0:0:
192,192,177650,1,0,0:0:0:0:
448,192,177691,1,0,0:0:0:0:
64,192,177731,1,0,0:0:0:0:
192,192,177772,1,0,0:0:0:0:
320,192,177812,1,0,0:0:0:0:
448,192,177852,1,0,0:0:0:0:
64,192,177852,1,0,0:0:0:0:
192,192,177893,1,0,0:0:0:0:
320,192,177933,1,0,0:0:0:0:
448,192,177974,1,0,0:0:0:0:
64,192,178014,1,0,0:0:0:0:
192,192,178055,1,0,0:0:0:0:
320,192,178095,1,0,0:0:0:0:
448,192,178136,1,0,0:0:0:0:
320,192,178176,1,0,0:0:0:0:
192,192,178217,1,0,0:0:0:0:
64,192,178257,1,0,0:0:0:0:
448,192,178298,1,0,0:0:0:0:
320,192,178338,1,0,0:0:0:0:
192,192,178378,1,0,0:0:0:0:
64,192,178420,1,0,0:0:0:0:
192,192,178460,1,0,0:0:0:0:
320,192,178501,1,0,0:0:0:0:
448,192,178541,1,0,0:0:0:0:
192,192,178582,1,0,0:0:0:0:
320,192,178622,1,0,0:0:0:0:
64,192,178663,1,0,0:0:0:0:
192,192,178703,1,0,0:0:0:0:
448,192,178744,1,0,0:0:0:0:
320,192,178784,1,0,0:0:0:0:
192,192,178825,1,0,0:0:0:0:
64,192,178865,1,0,0:0:0:0:
448,192,178905,1,0,0:0:0:0:
320,192,178946,1,0,0:0:0:0:
64,192,178986,1,0,0:0:0:0:
192,192,179027,1,0,0:0:0:0:
320,192,179067,1,0,0:0:0:0:
448,192,179108,1,0,0:0:0:0:
320,192,179148,1,0,0:0:0:0:
192,192,179189,1,0,0:0:0:0:
64,192,179229,1,0,0:0:0:0:
448,192,179270,1,0,0:0:0:0:
320,192,179310,1,0,0:0:0:0:
192,192,179351,1,0,0:0:0:0:
64,192,179391,1,0,0:0:0:0:
192,192,179431,1,0,0:0:0:0:
320,192,179472,1,0,0:0:0:0:
448,192,179512,1,0,0:0:0:0:
192,192,179553,1,0,0:0:0:0:
320,192,179593,1,0,0:0:0:0:
64,192,179634,1,0,0:0:0:0:
192,192,179674,1,0,0:0:0:0:
448,192,179715,1,0,0:0:0:0:
320,192,179715,1,0,0:0:0:0:
192,192,179775,1,0,0:0:0:0:
64,192,179775,1,0,0:0:0:0:
320,192,179836,1,0,0:0:0:0:
448,192,179836,1,0,0:0:0:0:
192,192,179897,1,0,0:0:0:0:
64,192,179897,1,0,0:0:0:0:
320,192,179957,1,0,0:0:0:0:
448,192,179957,1,0,0:0:0:0:
320,192,180080,1,0,0:0:0:0:
448,192,180080,1,0,0:0:0:0:
192,192,180201,1,0,0:0:0:0:
64,192,180201,1,0,0:0:0:0:
320,192,180201,1,0,0:0:0:0:
448,192,180201,1,0,0:0:0:0:
192,192,180323,1,0,0:0:0:0:
64,192,180323,1,0,0:0:0:0:
64,192,180444,1,0,0:0:0:0:
192,192,180444,1,0,0:0:0:0:
320,192,180444,1,0,0:0:0:0:
448,192,180444,1,0,0:0:0:0:
448,192,180565,1,0,0:0:0:0:
320,192,180565,1,0,0:0:0:0:
64,192,180687,1,0,0:0:0:0:
192,192,180687,1,0,0:0:0:0:
320,192,180687,1,0,0:0:0:0:
448,192,180687,1,0,0:0:0:0:
64,192,180808,1,0,0:0:0:0:
192,192,180808,1,0,0:0:0:0:
320,192,180869,1,0,0:0:0:0:
448,192,180869,1,0,0:0:0:0:
192,192,180930,1,0,0:0:0:0:
64,192,180930,1,0,0:0:0:0:
320,192,180990,1,0,0:0:0:0:
448,192,180990,1,0,0:0:0:0:
192,192,181051,1,0,0:0:0:0:
64,192,181051,1,0,0:0:0:0:
192,192,181172,1,0,0:0:0:0:
320,192,181172,1,0,0:0:0:0:
320,192,181294,1,0,0:0:0:0:
448,192,181294,1,0,0:0:0:0:
192,192,181415,1,0,0:0:0:0:
448,192,181415,1,0,0:0:0:0:
64,192,181415,1,0,0:0:0:0:
64,192,181536,1,0,0:0:0:0:
448,192,181536,1,0,0:0:0:0:
320,192,181536,1,0,0:0:0:0:
64,192,181658,1,0,0:0:0:0:
192,192,181658,1,0,0:0:0:0:
320,192,181658,1,0,0:0:0:0:
192,192,181780,1,0,0:0:0:0:
448,192,181780,1,0,0:0:0:0:
64,192,181902,1,0,0:0:0:0:
192,192,181902,1,0,0:0:0:0:
