osu file format v14

[General]
AudioFilename: sendan life.mp3
AudioLeadIn: 0
PreviewTime: 53668
Countdown: 0
SampleSet: Normal
StackLeniency: 0.7
Mode: 1
LetterboxInBreaks: 0
WidescreenStoryboard: 0

[Editor]
Bookmarks: 56619,65077
DistanceSpacing: 1.3
BeatDivisor: 2
GridSize: 32
TimelineZoom: 1.4

[Metadata]
Title:Sendan Life
TitleUnicode:センダンライフ
Artist:Remo Prototype (CV:Hanamori Yumiri)
ArtistUnicode:リモ Prototype (CV:花守ゆみり)
Creator:Labyr
Version:Futsuu
Source:ガラスの花と壊す世界
Tags:glass no hana to kowasu sekai vitreous flower & destroy the world vocaloid chukka やしきん yashikin
BeatmapID:970034
BeatmapSetID:313047

[Difficulty]
HPDrainRate:7
CircleSize:5
OverallDifficulty:4
ApproachRate:5
SliderMultiplier:1.2
SliderTickRate:1

[Events]
//Background and Video events
0,0,"background.jpg",0,70
//Break Periods
//Storyboard Layer 0 (Background)
//Storyboard Layer 1 (Fail)
//Storyboard Layer 2 (Pass)
//Storyboard Layer 3 (Foreground)
//Storyboard Sound Samples

[TimingPoints]
7721,264.31718061674,4,1,0,90,1,0
20375,-100,4,1,0,80,0,0
28833,-100,4,1,0,85,0,0
37555,-111.111111111111,4,1,0,80,0,0
45617,-100,4,1,0,85,0,0
54240,-100,4,1,0,90,0,1
71157,-100,4,1,0,90,0,0

[HitObjects]
256,192,7720,5,4,0:0:0:0:
256,192,8646,1,4,0:0:0:0:
256,192,9571,1,8,0:0:0:0:
256,192,9835,1,4,0:0:0:0:
256,192,10760,1,4,0:0:0:0:
256,192,11421,1,8,0:0:0:0:
256,192,11685,1,8,0:0:0:0:
256,192,11950,1,4,0:0:0:0:
256,192,12478,1,8,0:0:0:0:
256,192,12743,1,0,0:0:0:0:
256,192,13007,1,8,0:0:0:0:
256,192,13535,1,0,0:0:0:0:
256,192,14064,1,8,0:0:0:0:
256,192,14328,1,0,0:0:0:0:
256,192,14593,1,8,0:0:0:0:
256,192,14857,1,8,0:0:0:0:
256,192,15121,1,0,0:0:0:0:
256,192,16179,1,4,0:0:0:0:
256,192,16707,1,8,0:0:0:0:
256,192,16972,1,0,0:0:0:0:
256,192,17236,1,8,0:0:0:0:
256,192,17765,1,0,0:0:0:0:
256,192,18293,1,8,0:0:0:0:
256,192,18558,1,0,0:0:0:0:
256,192,18822,1,8,0:0:0:0:
256,192,19086,1,8,0:0:0:0:
256,192,19218,1,8,0:0:0:0:
256,192,19879,1,8,0:0:0:0:
256,192,20408,1,4,0:0:0:0:
256,192,20936,1,8,0:0:0:0:
256,192,21465,1,0,0:0:0:0:
256,192,21729,1,0,0:0:0:0:
256,192,21994,1,8,0:0:0:0:
256,192,22522,1,8,0:0:0:0:
256,192,23051,1,0,0:0:0:0:
256,192,23183,1,0,0:0:0:0:
256,192,23315,1,0,0:0:0:0:
256,192,23580,1,0,0:0:0:0:
256,192,24108,1,8,0:0:0:0:
256,192,24637,1,0,0:0:0:0:
256,192,25165,1,8,0:0:0:0:
256,192,25430,1,8,0:0:0:0:
256,192,25694,1,0,0:0:0:0:
256,192,26223,1,8,0:0:0:0:
256,192,26751,1,0,0:0:0:0:
256,192,27016,1,8,0:0:0:0:
256,192,27280,1,8,0:0:0:0:
256,192,27544,1,0,0:0:0:0:
256,192,27676,1,8,0:0:0:0:
256,192,28337,1,8,0:0:0:0:
256,192,28602,1,8,0:0:0:0:
256,192,28866,1,4,0:0:0:0:
256,192,29395,1,8,0:0:0:0:
256,192,29923,1,0,0:0:0:0:
256,192,30187,1,0,0:0:0:0:
256,192,30452,1,8,0:0:0:0:
256,192,30980,1,0,0:0:0:0:
256,192,31245,1,8,0:0:0:0:
256,192,31509,1,0,0:0:0:0:
256,192,31641,1,0,0:0:0:0:
256,192,31773,1,0,0:0:0:0:
256,192,32038,1,0,0:0:0:0:
256,192,32566,1,8,0:0:0:0:
256,192,33095,1,0,0:0:0:0:
256,192,33624,1,8,0:0:0:0:
256,192,33888,1,8,0:0:0:0:
256,192,34152,1,0,0:0:0:0:
256,192,34417,1,0,0:0:0:0:
256,192,34681,1,8,0:0:0:0:
256,192,35209,1,0,0:0:0:0:
256,192,35474,1,8,0:0:0:0:
256,192,35738,1,0,0:0:0:0:
256,192,36135,1,12,0:0:0:0:
256,192,36795,1,8,0:0:0:0:
256,192,37060,1,8,0:0:0:0:
256,192,37324,1,4,0:0:0:0:
256,192,37720,1,8,0:0:0:0:
256,192,38117,1,0,0:0:0:0:
256,192,38910,1,8,0:0:0:0:
256,192,39174,1,0,0:0:0:0:
256,192,39703,1,8,0:0:0:0:
256,192,40232,1,0,0:0:0:0:
256,192,41024,1,0,0:0:0:0:
256,192,41289,1,0,0:0:0:0:
256,192,41553,1,8,0:0:0:0:
256,192,42082,1,0,0:0:0:0:
256,192,42346,1,8,0:0:0:0:
256,192,43139,1,8,0:0:0:0:
256,192,43403,1,0,0:0:0:0:
256,192,44064,1,8,0:0:0:0:
256,192,44461,1,0,0:0:0:0:
256,192,44725,1,0,0:0:0:0:
256,192,45254,1,8,0:0:0:0:
256,192,45650,1,4,0:0:0:0:
256,192,46311,1,0,0:0:0:0:
256,192,46575,1,0,0:0:0:0:
256,192,46839,1,8,0:0:0:0:
256,192,47104,1,0,0:0:0:0:
256,192,47236,1,8,0:0:0:0:
256,192,47765,1,4,0:0:0:0:
256,192,48425,1,8,0:0:0:0:
256,192,48690,1,8,0:0:0:0:
256,192,48954,1,0,0:0:0:0:
256,192,49218,1,8,0:0:0:0:
256,192,49350,1,0,0:0:0:0:
256,192,49879,1,4,0:0:0:0:
256,192,50540,1,0,0:0:0:0:
256,192,50804,1,0,0:0:0:0:
256,192,51069,1,8,0:0:0:0:
256,192,51333,1,0,0:0:0:0:
256,192,51465,1,8,0:0:0:0:
256,192,52126,1,8,0:0:0:0:
256,192,52390,1,0,0:0:0:0:
256,192,52654,1,8,0:0:0:0:
256,192,52919,1,0,0:0:0:0:
256,192,53051,1,8,0:0:0:0:
256,192,53712,1,8,0:0:0:0:
256,192,54240,1,4,0:0:0:0:
256,192,54769,1,0,0:0:0:0:
256,192,55033,1,8,0:0:0:0:
256,192,55298,1,0,0:0:0:0:
256,192,55826,1,8,0:0:0:0:
256,192,56091,1,8,0:0:0:0:
256,192,56355,1,0,0:0:0:0:
256,192,56619,1,8,0:0:0:0:
256,192,56883,1,0,0:0:0:0:
256,192,57148,1,8,0:0:0:0:
256,192,57280,1,8,0:0:0:0:
256,192,57941,1,0,0:0:0:0:
256,192,58205,1,8,0:0:0:0:
256,192,58469,1,0,0:0:0:0:
256,192,58734,1,0,0:0:0:0:
256,192,58998,1,8,0:0:0:0:
256,192,59527,1,0,0:0:0:0:
256,192,59923,1,0,0:0:0:0:
256,192,60320,1,8,0:0:0:0:
256,192,60848,1,4,0:0:0:0:
256,192,61377,1,12,0:0:0:0:
256,192,61906,1,0,0:0:0:0:
256,192,62170,1,8,0:0:0:0:
256,192,62302,1,8,0:0:0:0:
256,192,62434,1,8,0:0:0:0:
256,192,62698,1,4,0:0:0:0:
256,192,63227,1,8,0:0:0:0:
256,192,63491,1,0,0:0:0:0:
256,192,63756,1,8,0:0:0:0:
256,192,64284,1,0,0:0:0:0:
256,192,64549,1,0,0:0:0:0:
256,192,64813,1,8,0:0:0:0:
256,192,65077,1,0,0:0:0:0:
256,192,65342,1,8,0:0:0:0:
256,192,65606,1,8,0:0:0:0:
256,192,65738,1,8,0:0:0:0:
256,192,66399,1,8,0:0:0:0:
256,192,66663,1,8,0:0:0:0:
256,192,66928,1,4,0:0:0:0:
256,192,67456,1,0,0:0:0:0:
256,192,67720,1,8,0:0:0:0:
256,192,68249,1,8,0:0:0:0:
256,192,68778,1,8,0:0:0:0:
256,192,69042,1,4,0:0:0:0:
256,192,69571,1,8,0:0:0:0:
256,192,69835,1,0,0:0:0:0:
256,192,70099,1,8,0:0:0:0:
256,192,70364,1,0,0:0:0:0:
256,192,70496,1,0,0:0:0:0:
256,192,70628,1,0,0:0:0:0:
256,192,70892,1,8,0:0:0:0:
256,192,71157,1,4,0:0:0:0:
256,192,71685,1,8,0:0:0:0:
256,192,71950,1,0,0:0:0:0:
256,192,72214,1,8,0:0:0:0:
256,192,72743,1,0,0:0:0:0:
256,192,73271,1,8,0:0:0:0:
256,192,73535,1,0,0:0:0:0:
256,192,73800,1,8,0:0:0:0:
256,192,74064,1,8,0:0:0:0:
256,192,74328,1,0,0:0:0:0:
256,192,75386,1,4,0:0:0:0:
256,192,75914,1,8,0:0:0:0:
256,192,76179,1,0,0:0:0:0:
256,192,76443,1,8,0:0:0:0:
256,192,76972,1,0,0:0:0:0:
256,192,77500,1,8,0:0:0:0:
256,192,77765,1,0,0:0:0:0:
256,192,78029,1,8,0:0:0:0:
256,192,78292,1,8,0:0:0:0:
256,192,78425,1,8,0:0:0:0:
256,192,78822,1,0,0:0:0:0:
256,192,79350,1,8,0:0:0:0:
256,192,79615,1,4,0:0:0:0:
