osu file format v14

[General]
AudioFilename: life.mp3
AudioLeadIn: 0
PreviewTime: 53580
Countdown: 0
SampleSet: Normal
StackLeniency: 0.7
Mode: 1
LetterboxInBreaks: 0
WidescreenStoryboard: 1

[Editor]
Bookmarks: 23577,32036,36132,36136,36265,36793,53053,55167,55299,63625,63758,79084
DistanceSpacing: 1.5
BeatDivisor: 2
GridSize: 4
TimelineZoom: 0.2999998

[Metadata]
Title:Sendan Life
TitleUnicode:センダンライフ
Artist:Remo Prototype (CV: Hanamori Yumiri)
ArtistUnicode:リモ Prototype (CV: 花守ゆみり)
Creator:nyanmi-1828
Version:kai's Beginner
Source:ガラスの花と壊す世界
Tags:vocaloid Chukka やしきん yashikin Glass no Hana to Kowasu Sekai GARAKOWA Restore the World Vitreous Flower Destroy the World KitajimaYN Yuni kai53247 anime movie film japanese KTYN rimo D.backup
BeatmapID:2380374
BeatmapSetID:449950

[Difficulty]
HPDrainRate:8
CircleSize:2
OverallDifficulty:2
ApproachRate:5
SliderMultiplier:1.2
SliderTickRate:1

[Events]
//Background and Video events
0,0,"BG.jpg",0,0
//Break Periods
//Storyboard Layer 0 (Background)
//Storyboard Layer 1 (Fail)
//Storyboard Layer 2 (Pass)
//Storyboard Layer 3 (Foreground)
//Storyboard Layer 4 (Overlay)
//Storyboard Sound Samples

[TimingPoints]
322,264.31718061674,4,1,0,40,1,0
322,-111.111111111111,4,1,0,40,0,0
20410,-111.111111111111,4,1,0,73,0,0
37326,-111.111111111111,4,1,0,60,0,0
45652,-111.111111111111,4,1,0,73,0,0
54242,-111.111111111111,4,1,0,83,0,1
71159,-111.111111111111,4,1,0,78,0,0

[HitObjects]
256,192,7722,5,0,0:0:0:0:
256,192,9837,1,0,0:0:0:0:
256,192,11951,1,4,0:0:0:0:
256,192,13009,1,0,0:0:0:0:
256,192,14066,1,8,0:0:0:0:
256,192,16181,1,8,0:0:0:0:
256,192,17238,1,8,0:0:0:0:
256,192,18295,1,0,0:0:0:0:
256,192,19220,1,12,0:0:0:0:
256,192,20410,1,4,0:0:0:0:
256,192,22524,1,0,0:0:0:0:
256,192,23581,1,0,0:0:0:0:
256,192,24639,1,8,0:0:0:0:
256,192,26753,1,8,0:0:0:0:
256,192,27810,1,8,0:0:0:0:
256,192,28868,1,4,0:0:0:0:
256,192,30982,1,0,0:0:0:0:
256,192,32040,1,8,0:0:0:0:
256,192,33097,1,8,0:0:0:0:
116,72,35211,1,8,0:0:0:0:
256,192,36136,1,0,0:0:0:0:
256,192,37326,1,4,0:0:0:0:
256,192,39440,1,8,0:0:0:0:
256,192,41555,1,0,0:0:0:0:
256,192,42612,1,0,0:0:0:0:
256,192,43670,1,8,0:0:0:0:
256,192,45652,1,4,0:0:0:0:
256,192,47766,1,12,0:0:0:0:
0,320,48956,1,4,0:0:0:0:
256,192,49881,1,0,0:0:0:0:
256,192,52128,1,8,0:0:0:0:
256,192,53053,1,4,0:0:0:0:
256,192,54242,1,4,0:0:0:0:
256,192,55167,1,8,0:0:0:0:
256,192,56357,1,0,0:0:0:0:
256,192,57282,1,8,0:0:0:0:
256,192,58471,1,8,0:0:0:0:
256,192,59529,1,8,0:0:0:0:
64,80,60586,1,0,0:0:0:0:
256,192,61511,1,12,0:0:0:0:
256,192,62700,1,4,0:0:0:0:
256,192,63625,1,8,0:0:0:0:
256,192,64815,1,0,0:0:0:0:
256,192,65740,1,8,0:0:0:0:
256,192,66929,1,8,0:0:0:0:
256,192,67987,1,8,0:0:0:0:
256,192,69044,1,12,0:0:0:0:
256,192,70101,1,0,0:0:0:0:
256,192,71159,1,4,0:0:0:0:
256,192,72216,1,8,0:0:0:0:
256,192,73273,1,0,0:0:0:0:
256,192,75388,1,0,0:0:0:0:
256,192,76445,1,8,0:0:0:0:
256,192,77502,1,0,0:0:0:0:
256,192,78427,1,8,0:0:0:0:
256,192,79617,1,4,0:0:0:0:
