osu file format v14

[General]
AudioFilename: life.mp3
AudioLeadIn: 0
PreviewTime: 53580
Countdown: 0
SampleSet: Normal
StackLeniency: 0.7
Mode: 1
LetterboxInBreaks: 0
WidescreenStoryboard: 0

[Editor]
DistanceSpacing: 2
BeatDivisor: 4
GridSize: 4
TimelineZoom: 2.3

[Metadata]
Title:Sendan Life
TitleUnicode:センダンライフ
Artist:Remo Prototype (CV: Hanamori Yumiri)
ArtistUnicode:リモ Prototype (CV: 花守ゆみり)
Creator:nyanmi-1828
Version:Yuni's Muzukashii
Source:ガラスの花と壊す世界
Tags:vocaloid Chukka やしきん yashikin Glass no Hana to Kowasu Sekai GARAKOWA Restore the World Vitreous Flower Destroy the World KitajimaYN Yuni kai53247 anime movie film japanese KTYN rimo D.backup
BeatmapID:1000665
BeatmapSetID:449950

[Difficulty]
HPDrainRate:5
CircleSize:2
OverallDifficulty:5
ApproachRate:5
SliderMultiplier:1.4
SliderTickRate:1

[Events]
//Background and Video events
0,0,"BG.jpg",0,0
//Break Periods
//Storyboard Layer 0 (Background)
//Storyboard Layer 1 (Fail)
//Storyboard Layer 2 (Pass)
//Storyboard Layer 3 (Foreground)
//Storyboard Layer 4 (Overlay)
//Storyboard Sound Samples

[TimingPoints]
322,264.31718061674,4,1,0,40,1,0
322,-200,4,1,0,40,0,0
7590,-100,4,1,0,80,0,0
20410,-100,4,1,0,73,0,0
37326,-111.111111111111,4,1,0,60,0,0
45652,-100,4,1,0,75,0,0
54242,-100,4,1,0,90,0,1
71159,-100,4,1,0,80,0,0

[HitObjects]
284,172,7723,5,0,0:0:0:0:
284,172,7987,1,0,0:0:0:0:
284,172,8251,1,0,0:0:0:0:
204,164,8383,1,0,0:0:0:0:
236,152,8648,1,0,0:0:0:0:
200,144,8912,1,0,0:0:0:0:
208,176,9176,1,0,0:0:0:0:
192,200,9441,1,0,0:0:0:0:
168,124,9573,1,12,0:0:0:0:
196,164,9837,1,0,0:0:0:0:
200,168,10102,1,0,0:0:0:0:
160,164,10366,1,0,0:0:0:0:
160,164,10498,1,0,0:0:0:0:
200,172,10762,1,0,0:0:0:0:
200,168,11027,1,0,0:0:0:0:
200,172,11291,1,0,0:0:0:0:
200,172,11423,1,0,0:0:0:0:
200,172,11687,1,12,0:0:0:0:
200,168,11952,1,0,0:0:0:0:
200,172,12216,1,2,0:0:0:0:
200,172,12348,1,2,0:0:0:0:
200,176,12480,1,0,0:0:0:0:
236,176,12745,1,2,0:0:0:0:
208,188,13009,1,0,0:0:0:0:
208,192,13273,1,2,0:0:0:0:
228,128,13405,1,2,0:0:0:0:
200,144,13538,1,0,0:0:0:0:
200,160,14066,1,0,0:0:0:0:
216,144,14331,1,2,0:0:0:0:
188,160,14463,1,2,0:0:0:0:
204,144,14595,1,0,0:0:0:0:
216,180,14859,1,2,0:0:0:0:
216,180,15124,1,0,0:0:0:0:
196,188,15388,1,0,0:0:0:0:
192,160,15520,1,2,0:0:0:0:
192,160,15652,1,0,0:0:0:0:
196,168,16181,1,0,0:0:0:0:
196,168,16445,1,2,0:0:0:0:
200,172,16577,1,2,0:0:0:0:
200,172,16709,1,0,0:0:0:0:
200,172,16974,1,2,0:0:0:0:
200,176,17238,1,0,0:0:0:0:
200,172,17502,1,2,0:0:0:0:
200,180,17635,1,2,0:0:0:0:
200,184,17767,1,0,0:0:0:0:
128,136,18295,1,0,0:0:0:0:
212,188,18560,1,2,0:0:0:0:
236,176,18692,1,2,0:0:0:0:
216,200,18824,1,0,0:0:0:0:
220,204,19088,1,0,0:0:0:0:
252,144,19220,1,12,0:0:0:0:
220,208,19485,1,0,0:0:0:0:
224,148,19617,1,2,0:0:0:0:
216,164,19749,1,2,0:0:0:0:
180,184,19881,1,0,0:0:0:0:
191,221,19947,1,0,0:0:0:0:
210,161,20013,1,0,0:0:0:0:
180,92,20146,1,2,0:0:0:0:
176,168,20410,5,4,0:0:0:0:
184,160,20674,1,2,0:0:0:0:
176,148,20939,1,0,0:0:0:0:
184,160,21071,1,0,0:0:0:0:
176,168,21203,1,2,0:0:0:0:
180,176,21467,1,0,0:0:0:0:
180,176,21731,1,2,0:0:0:0:
180,176,21864,1,0,0:0:0:0:
180,180,22260,1,2,0:0:0:0:
180,180,22524,1,0,0:0:0:0:
180,180,22789,1,2,0:0:0:0:
192,200,23053,1,2,0:0:0:0:
204,160,23185,1,0,0:0:0:0:
204,160,23317,1,2,0:0:0:0:
208,176,23582,1,0,0:0:0:0:
208,176,23846,1,2,0:0:0:0:
208,176,23978,1,0,0:0:0:0:
204,188,24375,1,2,0:0:0:0:
208,200,24639,1,0,0:0:0:0:
184,176,24903,1,2,0:0:0:0:
196,92,25168,1,0,0:0:0:0:
184,180,25300,1,0,0:0:0:0:
184,180,25432,1,2,0:0:0:0:
196,188,25696,1,0,0:0:0:0:
196,192,25961,1,2,0:0:0:0:
196,192,26093,1,0,0:0:0:0:
196,120,26489,1,2,0:0:0:0:
204,120,26753,1,0,0:0:0:0:
196,192,27018,1,2,0:0:0:0:
172,128,27150,1,0,0:0:0:0:
200,168,27282,1,2,0:0:0:0:
192,196,27546,1,2,0:0:0:0:
168,120,27811,1,0,0:0:0:0:
182,127,28075,1,0,0:0:0:0:
172,128,28339,1,12,0:0:0:0:
172,128,28603,1,12,0:0:0:0:
172,128,28868,1,4,0:0:0:0:
148,88,29396,1,0,0:0:0:0:
176,168,29661,1,2,0:0:0:0:
174,81,29793,1,2,0:0:0:0:
146,82,29925,1,0,0:0:0:0:
180,176,30190,1,2,0:0:0:0:
152,99,30321,1,0,0:0:0:0:
200,200,30586,1,2,0:0:0:0:
180,180,30851,1,0,0:0:0:0:
201,134,31247,1,2,0:0:0:0:
155,234,31511,1,2,0:0:0:0:
162,92,31643,1,0,0:0:0:0:
156,42,31775,1,2,0:0:0:0:
208,176,32040,1,0,0:0:0:0:
208,176,32304,1,2,0:0:0:0:
208,176,32436,1,0,0:0:0:0:
123,158,32700,1,0,0:0:0:0:
204,188,32833,1,2,0:0:0:0:
204,188,32965,1,2,0:0:0:0:
162,113,33097,1,0,0:0:0:0:
196,92,33626,1,0,0:0:0:0:
184,180,33890,1,2,0:0:0:0:
196,188,34154,1,0,0:0:0:0:
196,192,34419,1,2,0:0:0:0:
196,192,34551,1,0,0:0:0:0:
137,117,34815,1,0,0:0:0:0:
165,138,34947,1,2,0:0:0:0:
164,103,35079,1,2,0:0:0:0:
196,192,35476,1,2,0:0:0:0:
141,87,35740,1,0,0:0:0:0:
164,103,35872,1,2,0:0:0:0:
168,172,36137,1,2,0:0:0:0:
178,62,36401,1,0,0:0:0:0:
208,168,36665,1,2,0:0:0:0:
168,104,36798,1,2,0:0:0:0:
162,104,37062,1,0,0:0:0:0:
180,144,37326,1,4,0:0:0:0:
200,176,38119,1,0,0:0:0:0:
244,184,38912,1,2,0:0:0:0:
52,200,39176,1,2,0:0:0:0:
252,196,39441,1,0,0:0:0:0:
208,148,40234,1,0,0:0:0:0:
224,160,41027,1,2,0:0:0:0:
224,160,41291,1,0,0:0:0:0:
224,160,41555,1,0,0:0:0:0:
224,160,41952,1,2,0:0:0:0:
188,128,42348,1,0,0:0:0:0:
232,172,42613,1,0,0:0:0:0:
196,176,43009,1,2,0:0:0:0:
188,128,43405,1,0,0:0:0:0:
192,76,43670,1,2,0:0:0:0:
256,176,44066,1,2,0:0:0:0:
216,184,44463,1,0,0:0:0:0:
216,188,44727,1,2,0:0:0:0:
216,188,44991,1,0,0:0:0:0:
216,184,45256,1,2,0:0:0:0:
216,192,45520,1,2,0:0:0:0:
216,192,45652,1,4,0:0:0:0:
216,192,45916,1,0,0:0:0:0:
216,200,46049,1,2,0:0:0:0:
200,144,46313,1,0,0:0:0:0:
200,144,46445,1,0,0:0:0:0:
204,148,46577,1,2,0:0:0:0:
208,148,46842,1,0,0:0:0:0:
208,148,47106,1,2,0:0:0:0:
208,160,47238,1,0,0:0:0:0:
220,108,47502,1,2,0:0:0:0:
236,160,47767,1,4,0:0:0:0:
184,176,48031,1,0,0:0:0:0:
184,184,48163,1,2,0:0:0:0:
188,184,48427,1,0,0:0:0:0:
188,184,48560,1,0,0:0:0:0:
188,184,48692,1,2,0:0:0:0:
192,192,48956,1,12,0:0:0:0:
192,196,49220,1,2,0:0:0:0:
192,204,49353,1,0,0:0:0:0:
196,208,49617,1,0,0:0:0:0:
216,80,49881,1,12,0:0:0:0:
156,148,50278,1,0,0:0:0:0:
200,108,50542,1,2,0:0:0:0:
196,188,50806,1,2,0:0:0:0:
196,188,50939,1,2,0:0:0:0:
196,188,51071,1,0,0:0:0:0:
196,188,51335,1,2,0:0:0:0:
196,188,51467,1,0,0:0:0:0:
196,188,51731,1,0,0:0:0:0:
196,188,51864,1,2,0:0:0:0:
196,188,52128,1,4,0:0:0:0:
196,188,52392,1,2,0:0:0:0:
196,188,52657,1,2,0:0:0:0:
196,188,52921,1,2,0:0:0:0:
176,160,53053,1,4,0:0:0:0:
176,108,53449,1,2,0:0:0:0:
192,116,53581,1,0,0:0:0:0:
192,116,53647,1,0,0:0:0:0:
192,116,53714,1,0,0:0:0:0:
192,116,53846,1,0,0:0:0:0:
200,208,53978,1,2,0:0:0:0:
208,200,54242,1,4,0:0:0:0:
208,200,54507,1,2,0:0:0:0:
208,208,54771,1,0,0:0:0:0:
160,196,54903,1,0,0:0:0:0:
212,212,55035,1,2,0:0:0:0:
188,64,55167,1,0,0:0:0:0:
180,92,55432,1,0,0:0:0:0:
212,212,55564,1,2,0:0:0:0:
216,224,55828,1,0,0:0:0:0:
172,96,55960,1,0,0:0:0:0:
216,228,56093,1,2,0:0:0:0:
192,112,56357,1,0,0:0:0:0:
196,120,56621,1,2,0:0:0:0:
156,104,56885,1,0,0:0:0:0:
168,148,57018,1,0,0:0:0:0:
156,108,57150,1,2,0:0:0:0:
176,96,57282,1,2,0:0:0:0:
176,72,57546,1,0,0:0:0:0:
184,88,57678,1,2,0:0:0:0:
228,220,57943,1,0,0:0:0:0:
176,80,58075,1,0,0:0:0:0:
232,224,58207,1,2,0:0:0:0:
224,128,58472,1,0,0:0:0:0:
228,148,59000,1,0,0:0:0:0:
280,200,59264,1,2,0:0:0:0:
164,136,59529,1,0,0:0:0:0:
168,164,59793,1,2,0:0:0:0:
192,232,59925,1,0,0:0:0:0:
176,200,60190,1,0,0:0:0:0:
188,128,60322,1,2,0:0:0:0:
160,128,60586,1,0,0:0:0:0:
200,148,60850,1,2,0:0:0:0:
173,72,61114,1,0,0:0:0:0:
188,112,61379,1,2,0:0:0:0:
188,112,61511,1,4,0:0:0:0:
200,148,61908,1,2,0:0:0:0:
200,156,62172,1,0,0:0:0:0:
168,112,62304,1,0,0:0:0:0:
260,144,62436,1,2,0:0:0:0:
208,200,62700,1,4,0:0:0:0:
208,200,62965,1,2,0:0:0:0:
208,208,63229,1,0,0:0:0:0:
160,196,63361,1,0,0:0:0:0:
212,212,63493,1,2,0:0:0:0:
176,48,63625,1,0,0:0:0:0:
212,212,63890,1,0,0:0:0:0:
212,212,64022,1,2,0:0:0:0:
264,128,64154,1,0,0:0:0:0:
216,224,64286,1,0,0:0:0:0:
216,228,64551,1,2,0:0:0:0:
192,112,64815,1,0,0:0:0:0:
196,120,65079,1,2,0:0:0:0:
156,104,65343,1,0,0:0:0:0:
176,92,65476,1,0,0:0:0:0:
156,108,65608,1,2,0:0:0:0:
184,88,65740,1,2,0:0:0:0:
176,92,66004,1,2,0:0:0:0:
184,88,66136,1,2,0:0:0:0:
176,92,66269,1,0,0:0:0:0:
228,220,66401,1,0,0:0:0:0:
232,224,66665,1,2,0:0:0:0:
168,112,66929,1,4,0:0:0:0:
168,136,67458,1,0,0:0:0:0:
224,184,67723,1,2,0:0:0:0:
172,160,67987,1,0,0:0:0:0:
207,102,68119,1,0,0:0:0:0:
198,112,68251,1,2,0:0:0:0:
198,112,68515,1,0,0:0:0:0:
152,172,68780,1,2,0:0:0:0:
224,184,69044,1,12,0:0:0:0:
180,184,69309,1,2,0:0:0:0:
192,176,69573,1,2,0:0:0:0:
192,176,69705,1,0,0:0:0:0:
200,176,69837,1,2,0:0:0:0:
184,192,70102,1,2,0:0:0:0:
204,224,70234,1,0,0:0:0:0:
184,196,70366,1,0,0:0:0:0:
200,160,70498,1,0,0:0:0:0:
200,112,70630,1,2,0:0:0:0:
180,152,71159,1,4,0:0:0:0:
200,172,71423,1,2,0:0:0:0:
200,172,71555,1,2,0:0:0:0:
200,176,71687,1,0,0:0:0:0:
176,204,71952,1,2,0:0:0:0:
208,188,72216,1,0,0:0:0:0:
232,188,72348,1,0,0:0:0:0:
208,192,72480,1,2,0:0:0:0:
200,144,72613,1,2,0:0:0:0:
200,144,72745,1,0,0:0:0:0:
200,160,73273,1,0,0:0:0:0:
304,128,73405,1,0,0:0:0:0:
216,144,73538,1,2,0:0:0:0:
224,172,73670,1,2,0:0:0:0:
204,144,73802,1,0,0:0:0:0:
216,180,74066,1,2,0:0:0:0:
224,168,74331,1,2,0:0:0:0:
160,148,74463,1,0,0:0:0:0:
192,160,74595,1,2,0:0:0:0:
192,160,74727,1,2,0:0:0:0:
192,160,74859,1,0,0:0:0:0:
196,168,75388,1,0,0:0:0:0:
264,144,75520,1,0,0:0:0:0:
196,168,75652,1,2,0:0:0:0:
200,172,75784,1,2,0:0:0:0:
200,172,75916,1,0,0:0:0:0:
264,144,76049,1,0,0:0:0:0:
200,172,76181,1,2,0:0:0:0:
200,176,76445,1,0,0:0:0:0:
184,116,76577,1,0,0:0:0:0:
200,172,76709,1,2,0:0:0:0:
200,180,76842,1,2,0:0:0:0:
200,184,76974,1,0,0:0:0:0:
236,124,77502,1,0,0:0:0:0:
264,144,77635,1,0,0:0:0:0:
212,188,77767,1,2,0:0:0:0:
216,196,77899,1,2,0:0:0:0:
216,200,78031,1,0,0:0:0:0:
164,172,78163,1,0,0:0:0:0:
164,172,78295,1,0,0:0:0:0:
220,208,78427,1,2,0:0:0:0:
220,208,78692,1,0,0:0:0:0:
201,199,78824,1,2,0:0:0:0:
188,208,79088,1,0,0:0:0:0:
154,87,79154,1,0,0:0:0:0:
192,144,79220,1,0,0:0:0:0:
192,224,79353,1,2,0:0:0:0:
184,160,79485,1,0,0:0:0:0:
200,152,79617,1,12,0:0:0:0:
