osu file format v14

[General]
AudioFilename: life.mp3
AudioLeadIn: 0
PreviewTime: 53580
Countdown: 0
SampleSet: Normal
StackLeniency: 0.7
Mode: 1
LetterboxInBreaks: 0
WidescreenStoryboard: 0

[Editor]
DistanceSpacing: 1.5
BeatDivisor: 4
GridSize: 4
TimelineZoom: 2.2

[Metadata]
Title:Sendan Life
TitleUnicode:センダンライフ
Artist:Remo Prototype (CV: Hanamori Yumiri)
ArtistUnicode:リモ Prototype (CV: 花守ゆみり)
Creator:nyanmi-1828
Version:Yuni's Inner Oni
Source:ガラスの花と壊す世界
Tags:vocaloid Chukka やしきん yashikin Glass no Hana to Kowasu Sekai GARAKOWA Restore the World Vitreous Flower Destroy the World KitajimaYN Yuni kai53247 anime movie film japanese KTYN rimo D.backup
BeatmapID:1000664
BeatmapSetID:449950

[Difficulty]
HPDrainRate:5.7
CircleSize:2
OverallDifficulty:5.7
ApproachRate:5
SliderMultiplier:1.4
SliderTickRate:1

[Events]
//Background and Video events
0,0,"BG.jpg",0,0
//Break Periods
//Storyboard Layer 0 (Background)
//Storyboard Layer 1 (Fail)
//Storyboard Layer 2 (Pass)
//Storyboard Layer 3 (Foreground)
//Storyboard Layer 4 (Overlay)
//Storyboard Sound Samples

[TimingPoints]
322,264.31718061674,4,1,0,40,1,0
322,-250,4,1,0,40,0,0
7590,-100,4,1,0,80,0,0
20410,-100,4,1,0,73,0,0
36797,-102.040816326531,4,1,0,80,0,0
36929,-104.166666666667,4,1,0,85,0,0
37062,-106.382978723404,4,1,0,60,0,0
37326,-108.695652173913,4,1,0,73,0,0
45652,-100,4,1,0,73,0,0
54242,-100,4,1,0,83,0,1
71159,-100,4,1,0,78,0,0

[HitObjects]
176,136,7722,5,4,0:0:0:0:
176,136,7987,1,4,0:0:0:0:
176,136,8251,1,4,0:0:0:0:
176,136,8383,1,4,0:0:0:0:
176,136,8647,1,4,0:0:0:0:
176,136,8912,1,4,0:0:0:0:
176,136,9176,1,4,0:0:0:0:
184,128,9440,1,4,0:0:0:0:
184,128,9573,1,12,0:0:0:0:
184,128,9837,1,4,0:0:0:0:
184,128,10101,1,4,0:0:0:0:
184,128,10366,1,4,0:0:0:0:
184,128,10498,1,4,0:0:0:0:
184,128,10762,1,4,0:0:0:0:
184,128,11026,1,4,0:0:0:0:
184,128,11291,1,4,0:0:0:0:
184,128,11423,1,4,0:0:0:0:
195,122,11555,1,0,0:0:0:0:
195,122,11599,1,0,0:0:0:0:
195,122,11643,1,0,0:0:0:0:
195,122,11687,1,2,0:0:0:0:
160,120,11951,1,4,0:0:0:0:
160,120,12084,1,0,0:0:0:0:
160,120,12150,1,0,0:0:0:0:
160,120,12216,1,2,0:0:0:0:
160,120,12348,1,2,0:0:0:0:
152,56,12480,1,0,0:0:0:0:
152,56,12546,1,0,0:0:0:0:
148,72,12612,1,2,0:0:0:0:
152,64,12678,1,2,0:0:0:0:
156,64,12744,1,0,0:0:0:0:
144,100,12877,1,0,0:0:0:0:
140,52,13009,1,2,0:0:0:0:
140,52,13141,1,0,0:0:0:0:
140,52,13207,1,0,0:0:0:0:
140,52,13273,1,2,0:0:0:0:
144,100,13405,1,2,0:0:0:0:
144,100,13537,1,0,0:0:0:0:
144,100,13603,1,0,0:0:0:0:
166,148,13670,1,0,0:0:0:0:
158,90,13736,1,0,0:0:0:0:
156,95,13802,1,2,0:0:0:0:
144,100,13934,1,2,0:0:0:0:
152,92,14066,1,0,0:0:0:0:
152,92,14198,1,0,0:0:0:0:
152,92,14264,1,0,0:0:0:0:
152,92,14330,1,2,0:0:0:0:
152,92,14462,1,2,0:0:0:0:
152,92,14595,1,0,0:0:0:0:
152,92,14661,1,0,0:0:0:0:
152,92,14727,1,2,0:0:0:0:
152,92,14793,1,2,0:0:0:0:
152,92,14859,1,0,0:0:0:0:
152,92,14991,1,0,0:0:0:0:
152,92,15123,1,2,0:0:0:0:
152,92,15255,1,0,0:0:0:0:
152,92,15321,1,0,0:0:0:0:
152,92,15388,1,2,0:0:0:0:
152,92,15520,1,2,0:0:0:0:
152,92,15652,1,0,0:0:0:0:
160,112,15718,1,0,0:0:0:0:
160,112,15784,1,2,0:0:0:0:
160,112,15850,1,0,0:0:0:0:
160,112,15916,1,0,0:0:0:0:
160,112,16048,1,2,0:0:0:0:
160,112,16181,1,0,0:0:0:0:
160,112,16313,1,0,0:0:0:0:
160,112,16379,1,0,0:0:0:0:
160,112,16445,1,2,0:0:0:0:
160,112,16577,1,2,0:0:0:0:
140,72,16709,1,0,0:0:0:0:
140,72,16775,1,0,0:0:0:0:
140,72,16841,1,2,0:0:0:0:
140,72,16907,1,2,0:0:0:0:
140,72,16973,1,0,0:0:0:0:
160,76,17106,1,0,0:0:0:0:
140,72,17238,1,2,0:0:0:0:
140,72,17370,1,0,0:0:0:0:
140,72,17436,1,0,0:0:0:0:
140,72,17502,1,2,0:0:0:0:
140,72,17568,1,0,0:0:0:0:
140,72,17634,1,2,0:0:0:0:
152,92,17766,1,0,0:0:0:0:
152,92,17899,1,2,0:0:0:0:
152,92,17965,1,2,0:0:0:0:
152,92,18031,1,0,0:0:0:0:
152,92,18097,1,0,0:0:0:0:
152,92,18163,1,2,0:0:0:0:
152,92,18295,1,0,0:0:0:0:
152,92,18427,1,0,0:0:0:0:
136,68,18493,1,0,0:0:0:0:
136,68,18559,1,2,0:0:0:0:
136,68,18692,1,2,0:0:0:0:
136,68,18824,1,0,0:0:0:0:
136,68,18956,1,2,0:0:0:0:
160,76,19022,1,0,0:0:0:0:
160,76,19088,1,2,0:0:0:0:
136,68,19220,1,6,0:0:0:0:
156,72,19484,1,0,0:0:0:0:
156,72,19551,1,0,0:0:0:0:
156,72,19617,1,2,0:0:0:0:
156,72,19749,1,0,0:0:0:0:
107,62,19815,1,0,0:0:0:0:
106,68,19881,1,2,0:0:0:0:
106,68,19947,1,2,0:0:0:0:
106,70,20013,1,2,0:0:0:0:
106,68,20079,1,2,0:0:0:0:
106,77,20145,1,0,0:0:0:0:
60,138,20277,1,2,0:0:0:0:
160,68,20410,1,4,0:0:0:0:
140,172,20674,1,2,0:0:0:0:
140,172,20938,1,0,0:0:0:0:
140,172,21070,1,0,0:0:0:0:
140,172,21203,1,2,0:0:0:0:
140,172,21335,1,2,0:0:0:0:
140,172,21467,1,0,0:0:0:0:
168,80,21731,1,2,0:0:0:0:
168,80,21863,1,0,0:0:0:0:
168,80,22128,1,0,0:0:0:0:
168,80,22260,1,2,0:0:0:0:
168,80,22392,1,2,0:0:0:0:
168,80,22524,1,0,0:0:0:0:
148,84,22788,1,2,0:0:0:0:
176,112,22921,1,0,0:0:0:0:
176,112,23053,1,2,0:0:0:0:
172,60,23185,1,0,0:0:0:0:
172,60,23317,1,2,0:0:0:0:
172,60,23449,1,2,0:0:0:0:
172,60,23581,1,0,0:0:0:0:
168,88,23846,1,2,0:0:0:0:
168,88,23978,1,0,0:0:0:0:
168,88,24242,1,0,0:0:0:0:
168,88,24374,1,2,0:0:0:0:
200,152,24507,1,2,0:0:0:0:
200,152,24639,1,0,0:0:0:0:
200,152,24903,1,2,0:0:0:0:
200,152,25167,1,0,0:0:0:0:
200,152,25299,1,0,0:0:0:0:
200,152,25432,1,2,0:0:0:0:
160,112,25564,1,2,0:0:0:0:
200,152,25696,1,0,0:0:0:0:
160,112,25960,1,2,0:0:0:0:
160,112,26092,1,0,0:0:0:0:
160,112,26357,1,0,0:0:0:0:
160,112,26489,1,2,0:0:0:0:
160,112,26621,1,2,0:0:0:0:
152,64,26753,1,0,0:0:0:0:
160,80,26885,1,0,0:0:0:0:
160,80,27018,1,2,0:0:0:0:
160,80,27282,1,2,0:0:0:0:
160,80,27414,1,0,0:0:0:0:
239,112,27546,1,0,0:0:0:0:
239,112,27678,1,2,0:0:0:0:
160,80,27943,1,0,0:0:0:0:
160,80,28075,1,2,0:0:0:0:
160,80,28207,1,0,0:0:0:0:
160,80,28339,1,12,0:0:0:0:
160,80,28603,1,12,0:0:0:0:
172,108,28868,1,4,0:0:0:0:
140,172,29132,1,2,0:0:0:0:
160,160,29396,1,0,0:0:0:0:
140,172,29529,1,0,0:0:0:0:
140,172,29661,1,2,0:0:0:0:
140,172,29793,1,2,0:0:0:0:
156,156,29925,1,0,0:0:0:0:
156,156,30057,1,0,0:0:0:0:
168,80,30189,1,2,0:0:0:0:
168,80,30321,1,0,0:0:0:0:
168,80,30586,1,0,0:0:0:0:
168,80,30718,1,2,0:0:0:0:
168,80,30850,1,2,0:0:0:0:
168,80,30982,1,0,0:0:0:0:
156,156,31114,1,0,0:0:0:0:
148,84,31247,1,2,0:0:0:0:
176,112,31379,1,0,0:0:0:0:
176,112,31511,1,2,0:0:0:0:
172,60,31643,1,0,0:0:0:0:
172,60,31775,1,2,0:0:0:0:
172,60,31907,1,2,0:0:0:0:
172,60,32040,1,0,0:0:0:0:
168,88,32304,1,2,0:0:0:0:
168,88,32436,1,0,0:0:0:0:
168,88,32700,1,0,0:0:0:0:
168,88,32833,1,2,0:0:0:0:
200,152,32965,1,2,0:0:0:0:
200,152,33097,1,0,0:0:0:0:
200,152,33361,1,2,0:0:0:0:
200,152,33625,1,0,0:0:0:0:
200,152,33758,1,0,0:0:0:0:
200,152,33890,1,2,0:0:0:0:
200,152,34154,1,0,0:0:0:0:
156,156,34286,1,0,0:0:0:0:
160,112,34418,1,2,0:0:0:0:
160,112,34551,1,0,0:0:0:0:
160,112,34815,1,0,0:0:0:0:
160,112,34947,1,2,0:0:0:0:
160,112,35079,1,2,0:0:0:0:
152,64,35211,1,0,0:0:0:0:
160,80,35344,1,0,0:0:0:0:
160,80,35476,1,2,0:0:0:0:
160,80,35740,1,0,0:0:0:0:
160,80,35872,1,2,0:0:0:0:
160,80,36136,1,2,0:0:0:0:
176,20,36401,1,2,0:0:0:0:
176,20,36533,1,0,0:0:0:0:
160,80,36665,1,0,0:0:0:0:
76,32,36797,5,2,0:0:0:0:
181,132,36929,1,0,0:0:0:0:
181,132,37062,1,2,0:0:0:0:
156,64,37326,1,4,0:0:0:0:
188,92,37722,1,2,0:0:0:0:
188,92,38119,1,0,0:0:0:0:
188,92,38515,1,0,0:0:0:0:
128,84,38912,1,2,0:0:0:0:
128,84,39176,1,2,0:0:0:0:
128,84,39440,1,0,0:0:0:0:
128,84,39837,1,2,0:0:0:0:
128,84,40233,1,0,0:0:0:0:
128,84,40630,1,0,0:0:0:0:
128,84,41026,1,2,0:0:0:0:
128,84,41291,1,0,0:0:0:0:
128,84,41555,1,0,0:0:0:0:
128,84,41951,1,2,0:0:0:0:
120,64,42084,1,0,0:0:0:0:
216,71,42348,1,0,0:0:0:0:
120,64,42612,1,0,0:0:0:0:
120,64,43009,1,2,0:0:0:0:
120,64,43141,1,0,0:0:0:0:
120,64,43405,1,0,0:0:0:0:
120,64,43670,1,2,0:0:0:0:
120,64,44066,1,2,0:0:0:0:
120,64,44198,1,0,0:0:0:0:
120,64,44462,1,2,0:0:0:0:
120,64,44727,1,0,0:0:0:0:
152,60,44859,1,0,0:0:0:0:
120,64,45255,1,2,0:0:0:0:
136,116,45520,1,2,0:0:0:0:
136,116,45652,1,4,0:0:0:0:
144,96,45916,1,0,0:0:0:0:
144,96,46048,1,2,0:0:0:0:
144,96,46181,1,2,0:0:0:0:
144,96,46313,1,0,0:0:0:0:
144,96,46445,1,0,0:0:0:0:
124,64,46577,1,2,0:0:0:0:
124,64,46709,1,0,0:0:0:0:
124,64,46841,1,0,0:0:0:0:
124,64,47106,1,2,0:0:0:0:
124,64,47238,1,0,0:0:0:0:
176,8,47502,1,2,0:0:0:0:
128,116,47766,1,4,0:0:0:0:
128,116,48031,1,0,0:0:0:0:
152,76,48163,1,2,0:0:0:0:
152,76,48295,1,0,0:0:0:0:
160,56,48427,1,0,0:0:0:0:
152,48,48692,1,2,0:0:0:0:
152,48,48824,1,0,0:0:0:0:
152,48,48956,1,4,0:0:0:0:
160,56,49220,1,2,0:0:0:0:
160,56,49352,1,0,0:0:0:0:
160,56,49617,1,0,0:0:0:0:
160,56,49749,1,2,0:0:0:0:
136,28,49881,1,4,0:0:0:0:
136,28,50145,1,0,0:0:0:0:
136,28,50277,1,2,0:0:0:0:
136,28,50410,1,0,0:0:0:0:
160,56,50542,1,0,0:0:0:0:
160,56,50806,1,2,0:0:0:0:
160,56,50938,1,2,0:0:0:0:
160,56,51070,1,0,0:0:0:0:
160,56,51203,1,0,0:0:0:0:
160,56,51335,1,2,0:0:0:0:
160,56,51467,1,0,0:0:0:0:
160,56,51731,1,0,0:0:0:0:
160,56,51863,1,2,0:0:0:0:
160,56,52128,1,12,0:0:0:0:
160,56,52392,1,2,0:0:0:0:
128,104,52656,1,2,0:0:0:0:
128,104,52788,1,0,0:0:0:0:
128,104,52855,1,0,0:0:0:0:
128,104,52921,1,2,0:0:0:0:
128,104,53053,1,4,0:0:0:0:
128,104,53317,1,0,0:0:0:0:
128,104,53449,1,2,0:0:0:0:
128,104,53581,1,2,0:0:0:0:
128,104,53647,1,2,0:0:0:0:
166,127,53714,1,0,0:0:0:0:
166,127,53780,1,0,0:0:0:0:
170,143,53846,1,0,0:0:0:0:
203,133,53912,1,0,0:0:0:0:
203,133,53978,1,2,0:0:0:0:
189,187,54110,1,2,0:0:0:0:
176,64,54242,1,4,0:0:0:0:
176,64,54374,1,0,0:0:0:0:
176,64,54440,1,0,0:0:0:0:
176,64,54507,1,2,0:0:0:0:
176,64,54639,1,0,0:0:0:0:
160,20,54771,1,2,0:0:0:0:
160,20,54837,1,0,0:0:0:0:
160,20,54903,1,0,0:0:0:0:
176,64,54969,1,0,0:0:0:0:
176,64,55035,1,2,0:0:0:0:
176,64,55167,1,2,0:0:0:0:
176,64,55299,1,0,0:0:0:0:
160,24,55432,1,0,0:0:0:0:
160,24,55498,1,0,0:0:0:0:
160,24,55564,1,2,0:0:0:0:
160,24,55696,1,0,0:0:0:0:
160,24,55828,1,2,0:0:0:0:
160,24,55894,1,2,0:0:0:0:
160,24,55960,1,0,0:0:0:0:
160,24,56092,1,2,0:0:0:0:
160,24,56225,1,0,0:0:0:0:
160,24,56357,1,0,0:0:0:0:
160,24,56489,1,0,0:0:0:0:
160,24,56555,1,0,0:0:0:0:
160,24,56621,1,2,0:0:0:0:
160,24,56753,1,0,0:0:0:0:
160,108,56885,1,2,0:0:0:0:
160,108,56951,1,2,0:0:0:0:
160,108,57018,1,0,0:0:0:0:
160,108,57084,1,0,0:0:0:0:
160,108,57150,1,2,0:0:0:0:
160,108,57282,1,2,0:0:0:0:
108,68,57414,1,0,0:0:0:0:
164,108,57546,1,0,0:0:0:0:
164,108,57612,1,0,0:0:0:0:
164,108,57678,1,2,0:0:0:0:
176,128,57810,1,2,0:0:0:0:
176,128,57943,1,0,0:0:0:0:
176,128,58009,1,0,0:0:0:0:
136,40,58075,1,0,0:0:0:0:
120,72,58141,1,0,0:0:0:0:
136,40,58207,1,2,0:0:0:0:
136,40,58339,1,0,0:0:0:0:
136,40,58471,1,0,0:0:0:0:
140,40,58736,1,2,0:0:0:0:
140,40,58868,1,0,0:0:0:0:
152,44,59000,1,0,0:0:0:0:
152,52,59066,1,0,0:0:0:0:
152,52,59132,1,0,0:0:0:0:
152,52,59264,1,2,0:0:0:0:
152,52,59396,1,0,0:0:0:0:
120,72,59529,1,2,0:0:0:0:
120,72,59595,1,0,0:0:0:0:
120,72,59661,1,0,0:0:0:0:
120,72,59793,1,0,0:0:0:0:
120,72,59925,1,2,0:0:0:0:
128,88,60057,1,0,0:0:0:0:
152,52,60189,1,0,0:0:0:0:
152,52,60255,1,0,0:0:0:0:
152,52,60321,1,2,0:0:0:0:
120,72,60454,1,2,0:0:0:0:
152,52,60586,1,0,0:0:0:0:
152,52,60850,1,2,0:0:0:0:
188,64,61114,1,0,0:0:0:0:
188,64,61247,1,0,0:0:0:0:
96,88,61313,1,0,0:0:0:0:
96,88,61379,1,2,0:0:0:0:
188,64,61511,1,4,0:0:0:0:
188,64,61775,1,0,0:0:0:0:
188,64,61907,1,2,0:0:0:0:
148,64,62040,1,2,0:0:0:0:
148,64,62106,1,2,0:0:0:0:
148,64,62172,1,0,0:0:0:0:
148,64,62304,1,0,0:0:0:0:
148,64,62436,1,2,0:0:0:0:
152,48,62700,1,4,0:0:0:0:
152,48,62833,1,0,0:0:0:0:
152,48,62899,1,0,0:0:0:0:
152,48,62965,1,2,0:0:0:0:
152,48,63097,1,0,0:0:0:0:
152,48,63229,1,2,0:0:0:0:
152,48,63295,1,2,0:0:0:0:
152,48,63361,1,0,0:0:0:0:
152,48,63427,1,0,0:0:0:0:
152,48,63493,1,2,0:0:0:0:
152,48,63625,1,2,0:0:0:0:
160,40,63758,1,0,0:0:0:0:
144,88,63890,1,0,0:0:0:0:
144,88,63956,1,0,0:0:0:0:
144,88,64022,1,2,0:0:0:0:
144,88,64154,1,0,0:0:0:0:
144,88,64286,1,2,0:0:0:0:
144,88,64352,1,0,0:0:0:0:
144,88,64418,1,0,0:0:0:0:
160,44,64484,1,0,0:0:0:0:
144,88,64551,1,2,0:0:0:0:
144,88,64683,1,0,0:0:0:0:
144,88,64815,1,0,0:0:0:0:
144,88,64947,1,0,0:0:0:0:
144,88,65013,1,0,0:0:0:0:
144,88,65079,1,2,0:0:0:0:
144,88,65211,1,0,0:0:0:0:
144,88,65344,1,2,0:0:0:0:
144,88,65410,1,0,0:0:0:0:
144,88,65476,1,0,0:0:0:0:
144,88,65542,1,0,0:0:0:0:
144,88,65608,1,2,0:0:0:0:
160,44,65740,1,2,0:0:0:0:
160,44,65872,1,0,0:0:0:0:
160,44,66004,1,0,0:0:0:0:
160,44,66070,1,0,0:0:0:0:
160,44,66136,1,2,0:0:0:0:
160,44,66269,1,0,0:0:0:0:
180,136,66401,1,0,0:0:0:0:
180,136,66467,1,0,0:0:0:0:
180,128,66533,1,2,0:0:0:0:
180,128,66599,1,0,0:0:0:0:
160,44,66665,1,2,0:0:0:0:
160,44,66797,1,2,0:0:0:0:
160,44,66929,1,4,0:0:0:0:
132,80,67194,1,2,0:0:0:0:
132,80,67326,1,0,0:0:0:0:
132,80,67392,1,0,0:0:0:0:
132,80,67458,1,0,0:0:0:0:
132,80,67590,1,0,0:0:0:0:
132,80,67722,1,2,0:0:0:0:
132,80,67855,1,2,0:0:0:0:
132,80,67921,1,2,0:0:0:0:
132,80,67987,1,0,0:0:0:0:
132,80,68119,1,0,0:0:0:0:
132,80,68251,1,2,0:0:0:0:
132,80,68383,1,0,0:0:0:0:
132,80,68449,1,0,0:0:0:0:
132,80,68515,1,0,0:0:0:0:
132,80,68647,1,0,0:0:0:0:
132,80,68780,1,2,0:0:0:0:
132,80,68846,1,0,0:0:0:0:
132,80,68912,1,0,0:0:0:0:
132,80,68978,1,0,0:0:0:0:
132,80,69044,1,2,0:0:0:0:
132,80,69308,1,2,0:0:0:0:
132,80,69440,1,0,0:0:0:0:
132,80,69507,1,0,0:0:0:0:
132,80,69573,1,2,0:0:0:0:
132,80,69705,1,0,0:0:0:0:
132,80,69771,1,0,0:0:0:0:
132,80,69837,1,2,0:0:0:0:
132,80,69903,1,2,0:0:0:0:
132,80,69969,1,0,0:0:0:0:
132,80,70101,1,2,0:0:0:0:
140,116,70233,1,2,0:0:0:0:
140,116,70366,1,0,0:0:0:0:
140,116,70498,1,0,0:0:0:0:
181,164,70630,1,2,0:0:0:0:
140,116,70762,1,0,0:0:0:0:
140,116,70828,1,0,0:0:0:0:
140,116,70894,1,2,0:0:0:0:
140,116,71026,1,2,0:0:0:0:
160,120,71159,1,4,0:0:0:0:
160,120,71292,1,0,0:0:0:0:
160,120,71358,1,0,0:0:0:0:
160,120,71424,1,2,0:0:0:0:
160,120,71556,1,2,0:0:0:0:
152,56,71688,1,0,0:0:0:0:
152,56,71754,1,0,0:0:0:0:
148,72,71820,1,2,0:0:0:0:
152,64,71886,1,2,0:0:0:0:
156,64,71952,1,0,0:0:0:0:
144,100,72085,1,0,0:0:0:0:
140,52,72217,1,2,0:0:0:0:
140,52,72349,1,0,0:0:0:0:
140,52,72415,1,0,0:0:0:0:
140,52,72481,1,2,0:0:0:0:
144,100,72613,1,2,0:0:0:0:
144,100,72745,1,0,0:0:0:0:
144,100,72811,1,0,0:0:0:0:
166,148,72878,1,0,0:0:0:0:
158,90,72944,1,0,0:0:0:0:
156,95,73010,1,2,0:0:0:0:
144,100,73142,1,2,0:0:0:0:
152,92,73274,1,0,0:0:0:0:
152,92,73406,1,0,0:0:0:0:
152,92,73472,1,0,0:0:0:0:
152,92,73538,1,2,0:0:0:0:
152,92,73670,1,2,0:0:0:0:
152,92,73803,1,0,0:0:0:0:
152,92,73869,1,0,0:0:0:0:
152,92,73935,1,2,0:0:0:0:
152,92,74001,1,2,0:0:0:0:
152,92,74067,1,0,0:0:0:0:
152,92,74199,1,0,0:0:0:0:
152,92,74331,1,2,0:0:0:0:
152,92,74463,1,0,0:0:0:0:
152,92,74529,1,0,0:0:0:0:
152,92,74596,1,2,0:0:0:0:
152,92,74728,1,2,0:0:0:0:
152,92,74860,1,0,0:0:0:0:
160,112,74926,1,0,0:0:0:0:
160,112,74992,1,2,0:0:0:0:
160,112,75058,1,0,0:0:0:0:
160,112,75124,1,0,0:0:0:0:
160,112,75256,1,2,0:0:0:0:
160,112,75389,1,0,0:0:0:0:
160,112,75521,1,0,0:0:0:0:
160,112,75587,1,0,0:0:0:0:
160,112,75653,1,2,0:0:0:0:
160,112,75785,1,2,0:0:0:0:
140,72,75917,1,0,0:0:0:0:
140,72,75983,1,0,0:0:0:0:
140,72,76049,1,2,0:0:0:0:
140,72,76115,1,2,0:0:0:0:
140,72,76181,1,0,0:0:0:0:
160,76,76314,1,0,0:0:0:0:
140,72,76446,1,2,0:0:0:0:
140,72,76578,1,0,0:0:0:0:
140,72,76644,1,0,0:0:0:0:
140,72,76710,1,2,0:0:0:0:
140,72,76776,1,0,0:0:0:0:
140,72,76842,1,2,0:0:0:0:
152,92,76974,1,0,0:0:0:0:
152,92,77107,1,2,0:0:0:0:
152,92,77173,1,2,0:0:0:0:
152,92,77239,1,0,0:0:0:0:
152,92,77305,1,0,0:0:0:0:
152,92,77371,1,2,0:0:0:0:
152,92,77503,1,0,0:0:0:0:
152,92,77635,1,0,0:0:0:0:
136,68,77701,1,0,0:0:0:0:
136,68,77767,1,2,0:0:0:0:
136,68,77900,1,2,0:0:0:0:
136,68,78032,1,0,0:0:0:0:
220,158,78163,1,2,0:0:0:0:
220,158,78229,1,0,0:0:0:0:
220,158,78295,1,2,0:0:0:0:
156,75,78427,1,0,0:0:0:0:
156,72,78692,1,0,0:0:0:0:
128,147,78758,1,0,0:0:0:0:
156,72,78825,1,2,0:0:0:0:
136,97,78956,1,0,0:0:0:0:
153,154,79022,5,2,0:0:0:0:
153,154,79088,1,0,0:0:0:0:
153,154,79154,1,0,0:0:0:0:
153,154,79220,1,2,0:0:0:0:
153,154,79286,1,0,0:0:0:0:
164,20,79353,1,2,0:0:0:0:
153,154,79484,1,0,0:0:0:0:
177,161,79617,1,12,0:0:0:0:
