osu file format v14

[General]
AudioFilename: life.mp3
AudioLeadIn: 0
PreviewTime: 53580
Countdown: 0
SampleSet: Normal
StackLeniency: 0.7
Mode: 1
LetterboxInBreaks: 0
WidescreenStoryboard: 0

[Editor]
DistanceSpacing: 1.5
BeatDivisor: 4
GridSize: 4
TimelineZoom: 1.6

[Metadata]
Title:Sendan Life
TitleUnicode:センダンライフ
Artist:Remo Prototype (CV: Hanamori Yumiri)
ArtistUnicode:リモ Prototype (CV: 花守ゆみり)
Creator:nyanmi-1828
Version:Oni
Source:ガラスの花と壊す世界
Tags:vocaloid Chukka やしきん yashikin Glass no Hana to Kowasu Sekai GARAKOWA Restore the World Vitreous Flower Destroy the World KitajimaYN Yuni kai53247 anime movie film japanese KTYN rimo D.backup
BeatmapID:1000662
BeatmapSetID:449950

[Difficulty]
HPDrainRate:5.5
CircleSize:2
OverallDifficulty:5.5
ApproachRate:5
SliderMultiplier:1.4
SliderTickRate:1

[Events]
//Background and Video events
0,0,"BG.jpg",0,0
//Break Periods
//Storyboard Layer 0 (Background)
//Storyboard Layer 1 (Fail)
//Storyboard Layer 2 (Pass)
//Storyboard Layer 3 (Foreground)
//Storyboard Layer 4 (Overlay)
//Storyboard Sound Samples

[TimingPoints]
322,264.31718061674,4,1,0,40,1,0
322,-250,4,1,0,40,0,0
7722,-100,4,1,0,80,0,0
20410,-100,4,1,0,73,0,0
37458,-133.333333333333,4,1,0,60,0,0
45652,-100,4,1,0,75,0,0
54242,-100,4,1,0,90,0,1
71159,-100,4,1,0,80,0,0

[HitObjects]
252,216,7723,5,0,0:0:0:0:
292,220,7987,1,0,0:0:0:0:
288,224,8251,1,0,0:0:0:0:
288,224,8383,1,0,0:0:0:0:
340,232,8648,1,0,0:0:0:0:
340,232,8912,1,0,0:0:0:0:
340,232,9176,1,0,0:0:0:0:
340,232,9441,1,0,0:0:0:0:
340,232,9573,1,12,0:0:0:0:
352,224,9837,1,0,0:0:0:0:
352,228,10102,1,0,0:0:0:0:
348,228,10366,1,0,0:0:0:0:
348,228,10498,1,0,0:0:0:0:
348,228,10762,1,0,0:0:0:0:
348,228,11027,1,0,0:0:0:0:
348,228,11291,1,0,0:0:0:0:
348,228,11423,1,0,0:0:0:0:
272,192,11687,1,12,0:0:0:0:
245,209,11952,1,4,0:0:0:0:
276,192,12084,1,0,0:0:0:0:
300,208,12216,1,8,0:0:0:0:
228,248,12348,1,0,0:0:0:0:
308,224,12480,1,0,0:0:0:0:
304,224,12613,1,0,0:0:0:0:
356,212,12745,1,8,0:0:0:0:
376,220,13009,1,0,0:0:0:0:
376,220,13141,1,0,0:0:0:0:
364,192,13273,1,8,0:0:0:0:
420,196,13405,1,8,0:0:0:0:
336,204,13538,1,0,0:0:0:0:
376,208,13670,1,0,0:0:0:0:
360,196,13802,1,8,0:0:0:0:
368,188,14066,1,0,0:0:0:0:
368,188,14198,1,0,0:0:0:0:
360,200,14331,1,8,0:0:0:0:
336,200,14463,1,0,0:0:0:0:
344,192,14595,1,0,0:0:0:0:
348,192,14727,1,0,0:0:0:0:
360,200,14859,1,8,0:0:0:0:
376,192,15124,1,0,0:0:0:0:
360,208,15256,1,0,0:0:0:0:
348,228,15322,1,0,0:0:0:0:
360,200,15388,1,8,0:0:0:0:
360,200,15520,1,8,0:0:0:0:
364,200,15652,1,0,0:0:0:0:
380,208,15784,1,0,0:0:0:0:
360,200,15916,1,8,0:0:0:0:
392,200,16181,1,0,0:0:0:0:
392,200,16313,1,0,0:0:0:0:
360,200,16445,1,8,0:0:0:0:
392,200,16577,1,0,0:0:0:0:
392,200,16709,1,0,0:0:0:0:
392,200,16842,1,0,0:0:0:0:
356,204,16974,1,8,0:0:0:0:
392,200,17238,1,0,0:0:0:0:
396,188,17370,1,0,0:0:0:0:
364,192,17502,1,8,0:0:0:0:
416,188,17635,1,8,0:0:0:0:
428,184,17767,1,0,0:0:0:0:
408,196,17899,1,0,0:0:0:0:
360,196,18031,1,8,0:0:0:0:
424,172,18295,1,0,0:0:0:0:
424,172,18427,1,0,0:0:0:0:
360,200,18560,1,8,0:0:0:0:
352,176,18692,1,0,0:0:0:0:
416,188,18824,1,8,0:0:0:0:
432,184,18956,1,0,0:0:0:0:
432,184,19022,1,0,0:0:0:0:
360,200,19088,1,8,0:0:0:0:
424,188,19220,1,12,0:0:0:0:
432,196,19485,1,0,0:0:0:0:
360,200,19617,1,8,0:0:0:0:
396,200,19749,1,0,0:0:0:0:
440,176,19881,1,8,0:0:0:0:
384,200,19947,1,0,0:0:0:0:
448,192,20013,1,0,0:0:0:0:
376,228,20146,1,8,0:0:0:0:
412,208,20278,1,8,0:0:0:0:
384,200,20410,1,4,0:0:0:0:
360,200,20674,1,8,0:0:0:0:
292,184,20939,1,0,0:0:0:0:
328,200,21071,1,0,0:0:0:0:
356,204,21203,1,8,0:0:0:0:
316,200,21335,1,8,0:0:0:0:
336,216,21467,1,0,0:0:0:0:
432,192,21731,1,8,0:0:0:0:
396,200,21864,1,0,0:0:0:0:
288,200,22128,1,0,0:0:0:0:
384,200,22260,1,8,0:0:0:0:
376,208,22392,1,0,0:0:0:0:
360,220,22524,1,0,0:0:0:0:
392,208,22789,1,8,0:0:0:0:
364,220,22921,1,0,0:0:0:0:
360,220,23053,1,0,0:0:0:0:
280,248,23185,1,0,0:0:0:0:
408,208,23317,1,8,0:0:0:0:
368,196,23582,1,0,0:0:0:0:
312,188,23846,1,8,0:0:0:0:
388,192,23978,1,0,0:0:0:0:
392,208,24242,1,0,0:0:0:0:
408,184,24375,1,8,0:0:0:0:
356,216,24507,1,0,0:0:0:0:
328,200,24639,1,0,0:0:0:0:
392,184,24903,1,8,0:0:0:0:
360,216,25168,1,0,0:0:0:0:
360,220,25300,1,0,0:0:0:0:
408,196,25432,1,8,0:0:0:0:
344,184,25564,1,8,0:0:0:0:
356,232,25696,1,0,0:0:0:0:
404,208,25961,1,8,0:0:0:0:
400,212,26093,1,0,0:0:0:0:
400,216,26357,1,0,0:0:0:0:
404,208,26489,1,8,0:0:0:0:
400,216,26621,1,0,0:0:0:0:
444,208,26753,1,0,0:0:0:0:
408,196,27018,1,8,0:0:0:0:
392,200,27150,1,0,0:0:0:0:
432,208,27282,1,0,0:0:0:0:
432,208,27414,1,0,0:0:0:0:
396,208,27546,1,8,0:0:0:0:
376,216,27679,1,8,0:0:0:0:
404,208,27943,1,0,0:0:0:0:
340,232,28075,1,8,0:0:0:0:
320,192,28207,1,0,0:0:0:0:
352,224,28339,1,8,0:0:0:0:
360,232,28405,1,8,0:0:0:0:
368,228,28472,1,0,0:0:0:0:
368,216,28604,1,8,0:0:0:0:
408,208,28868,1,4,0:0:0:0:
344,236,29132,1,8,0:0:0:0:
420,236,29264,1,8,0:0:0:0:
392,216,29397,1,0,0:0:0:0:
392,216,29529,1,0,0:0:0:0:
400,204,29661,1,8,0:0:0:0:
432,236,29793,1,0,0:0:0:0:
404,212,29925,1,8,0:0:0:0:
416,208,30190,1,8,0:0:0:0:
428,216,30322,1,0,0:0:0:0:
388,256,30388,1,0,0:0:0:0:
408,248,30454,1,0,0:0:0:0:
384,256,30586,1,0,0:0:0:0:
384,256,30718,1,8,0:0:0:0:
412,260,30850,1,0,0:0:0:0:
412,260,31115,1,0,0:0:0:0:
428,188,31247,1,8,0:0:0:0:
432,200,31379,1,0,0:0:0:0:
416,216,31511,1,0,0:0:0:0:
404,208,31643,1,8,0:0:0:0:
468,208,31776,1,8,0:0:0:0:
248,236,31908,1,0,0:0:0:0:
440,208,32040,1,8,0:0:0:0:
412,212,32304,1,8,0:0:0:0:
436,204,32436,1,0,0:0:0:0:
408,256,32502,1,0,0:0:0:0:
408,256,32568,1,0,0:0:0:0:
436,204,32701,1,0,0:0:0:0:
436,208,32833,1,8,0:0:0:0:
436,208,32965,1,0,0:0:0:0:
416,224,33097,1,0,0:0:0:0:
416,216,33361,1,8,0:0:0:0:
400,232,33494,1,0,0:0:0:0:
452,200,33626,1,0,0:0:0:0:
452,200,33758,1,0,0:0:0:0:
472,232,33890,1,8,0:0:0:0:
400,232,34022,1,0,0:0:0:0:
340,268,34154,1,8,0:0:0:0:
476,212,34419,1,8,0:0:0:0:
452,220,34551,1,0,0:0:0:0:
392,264,34617,1,0,0:0:0:0:
420,276,34683,1,0,0:0:0:0:
480,200,34815,1,0,0:0:0:0:
452,220,34947,1,8,0:0:0:0:
452,220,35079,1,8,0:0:0:0:
288,240,35344,1,0,0:0:0:0:
428,200,35476,1,8,0:0:0:0:
272,256,35608,1,0,0:0:0:0:
424,208,35740,1,0,0:0:0:0:
424,208,35872,1,8,0:0:0:0:
488,240,36137,1,8,0:0:0:0:
456,224,36401,1,0,0:0:0:0:
368,248,36533,1,0,0:0:0:0:
424,216,36665,1,8,0:0:0:0:
444,200,36798,1,0,0:0:0:0:
392,224,36930,1,8,0:0:0:0:
296,184,36996,1,8,0:0:0:0:
296,184,37062,1,0,0:0:0:0:
272,256,37194,1,8,0:0:0:0:
416,216,37326,1,4,0:0:0:0:
424,212,37723,1,8,0:0:0:0:
424,212,38119,1,0,0:0:0:0:
416,216,38516,1,0,0:0:0:0:
408,216,38912,1,8,0:0:0:0:
188,188,39176,1,0,0:0:0:0:
436,216,39441,1,0,0:0:0:0:
408,216,39837,1,8,0:0:0:0:
400,220,40234,1,0,0:0:0:0:
408,204,40630,1,8,0:0:0:0:
408,204,41027,1,8,0:0:0:0:
408,204,41291,1,0,0:0:0:0:
400,224,41555,1,0,0:0:0:0:
424,208,41952,1,8,0:0:0:0:
464,200,42348,1,0,0:0:0:0:
432,232,42613,1,0,0:0:0:0:
464,200,43009,1,8,0:0:0:0:
432,212,43405,1,0,0:0:0:0:
456,208,43670,1,8,0:0:0:0:
332,232,44066,1,8,0:0:0:0:
436,208,44463,1,0,0:0:0:0:
400,240,44727,1,8,0:0:0:0:
400,240,44859,1,0,0:0:0:0:
400,248,45123,1,0,0:0:0:0:
412,216,45256,1,8,0:0:0:0:
468,208,45388,1,0,0:0:0:0:
388,224,45520,1,8,0:0:0:0:
388,216,45652,1,4,0:0:0:0:
376,248,45916,1,0,0:0:0:0:
424,208,46049,1,8,0:0:0:0:
340,200,46181,1,0,0:0:0:0:
396,212,46313,1,0,0:0:0:0:
392,256,46379,1,0,0:0:0:0:
428,216,46445,1,0,0:0:0:0:
424,216,46577,1,8,0:0:0:0:
376,220,46709,1,0,0:0:0:0:
380,228,46842,1,0,0:0:0:0:
364,192,47106,1,8,0:0:0:0:
380,228,47238,1,0,0:0:0:0:
360,196,47502,1,8,0:0:0:0:
356,240,47767,1,4,0:0:0:0:
368,220,48031,1,0,0:0:0:0:
360,200,48163,1,8,0:0:0:0:
368,220,48295,1,0,0:0:0:0:
456,196,48427,1,8,0:0:0:0:
392,224,48494,1,8,0:0:0:0:
436,216,48560,1,0,0:0:0:0:
360,200,48692,1,8,0:0:0:0:
320,204,48824,1,0,0:0:0:0:
392,204,48956,1,12,0:0:0:0:
360,200,49220,1,8,0:0:0:0:
428,192,49353,1,0,0:0:0:0:
348,224,49419,1,0,0:0:0:0:
348,224,49485,1,0,0:0:0:0:
348,224,49617,1,0,0:0:0:0:
432,200,49749,1,8,0:0:0:0:
292,176,49881,1,4,0:0:0:0:
352,180,50146,1,0,0:0:0:0:
360,200,50278,1,8,0:0:0:0:
368,232,50410,1,8,0:0:0:0:
352,232,50542,1,0,0:0:0:0:
372,232,50674,1,0,0:0:0:0:
356,204,50806,1,8,0:0:0:0:
380,196,50939,1,0,0:0:0:0:
360,224,51071,1,8,0:0:0:0:
364,192,51335,1,8,0:0:0:0:
352,216,51467,1,0,0:0:0:0:
360,208,51731,1,0,0:0:0:0:
392,224,51864,1,0,0:0:0:0:
388,240,51996,1,0,0:0:0:0:
384,240,52128,1,12,0:0:0:0:
360,200,52392,1,8,0:0:0:0:
384,212,52657,1,8,0:0:0:0:
328,280,52789,1,0,0:0:0:0:
360,200,52921,1,8,0:0:0:0:
360,248,53053,1,4,0:0:0:0:
368,208,53450,1,8,0:0:0:0:
368,196,53582,1,0,0:0:0:0:
308,272,53648,1,0,0:0:0:0:
368,224,53714,1,8,0:0:0:0:
344,208,53846,1,0,0:0:0:0:
360,208,53978,1,8,0:0:0:0:
360,200,54242,1,4,0:0:0:0:
372,212,54375,1,0,0:0:0:0:
364,192,54507,1,8,0:0:0:0:
436,208,54573,1,8,0:0:0:0:
372,212,54639,1,0,0:0:0:0:
372,212,54771,1,0,0:0:0:0:
372,212,54903,1,0,0:0:0:0:
360,196,55035,1,8,0:0:0:0:
408,260,55168,1,0,0:0:0:0:
424,244,55432,1,0,0:0:0:0:
208,216,55564,1,8,0:0:0:0:
432,208,55696,1,8,0:0:0:0:
424,196,55828,1,0,0:0:0:0:
316,228,55894,1,0,0:0:0:0:
328,200,55961,1,0,0:0:0:0:
360,200,56093,1,8,0:0:0:0:
376,208,56357,1,0,0:0:0:0:
376,208,56489,1,0,0:0:0:0:
360,200,56621,1,8,0:0:0:0:
424,200,56687,1,8,0:0:0:0:
376,208,56753,1,0,0:0:0:0:
384,224,56886,1,0,0:0:0:0:
384,224,57018,1,0,0:0:0:0:
360,200,57150,1,8,0:0:0:0:
384,224,57282,1,8,0:0:0:0:
376,216,57546,1,8,0:0:0:0:
272,200,57678,1,0,0:0:0:0:
468,188,57811,1,8,0:0:0:0:
432,204,57943,1,8,0:0:0:0:
360,216,58009,1,0,0:0:0:0:
432,208,58075,1,0,0:0:0:0:
356,204,58207,1,8,0:0:0:0:
356,244,58472,1,0,0:0:0:0:
316,244,58604,1,0,0:0:0:0:
364,192,58736,1,8,0:0:0:0:
256,208,58868,1,8,0:0:0:0:
356,244,59000,1,0,0:0:0:0:
336,236,59132,1,0,0:0:0:0:
288,224,59198,1,0,0:0:0:0:
360,196,59264,1,8,0:0:0:0:
364,208,59397,1,0,0:0:0:0:
360,232,59529,1,8,0:0:0:0:
360,200,59793,1,8,0:0:0:0:
352,232,59925,1,0,0:0:0:0:
80,376,59991,1,0,0:0:0:0:
336,248,60057,1,0,0:0:0:0:
376,268,60190,1,0,0:0:0:0:
408,208,60322,1,8,0:0:0:0:
368,240,60586,1,0,0:0:0:0:
360,200,60850,1,8,0:0:0:0:
368,216,60983,1,8,0:0:0:0:
408,228,61115,1,0,0:0:0:0:
368,216,61247,1,0,0:0:0:0:
360,200,61379,1,8,0:0:0:0:
384,272,61511,1,4,0:0:0:0:
380,200,61776,1,0,0:0:0:0:
372,244,61842,1,0,0:0:0:0:
360,200,61908,1,8,0:0:0:0:
384,232,62040,1,8,0:0:0:0:
344,212,62172,1,0,0:0:0:0:
384,208,62304,1,0,0:0:0:0:
356,204,62436,1,8,0:0:0:0:
396,196,62701,1,4,0:0:0:0:
364,192,62833,1,0,0:0:0:0:
408,208,62965,1,8,0:0:0:0:
436,188,63031,1,0,0:0:0:0:
420,192,63097,1,0,0:0:0:0:
412,200,63229,1,8,0:0:0:0:
360,196,63361,1,0,0:0:0:0:
416,200,63494,1,8,0:0:0:0:
412,200,63626,1,0,0:0:0:0:
360,200,63890,1,0,0:0:0:0:
340,236,64022,1,8,0:0:0:0:
408,176,64154,1,0,0:0:0:0:
412,240,64287,1,0,0:0:0:0:
336,244,64353,1,0,0:0:0:0:
412,236,64419,1,0,0:0:0:0:
360,200,64551,1,8,0:0:0:0:
324,196,64815,1,0,0:0:0:0:
384,224,64947,1,0,0:0:0:0:
360,200,65079,1,8,0:0:0:0:
384,224,65146,1,0,0:0:0:0:
384,224,65212,1,0,0:0:0:0:
384,204,65344,1,8,0:0:0:0:
404,196,65476,1,0,0:0:0:0:
360,208,65608,1,8,0:0:0:0:
360,200,65740,1,8,0:0:0:0:
412,192,66005,1,8,0:0:0:0:
364,208,66136,1,0,0:0:0:0:
328,204,66269,1,8,0:0:0:0:
440,184,66401,1,8,0:0:0:0:
364,224,66467,1,0,0:0:0:0:
428,192,66533,1,0,0:0:0:0:
356,204,66665,1,8,0:0:0:0:
404,232,66930,1,4,0:0:0:0:
320,216,67062,1,0,0:0:0:0:
364,192,67194,1,8,0:0:0:0:
384,224,67326,1,0,0:0:0:0:
320,216,67392,1,0,0:0:0:0:
320,216,67458,1,0,0:0:0:0:
404,232,67590,1,0,0:0:0:0:
360,196,67723,1,8,0:0:0:0:
108,200,67987,1,0,0:0:0:0:
360,216,68119,1,0,0:0:0:0:
264,220,68251,1,8,0:0:0:0:
384,224,68383,1,0,0:0:0:0:
304,248,68450,1,0,0:0:0:0:
416,212,68516,1,8,0:0:0:0:
384,224,68648,1,0,0:0:0:0:
360,200,68780,1,8,0:0:0:0:
372,260,68912,1,0,0:0:0:0:
364,192,69044,1,12,0:0:0:0:
360,200,69309,1,8,0:0:0:0:
304,236,69441,1,0,0:0:0:0:
360,196,69573,1,8,0:0:0:0:
372,236,69705,1,0,0:0:0:0:
360,200,69837,1,8,0:0:0:0:
212,176,69969,1,0,0:0:0:0:
388,208,70102,1,0,0:0:0:0:
384,208,70168,1,0,0:0:0:0:
360,200,70234,1,0,0:0:0:0:
360,200,70366,1,8,0:0:0:0:
400,228,70498,1,0,0:0:0:0:
408,188,70564,1,0,0:0:0:0:
424,200,70630,1,8,0:0:0:0:
404,220,70696,1,8,0:0:0:0:
356,204,70762,1,0,0:0:0:0:
424,204,70894,1,8,0:0:0:0:
400,224,71159,1,4,0:0:0:0:
396,224,71291,1,0,0:0:0:0:
364,192,71423,1,8,0:0:0:0:
372,228,71555,1,0,0:0:0:0:
368,192,71687,1,0,0:0:0:0:
368,200,71820,1,0,0:0:0:0:
360,196,71952,1,8,0:0:0:0:
372,228,72216,1,0,0:0:0:0:
372,228,72348,1,0,0:0:0:0:
368,244,72414,1,0,0:0:0:0:
360,200,72480,1,8,0:0:0:0:
420,184,72613,1,8,0:0:0:0:
372,228,72745,1,0,0:0:0:0:
420,184,72877,1,0,0:0:0:0:
360,200,73009,1,8,0:0:0:0:
388,204,73273,1,0,0:0:0:0:
384,264,73405,1,0,0:0:0:0:
360,200,73538,1,8,0:0:0:0:
388,208,73670,1,0,0:0:0:0:
388,208,73802,1,0,0:0:0:0:
388,208,73934,1,0,0:0:0:0:
360,200,74066,1,8,0:0:0:0:
400,200,74331,1,8,0:0:0:0:
400,204,74463,1,0,0:0:0:0:
408,204,74529,1,0,0:0:0:0:
360,200,74595,1,8,0:0:0:0:
432,188,74727,1,8,0:0:0:0:
288,248,74859,1,0,0:0:0:0:
416,204,74991,1,0,0:0:0:0:
356,204,75124,1,8,0:0:0:0:
216,192,75388,1,0,0:0:0:0:
396,232,75520,1,0,0:0:0:0:
364,192,75652,1,8,0:0:0:0:
400,232,75784,1,0,0:0:0:0:
396,224,75916,1,0,0:0:0:0:
396,224,76049,1,0,0:0:0:0:
360,196,76181,1,8,0:0:0:0:
412,220,76445,1,0,0:0:0:0:
412,220,76577,1,0,0:0:0:0:
356,248,76643,1,0,0:0:0:0:
360,200,76709,1,8,0:0:0:0:
412,220,76842,1,8,0:0:0:0:
424,200,76974,1,0,0:0:0:0:
424,204,77106,1,0,0:0:0:0:
360,200,77238,1,8,0:0:0:0:
200,256,77502,1,0,0:0:0:0:
392,212,77635,1,0,0:0:0:0:
360,200,77767,1,8,0:0:0:0:
392,212,77899,1,0,0:0:0:0:
392,212,78031,1,0,0:0:0:0:
388,248,78097,1,0,0:0:0:0:
392,212,78163,1,0,0:0:0:0:
360,200,78295,1,8,0:0:0:0:
396,216,78427,1,0,0:0:0:0:
408,208,78692,1,0,0:0:0:0:
360,200,78824,1,8,0:0:0:0:
416,216,78956,1,0,0:0:0:0:
384,220,79022,1,0,0:0:0:0:
416,220,79088,1,8,0:0:0:0:
368,224,79220,1,0,0:0:0:0:
356,204,79353,1,8,0:0:0:0:
384,236,79419,1,8,0:0:0:0:
316,224,79485,1,8,0:0:0:0:
324,224,79617,1,4,0:0:0:0:
