osu file format v14

[General]
AudioFilename: life.mp3
AudioLeadIn: 0
PreviewTime: 53580
Countdown: 0
SampleSet: Normal
StackLeniency: 0.7
Mode: 1
LetterboxInBreaks: 0
WidescreenStoryboard: 0

[Editor]
DistanceSpacing: 1.5
BeatDivisor: 4
GridSize: 4
TimelineZoom: 1.3

[Metadata]
Title:Sendan Life
TitleUnicode:センダンライフ
Artist:Remo Prototype (CV: Hanamori Yumiri)
ArtistUnicode:リモ Prototype (CV: 花守ゆみり)
Creator:nyanmi-1828
Version:Kantan
Source:ガラスの花と壊す世界
Tags:vocaloid Chukka やしきん yashikin Glass no Hana to Kowasu Sekai GARAKOWA Restore the World Vitreous Flower Destroy the World KitajimaYN Yuni kai53247 anime movie film japanese KTYN rimo D.backup
BeatmapID:1000650
BeatmapSetID:449950

[Difficulty]
HPDrainRate:7
CircleSize:2
OverallDifficulty:3
ApproachRate:5
SliderMultiplier:1.2
SliderTickRate:1

[Events]
//Background and Video events
0,0,"BG.jpg",0,0
//Break Periods
//Storyboard Layer 0 (Background)
//Storyboard Layer 1 (Fail)
//Storyboard Layer 2 (Pass)
//Storyboard Layer 3 (Foreground)
//Storyboard Layer 4 (Overlay)
//Storyboard Sound Samples

[TimingPoints]
322,264.31718061674,4,1,0,40,1,0
322,-111.111111111111,4,1,0,40,0,0
7722,-100,4,1,0,80,0,0
20410,-100,4,1,0,73,0,0
37590,-111.111111111111,4,1,0,60,0,0
45652,-100,4,1,0,75,0,0
54242,-100,4,1,0,90,0,1
71159,-100,4,1,0,80,0,0

[HitObjects]
256,196,7723,5,0,0:0:0:0:
312,228,9573,1,8,0:0:0:0:
232,208,9837,1,0,0:0:0:0:
296,224,11687,1,8,0:0:0:0:
245,209,11952,1,4,0:0:0:0:
376,220,13009,1,8,0:0:0:0:
368,188,14066,1,0,0:0:0:0:
352,224,14595,1,0,0:0:0:0:
360,200,15124,1,8,0:0:0:0:
392,200,16181,1,0,0:0:0:0:
392,200,17238,1,8,0:0:0:0:
424,172,18295,1,0,0:0:0:0:
372,232,18824,1,0,0:0:0:0:
424,188,19220,1,12,0:0:0:0:
440,176,19881,1,8,0:0:0:0:
384,200,20410,1,4,0:0:0:0:
376,208,21467,1,0,0:0:0:0:
360,200,22524,1,8,0:0:0:0:
317,217,23053,1,8,0:0:0:0:
360,220,23581,1,8,0:0:0:0:
356,216,24639,1,0,0:0:0:0:
356,232,25696,1,0,0:0:0:0:
400,216,26753,1,8,0:0:0:0:
400,216,27810,1,8,0:0:0:0:
376,216,28339,1,8,0:0:0:0:
352,224,28867,1,4,0:0:0:0:
412,260,29925,1,8,0:0:0:0:
404,212,30983,1,0,0:0:0:0:
364,264,31511,1,0,0:0:0:0:
440,208,32040,1,8,0:0:0:0:
272,220,32568,1,8,0:0:0:0:
436,208,33097,1,0,0:0:0:0:
472,232,34154,1,0,0:0:0:0:
432,200,35212,1,8,0:0:0:0:
368,256,35740,1,0,0:0:0:0:
413,212,36269,1,8,0:0:0:0:
416,216,36798,1,8,0:0:0:0:
456,224,37326,1,4,0:0:0:0:
179,226,38912,1,8,0:0:0:0:
412,248,39441,1,8,0:0:0:0:
304,228,40498,1,0,0:0:0:0:
400,224,41555,1,8,0:0:0:0:
424,208,42613,1,8,0:0:0:0:
432,212,43670,1,0,0:0:0:0:
404,216,44727,1,8,0:0:0:0:
388,216,45652,1,4,0:0:0:0:
424,208,46313,1,8,0:0:0:0:
380,228,46842,1,0,0:0:0:0:
356,240,47767,1,4,0:0:0:0:
360,200,48427,1,8,0:0:0:0:
392,204,48956,1,12,0:0:0:0:
292,176,49881,1,4,0:0:0:0:
360,224,50542,1,8,0:0:0:0:
360,224,51071,1,0,0:0:0:0:
364,192,52128,1,12,0:0:0:0:
428,208,53053,1,4,0:0:0:0:
384,224,53714,1,8,0:0:0:0:
360,200,54242,5,4,0:0:0:0:
368,244,55300,1,0,0:0:0:0:
432,208,55828,1,8,0:0:0:0:
376,208,56357,1,0,0:0:0:0:
384,216,57414,1,8,0:0:0:0:
432,204,57943,1,8,0:0:0:0:
356,244,58472,5,0,0:0:0:0:
364,192,59529,1,8,0:0:0:0:
364,268,60586,1,0,0:0:0:0:
360,200,61114,1,8,0:0:0:0:
352,216,61643,1,8,0:0:0:0:
344,212,61908,1,8,0:0:0:0:
384,208,62172,1,0,0:0:0:0:
396,196,62701,1,4,0:0:0:0:
436,188,63758,1,0,0:0:0:0:
408,176,64287,1,8,0:0:0:0:
384,224,64815,1,0,0:0:0:0:
360,200,65872,1,8,0:0:0:0:
364,208,66401,1,8,0:0:0:0:
228,216,66930,1,0,0:0:0:0:
312,208,67987,1,0,0:0:0:0:
344,204,68516,1,8,0:0:0:0:
332,204,69044,1,4,0:0:0:0:
388,208,69837,1,0,0:0:0:0:
424,200,70102,1,8,0:0:0:0:
400,228,70630,1,8,0:0:0:0:
400,224,71159,1,4,0:0:0:0:
372,228,72216,1,8,0:0:0:0:
388,204,73273,1,0,0:0:0:0:
304,228,73802,1,0,0:0:0:0:
316,240,74331,1,8,0:0:0:0:
384,232,75388,1,0,0:0:0:0:
412,220,76445,1,8,0:0:0:0:
388,208,77502,1,0,0:0:0:0:
408,252,78031,1,0,0:0:0:0:
396,216,78427,1,8,0:0:0:0:
368,224,79088,1,8,0:0:0:0:
324,224,79617,1,4,0:0:0:0:
