osu file format v14

[General]
AudioFilename: life.mp3
AudioLeadIn: 0
PreviewTime: 53580
Countdown: 0
SampleSet: Normal
StackLeniency: 0.7
Mode: 1
LetterboxInBreaks: 0
WidescreenStoryboard: 0

[Editor]
DistanceSpacing: 1.5
BeatDivisor: 4
GridSize: 4
TimelineZoom: 2.2

[Metadata]
Title:Sendan Life
TitleUnicode:センダンライフ
Artist:Remo Prototype (CV: Hanamori Yumiri)
ArtistUnicode:リモ Prototype (CV: 花守ゆみり)
Creator:nyanmi-1828
Version:Inner Oni
Source:ガラスの花と壊す世界
Tags:vocaloid Chukka やしきん yashikin Glass no Hana to Kowasu Sekai GARAKOWA Restore the World Vitreous Flower Destroy the World KitajimaYN Yuni kai53247 anime movie film japanese KTYN rimo D.backup
BeatmapID:1000660
BeatmapSetID:449950

[Difficulty]
HPDrainRate:6
CircleSize:2
OverallDifficulty:6
ApproachRate:5
SliderMultiplier:1.4
SliderTickRate:1

[Events]
//Background and Video events
0,0,"BG.jpg",0,0
//Break Periods
//Storyboard Layer 0 (Background)
//Storyboard Layer 1 (Fail)
//Storyboard Layer 2 (Pass)
//Storyboard Layer 3 (Foreground)
//Storyboard Layer 4 (Overlay)
//Storyboard Sound Samples

[TimingPoints]
322,264.31718061674,4,1,0,40,1,0
322,-250,4,1,0,40,0,0
7722,-100,4,1,0,80,0,0
20410,-100,4,1,0,73,0,0
37458,-133.333333333333,4,1,0,60,0,0
45652,-100,4,1,0,75,0,0
54242,-100,4,1,0,90,0,1
71159,-100,4,1,0,80,0,0

[HitObjects]
252,216,7723,5,0,0:0:0:0:
292,220,7987,1,0,0:0:0:0:
288,224,8251,1,0,0:0:0:0:
288,224,8383,1,0,0:0:0:0:
340,232,8648,1,0,0:0:0:0:
340,232,8912,1,0,0:0:0:0:
340,232,9176,1,0,0:0:0:0:
340,232,9441,1,0,0:0:0:0:
340,232,9573,1,12,0:0:0:0:
352,224,9837,1,0,0:0:0:0:
352,228,10102,1,0,0:0:0:0:
348,228,10366,1,0,0:0:0:0:
348,228,10498,1,0,0:0:0:0:
348,228,10762,1,0,0:0:0:0:
348,228,11027,1,0,0:0:0:0:
348,228,11291,1,0,0:0:0:0:
348,228,11423,1,0,0:0:0:0:
371,232,11687,1,8,0:0:0:0:
371,232,11753,1,8,0:0:0:0:
371,233,11819,1,8,0:0:0:0:
245,209,11952,1,4,0:0:0:0:
276,192,12084,1,0,0:0:0:0:
245,174,12150,1,0,0:0:0:0:
300,208,12216,1,8,0:0:0:0:
228,248,12348,1,8,0:0:0:0:
308,224,12480,1,0,0:0:0:0:
336,224,12546,1,0,0:0:0:0:
304,224,12613,1,0,0:0:0:0:
304,224,12679,1,0,0:0:0:0:
356,212,12745,1,8,0:0:0:0:
328,204,12877,1,8,0:0:0:0:
376,220,13009,1,0,0:0:0:0:
376,220,13141,1,0,0:0:0:0:
384,208,13207,1,0,0:0:0:0:
364,192,13273,1,8,0:0:0:0:
376,208,13405,1,8,0:0:0:0:
336,204,13538,1,0,0:0:0:0:
336,204,13604,1,0,0:0:0:0:
420,196,13670,1,8,0:0:0:0:
396,204,13736,1,0,0:0:0:0:
360,196,13802,1,8,0:0:0:0:
340,240,13934,1,8,0:0:0:0:
368,188,14066,1,0,0:0:0:0:
368,188,14198,1,0,0:0:0:0:
368,188,14264,1,0,0:0:0:0:
360,200,14331,1,8,0:0:0:0:
336,200,14463,1,8,0:0:0:0:
344,192,14595,1,0,0:0:0:0:
348,192,14661,1,0,0:0:0:0:
348,192,14727,1,0,0:0:0:0:
348,192,14793,1,0,0:0:0:0:
360,200,14859,1,8,0:0:0:0:
348,192,14991,1,8,0:0:0:0:
376,192,15124,1,0,0:0:0:0:
364,208,15256,1,8,0:0:0:0:
360,208,15322,1,0,0:0:0:0:
360,200,15388,1,8,0:0:0:0:
360,200,15520,1,8,0:0:0:0:
364,200,15652,1,8,0:0:0:0:
424,180,15718,1,8,0:0:0:0:
364,200,15784,1,0,0:0:0:0:
416,208,15850,1,0,0:0:0:0:
360,200,15916,1,8,0:0:0:0:
392,192,16049,1,8,0:0:0:0:
392,200,16181,1,0,0:0:0:0:
392,200,16313,1,0,0:0:0:0:
400,215,16379,1,0,0:0:0:0:
360,200,16445,1,8,0:0:0:0:
392,200,16577,1,8,0:0:0:0:
392,200,16709,1,0,0:0:0:0:
392,200,16776,1,0,0:0:0:0:
392,200,16842,1,0,0:0:0:0:
392,200,16908,1,0,0:0:0:0:
356,204,16974,1,8,0:0:0:0:
392,200,17106,1,8,0:0:0:0:
392,200,17238,1,0,0:0:0:0:
396,188,17370,1,0,0:0:0:0:
396,210,17436,1,0,0:0:0:0:
364,192,17502,1,8,0:0:0:0:
428,184,17635,1,8,0:0:0:0:
416,188,17767,1,0,0:0:0:0:
396,184,17833,1,0,0:0:0:0:
408,196,17899,1,8,0:0:0:0:
416,188,17965,1,0,0:0:0:0:
360,196,18031,1,8,0:0:0:0:
396,184,18163,1,8,0:0:0:0:
424,172,18295,1,0,0:0:0:0:
424,172,18427,1,0,0:0:0:0:
394,222,18493,1,0,0:0:0:0:
352,176,18560,1,8,0:0:0:0:
360,200,18692,1,8,0:0:0:0:
432,184,18824,1,0,0:0:0:0:
416,188,18890,1,0,0:0:0:0:
432,184,18956,1,0,0:0:0:0:
440,184,19022,1,0,0:0:0:0:
360,200,19088,1,8,0:0:0:0:
424,188,19220,1,12,0:0:0:0:
456,192,19485,1,0,0:0:0:0:
304,264,19551,1,0,0:0:0:0:
360,200,19617,1,8,0:0:0:0:
440,176,19749,1,0,0:0:0:0:
376,224,19881,1,8,0:0:0:0:
328,240,19947,1,8,0:0:0:0:
308,212,20013,1,8,0:0:0:0:
360,224,20079,1,8,0:0:0:0:
360,224,20146,1,0,0:0:0:0:
336,220,20278,1,0,0:0:0:0:
384,200,20410,1,4,0:0:0:0:
360,200,20674,1,8,0:0:0:0:
292,184,20939,1,0,0:0:0:0:
328,200,21071,1,0,0:0:0:0:
356,204,21203,1,8,0:0:0:0:
360,232,21335,1,0,0:0:0:0:
336,216,21467,1,0,0:0:0:0:
432,192,21731,1,8,0:0:0:0:
396,200,21863,1,0,0:0:0:0:
384,236,22128,1,0,0:0:0:0:
376,208,22260,1,8,0:0:0:0:
376,208,22392,1,0,0:0:0:0:
332,248,22524,1,0,0:0:0:0:
360,220,22657,1,0,0:0:0:0:
368,212,22723,1,0,0:0:0:0:
392,208,22789,1,8,0:0:0:0:
364,220,22921,1,0,0:0:0:0:
360,220,23053,1,8,0:0:0:0:
364,224,23185,1,0,0:0:0:0:
408,208,23317,1,8,0:0:0:0:
368,196,23450,1,8,0:0:0:0:
316,244,23582,1,0,0:0:0:0:
312,188,23846,1,8,0:0:0:0:
388,192,23978,1,8,0:0:0:0:
344,264,24110,1,0,0:0:0:0:
392,208,24242,1,0,0:0:0:0:
388,228,24309,1,0,0:0:0:0:
408,184,24375,1,8,0:0:0:0:
356,216,24507,1,0,0:0:0:0:
304,316,24639,1,0,0:0:0:0:
392,184,24903,1,8,0:0:0:0:
360,216,25168,1,0,0:0:0:0:
360,220,25300,1,0,0:0:0:0:
408,196,25432,1,8,0:0:0:0:
364,216,25564,1,0,0:0:0:0:
356,232,25696,1,0,0:0:0:0:
404,208,25961,1,8,0:0:0:0:
400,212,26093,1,0,0:0:0:0:
400,216,26357,1,0,0:0:0:0:
404,208,26489,1,8,0:0:0:0:
400,216,26621,1,0,0:0:0:0:
340,268,26753,1,0,0:0:0:0:
444,208,26886,1,0,0:0:0:0:
408,196,27018,1,8,0:0:0:0:
392,200,27150,1,0,0:0:0:0:
432,208,27282,1,8,0:0:0:0:
432,208,27414,1,0,0:0:0:0:
384,224,27480,1,0,0:0:0:0:
396,208,27546,1,8,0:0:0:0:
376,216,27679,1,8,0:0:0:0:
404,208,27943,1,0,0:0:0:0:
344,248,28075,1,8,0:0:0:0:
340,232,28207,1,0,0:0:0:0:
352,224,28339,1,8,0:0:0:0:
244,248,28405,1,8,0:0:0:0:
288,256,28472,1,0,0:0:0:0:
368,216,28604,1,8,0:0:0:0:
408,208,28868,1,4,0:0:0:0:
408,228,29132,1,8,0:0:0:0:
420,248,29264,1,0,0:0:0:0:
392,216,29397,1,8,0:0:0:0:
392,216,29529,1,0,0:0:0:0:
428,232,29595,1,0,0:0:0:0:
400,204,29661,1,8,0:0:0:0:
424,240,29793,1,0,0:0:0:0:
404,212,29925,1,8,0:0:0:0:
424,248,29991,1,8,0:0:0:0:
424,248,30057,1,0,0:0:0:0:
416,208,30190,1,8,0:0:0:0:
428,216,30322,1,0,0:0:0:0:
424,248,30388,1,0,0:0:0:0:
424,248,30454,1,8,0:0:0:0:
384,256,30586,1,0,0:0:0:0:
384,256,30718,1,8,0:0:0:0:
384,264,30850,1,0,0:0:0:0:
412,260,31115,1,0,0:0:0:0:
428,188,31247,1,8,0:0:0:0:
432,200,31379,1,0,0:0:0:0:
416,216,31511,1,8,0:0:0:0:
428,200,31577,1,8,0:0:0:0:
128,304,31643,1,0,0:0:0:0:
468,208,31776,1,8,0:0:0:0:
396,232,31908,1,8,0:0:0:0:
440,208,32040,1,0,0:0:0:0:
392,208,32172,1,8,0:0:0:0:
396,208,32238,1,8,0:0:0:0:
412,212,32304,1,8,0:0:0:0:
416,228,32436,1,8,0:0:0:0:
436,220,32568,1,0,0:0:0:0:
412,240,32701,1,0,0:0:0:0:
288,184,32767,1,0,0:0:0:0:
436,208,32833,1,8,0:0:0:0:
436,208,32965,1,8,0:0:0:0:
412,248,33097,1,0,0:0:0:0:
416,216,33361,1,8,0:0:0:0:
360,280,33494,1,0,0:0:0:0:
452,200,33626,1,0,0:0:0:0:
372,264,33692,1,0,0:0:0:0:
452,200,33758,1,0,0:0:0:0:
472,232,33890,1,8,0:0:0:0:
412,248,34022,1,8,0:0:0:0:
432,216,34154,1,0,0:0:0:0:
376,240,34220,1,0,0:0:0:0:
436,220,34287,1,0,0:0:0:0:
476,212,34419,1,8,0:0:0:0:
452,220,34551,1,0,0:0:0:0:
444,208,34617,1,0,0:0:0:0:
404,216,34683,1,8,0:0:0:0:
480,200,34815,1,0,0:0:0:0:
452,220,34947,1,8,0:0:0:0:
452,220,35079,1,8,0:0:0:0:
444,204,35344,1,0,0:0:0:0:
440,248,35410,1,0,0:0:0:0:
428,200,35476,1,8,0:0:0:0:
408,212,35608,1,8,0:0:0:0:
424,208,35740,1,0,0:0:0:0:
408,232,35806,1,0,0:0:0:0:
424,208,35872,1,8,0:0:0:0:
488,240,36005,1,0,0:0:0:0:
408,232,36137,1,8,0:0:0:0:
456,224,36401,1,0,0:0:0:0:
444,200,36533,1,8,0:0:0:0:
400,240,36665,1,0,0:0:0:0:
424,216,36798,1,8,0:0:0:0:
356,240,36864,1,8,0:0:0:0:
392,224,36930,1,8,0:0:0:0:
400,216,36996,1,8,0:0:0:0:
436,240,37062,1,0,0:0:0:0:
416,232,37194,1,8,0:0:0:0:
416,216,37326,1,4,0:0:0:0:
384,196,37723,1,0,0:0:0:0:
424,212,37855,1,8,0:0:0:0:
424,212,38119,1,0,0:0:0:0:
416,216,38516,1,0,0:0:0:0:
392,212,38780,1,0,0:0:0:0:
408,216,38912,1,8,0:0:0:0:
436,208,39176,1,0,0:0:0:0:
436,216,39441,1,0,0:0:0:0:
368,204,39837,1,8,0:0:0:0:
408,216,39969,1,0,0:0:0:0:
400,220,40234,1,0,0:0:0:0:
408,204,40630,1,8,0:0:0:0:
400,288,40894,1,0,0:0:0:0:
408,204,41027,1,8,0:0:0:0:
396,228,41291,1,8,0:0:0:0:
400,224,41555,1,0,0:0:0:0:
424,208,41952,1,8,0:0:0:0:
204,144,42084,1,0,0:0:0:0:
464,200,42348,1,0,0:0:0:0:
432,232,42613,1,0,0:0:0:0:
464,200,43009,1,8,0:0:0:0:
424,204,43141,1,0,0:0:0:0:
456,208,43405,1,8,0:0:0:0:
432,212,43670,1,0,0:0:0:0:
404,216,44066,1,8,0:0:0:0:
388,264,44198,1,0,0:0:0:0:
436,208,44463,1,0,0:0:0:0:
340,256,44727,1,8,0:0:0:0:
340,256,44859,1,0,0:0:0:0:
368,256,45123,1,0,0:0:0:0:
412,216,45256,1,8,0:0:0:0:
332,200,45388,1,0,0:0:0:0:
412,280,45520,1,8,0:0:0:0:
388,216,45652,1,4,0:0:0:0:
376,248,45916,1,0,0:0:0:0:
424,208,46049,1,8,0:0:0:0:
400,204,46181,1,0,0:0:0:0:
396,212,46313,1,0,0:0:0:0:
396,212,46379,1,0,0:0:0:0:
428,216,46445,1,0,0:0:0:0:
424,216,46577,1,8,0:0:0:0:
376,220,46709,1,8,0:0:0:0:
380,228,46842,1,0,0:0:0:0:
388,264,46974,1,0,0:0:0:0:
364,284,47040,1,0,0:0:0:0:
364,192,47106,1,8,0:0:0:0:
380,228,47238,1,0,0:0:0:0:
360,196,47502,1,8,0:0:0:0:
356,240,47767,1,4,0:0:0:0:
368,220,48031,1,0,0:0:0:0:
360,200,48163,1,8,0:0:0:0:
368,220,48295,1,0,0:0:0:0:
456,196,48427,1,8,0:0:0:0:
436,216,48494,1,8,0:0:0:0:
360,200,48560,1,0,0:0:0:0:
436,216,48692,1,8,0:0:0:0:
400,216,48824,1,0,0:0:0:0:
392,204,48956,1,12,0:0:0:0:
400,240,49088,1,0,0:0:0:0:
416,232,49154,1,0,0:0:0:0:
360,200,49220,1,8,0:0:0:0:
428,192,49353,1,0,0:0:0:0:
432,200,49617,1,8,0:0:0:0:
292,176,49881,1,4,0:0:0:0:
352,180,50146,1,0,0:0:0:0:
360,200,50278,1,8,0:0:0:0:
368,232,50410,1,8,0:0:0:0:
352,232,50542,1,0,0:0:0:0:
304,224,50674,1,0,0:0:0:0:
360,224,50740,1,0,0:0:0:0:
356,204,50806,1,8,0:0:0:0:
360,224,50939,1,0,0:0:0:0:
380,196,51071,1,8,0:0:0:0:
364,192,51335,1,8,0:0:0:0:
352,216,51467,1,0,0:0:0:0:
344,212,51731,1,0,0:0:0:0:
336,204,51798,1,0,0:0:0:0:
288,192,51864,1,0,0:0:0:0:
388,240,51996,1,0,0:0:0:0:
384,240,52128,1,12,0:0:0:0:
360,200,52392,1,8,0:0:0:0:
384,212,52657,1,8,0:0:0:0:
344,152,52789,1,0,0:0:0:0:
360,200,52921,1,8,0:0:0:0:
384,264,53053,1,4,0:0:0:0:
364,224,53317,1,0,0:0:0:0:
368,196,53450,1,8,0:0:0:0:
368,208,53582,1,0,0:0:0:0:
388,252,53714,1,0,0:0:0:0:
390,252,53780,1,0,0:0:0:0:
344,208,53846,1,0,0:0:0:0:
360,208,53978,1,8,0:0:0:0:
360,200,54242,1,4,0:0:0:0:
368,236,54374,1,0,0:0:0:0:
364,192,54507,1,8,0:0:0:0:
436,208,54573,1,0,0:0:0:0:
372,212,54639,1,0,0:0:0:0:
372,212,54771,1,8,0:0:0:0:
372,212,54903,1,0,0:0:0:0:
340,268,54969,1,0,0:0:0:0:
360,196,55035,1,8,0:0:0:0:
408,204,55168,1,8,0:0:0:0:
408,260,55300,1,0,0:0:0:0:
424,244,55432,1,8,0:0:0:0:
368,232,55498,1,8,0:0:0:0:
432,208,55564,1,0,0:0:0:0:
360,200,55696,1,8,0:0:0:0:
336,248,55828,1,8,0:0:0:0:
500,244,55894,1,8,0:0:0:0:
356,248,55961,1,0,0:0:0:0:
384,264,56027,1,0,0:0:0:0:
360,200,56093,1,8,0:0:0:0:
384,216,56225,1,8,0:0:0:0:
376,208,56357,1,0,0:0:0:0:
376,208,56489,1,0,0:0:0:0:
360,200,56621,1,8,0:0:0:0:
424,200,56687,1,0,0:0:0:0:
376,208,56753,1,0,0:0:0:0:
384,224,56886,1,8,0:0:0:0:
384,224,57018,1,0,0:0:0:0:
352,252,57084,1,0,0:0:0:0:
360,200,57150,1,8,0:0:0:0:
400,240,57282,1,8,0:0:0:0:
384,224,57414,1,0,0:0:0:0:
376,216,57546,1,8,0:0:0:0:
408,212,57613,1,0,0:0:0:0:
408,212,57679,1,8,0:0:0:0:
468,188,57811,1,8,0:0:0:0:
432,204,57943,1,8,0:0:0:0:
396,264,58009,1,8,0:0:0:0:
432,208,58075,1,0,0:0:0:0:
336,232,58141,1,0,0:0:0:0:
356,204,58207,1,8,0:0:0:0:
360,232,58273,1,8,0:0:0:0:
424,212,58339,1,8,0:0:0:0:
188,156,58472,1,0,0:0:0:0:
356,244,58604,1,0,0:0:0:0:
364,192,58736,1,8,0:0:0:0:
388,240,58868,1,0,0:0:0:0:
356,244,59000,1,8,0:0:0:0:
360,212,59066,1,8,0:0:0:0:
392,260,59132,1,0,0:0:0:0:
360,196,59264,1,8,0:0:0:0:
344,200,59397,1,0,0:0:0:0:
360,232,59529,1,8,0:0:0:0:
384,228,59595,1,8,0:0:0:0:
296,184,59661,1,0,0:0:0:0:
376,272,59727,1,0,0:0:0:0:
360,200,59793,1,0,0:0:0:0:
328,220,59925,1,8,0:0:0:0:
352,232,60057,1,0,0:0:0:0:
292,264,60190,1,0,0:0:0:0:
376,272,60256,1,0,0:0:0:0:
408,208,60322,1,8,0:0:0:0:
376,272,60454,1,8,0:0:0:0:
368,240,60586,1,0,0:0:0:0:
392,284,60652,1,0,0:0:0:0:
368,240,60718,1,0,0:0:0:0:
392,284,60784,1,0,0:0:0:0:
380,248,60850,1,8,0:0:0:0:
380,248,60983,1,0,0:0:0:0:
380,248,61115,1,8,0:0:0:0:
380,248,61181,1,8,0:0:0:0:
360,200,61247,1,0,0:0:0:0:
408,228,61379,1,8,0:0:0:0:
384,272,61511,1,4,0:0:0:0:
396,232,61776,1,0,0:0:0:0:
376,224,61842,1,0,0:0:0:0:
360,200,61908,1,8,0:0:0:0:
384,232,62040,1,0,0:0:0:0:
384,232,62106,1,0,0:0:0:0:
344,212,62172,1,8,0:0:0:0:
392,212,62304,1,0,0:0:0:0:
384,208,62370,1,0,0:0:0:0:
356,204,62436,1,8,0:0:0:0:
332,220,62502,1,0,0:0:0:0:
400,204,62568,1,8,0:0:0:0:
396,196,62701,1,4,0:0:0:0:
364,192,62833,1,0,0:0:0:0:
408,208,62965,1,8,0:0:0:0:
436,188,63031,1,0,0:0:0:0:
420,192,63097,1,0,0:0:0:0:
360,196,63229,1,8,0:0:0:0:
412,200,63361,1,0,0:0:0:0:
304,272,63427,1,0,0:0:0:0:
388,316,63494,1,8,0:0:0:0:
416,200,63626,1,8,0:0:0:0:
416,192,63758,1,0,0:0:0:0:
388,280,63824,1,0,0:0:0:0:
360,200,63890,1,8,0:0:0:0:
396,248,63956,1,8,0:0:0:0:
448,172,64022,1,0,0:0:0:0:
408,176,64154,1,8,0:0:0:0:
392,280,64220,1,8,0:0:0:0:
412,240,64287,1,0,0:0:0:0:
412,236,64419,1,0,0:0:0:0:
412,240,64485,1,0,0:0:0:0:
360,200,64551,1,8,0:0:0:0:
420,228,64683,1,8,0:0:0:0:
324,196,64815,1,0,0:0:0:0:
384,224,64947,1,0,0:0:0:0:
360,200,65079,1,8,0:0:0:0:
384,224,65146,1,0,0:0:0:0:
384,224,65212,1,0,0:0:0:0:
384,204,65344,1,8,0:0:0:0:
404,196,65476,1,0,0:0:0:0:
356,248,65542,1,0,0:0:0:0:
348,212,65608,1,8,0:0:0:0:
360,208,65740,1,8,0:0:0:0:
360,204,65872,1,0,0:0:0:0:
400,244,65939,1,0,0:0:0:0:
412,192,66005,1,8,0:0:0:0:
392,232,66071,1,8,0:0:0:0:
360,200,66137,1,0,0:0:0:0:
424,264,66203,1,0,0:0:0:0:
424,196,66269,1,8,0:0:0:0:
440,184,66401,1,8,0:0:0:0:
440,184,66467,1,8,0:0:0:0:
428,192,66533,1,0,0:0:0:0:
420,192,66599,1,0,0:0:0:0:
356,204,66665,1,8,0:0:0:0:
352,256,66798,1,8,0:0:0:0:
404,232,66930,1,4,0:0:0:0:
364,192,67194,1,8,0:0:0:0:
392,280,67326,1,0,0:0:0:0:
392,280,67392,1,0,0:0:0:0:
404,232,67458,1,0,0:0:0:0:
404,232,67590,1,0,0:0:0:0:
360,196,67723,1,8,0:0:0:0:
320,244,67789,1,8,0:0:0:0:
320,264,67855,1,8,0:0:0:0:
384,236,67987,1,0,0:0:0:0:
384,224,68119,1,0,0:0:0:0:
360,200,68251,1,8,0:0:0:0:
360,240,68383,1,0,0:0:0:0:
396,204,68449,1,8,0:0:0:0:
368,224,68515,1,0,0:0:0:0:
384,224,68648,1,0,0:0:0:0:
360,200,68780,1,8,0:0:0:0:
384,256,68846,1,8,0:0:0:0:
352,272,68912,1,0,0:0:0:0:
364,192,69044,1,12,0:0:0:0:
368,260,69176,1,0,0:0:0:0:
360,200,69309,1,8,0:0:0:0:
368,260,69441,1,0,0:0:0:0:
360,196,69573,1,8,0:0:0:0:
344,232,69639,1,8,0:0:0:0:
368,260,69705,1,0,0:0:0:0:
360,200,69837,1,8,0:0:0:0:
368,260,69969,1,0,0:0:0:0:
388,208,70102,1,8,0:0:0:0:
384,208,70168,1,8,0:0:0:0:
360,200,70234,1,0,0:0:0:0:
424,228,70300,1,0,0:0:0:0:
360,200,70366,1,8,0:0:0:0:
400,228,70498,1,4,0:0:0:0:
356,204,70762,1,0,0:0:0:0:
424,204,70828,1,0,0:0:0:0:
376,216,70894,1,8,0:0:0:0:
384,244,70961,1,8,0:0:0:0:
376,208,71027,1,8,0:0:0:0:
448,196,71159,1,4,0:0:0:0:
396,224,71291,1,0,0:0:0:0:
372,220,71357,1,0,0:0:0:0:
364,192,71423,1,8,0:0:0:0:
372,228,71555,1,8,0:0:0:0:
368,192,71687,1,0,0:0:0:0:
368,200,71753,1,0,0:0:0:0:
368,200,71820,1,0,0:0:0:0:
348,232,71886,1,0,0:0:0:0:
360,196,71952,1,8,0:0:0:0:
376,228,72084,1,8,0:0:0:0:
372,228,72216,1,0,0:0:0:0:
372,228,72348,1,0,0:0:0:0:
364,216,72414,1,0,0:0:0:0:
360,200,72480,1,8,0:0:0:0:
372,228,72613,1,8,0:0:0:0:
368,216,72745,1,0,0:0:0:0:
420,184,72811,1,0,0:0:0:0:
408,196,72877,1,8,0:0:0:0:
368,216,72943,1,0,0:0:0:0:
360,200,73009,1,8,0:0:0:0:
312,236,73141,1,8,0:0:0:0:
388,204,73273,1,0,0:0:0:0:
388,208,73405,1,0,0:0:0:0:
408,248,73472,1,0,0:0:0:0:
360,200,73538,1,8,0:0:0:0:
388,208,73670,1,8,0:0:0:0:
388,208,73802,1,0,0:0:0:0:
388,208,73868,1,0,0:0:0:0:
388,208,73934,1,0,0:0:0:0:
388,208,74000,1,0,0:0:0:0:
360,200,74066,1,8,0:0:0:0:
400,200,74198,1,8,0:0:0:0:
388,208,74331,1,0,0:0:0:0:
400,204,74463,1,8,0:0:0:0:
408,204,74529,1,0,0:0:0:0:
360,200,74595,1,8,0:0:0:0:
400,204,74727,1,8,0:0:0:0:
424,196,74859,1,8,0:0:0:0:
436,224,74925,1,8,0:0:0:0:
376,216,74991,1,0,0:0:0:0:
412,256,75057,1,0,0:0:0:0:
356,204,75124,1,8,0:0:0:0:
312,228,75256,1,8,0:0:0:0:
384,232,75388,1,0,0:0:0:0:
392,232,75454,1,0,0:0:0:0:
396,232,75520,1,0,0:0:0:0:
364,192,75652,1,8,0:0:0:0:
400,232,75784,1,0,0:0:0:0:
396,224,75916,1,0,0:0:0:0:
396,224,75983,1,0,0:0:0:0:
396,224,76049,1,0,0:0:0:0:
340,188,76115,1,0,0:0:0:0:
360,196,76181,1,8,0:0:0:0:
360,244,76313,1,8,0:0:0:0:
412,220,76445,1,0,0:0:0:0:
348,224,76511,1,0,0:0:0:0:
412,220,76577,1,0,0:0:0:0:
360,200,76709,1,8,0:0:0:0:
412,220,76842,1,0,0:0:0:0:
360,224,76974,1,0,0:0:0:0:
424,204,77040,1,0,0:0:0:0:
424,204,77106,1,8,0:0:0:0:
360,224,77172,1,0,0:0:0:0:
360,200,77238,1,8,0:0:0:0:
360,224,77370,1,8,0:0:0:0:
388,208,77502,1,0,0:0:0:0:
424,200,77568,1,0,0:0:0:0:
392,212,77635,1,0,0:0:0:0:
360,200,77767,1,8,0:0:0:0:
392,212,77899,1,0,0:0:0:0:
392,212,78031,1,0,0:0:0:0:
388,248,78097,1,0,0:0:0:0:
392,212,78163,1,0,0:0:0:0:
360,200,78295,1,8,0:0:0:0:
396,216,78427,1,0,0:0:0:0:
364,264,78692,1,0,0:0:0:0:
404,208,78758,1,0,0:0:0:0:
360,200,78824,1,8,0:0:0:0:
394,241,78956,1,8,0:0:0:0:
394,243,79088,1,0,0:0:0:0:
368,224,79220,1,0,0:0:0:0:
392,220,79287,1,0,0:0:0:0:
356,204,79353,1,8,0:0:0:0:
396,200,79419,1,0,0:0:0:0:
396,200,79485,1,8,0:0:0:0:
324,224,79617,1,4,0:0:0:0:
