osu file format v14

[General]
AudioFilename: life.mp3
AudioLeadIn: 0
PreviewTime: 53580
Countdown: 0
SampleSet: Normal
StackLeniency: 0.7
Mode: 1
LetterboxInBreaks: 0
WidescreenStoryboard: 0

[Editor]
DistanceSpacing: 1.5
BeatDivisor: 4
GridSize: 4
TimelineZoom: 1.7

[Metadata]
Title:Sendan Life
TitleUnicode:センダンライフ
Artist:Remo Prototype (CV: Hanamori Yumiri)
ArtistUnicode:リモ Prototype (CV: 花守ゆみり)
Creator:nyanmi-1828
Version:Futsuu
Source:ガラスの花と壊す世界
Tags:vocaloid Chukka やしきん yashikin Glass no Hana to Kowasu Sekai GARAKOWA Restore the World Vitreous Flower Destroy the World KitajimaYN Yuni kai53247 anime movie film japanese KTYN rimo D.backup
BeatmapID:1000659
BeatmapSetID:449950

[Difficulty]
HPDrainRate:6
CircleSize:2
OverallDifficulty:4
ApproachRate:5
SliderMultiplier:1.2
SliderTickRate:1

[Events]
//Background and Video events
0,0,"BG.jpg",0,0
//Break Periods
//Storyboard Layer 0 (Background)
//Storyboard Layer 1 (Fail)
//Storyboard Layer 2 (Pass)
//Storyboard Layer 3 (Foreground)
//Storyboard Layer 4 (Overlay)
//Storyboard Sound Samples

[TimingPoints]
322,264.31718061674,4,1,0,40,1,0
322,-142.857142857143,4,1,0,40,0,0
7722,-100,4,1,0,80,0,0
20406,-100,4,1,0,73,0,0
37586,-142.857142857143,4,1,0,60,0,0
45648,-100,4,1,0,75,0,0
54242,-100,4,1,0,90,0,1
71159,-100,4,1,0,80,0,0

[HitObjects]
256,196,7723,5,0,0:0:0:0:
331,192,8251,1,0,0:0:0:0:
312,228,8648,1,0,0:0:0:0:
312,192,9573,1,12,0:0:0:0:
232,208,9837,1,0,0:0:0:0:
324,245,10366,1,0,0:0:0:0:
296,224,10762,1,0,0:0:0:0:
224,192,11423,1,0,0:0:0:0:
256,200,11687,1,8,0:0:0:0:
245,209,11952,1,4,0:0:0:0:
300,208,12480,1,8,0:0:0:0:
376,220,13009,1,0,0:0:0:0:
376,220,13273,1,0,0:0:0:0:
420,196,13538,1,8,0:0:0:0:
368,188,14066,1,0,0:0:0:0:
344,192,14595,1,8,0:0:0:0:
360,200,15124,1,0,0:0:0:0:
320,212,15388,1,8,0:0:0:0:
328,172,15652,1,8,0:0:0:0:
392,200,16181,1,0,0:0:0:0:
356,204,16709,1,8,0:0:0:0:
392,200,17238,1,0,0:0:0:0:
392,200,17502,1,0,0:0:0:0:
416,188,17767,1,8,0:0:0:0:
424,172,18295,1,0,0:0:0:0:
416,188,18824,1,8,0:0:0:0:
424,188,19220,1,12,0:0:0:0:
376,200,19617,1,0,0:0:0:0:
440,176,19881,1,8,0:0:0:0:
368,192,20013,1,8,0:0:0:0:
380,208,20146,1,8,0:0:0:0:
384,200,20410,1,4,0:0:0:0:
360,200,20939,1,8,0:0:0:0:
336,216,21467,1,0,0:0:0:0:
390,216,21996,1,8,0:0:0:0:
384,200,22260,1,0,0:0:0:0:
376,208,22524,1,0,0:0:0:0:
368,196,23053,1,0,0:0:0:0:
360,220,23582,1,8,0:0:0:0:
372,216,24110,1,8,0:0:0:0:
372,216,24374,1,8,0:0:0:0:
356,216,24639,1,0,0:0:0:0:
392,184,25168,1,8,0:0:0:0:
356,232,25696,1,0,0:0:0:0:
406,227,26225,1,8,0:0:0:0:
400,216,26489,1,8,0:0:0:0:
400,216,26753,1,0,0:0:0:0:
376,216,27282,1,0,0:0:0:0:
408,196,27811,1,8,0:0:0:0:
404,256,28339,1,0,0:0:0:0:
276,220,28604,1,8,0:0:0:0:
352,224,28868,1,4,0:0:0:0:
376,211,29396,1,0,0:0:0:0:
416,208,29925,1,8,0:0:0:0:
428,216,30322,1,0,0:0:0:0:
320,248,30718,1,0,0:0:0:0:
412,260,30983,1,8,0:0:0:0:
384,256,31511,1,0,0:0:0:0:
440,208,32040,1,0,0:0:0:0:
436,204,32436,1,8,0:0:0:0:
436,204,32833,1,0,0:0:0:0:
436,208,33097,1,0,0:0:0:0:
340,240,33625,1,8,0:0:0:0:
432,216,34154,1,0,0:0:0:0:
452,220,34551,1,0,0:0:0:0:
372,236,34947,1,0,0:0:0:0:
432,200,35212,1,8,0:0:0:0:
408,224,35740,1,0,0:0:0:0:
488,240,36137,1,8,0:0:0:0:
456,224,36533,1,0,0:0:0:0:
444,200,36798,1,8,0:0:0:0:
392,224,37062,1,8,0:0:0:0:
416,216,37326,1,4,0:0:0:0:
424,212,38119,1,0,0:0:0:0:
408,216,38912,1,8,0:0:0:0:
408,216,39441,1,0,0:0:0:0:
408,204,40234,1,0,0:0:0:0:
268,208,41027,1,8,0:0:0:0:
408,204,41555,1,0,0:0:0:0:
456,208,42613,1,8,0:0:0:0:
464,200,43670,1,0,0:0:0:0:
416,220,44727,1,8,0:0:0:0:
412,216,45256,1,8,0:0:0:0:
388,216,45652,1,4,0:0:0:0:
424,208,46049,1,8,0:0:0:0:
396,212,46313,1,0,0:0:0:0:
424,216,46577,1,8,0:0:0:0:
380,228,46842,1,0,0:0:0:0:
380,228,47238,1,8,0:0:0:0:
356,240,47767,1,4,0:0:0:0:
368,220,48163,1,0,0:0:0:0:
360,200,48427,1,8,0:0:0:0:
360,200,48692,1,0,0:0:0:0:
392,204,48956,1,12,0:0:0:0:
312,208,49353,1,8,0:0:0:0:
292,176,49881,1,4,0:0:0:0:
360,224,50278,1,8,0:0:0:0:
356,204,50543,1,0,0:0:0:0:
360,200,50807,1,8,0:0:0:0:
352,232,51071,1,0,0:0:0:0:
364,192,51467,1,8,0:0:0:0:
344,212,51864,1,0,0:0:0:0:
384,240,52128,1,12,0:0:0:0:
384,212,52657,1,8,0:0:0:0:
368,196,53053,1,4,0:0:0:0:
368,224,53714,1,8,0:0:0:0:
416,228,53846,1,8,0:0:0:0:
352,208,53978,1,8,0:0:0:0:
360,200,54242,1,4,0:0:0:0:
364,192,54771,1,8,0:0:0:0:
360,196,55168,1,0,0:0:0:0:
404,228,55696,1,0,0:0:0:0:
432,208,55828,1,8,0:0:0:0:
368,244,56092,1,8,0:0:0:0:
376,208,56357,1,0,0:0:0:0:
384,216,56886,1,0,0:0:0:0:
360,200,57282,1,8,0:0:0:0:
408,224,57810,1,0,0:0:0:0:
432,204,57943,1,8,0:0:0:0:
368,248,58207,1,8,0:0:0:0:
356,244,58472,1,0,0:0:0:0:
356,244,59000,1,0,0:0:0:0:
360,232,59529,1,8,0:0:0:0:
360,200,59925,1,0,0:0:0:0:
408,208,60322,1,8,0:0:0:0:
368,240,60586,1,0,0:0:0:0:
384,272,60850,1,8,0:0:0:0:
336,236,61379,1,8,0:0:0:0:
344,212,61908,1,0,0:0:0:0:
200,292,62172,1,8,0:0:0:0:
420,228,62304,1,8,0:0:0:0:
408,180,62436,1,0,0:0:0:0:
396,196,62701,1,4,0:0:0:0:
436,188,63229,1,8,0:0:0:0:
412,200,63626,1,0,0:0:0:0:
392,216,64154,1,0,0:0:0:0:
408,176,64287,1,8,0:0:0:0:
360,200,64551,1,8,0:0:0:0:
384,224,64815,1,0,0:0:0:0:
412,192,65344,1,0,0:0:0:0:
360,200,65740,1,8,0:0:0:0:
388,208,66269,1,0,0:0:0:0:
364,208,66401,1,8,0:0:0:0:
404,196,66665,1,8,0:0:0:0:
228,216,66930,1,4,0:0:0:0:
404,232,67326,1,0,0:0:0:0:
364,192,67723,1,8,0:0:0:0:
360,200,68251,1,0,0:0:0:0:
240,224,68780,1,8,0:0:0:0:
324,176,69309,1,8,0:0:0:0:
400,256,69573,1,0,0:0:0:0:
420,204,69837,1,8,0:0:0:0:
388,208,70102,1,8,0:0:0:0:
424,200,70630,1,8,0:0:0:0:
400,224,71159,1,4,0:0:0:0:
368,192,71687,1,8,0:0:0:0:
372,228,72216,1,0,0:0:0:0:
268,256,72480,1,0,0:0:0:0:
420,184,72745,1,8,0:0:0:0:
388,204,73273,1,0,0:0:0:0:
388,208,73802,1,8,0:0:0:0:
400,200,74331,1,0,0:0:0:0:
348,216,74595,1,8,0:0:0:0:
432,188,74859,1,8,0:0:0:0:
384,232,75388,1,0,0:0:0:0:
396,224,75916,1,8,0:0:0:0:
412,220,76445,1,0,0:0:0:0:
360,200,76709,1,0,0:0:0:0:
424,200,76974,1,8,0:0:0:0:
388,208,77502,1,0,0:0:0:0:
392,212,78031,1,8,0:0:0:0:
360,200,78427,1,8,0:0:0:0:
408,208,78692,1,0,0:0:0:0:
360,200,78824,1,8,0:0:0:0:
368,224,79088,1,0,0:0:0:0:
404,232,79353,1,8,0:0:0:0:
324,224,79617,1,4,0:0:0:0:
