osu file format v14

[General]
AudioFilename: audio.mp3
AudioLeadIn: 0
PreviewTime:73336
Countdown: 0
SampleSet: Normal
StackLeniency: 0.7
Mode: 1
LetterboxInBreaks: 0
WidescreenStoryboard: 1

[Editor]
DistanceSpacing: 0.1
BeatDivisor: 2
GridSize: 32
TimelineZoom: 0.8000002

[Metadata]
Title:Sendan Life (katagiri Bootleg)
TitleUnicode:センダンライフ (かたぎり Bootleg)
Artist:Remo Prototype (CV: Hanamori Yumiri)
ArtistUnicode:リモ Prototype (CV: 花守ゆみり)
Creator:iceOC
Version:Cynp-zy's Futsuu
Source:ガラスの花と壊す世界
Tags:japanese electronic anime chukka やしきん yashikin glass no hana to kowasu sekai garasu garakowa restore the world vitreous flower destroy d.backup genjuro uone cynplytholowazy -gn junior hivie
BeatmapID:2564923
BeatmapSetID:1118054

[Difficulty]
HPDrainRate:8
CircleSize:7
OverallDifficulty:4
ApproachRate:10
SliderMultiplier:1.05
SliderTickRate:1

[Events]
//Background and Video events
0,0,"bg2.jpg",0,70
//Break Periods
//Storyboard Layer 0 (Background)
//Storyboard Layer 1 (Fail)
//Storyboard Layer 2 (Pass)
//Storyboard Layer 3 (Foreground)
//Storyboard Layer 4 (Overlay)
//Storyboard Sound Samples

[TimingPoints]
33254,230.769230769231,4,1,0,100,1,0
33254,-100,4,1,0,100,0,0
44561,-111.111111111111,4,1,0,100,0,0
51715,-100,4,1,0,100,0,0
59215,-111.111111111111,4,1,0,100,0,0
66369,-100,4,1,0,100,0,0
73840,-100,4,1,0,100,0,0
73869,-90.9090909090909,4,1,0,100,0,1
88638,-90.9090909090909,4,1,0,100,0,0
88869,-100,4,1,0,100,0,0
99946,-111.111111111111,4,1,0,100,0,0
102369,-100,4,1,0,100,0,0
102830,-111.111111111111,4,1,0,100,0,0
103292,-100,4,1,0,100,0,0
111023,-105.263157894737,4,1,0,100,0,0
117830,-95.2380952380952,4,1,0,100,0,0
118061,-100,4,1,0,100,0,0
125561,-90.9090909090909,4,1,0,100,0,1
140330,-90.9090909090909,4,1,0,100,0,0
140561,-100,4,1,0,100,0,0
147715,-95.2380952380952,4,1,0,100,0,1
156946,-95.2380952380952,4,1,0,100,0,0
157177,-125,4,1,0,100,0,0
164100,-111.111111111111,4,1,0,100,0,0
171254,-100,4,1,0,100,0,0
171715,-111.111111111111,4,1,0,100,0,0
172638,-90.9090909090909,4,1,0,100,0,1
187407,-90.9090909090909,4,1,0,100,0,0
187523,-100,4,1,0,100,0,0
194792,-90.9090909090909,4,1,0,100,0,1
202177,-90.9090909090909,4,1,0,100,0,0

[HitObjects]
256,192,33254,5,6,0:0:0:0:
256,192,33484,1,6,0:0:0:0:
256,192,33715,1,6,0:0:0:0:
256,192,34061,1,6,0:0:0:0:
256,192,34292,1,6,0:0:0:0:
256,192,34523,1,6,0:0:0:0:
256,192,35100,1,6,0:0:0:0:
256,192,35330,1,6,0:0:0:0:
256,192,35561,1,6,0:0:0:0:
256,192,35907,1,6,0:0:0:0:
256,192,36138,1,6,0:0:0:0:
256,192,36369,1,6,0:0:0:0:
256,192,36946,1,4,0:0:0:0:
256,192,37177,1,2,0:0:0:0:
256,192,37407,1,0,0:0:0:0:
256,192,37638,1,0,0:0:0:0:
256,192,37869,1,2,0:0:0:0:
256,192,38100,1,0,0:0:0:0:
256,192,38330,1,2,0:0:0:0:
256,192,38561,1,2,0:0:0:0:
256,192,38792,1,0,0:0:0:0:
256,192,39023,1,2,0:0:0:0:
256,192,39254,1,0,0:0:0:0:
256,192,39484,1,0,0:0:0:0:
256,192,39715,1,2,0:0:0:0:
256,192,39946,1,0,0:0:0:0:
256,192,40177,1,2,0:0:0:0:
256,192,40638,1,0,0:0:0:0:
256,192,40869,1,2,0:0:0:0:
256,192,41100,1,0,0:0:0:0:
256,192,41330,1,0,0:0:0:0:
256,192,41561,1,2,0:0:0:0:
256,192,41792,1,0,0:0:0:0:
256,192,42023,1,2,0:0:0:0:
256,192,42254,1,2,0:0:0:0:
256,192,42484,1,0,0:0:0:0:
256,192,42715,1,2,0:0:0:0:
256,192,42946,1,0,0:0:0:0:
256,192,43292,1,2,0:0:0:0:
256,192,43638,1,2,0:0:0:0:
256,192,43869,1,2,0:0:0:0:
256,192,43984,1,2,0:0:0:0:
256,192,44100,1,2,0:0:0:0:
256,192,44330,1,4,0:0:0:0:
256,192,44792,1,2,0:0:0:0:
256,192,45023,1,0,0:0:0:0:
256,192,45254,1,2,0:0:0:0:
256,192,45600,1,2,0:0:0:0:
256,192,45946,1,0,0:0:0:0:
256,192,46177,1,2,0:0:0:0:
256,192,46638,1,0,0:0:0:0:
256,192,46869,1,0,0:0:0:0:
256,192,47100,1,2,0:0:0:0:
256,192,47446,1,0,0:0:0:0:
256,192,47792,1,2,0:0:0:0:
256,192,48023,1,0,0:0:0:0:
256,192,48484,1,0,0:0:0:0:
256,192,48715,1,0,0:0:0:0:
256,192,48946,1,2,0:0:0:0:
256,192,49292,1,2,0:0:0:0:
256,192,49638,1,0,0:0:0:0:
256,192,49869,1,0,0:0:0:0:
256,192,50330,1,0,0:0:0:0:
256,192,50561,1,0,0:0:0:0:
256,192,50792,1,2,0:0:0:0:
256,192,51023,1,2,0:0:0:0:
256,192,51254,1,0,0:0:0:0:
256,192,51484,1,2,0:0:0:0:
256,192,51715,1,4,0:0:0:0:
256,192,52177,1,2,0:0:0:0:
256,192,52407,1,0,0:0:0:0:
256,192,52638,1,2,0:0:0:0:
256,192,52984,1,2,0:0:0:0:
256,192,53330,1,0,0:0:0:0:
256,192,53561,1,2,0:0:0:0:
256,192,54023,1,0,0:0:0:0:
256,192,54254,1,0,0:0:0:0:
256,192,54484,1,2,0:0:0:0:
256,192,54830,1,0,0:0:0:0:
256,192,55177,1,2,0:0:0:0:
256,192,55407,1,0,0:0:0:0:
256,192,55869,1,0,0:0:0:0:
256,192,56100,1,0,0:0:0:0:
256,192,56330,1,2,0:0:0:0:
256,192,56677,1,2,0:0:0:0:
256,192,57023,1,2,0:0:0:0:
256,192,57254,1,0,0:0:0:0:
256,192,57484,1,0,0:0:0:0:
256,192,57715,1,2,0:0:0:0:
256,192,57946,1,0,0:0:0:0:
256,192,58177,1,2,0:0:0:0:
256,192,58407,1,0,0:0:0:0:
256,192,58638,1,0,0:0:0:0:
256,192,58869,1,2,0:0:0:0:
256,192,59100,1,4,0:0:0:0:
256,192,59446,1,2,0:0:0:0:
256,192,59792,1,0,0:0:0:0:
256,192,60484,1,2,0:0:0:0:
256,192,60946,1,0,0:0:0:0:
256,192,61292,1,2,0:0:0:0:
256,192,61638,1,0,0:0:0:0:
256,192,62330,1,2,0:0:0:0:
256,192,62792,1,0,0:0:0:0:
256,192,63138,1,2,0:0:0:0:
256,192,63484,1,0,0:0:0:0:
256,192,64177,1,2,0:0:0:0:
256,192,64638,1,0,0:0:0:0:
256,192,65330,1,0,0:0:0:0:
256,192,65561,1,2,0:0:0:0:
256,192,66023,1,6,0:0:0:0:
256,192,66254,1,2,0:0:0:0:
256,192,66484,1,4,0:0:0:0:
256,192,66715,1,0,0:0:0:0:
256,192,66946,1,2,0:0:0:0:
256,192,67177,1,0,0:0:0:0:
256,192,67407,1,2,0:0:0:0:
256,192,67638,1,0,0:0:0:0:
256,192,67869,1,2,0:0:0:0:
256,192,68100,1,2,0:0:0:0:
256,192,68330,1,0,0:0:0:0:
256,192,68792,1,2,0:0:0:0:
256,192,69023,1,0,0:0:0:0:
256,192,69254,1,2,0:0:0:0:
256,192,69484,1,2,0:0:0:0:
256,192,69715,1,2,0:0:0:0:
256,192,69946,1,2,0:0:0:0:
256,192,70177,1,0,0:0:0:0:
256,192,70638,1,0,0:0:0:0:
256,192,70869,1,0,0:0:0:0:
256,192,71100,1,2,0:0:0:0:
256,192,71330,1,0,0:0:0:0:
256,192,71561,1,2,0:0:0:0:
256,192,71792,1,2,0:0:0:0:
256,192,72023,1,0,0:0:0:0:
256,192,72254,1,0,0:0:0:0:
256,192,72484,1,2,0:0:0:0:
256,192,72600,1,2,0:0:0:0:
256,192,72715,1,2,0:0:0:0:
256,192,72946,1,0,0:0:0:0:
256,192,73407,1,0,0:0:0:0:
256,192,73638,1,0,0:0:0:0:
256,192,73869,1,4,0:0:0:0:
256,192,74100,1,2,0:0:0:0:
256,192,74330,1,0,0:0:0:0:
256,192,74561,1,2,0:0:0:0:
256,192,74792,1,0,0:0:0:0:
256,192,75023,1,0,0:0:0:0:
256,192,75254,1,2,0:0:0:0:
256,192,75484,1,0,0:0:0:0:
256,192,75715,1,2,0:0:0:0:
256,192,75946,1,2,0:0:0:0:
256,192,76177,1,0,0:0:0:0:
256,192,76407,1,0,0:0:0:0:
256,192,76638,1,2,0:0:0:0:
256,192,76869,1,2,0:0:0:0:
256,192,77100,1,2,0:0:0:0:
256,192,77561,1,2,0:0:0:0:
256,192,77792,1,0,0:0:0:0:
256,192,78023,1,2,0:0:0:0:
256,192,78254,1,2,0:0:0:0:
256,192,78484,1,2,0:0:0:0:
256,192,78830,1,0,0:0:0:0:
256,192,79177,1,2,0:0:0:0:
256,192,79407,1,0,0:0:0:0:
256,192,79638,1,2,0:0:0:0:
256,192,80100,1,2,0:0:0:0:
256,192,80330,1,0,0:0:0:0:
256,192,80561,1,2,0:0:0:0:
256,192,80792,1,0,0:0:0:0:
256,192,81023,1,0,0:0:0:0:
256,192,81254,1,4,0:0:0:0:
256,192,81484,1,2,0:0:0:0:
256,192,81715,1,0,0:0:0:0:
256,192,81946,1,2,0:0:0:0:
256,192,82177,1,0,0:0:0:0:
256,192,82407,1,0,0:0:0:0:
256,192,82638,1,2,0:0:0:0:
256,192,82869,1,0,0:0:0:0:
256,192,83100,1,2,0:0:0:0:
256,192,83330,1,2,0:0:0:0:
256,192,83561,1,0,0:0:0:0:
256,192,83792,1,0,0:0:0:0:
256,192,84023,1,2,0:0:0:0:
256,192,84254,1,2,0:0:0:0:
256,192,84484,1,2,0:0:0:0:
256,192,84946,1,2,0:0:0:0:
256,192,85292,1,0,0:0:0:0:
256,192,85638,1,2,0:0:0:0:
256,192,85869,1,2,0:0:0:0:
256,192,86100,1,0,0:0:0:0:
256,192,86330,1,0,0:0:0:0:
256,192,86561,1,2,0:0:0:0:
256,192,86792,1,0,0:0:0:0:
256,192,87023,1,0,0:0:0:0:
256,192,87254,1,2,0:0:0:0:
256,192,87484,1,0,0:0:0:0:
256,192,87715,1,2,0:0:0:0:
256,192,87830,1,2,0:0:0:0:
256,192,87946,1,2,0:0:0:0:
256,192,88177,1,0,0:0:0:0:
256,192,88638,1,4,0:0:0:0:
256,192,88869,1,2,0:0:0:0:
256,192,89100,1,0,0:0:0:0:
256,192,89330,1,0,0:0:0:0:
256,192,89561,1,2,0:0:0:0:
256,192,89792,1,0,0:0:0:0:
256,192,90023,1,2,0:0:0:0:
256,192,90254,1,2,0:0:0:0:
256,192,90484,1,0,0:0:0:0:
256,192,90715,1,2,0:0:0:0:
256,192,90946,1,0,0:0:0:0:
256,192,91177,1,0,0:0:0:0:
256,192,91407,1,2,0:0:0:0:
256,192,91638,1,0,0:0:0:0:
256,192,91869,1,2,0:0:0:0:
256,192,92330,1,0,0:0:0:0:
256,192,92561,1,2,0:0:0:0:
256,192,92792,1,0,0:0:0:0:
256,192,93023,1,0,0:0:0:0:
256,192,93254,1,2,0:0:0:0:
256,192,93484,1,0,0:0:0:0:
256,192,93715,1,2,0:0:0:0:
256,192,93946,1,2,0:0:0:0:
256,192,94177,1,0,0:0:0:0:
256,192,94407,1,2,0:0:0:0:
256,192,94638,1,0,0:0:0:0:
256,192,94984,1,2,0:0:0:0:
256,192,95330,1,2,0:0:0:0:
256,192,95561,1,2,0:0:0:0:
256,192,95677,1,2,0:0:0:0:
256,192,95792,1,2,0:0:0:0:
256,192,96023,1,4,0:0:0:0:
256,192,96946,1,4,0:0:0:0:
256,192,97292,1,4,0:0:0:0:
256,192,97638,1,4,0:0:0:0:
256,192,97869,1,4,0:0:0:0:
256,192,98792,1,4,0:0:0:0:
256,192,99138,1,4,0:0:0:0:
256,192,99484,1,4,0:0:0:0:
256,192,99715,1,4,0:0:0:0:
256,192,100638,1,0,0:0:0:0:
256,192,100984,1,2,0:0:0:0:
256,192,101330,1,0,0:0:0:0:
256,192,101561,1,0,0:0:0:0:
256,192,102369,1,2,0:0:0:0:
256,192,102946,1,0,0:0:0:0:
256,192,103177,1,2,0:0:0:0:
256,192,103407,1,4,0:0:0:0:
256,192,103869,1,2,0:0:0:0:
256,192,104100,1,0,0:0:0:0:
256,192,104330,1,2,0:0:0:0:
256,192,104677,1,2,0:0:0:0:
256,192,105023,1,0,0:0:0:0:
256,192,105254,1,2,0:0:0:0:
256,192,105715,1,0,0:0:0:0:
256,192,105946,1,0,0:0:0:0:
256,192,106177,1,2,0:0:0:0:
256,192,106523,1,0,0:0:0:0:
256,192,106869,1,2,0:0:0:0:
256,192,107100,1,0,0:0:0:0:
256,192,107561,1,0,0:0:0:0:
256,192,107792,1,0,0:0:0:0:
256,192,108023,1,2,0:0:0:0:
256,192,108369,1,2,0:0:0:0:
256,192,108715,1,2,0:0:0:0:
256,192,108946,1,2,0:0:0:0:
256,192,109177,1,0,0:0:0:0:
256,192,109407,1,2,0:0:0:0:
256,192,109754,1,2,0:0:0:0:
256,192,110100,1,0,0:0:0:0:
256,192,110330,1,0,0:0:0:0:
256,192,110561,1,2,0:0:0:0:
256,192,110792,1,4,0:0:0:0:
256,192,111254,1,2,0:0:0:0:
256,192,111484,1,0,0:0:0:0:
256,192,111946,1,0,0:0:0:0:
256,192,112177,1,2,0:0:0:0:
256,192,112407,1,2,0:0:0:0:
256,192,112638,1,0,0:0:0:0:
256,192,113100,1,2,0:0:0:0:
256,192,113330,1,0,0:0:0:0:
256,192,113792,1,0,0:0:0:0:
256,192,114023,1,2,0:0:0:0:
256,192,114254,1,2,0:0:0:0:
256,192,114484,1,0,0:0:0:0:
256,192,114946,1,2,0:0:0:0:
256,192,115177,1,0,0:0:0:0:
256,192,115638,1,0,0:0:0:0:
256,192,115869,1,2,0:0:0:0:
256,192,116100,1,2,0:0:0:0:
256,192,116330,1,0,0:0:0:0:
256,192,116792,1,2,0:0:0:0:
256,192,117023,1,0,0:0:0:0:
256,192,117254,1,2,0:0:0:0:
256,192,117715,1,2,0:0:0:0:
256,192,117946,1,6,0:0:0:0:
256,192,118177,1,4,0:0:0:0:
256,192,118407,1,0,0:0:0:0:
256,192,118638,1,2,0:0:0:0:
256,192,118869,1,0,0:0:0:0:
256,192,119100,1,2,0:0:0:0:
256,192,119330,1,0,0:0:0:0:
256,192,119561,1,2,0:0:0:0:
256,192,119792,1,2,0:0:0:0:
256,192,120023,1,0,0:0:0:0:
256,192,120254,1,0,0:0:0:0:
256,192,120484,1,2,0:0:0:0:
256,192,120715,1,0,0:0:0:0:
256,192,120946,1,2,0:0:0:0:
256,192,121177,1,2,0:0:0:0:
256,192,121407,1,2,0:0:0:0:
256,192,121638,1,2,0:0:0:0:
256,192,121869,1,0,0:0:0:0:
256,192,122330,1,0,0:0:0:0:
256,192,122561,1,0,0:0:0:0:
256,192,122792,1,2,0:0:0:0:
256,192,123023,1,0,0:0:0:0:
256,192,123254,1,2,0:0:0:0:
256,192,123484,1,2,0:0:0:0:
256,192,123715,1,0,0:0:0:0:
256,192,123946,1,0,0:0:0:0:
256,192,124177,1,2,0:0:0:0:
256,192,124292,1,2,0:0:0:0:
256,192,124407,1,2,0:0:0:0:
256,192,124638,1,0,0:0:0:0:
256,192,125100,1,0,0:0:0:0:
256,192,125330,1,0,0:0:0:0:
256,192,125561,1,4,0:0:0:0:
256,192,125792,1,2,0:0:0:0:
256,192,126023,1,0,0:0:0:0:
256,192,126254,1,2,0:0:0:0:
256,192,126484,1,0,0:0:0:0:
256,192,126715,1,0,0:0:0:0:
256,192,126946,1,2,0:0:0:0:
256,192,127177,1,0,0:0:0:0:
256,192,127407,1,2,0:0:0:0:
256,192,127638,1,2,0:0:0:0:
256,192,127869,1,0,0:0:0:0:
256,192,128100,1,0,0:0:0:0:
256,192,128330,1,2,0:0:0:0:
256,192,128561,1,2,0:0:0:0:
256,192,128792,1,2,0:0:0:0:
256,192,129254,1,2,0:0:0:0:
256,192,129484,1,0,0:0:0:0:
256,192,129715,1,2,0:0:0:0:
256,192,129946,1,2,0:0:0:0:
256,192,130177,1,2,0:0:0:0:
256,192,130523,1,0,0:0:0:0:
256,192,130869,1,2,0:0:0:0:
256,192,131100,1,0,0:0:0:0:
256,192,131330,1,2,0:0:0:0:
256,192,131792,1,2,0:0:0:0:
256,192,132023,1,0,0:0:0:0:
256,192,132254,1,2,0:0:0:0:
256,192,132484,1,0,0:0:0:0:
256,192,132715,1,0,0:0:0:0:
256,192,132946,1,4,0:0:0:0:
256,192,133177,1,2,0:0:0:0:
256,192,133407,1,0,0:0:0:0:
256,192,133638,1,2,0:0:0:0:
256,192,133869,1,0,0:0:0:0:
256,192,134100,1,0,0:0:0:0:
256,192,134330,1,2,0:0:0:0:
256,192,134561,1,0,0:0:0:0:
256,192,134792,1,2,0:0:0:0:
256,192,135023,1,2,0:0:0:0:
256,192,135254,1,0,0:0:0:0:
256,192,135484,1,0,0:0:0:0:
256,192,135715,1,2,0:0:0:0:
256,192,135946,1,2,0:0:0:0:
256,192,136177,1,2,0:0:0:0:
256,192,136638,1,2,0:0:0:0:
256,192,136984,1,0,0:0:0:0:
256,192,137330,1,2,0:0:0:0:
256,192,137561,1,2,0:0:0:0:
256,192,137792,1,0,0:0:0:0:
256,192,138023,1,0,0:0:0:0:
256,192,138254,1,2,0:0:0:0:
256,192,138484,1,0,0:0:0:0:
256,192,138715,1,0,0:0:0:0:
256,192,138946,1,2,0:0:0:0:
256,192,139177,1,0,0:0:0:0:
256,192,139407,1,2,0:0:0:0:
256,192,139523,1,2,0:0:0:0:
256,192,139638,1,2,0:0:0:0:
256,192,139869,1,0,0:0:0:0:
256,192,140330,1,4,0:0:0:0:
256,192,140792,1,0,0:0:0:0:
256,192,141023,1,0,0:0:0:0:
256,192,141254,1,2,0:0:0:0:
256,192,141484,1,0,0:0:0:0:
256,192,141715,1,2,0:0:0:0:
256,192,141946,1,0,0:0:0:0:
256,192,142177,1,2,0:0:0:0:
256,192,142407,1,2,0:0:0:0:
256,192,142638,1,0,0:0:0:0:
256,192,142869,1,2,0:0:0:0:
256,192,143100,1,0,0:0:0:0:
256,192,143561,1,2,0:0:0:0:
256,192,143792,1,2,0:0:0:0:
256,192,144023,1,0,0:0:0:0:
256,192,144254,1,0,0:0:0:0:
256,192,144484,1,2,0:0:0:0:
256,192,144715,1,2,0:0:0:0:
256,192,144946,1,0,0:0:0:0:
256,192,145177,1,2,0:0:0:0:
256,192,145407,1,2,0:0:0:0:
256,192,145638,1,2,0:0:0:0:
256,192,145869,1,0,0:0:0:0:
256,192,146100,1,2,0:0:0:0:
256,192,146330,1,2,0:0:0:0:
256,192,146561,1,0,0:0:0:0:
256,192,146792,1,2,0:0:0:0:
256,192,147254,1,2,0:0:0:0:
256,192,147484,1,2,0:0:0:0:
256,192,147715,1,4,0:0:0:0:
256,192,147946,1,0,0:0:0:0:
256,192,148177,1,2,0:0:0:0:
256,192,148407,1,2,0:0:0:0:
256,192,148638,1,0,0:0:0:0:
256,192,148869,1,2,0:0:0:0:
256,192,149100,1,2,0:0:0:0:
256,192,149330,1,2,0:0:0:0:
256,192,149561,1,0,0:0:0:0:
256,192,150023,1,2,0:0:0:0:
256,192,150254,1,2,0:0:0:0:
256,192,150484,1,0,0:0:0:0:
256,192,150715,1,2,0:0:0:0:
256,192,150946,1,2,0:0:0:0:
256,192,151177,1,0,0:0:0:0:
256,192,151407,1,0,0:0:0:0:
256,192,151638,1,0,0:0:0:0:
256,192,151869,1,2,0:0:0:0:
256,192,152100,1,2,0:0:0:0:
256,192,152330,1,0,0:0:0:0:
256,192,152561,1,2,0:0:0:0:
256,192,152792,1,2,0:0:0:0:
256,192,153023,1,2,0:0:0:0:
256,192,153254,1,0,0:0:0:0:
256,192,153715,1,2,0:0:0:0:
256,192,153946,1,2,0:0:0:0:
256,192,154177,1,0,0:0:0:0:
256,192,154407,1,2,0:0:0:0:
256,192,154638,1,0,0:0:0:0:
256,192,154869,1,2,0:0:0:0:
256,192,155100,1,0,0:0:0:0:
256,192,155446,1,0,0:0:0:0:
256,192,155561,1,2,0:0:0:0:
256,192,155792,1,6,0:0:0:0:
256,192,156946,1,4,0:0:0:0:
256,192,157754,1,2,0:0:0:0:
256,192,158792,1,2,0:0:0:0:
256,192,159600,1,2,0:0:0:0:
256,192,160638,1,2,0:0:0:0:
256,192,161561,1,2,0:0:0:0:
256,192,161907,1,2,0:0:0:0:
256,192,162254,1,2,0:0:0:0:
256,192,162484,1,2,0:0:0:0:
256,192,163292,1,2,0:0:0:0:
256,192,163638,1,2,0:0:0:0:
256,192,164330,1,4,0:0:0:0:
256,192,164792,1,2,0:0:0:0:
256,192,165023,1,0,0:0:0:0:
256,192,165484,1,0,0:0:0:0:
256,192,165715,1,2,0:0:0:0:
256,192,166177,1,0,0:0:0:0:
256,192,166638,1,2,0:0:0:0:
256,192,166869,1,0,0:0:0:0:
256,192,167330,1,0,0:0:0:0:
256,192,167561,1,2,0:0:0:0:
256,192,168023,1,0,0:0:0:0:
256,192,168484,1,2,0:0:0:0:
256,192,168715,1,0,0:0:0:0:
256,192,169177,1,0,0:0:0:0:
256,192,169407,1,2,0:0:0:0:
256,192,169638,1,2,0:0:0:0:
256,192,169869,1,0,0:0:0:0:
256,192,170330,1,2,0:0:0:0:
256,192,170561,1,0,0:0:0:0:
256,192,170792,1,0,0:0:0:0:
256,192,171254,1,6,0:0:0:0:
256,192,172638,1,4,0:0:0:0:
256,192,172869,1,2,0:0:0:0:
256,192,173100,1,0,0:0:0:0:
256,192,173330,1,2,0:0:0:0:
256,192,173561,1,0,0:0:0:0:
256,192,173792,1,0,0:0:0:0:
256,192,174023,1,2,0:0:0:0:
256,192,174254,1,0,0:0:0:0:
256,192,174484,1,2,0:0:0:0:
256,192,174715,1,2,0:0:0:0:
256,192,174946,1,0,0:0:0:0:
256,192,175177,1,0,0:0:0:0:
256,192,175407,1,2,0:0:0:0:
256,192,175638,1,2,0:0:0:0:
256,192,175869,1,2,0:0:0:0:
256,192,176330,1,2,0:0:0:0:
256,192,176561,1,0,0:0:0:0:
256,192,176792,1,2,0:0:0:0:
256,192,177023,1,2,0:0:0:0:
256,192,177254,1,2,0:0:0:0:
256,192,177600,1,0,0:0:0:0:
256,192,177946,1,2,0:0:0:0:
256,192,178177,1,0,0:0:0:0:
256,192,178407,1,2,0:0:0:0:
256,192,178869,1,2,0:0:0:0:
256,192,179100,1,0,0:0:0:0:
256,192,179330,1,2,0:0:0:0:
256,192,179561,1,0,0:0:0:0:
256,192,179792,1,0,0:0:0:0:
256,192,180023,1,4,0:0:0:0:
256,192,180254,1,2,0:0:0:0:
256,192,180484,1,0,0:0:0:0:
256,192,180715,1,2,0:0:0:0:
256,192,180946,1,0,0:0:0:0:
256,192,181177,1,0,0:0:0:0:
256,192,181407,1,2,0:0:0:0:
256,192,181638,1,0,0:0:0:0:
256,192,181869,1,2,0:0:0:0:
256,192,182100,1,2,0:0:0:0:
256,192,182330,1,0,0:0:0:0:
256,192,182561,1,0,0:0:0:0:
256,192,182792,1,2,0:0:0:0:
256,192,183023,1,2,0:0:0:0:
256,192,183254,1,2,0:0:0:0:
256,192,183715,1,2,0:0:0:0:
256,192,184061,1,0,0:0:0:0:
256,192,184407,1,2,0:0:0:0:
256,192,184638,1,2,0:0:0:0:
256,192,184869,1,0,0:0:0:0:
256,192,185100,1,0,0:0:0:0:
256,192,185330,1,2,0:0:0:0:
256,192,185561,1,0,0:0:0:0:
256,192,185792,1,0,0:0:0:0:
256,192,186023,1,2,0:0:0:0:
256,192,186254,1,0,0:0:0:0:
256,192,186484,1,2,0:0:0:0:
256,192,186600,1,2,0:0:0:0:
256,192,186715,1,2,0:0:0:0:
256,192,186946,1,0,0:0:0:0:
256,192,187407,1,4,0:0:0:0:
256,192,187638,1,2,0:0:0:0:
256,192,187869,1,0,0:0:0:0:
256,192,188100,1,0,0:0:0:0:
256,192,188330,1,2,0:0:0:0:
256,192,188561,1,0,0:0:0:0:
256,192,188792,1,2,0:0:0:0:
256,192,189023,1,2,0:0:0:0:
256,192,189254,1,0,0:0:0:0:
256,192,189484,1,2,0:0:0:0:
256,192,189715,1,0,0:0:0:0:
256,192,189946,1,0,0:0:0:0:
256,192,190177,1,2,0:0:0:0:
256,192,190407,1,0,0:0:0:0:
256,192,190638,1,2,0:0:0:0:
256,192,191100,1,0,0:0:0:0:
256,192,191330,1,2,0:0:0:0:
256,192,191561,1,0,0:0:0:0:
256,192,191792,1,0,0:0:0:0:
256,192,192023,1,2,0:0:0:0:
256,192,192254,1,0,0:0:0:0:
256,192,192484,1,2,0:0:0:0:
256,192,192715,1,2,0:0:0:0:
256,192,192946,1,0,0:0:0:0:
256,192,193177,1,2,0:0:0:0:
256,192,193407,1,0,0:0:0:0:
256,192,193754,1,2,0:0:0:0:
256,192,194100,1,2,0:0:0:0:
256,192,194330,1,2,0:0:0:0:
256,192,194561,1,2,0:0:0:0:
256,192,194792,1,4,0:0:0:0:
256,192,195254,1,2,0:0:0:0:
256,192,195484,1,2,0:0:0:0:
256,192,195715,1,0,0:0:0:0:
256,192,195946,1,2,0:0:0:0:
256,192,196177,1,2,0:0:0:0:
256,192,196407,1,2,0:0:0:0:
256,192,196638,1,0,0:0:0:0:
256,192,196869,1,2,0:0:0:0:
256,192,197100,1,2,0:0:0:0:
256,192,197330,1,2,0:0:0:0:
256,192,197561,1,0,0:0:0:0:
256,192,197792,1,2,0:0:0:0:
256,192,198023,1,2,0:0:0:0:
256,192,198484,1,0,0:0:0:0:
256,192,198715,1,2,0:0:0:0:
256,192,198946,1,2,0:0:0:0:
256,192,199177,1,2,0:0:0:0:
256,192,199407,1,0,0:0:0:0:
256,192,199638,1,2,0:0:0:0:
256,192,199869,1,2,0:0:0:0:
256,192,200100,1,2,0:0:0:0:
256,192,200330,1,0,0:0:0:0:
256,192,200561,1,2,0:0:0:0:
256,192,200792,1,2,0:0:0:0:
256,192,201138,1,2,0:0:0:0:
256,192,201484,1,0,0:0:0:0:
256,192,201715,1,2,0:0:0:0:
256,192,201830,1,2,0:0:0:0:
256,192,201946,1,2,0:0:0:0:
256,192,202177,1,4,0:0:0:0:
