osu file format v14

[General]
AudioFilename: audio.mp3
AudioLeadIn: 0
PreviewTime: 37234
Countdown: 0
SampleSet: None
StackLeniency: 0.7
Mode: 0
LetterboxInBreaks: 0
WidescreenStoryboard: 1

[Editor]
Bookmarks: 50450,67366,84283,101199,109657,126573,143490,160406,179437,179503,179635,179767,179965,180098,180230,180296,180428,180626,180758,180957,181089,181155,181287,181485,181617,181683,181816,182014,182146,182344,182543,182675,182873,183005,183203,183402,183534,183732,183930,184128,184261,184459,184591,184855,184987,185186,185318,185516,185648,185913,186045,186243,186375,197410,214327,231243
DistanceSpacing: 2.8
BeatDivisor: 8
GridSize: 32
TimelineZoom: 2.1

[Metadata]
Title:Sendan Life
TitleUnicode:センダンライフ
Artist:Remo Prototype (CV: Hanamori Yumiri)
ArtistUnicode:リモ Prototype (CV:花守ゆみり)
Creator:fedora-
Version:Prototype
Source:ガラスの花と壊す世界
Tags:yuuki noa hd1 corsace closed japanese pop rock vocaloid dooe -doodle
BeatmapID:3087594
BeatmapSetID:1507523

[Difficulty]
HPDrainRate:5
CircleSize:4
OverallDifficulty:9.2
ApproachRate:9.8
SliderMultiplier:1.92
SliderTickRate:1

[Events]
//Background and Video events
0,0,"sendan life.png",0,0
//Break Periods
2,179636,185823
//Storyboard Layer 0 (Background)
//Storyboard Layer 1 (Fail)
//Storyboard Layer 2 (Pass)
//Storyboard Layer 3 (Foreground)
//Storyboard Layer 4 (Overlay)
//Storyboard Sound Samples

[TimingPoints]
36706,264.31718061674,4,2,1,80,1,0
41728,-83.3333333333333,4,2,1,80,0,0
41992,-83.3333333333333,4,2,1,80,0,1
48864,-83.3333333333333,4,2,1,80,0,1
48996,-71.4285714285714,4,2,1,80,0,1
49128,-62.5,4,2,1,80,0,1
49261,-55.5555555555556,4,2,1,80,0,1
49921,-55.5555555555556,4,2,1,80,0,1
50054,-62.5,4,2,1,80,0,1
50186,-71.4285714285714,4,2,1,80,0,1
50318,-83.3333333333333,4,2,1,80,0,1
50450,-111.111111111111,4,2,1,60,0,0
58115,-111.111111111111,4,2,1,70,0,0
58644,-90.9090909090909,4,2,1,70,0,0
58908,-100,4,2,1,70,0,0
67366,-133.333333333333,4,2,1,70,0,0
75692,-100,4,2,1,80,0,0
83093,-76.9230769230769,4,2,1,80,0,0
83754,-62.5,4,2,1,80,0,0
83886,-71.4285714285714,4,2,1,80,0,0
84018,-83.3333333333333,4,2,1,80,0,0
84150,-100,4,2,1,80,0,0
84283,-83.3333333333333,4,2,1,90,0,1
86133,-71.4285714285714,4,2,1,90,0,1
86397,-83.3333333333333,4,2,1,90,0,1
89569,-71.4285714285714,4,2,1,90,0,1
89965,-83.3333333333333,4,2,1,90,0,1
91948,-83.3333333333333,4,2,1,80,0,1
92212,-83.3333333333333,4,2,1,90,0,1
92476,-83.3333333333333,4,2,1,100,0,1
100142,-62.5,4,2,1,90,0,1
100274,-71.4285714285714,4,2,1,90,0,1
100406,-83.3333333333333,4,2,1,90,0,1
100538,-100,4,2,1,90,0,1
100670,-100,4,2,1,90,0,1
100802,-83.3333333333333,4,2,1,90,0,1
100935,-71.4285714285714,4,2,1,90,0,1
101067,-62.5,4,2,1,80,0,1
101463,-83.3333333333333,4,2,1,80,0,1
108071,-83.3333333333333,4,2,1,80,0,1
108203,-71.4285714285714,4,2,1,80,0,1
108335,-62.5,4,2,1,80,0,1
108468,-55.5555555555556,4,2,1,80,0,1
109128,-55.5555555555556,4,2,1,80,0,1
109261,-62.5,4,2,1,80,0,1
109393,-71.4285714285714,4,2,1,80,0,1
109525,-83.3333333333333,4,2,1,80,0,1
109657,-83.3333333333333,4,2,1,70,0,0
110714,-100,4,2,1,70,0,0
112829,-125,4,2,1,70,0,0
118115,-100,4,2,1,70,0,0
126573,-133.333333333333,4,2,1,70,0,0
134899,-100,4,2,1,80,0,0
142961,-62.5,4,2,1,80,0,0
143093,-71.4285714285714,4,2,1,80,0,0
143225,-83.3333333333333,4,2,1,80,0,0
143357,-100,4,2,1,80,0,0
143490,-83.3333333333333,4,2,1,90,0,1
145340,-71.4285714285714,4,2,1,90,0,1
145604,-83.3333333333333,4,2,1,90,0,1
148776,-71.4285714285714,4,2,1,90,0,1
149172,-83.3333333333333,4,2,1,90,0,1
151155,-83.3333333333333,4,2,1,80,0,1
151419,-83.3333333333333,4,2,1,90,0,1
151683,-83.3333333333333,4,2,1,100,0,1
151948,-83.3333333333333,4,2,1,90,0,1
159349,-62.5,4,2,1,90,0,1
159481,-71.4285714285714,4,2,1,90,0,1
159613,-83.3333333333333,4,2,1,90,0,1
159745,-100,4,2,1,90,0,1
159877,-100,4,2,1,90,0,1
160009,-83.3333333333333,4,2,1,90,0,1
160142,-71.4285714285714,4,2,1,90,0,1
160274,-62.5,4,2,1,90,0,1
160406,-100,4,2,1,90,0,1
160472,-100,4,2,1,80,0,1
163974,-83.3333333333333,4,2,1,80,0,1
164635,-100,4,2,1,80,0,1
168203,-83.3333333333333,4,2,1,80,0,1
168600,-71.4285714285714,4,2,1,80,0,1
169789,-76.9230769230769,4,2,1,80,0,1
175604,-90.9090909090909,4,2,1,80,0,1
176926,-90.9090909090909,4,2,1,70,0,1
177058,-90.9090909090909,4,2,1,80,0,1
177190,-90.9090909090909,4,2,1,90,0,1
177322,-90.9090909090909,4,2,1,80,0,1
178115,-172.413793103448,4,2,1,80,0,1
179437,-62.5,4,2,1,60,0,0
187895,-125,4,2,1,60,0,0
192587,-125,4,2,1,30,0,0
192653,-125,4,2,1,40,0,0
192719,-125,4,2,1,50,0,0
192785,-125,4,2,1,60,0,0
197410,-83.3333333333333,4,2,1,90,0,1
202697,-71.4285714285714,4,2,1,90,0,1
203093,-83.3333333333333,4,2,1,90,0,1
203490,-76.9230769230769,4,2,1,90,0,1
203754,-83.3333333333333,4,2,1,90,0,1
205075,-83.3333333333333,4,2,1,80,0,1
205339,-83.3333333333333,4,2,1,90,0,1
205603,-83.3333333333333,4,2,1,100,0,1
205868,-83.3333333333333,4,2,1,90,0,1
213269,-62.5,4,2,1,90,0,1
213401,-71.4285714285714,4,2,1,90,0,1
213533,-83.3333333333333,4,2,1,90,0,1
213665,-100,4,2,1,90,0,1
213797,-100,4,2,1,90,0,1
213929,-83.3333333333333,4,2,1,90,0,1
214062,-71.4285714285714,4,2,1,90,0,1
214194,-62.5,4,2,1,90,0,1
214327,-62.5,4,2,1,80,0,1
214591,-83.3333333333333,4,2,1,80,0,1
222256,-83.3333333333333,4,2,1,60,0,1
222388,-62.5,4,2,1,70,0,1
222520,-50,4,2,1,80,0,1
222653,-41.6666666666667,4,2,1,90,0,1
223710,-83.3333333333333,4,2,1,90,0,1
226750,-71.4285714285714,4,2,1,90,0,1
227278,-83.3333333333333,4,2,1,90,0,1
231243,-83.3333333333333,4,2,1,100,0,0

[Colours]
Combo1 : 250,180,240
Combo2 : 110,190,225
Combo3 : 255,230,130
Combo4 : 150,230,140

[HitObjects]
372,371,37763,5,8,1:2:0:0:
476,384,38027,1,8,1:2:0:0:
488,300,38291,5,8,1:2:0:0:
384,287,38424,1,8,1:2:0:0:
396,204,38688,5,8,1:2:0:0:
500,217,38952,1,8,1:2:0:0:
512,134,39217,5,8,1:2:0:0:
409,119,39481,1,0,1:0:0:0:
140,371,39613,1,12,1:2:0:0:
140,371,39877,5,8,1:2:0:0:
36,384,40141,1,8,1:2:0:0:
24,300,40405,5,8,1:2:0:0:
128,287,40538,1,8,1:2:0:0:
116,204,40802,5,8,1:2:0:0:
12,217,41066,1,8,1:2:0:0:
0,134,41331,5,8,1:2:0:0:
288,88,41463,1,8,1:2:0:0:
200,101,41595,1,0,1:0:0:0:
393,361,41728,2,0,B|390:385|390:385|400:369,5,38.399998828125,12|0|0|0|0|0,1:2|3:0|3:0|3:0|3:0|3:0,0:0:0:0:
405,358,41992,5,4,1:0:0:0:
498,341,42124,1,0,1:0:0:0:
393,361,42256,1,8,0:0:0:0:
193,231,42388,1,0,0:0:0:0:
155,323,42520,5,0,1:0:0:0:
67,336,42653,1,0,1:0:0:0:
235,138,42785,1,8,0:0:0:0:
323,125,42918,1,0,0:0:0:0:
291,220,43049,5,0,1:0:0:0:
144,152,43181,1,0,1:0:0:0:
302,227,43313,1,8,0:0:0:0:
512,13,43446,1,0,0:0:0:0:
267,48,43578,5,0,1:0:0:0:
354,35,43710,1,0,1:0:0:0:
103,238,43842,5,8,0:0:0:0:
16,225,43974,1,0,0:0:0:0:
71,150,44106,5,0,1:0:0:0:
124,75,44239,1,0,1:0:0:0:
62,160,44371,1,8,0:0:0:0:
267,360,44503,1,0,0:0:0:0:
306,272,44635,5,0,1:0:0:0:
393,259,44767,1,0,1:0:0:0:
87,302,44899,5,8,0:0:0:0:
0,315,45031,1,0,0:0:0:0:
53,383,45164,5,0,1:0:0:0:
126,224,45296,1,0,1:0:0:0:
178,294,45428,1,8,0:0:0:0:
351,15,45560,1,0,0:0:0:0:
394,96,45692,5,0,1:0:0:0:
481,109,45824,1,0,1:0:0:0:
212,213,45957,5,8,0:0:0:0:
126,224,46089,1,0,0:0:0:0:
156,140,46221,5,0,1:0:0:0:
0,170,46353,1,0,1:0:0:0:
98,72,46485,1,8,0:0:0:0:
429,182,46617,1,0,0:0:0:0:
492,114,46750,5,0,1:0:0:0:
465,28,46882,1,0,1:0:0:0:
366,251,47014,5,8,0:0:0:0:
393,337,47146,1,0,0:0:0:0:
458,275,47278,5,0,1:0:0:0:
302,321,47410,1,0,1:0:0:0:
279,233,47543,1,8,0:0:0:0:
0,293,47675,1,0,0:0:0:0:
44,371,47807,5,0,1:0:0:0:
131,384,47939,1,0,1:0:0:0:
168,159,48071,5,8,0:0:0:0:
81,146,48203,1,0,0:0:0:0:
113,232,48335,5,0,1:0:0:0:
138,76,48468,1,0,1:0:0:0:
111,245,48600,1,8,0:0:0:0:
398,345,48732,1,0,0:0:0:0:
466,297,48864,6,0,P|445:275|409:261,1,57.5999982421876,0|0,1:0|0:0,0:0:0:0:
424,139,48996,6,0,P|396:130|356:136,1,67.1999979492188,0|0,1:0|0:0,0:0:0:0:
311,0,49128,6,0,P|279:7|244:34,1,76.8,8|0,0:0|0:0,0:0:0:0:
240,320,49261,6,0,B|246:409|331:265|186:179|75:289,1,259.199992089844,4|0,1:2|0:0,0:0:0:0:
95,342,49525,1,0,1:0:0:0:
0,67,49657,1,8,0:0:0:0:
69,184,49789,5,8,0:0:0:0:
69,184,49855,1,8,0:0:0:0:
69,184,49921,2,0,P|118:174|172:170,1,86.3999973632813,8|0,1:2|0:0,0:0:0:0:
200,54,50054,6,0,P|249:64|303:68,1,76.8,8|0,1:2|0:0,0:0:0:0:
294,157,50186,6,0,P|343:147|397:143,1,67.1999979492188,8|0,0:3|0:0,0:0:0:0:
411,86,50318,6,0,P|460:96|514:100,1,57.5999982421876,4|0,0:3|0:0,0:0:0:0:
481,98,50450,5,6,1:2:0:0:
91,264,50714,2,0,P|66:222|62:172,1,86.3999973632813,10|0,0:0|1:0,0:0:0:0:
99,351,50979,1,2,0:0:0:0:
155,198,51111,2,0,P|197:173|247:169,1,86.3999973632813,2|8,1:2|0:0,0:0:0:0:
51,177,51375,1,2,0:0:0:0:
213,304,51507,6,0,P|249:327|291:335,1,86.3999973632813,2|0,1:0|0:0,0:0:0:0:
122,347,51772,1,10,0:0:0:0:
283,242,51904,2,0,P|268:194|316:84,1,172.799994726563,2|0,1:2|1:0,0:0:0:0:
168,101,52300,1,10,0:0:0:0:
240,164,52432,1,2,0:0:0:0:
324,83,52565,2,0,P|326:21|307:-9,1,86.3999973632813,2|2,1:0|0:0,0:0:0:0:
30,101,52829,5,10,0:0:0:0:
17,25,52961,1,2,0:0:0:0:
154,119,53093,5,2,0:0:0:0:
167,195,53225,1,2,0:0:0:0:
70,325,53357,6,0,L|54:236,1,86.3999973632813,10|0,0:0|0:0,0:0:0:0:
211,347,53622,6,0,B|291:362|291:362|299:372|299:372|382:385,1,172.799994726563,2|10,1:0|0:0,0:0:0:0:
390,156,54018,2,0,B|343:164|343:164|295:214|335:278,1,172.799994726563,2|2,1:2|1:2,0:0:0:0:
235,142,54415,1,10,0:0:0:0:
347,284,54547,1,2,0:0:0:0:
405,76,54679,5,2,1:0:0:0:
404,66,54943,2,0,P|362:45|313:48,1,86.3999973632813,10|0,0:0|1:0,0:0:0:0:
231,151,55208,2,0,P|189:172|140:169,1,86.3999973632813,2|0,0:0|1:0,0:0:0:0:
3,98,55472,2,0,B|-20:50|23:15|23:15|38:87,1,129.599996044922,10|0,0:0|0:0,0:0:0:0:
55,185,55736,6,0,L|38:278,1,86.3999973632813,2|0,1:0|0:0,0:0:0:0:
11,105,56001,1,10,0:0:0:0:
136,257,56133,2,0,L|146:342,1,86.3999973632813,2|0,1:2|0:0,0:0:0:0:
238,180,56397,2,0,P|200:159|157:159,1,86.3999973632813,2|8,1:2|0:0,0:0:0:0:
147,252,56661,1,2,0:0:0:0:
326,123,56794,6,0,P|306:71|315:22,1,86.3999973632813,2|2,1:0|0:0,0:0:0:0:
413,173,57058,2,0,P|469:184|510:192,1,86.3999973632813,10|0,0:0|1:0,0:0:0:0:
355,257,57322,2,0,P|411:268|452:276,1,86.3999973632813,2|0,0:0|1:0,0:0:0:0:
331,137,57587,1,10,0:0:0:0:
197,323,57719,2,0,P|141:334|100:342,1,86.3999973632813,2|2,0:0|0:1,0:0:0:0:
256,235,57983,1,2,0:0:0:0:
39,384,58115,6,0,P|20:323|57:268,1,129.599996044922,14|0,0:0|0:0,0:0:0:0:
66,263,58380,6,0,P|85:202|48:147,1,129.599996044922,14|0,0:0|0:0,0:0:0:0:
36,140,58644,6,0,P|21:200|51:150,1,158.400004833985,14|0,0:0|0:0,0:0:0:0:
109,112,58908,6,0,P|154:94|215:101,1,96,6|0,1:0|0:0,0:0:0:0:
265,228,59172,2,0,P|309:245|356:243,1,96,10|0,0:0|1:0,0:0:0:0:
298,48,59437,2,0,L|313:147,1,96,2|0,0:0|1:0,0:0:0:0:
387,0,59701,1,10,0:0:0:0:
208,106,59833,1,2,0:0:0:0:
255,216,59965,6,0,L|240:315,1,96,2|0,1:0|0:0,0:0:0:0:
212,117,60230,1,10,0:0:0:0:
427,297,60362,2,0,B|439:271|469:253|469:253|331:286,1,192,2|2,1:2|1:2,0:0:0:0:
510,333,60758,1,8,0:0:0:0:
380,176,60891,1,2,1:2:0:0:
380,176,60957,1,0,1:0:0:0:
380,176,61023,5,2,1:0:0:0:
465,158,61155,1,2,0:0:0:0:
285,86,61287,5,10,0:0:0:0:
200,104,61419,1,2,1:2:0:0:
384,180,61551,5,2,0:0:0:0:
478,160,61683,1,2,1:2:0:0:
280,81,61815,5,10,0:0:0:0:
186,101,61947,1,2,0:0:0:0:
94,116,62080,6,0,L|-2:93,1,96,2|0,1:0|0:0,0:0:0:0:
220,12,62344,1,10,0:0:0:0:
256,278,62476,2,0,B|265:294|269:310|269:310|324:237|252:170,1,192,2|2,1:2|1:2,0:0:0:0:
104,332,62873,2,0,P|51:356|8:352,1,96,10|2,0:0|0:0,0:0:0:0:
151,238,63137,1,2,1:0:0:0:
156,245,63402,6,0,P|215:259|254:272,1,96,10|0,0:0|1:0,0:0:0:0:
353,136,63666,2,0,P|294:150|255:163,1,96,2|0,0:0|1:0,0:0:0:0:
417,213,63930,2,0,P|452:171|447:116,1,96,10|0,0:0|0:0,0:0:0:0:
268,99,64194,6,0,P|258:152|290:198,1,96,2|0,1:0|0:0,0:0:0:0:
366,39,64459,1,10,0:0:0:0:
163,154,64591,2,0,B|86:176|36:114|36:114|64:99|96:116,1,192,2|0,1:2|1:0,0:0:0:0:
23,302,64987,1,10,0:0:0:0:
93,246,65120,1,2,0:0:0:0:
288,352,65252,6,0,L|399:330,1,96,2|2,1:0|0:0,0:0:0:0:
216,244,65516,2,0,P|192:292|204:339,1,96,10|0,0:0|1:0,0:0:0:0:
201,126,65780,1,2,0:0:0:0:
351,234,65913,2,0,L|462:256,1,96,2|8,1:2|0:0,0:0:0:0:
14,311,66177,5,2,1:0:0:0:
23,305,66441,1,2,0:0:0:0:
63,240,66573,1,2,0:0:0:0:
39,164,66705,1,2,0:0:0:0:
35,46,66838,6,0,L|102:60,1,48,8|0,1:2|0:0,0:0:0:0:
141,122,66970,2,0,L|208:136,1,48,8|0,1:2|0:0,0:0:0:0:
271,90,67102,2,0,L|338:104,1,48,8|0,0:3|0:0,0:0:0:0:
369,165,67234,2,0,L|436:179,1,48,4|0,0:3|0:0,0:0:0:0:
448,169,67366,6,0,P|480:120|439:38,1,144,6|0,1:2|0:0,0:0:0:0:
365,253,67763,2,0,B|313:252|301:224|288:194|237:192,1,144.000005493164,10|0,0:0|0:0,0:0:0:0:
379,348,68159,2,0,P|434:339|454:246,1,144.000005493164,2|0,1:2|0:0,0:0:0:0:
233,290,68556,1,0,1:0:0:0:
233,290,68952,2,0,L|125:309,1,108.000004119873,8|0,0:0|0:0,0:0:0:0:
117,318,69216,2,0,L|215:301,1,72.0000027465821,0|0,1:2|0:0,0:0:0:0:
34,365,69481,6,0,P|7:322|57:247,1,144.000005493164,2|0,1:2|0:0,0:0:0:0:
143,99,69877,2,0,B|110:77|104:38|104:38|105:78|78:111,1,144.000005493164,10|0,0:0|0:0,0:0:0:0:
178,195,70274,2,0,B|229:194|241:166|254:136|305:134,1,144.000005493164,2|0,1:2|0:0,0:0:0:0:
441,200,70670,1,0,1:0:0:0:
451,192,71067,2,0,L|465:73,1,108.000004119873,8|0,0:0|0:0,0:0:0:0:
458,77,71331,2,0,P|418:68|383:83,1,72.0000027465821,0|0,1:0|0:0,0:0:0:0:
392,307,71595,6,0,P|440:311|393:289,1,144.000005493164,2|0,1:2|0:0,0:0:0:0:
294,338,71992,2,0,P|236:367|161:349,1,144.000005493164,10|0,0:0|0:0,0:0:0:0:
169,223,72388,1,0,1:0:0:0:
179,210,72653,2,0,P|191:173|126:63,1,144.000005493164,2|0,1:2|0:0,0:0:0:0:
13,158,73049,2,0,B|-10:187|-10:187|115:157,1,144.000005493164,10|0,0:0|0:0,0:0:0:0:
203,13,73446,2,0,P|154:-1|105:13,1,72.0000027465821,0|0,1:0|0:0,0:0:0:0:
265,163,73710,6,0,B|315:157|325:128|335:97|386:91,1,144.000005493164,2|0,1:2|0:0,0:0:0:0:
502,236,74106,2,0,B|466:246|466:246|405:240|400:171,1,144.000005493164,10|0,0:0|0:0,0:0:0:0:
221,263,74503,1,2,1:2:0:0:
207,260,74899,1,0,1:0:0:0:
221,263,75296,5,8,0:0:0:0:
507,321,75428,1,0,1:0:0:0:
207,260,75560,1,8,0:0:0:0:
126,243,75692,6,0,P|78:222|122:122,1,144,6|0,1:2|0:0,0:0:0:0:
95,135,75957,2,0,P|83:79|69:32,1,96,2|10,1:2|0:0,0:0:0:0:
46,297,76221,1,2,0:0:0:0:
221,263,76353,2,0,P|277:275|324:289,1,96,2|2,1:2|1:2,0:0:0:0:
191,169,76617,1,10,0:0:0:0:
223,273,76750,1,2,0:0:0:0:
396,229,76882,6,0,P|419:182|406:125,1,96,2|0,1:2|1:0,0:0:0:0:
403,320,77146,1,10,0:0:0:0:
331,169,77278,2,0,L|289:75,1,96,2|0,0:0|1:0,0:0:0:0:
142,296,77543,2,0,L|100:390,1,96,2|8,1:2|0:0,0:0:0:0:
256,7,77807,5,6,1:2:0:0:
256,7,78071,1,2,1:2:0:0:
55,103,78203,1,10,0:0:0:0:
123,0,78335,1,2,0:0:0:0:
303,79,78468,2,0,P|371:89|419:97,1,96,2|0,1:2|1:0,0:0:0:0:
176,182,78732,2,0,P|108:192|60:200,1,96,10|0,0:0|0:0,0:0:0:0:
401,281,78996,6,0,B|428:281|454:298|454:298|523:256|479:166,1,192,6|10,1:2|0:0,0:0:0:0:
397,368,79393,2,0,P|339:377|285:388,1,96,2|0,0:0|1:0,0:0:0:0:
312,218,79657,1,2,1:2:0:0:
486,380,79789,1,8,0:0:0:0:
500,78,79921,5,6,1:2:0:0:
500,78,80186,1,0,1:0:0:0:
399,191,80318,1,10,0:0:0:0:
335,129,80450,1,2,0:0:0:0:
163,268,80582,2,0,P|110:274|66:281,1,96,2|0,1:2|1:0,0:0:0:0:
180,172,80846,1,10,0:0:0:0:
254,234,80979,1,2,0:0:0:0:
338,113,81111,6,0,P|361:57|350:10,1,96,6|0,1:2|1:0,0:0:0:0:
410,199,81375,1,10,0:0:0:0:
265,57,81507,2,0,P|204:45|151:37,1,96,2|0,0:0|1:0,0:0:0:0:
418,188,81772,2,0,P|479:176|532:168,1,96,2|8,1:2|0:0,0:0:0:0:
447,86,82036,1,2,1:2:0:0:
349,292,82168,5,12,0:0:0:0:
443,99,82300,1,0,1:0:0:0:
343,307,82432,5,12,0:0:0:0:
80,217,82565,1,0,1:0:0:0:
338,320,82697,5,12,0:0:0:0:
472,10,82829,1,0,1:0:0:0:
512,166,82961,1,8,0:0:0:0:
75,322,83093,6,0,B|48:295|6:294|6:294|-52:207|27:136,1,249.599988574219,4|0,1:2|1:0,0:0:0:0:
495,167,83490,1,8,0:0:0:0:
397,109,83622,5,8,0:0:0:0:
397,109,83688,1,8,0:0:0:0:
397,109,83754,2,0,P|357:119|314:125,1,76.8,8|0,1:2|0:0,0:0:0:0:
312,242,83886,6,0,P|272:232|229:226,1,67.1999979492188,8|0,1:2|0:0,0:0:0:0:
224,122,84018,6,0,P|184:132|141:138,1,57.5999982421876,8|0,1:2|0:0,0:0:0:0:
139,220,84150,6,0,P|99:210|56:204,1,48,8|0,1:2|0:0,0:0:0:0:
36,141,84283,6,0,B|37:110|19:86|19:86|21:55|55:35,1,115.199996484375,4|0,1:0|0:0,0:0:0:0:
398,208,84547,2,0,B|397:239|415:263|415:263|407:294|373:313,1,115.199996484375,10|0,0:0|0:0,0:0:0:0:
3,377,84811,1,2,1:2:0:0:
191,288,84943,1,0,1:0:0:0:
508,354,85076,1,10,0:0:0:0:
428,384,85208,5,2,1:2:0:0:
428,384,85274,1,0,1:0:0:0:
428,384,85340,2,0,P|368:367|308:351,1,115.199996484375,0|2,1:0|1:2,0:0:0:0:
60,30,85604,2,0,P|115:44|171:60,1,115.199996484375,8|2,0:0|0:0,0:0:0:0:
489,130,85868,1,2,1:2:0:0:
386,63,86001,1,0,1:0:0:0:
69,204,86133,2,0,P|-12:187|45:128,1,201.599993847656,10|0,0:0|0:0,0:0:0:0:
132,143,86397,6,0,P|198:153|250:118,1,115.199996484375,2|0,1:2|0:0,0:0:0:0:
500,346,86661,2,0,P|448:322|393:333,1,115.199996484375,10|0,0:0|0:0,0:0:0:0:
9,334,86926,1,2,1:2:0:0:
172,66,87058,1,0,1:0:0:0:
498,119,87190,1,10,0:0:0:0:
458,29,87322,6,0,B|431:50|399:69|399:69|412:121|418:168,1,172.799994726563,2|0,1:2|0:0,0:0:0:0:
364,248,87587,2,0,P|308:233|252:218,1,115.199996484375,2|8,1:2|0:0,0:0:0:0:
509,111,87851,1,2,1:2:0:0:
420,178,87983,1,2,1:2:0:0:
457,263,88115,1,0,1:0:0:0:
105,339,88247,2,0,B|65:375|16:356|16:356|56:348|75:312,1,172.799994726563,10|0,0:0|0:0,0:0:0:0:
0,269,88512,5,2,1:2:0:0:
196,353,88644,1,0,0:0:0:0:
470,270,88776,5,10,0:0:0:0:
207,358,88908,1,0,0:0:0:0:
0,144,89040,5,2,1:2:0:0:
220,361,89172,1,0,1:0:0:0:
509,111,89305,5,10,0:0:0:0:
231,366,89437,1,0,0:0:0:0:
11,43,89569,6,0,B|1:5|-28:-20|-28:-20|159:27,1,268.799991796875,2|8,1:2|0:0,0:0:0:0:
151,261,89965,2,0,B|131:243|102:237|102:237|86:209|94:166,1,115.199996484375,2|0,0:0|1:0,0:0:0:0:
167,34,90230,1,0,1:0:0:0:
396,294,90362,2,0,B|446:337|504:326|504:326|496:286|458:276,1,172.799994726563,10|0,0:0|0:0,0:0:0:0:
427,215,90626,6,0,P|371:209|326:244,1,115.199996484375,0|0,1:0|0:0,0:0:0:0:
0,55,90891,2,0,P|44:88|101:84,1,115.199996484375,10|0,0:0|0:0,0:0:0:0:
512,0,91155,1,0,1:0:0:0:
262,187,91287,1,0,1:0:0:0:
18,381,91419,1,10,0:0:0:0:
11,289,91551,6,0,B|7:294|7:294|171:264,1,172.799994726563,4|0,1:2|0:0,0:0:0:0:
182,269,91816,1,0,1:0:0:0:
419,375,91948,5,10,1:2:0:0:
313,263,92080,1,8,1:2:0:0:
104,313,92212,5,10,1:2:0:0:
313,263,92344,1,8,1:2:0:0:
392,15,92476,5,10,1:2:0:0:
313,263,92608,1,8,1:2:0:0:
195,277,92741,6,0,P|152:233|149:170,1,115.199996484375,4|0,1:0|0:0,0:0:0:0:
413,381,93005,2,0,P|464:359|491:309,1,115.199996484375,10|0,0:0|0:0,0:0:0:0:
499,159,93269,1,2,1:2:0:0:
346,176,93402,1,0,1:0:0:0:
77,0,93534,1,10,0:0:0:0:
0,76,93666,5,2,0:0:0:0:
0,76,93732,1,0,0:0:0:0:
0,76,93798,2,0,P|57:85|127:101,1,115.199996484375,0|2,1:0|0:0,0:0:0:0:
512,319,94062,2,0,P|455:306|398:297,1,115.199996484375,8|2,0:0|0:0,0:0:0:0:
14,340,94327,1,2,1:2:0:0:
179,381,94459,1,0,1:0:0:0:
412,104,94591,2,0,B|468:15|468:15|476:21|476:21|449:85,1,172.799994726563,10|0,0:0|0:0,0:0:0:0:
369,175,94855,6,0,P|314:155|257:146,1,115.199996484375,2|0,1:2|0:0,0:0:0:0:
27,331,95120,2,0,P|45:277|54:220,1,115.199996484375,10|0,0:0|0:0,0:0:0:0:
468,15,95384,1,2,1:2:0:0:
154,53,95516,1,0,1:0:0:0:
14,340,95648,1,10,0:0:0:0:
89,380,95780,6,0,P|157:358|311:362,1,172.799994726563,2|0,1:2|0:0,0:0:0:0:
341,383,96045,2,0,P|375:319|343:263,1,115.199996484375,2|8,1:2|0:0,0:0:0:0:
152,268,96309,1,2,0:0:0:0:
266,358,96441,1,2,1:2:0:0:
287,224,96573,1,0,1:0:0:0:
442,48,96705,2,0,B|454:26|480:10|480:10|343:34,1,172.799994726563,10|0,0:0|0:0,0:0:0:0:
268,45,96970,5,6,1:2:0:0:
190,60,97102,1,0,1:0:0:0:
112,74,97234,1,8,0:0:0:0:
331,109,97366,5,2,0:0:0:0:
409,123,97498,1,0,1:0:0:0:
487,137,97630,1,0,1:0:0:0:
58,239,97763,5,10,0:0:0:0:
44,161,97895,1,0,0:0:0:0:
196,133,98027,5,0,1:0:0:0:
210,211,98159,1,0,1:0:0:0:
241,369,98291,1,10,0:0:0:0:
227,291,98423,1,0,0:0:0:0:
389,343,98556,5,0,1:0:0:0:
375,265,98688,1,0,1:0:0:0:
307,316,98820,1,10,0:0:0:0:
127,184,98952,1,0,1:0:0:0:
463,10,99084,5,4,1:2:0:0:
472,5,99349,5,10,0:0:0:0:
485,89,99482,1,0,1:0:0:0:
27,378,99613,5,10,0:0:0:0:
1,199,99745,1,0,1:0:0:0:
483,1,99877,5,10,0:0:0:0:
512,177,100009,1,0,1:0:0:0:
91,48,100142,6,0,P|125:15|172:5,1,76.8,10|0,0:0|0:0,0:0:0:0:
380,196,100274,6,0,P|355:183|315:180,1,67.1999979492188,0|0,1:0|0:0,0:0:0:0:
299,72,100406,6,0,P|266:71|235:83,1,57.5999982421876,8|0,0:3|0:0,0:0:0:0:
334,275,100538,6,0,P|352:289|367:308,1,48,4|0,0:3|0:0,0:0:0:0:
366,319,100670,6,0,P|351:299|332:284,1,48,2|0,1:2|0:0,0:0:0:0:
241,88,100802,6,0,P|272:77|305:79,1,57.5999982421876,0|0,1:0|0:0,0:0:0:0:
330,188,100935,6,0,P|359:193|393:212,1,67.1999979492188,8|0,0:0|0:0,0:0:0:0:
160,12,101067,6,0,P|125:25|100:54,1,76.8,8|0,0:0|0:0,0:0:0:0:
78,222,101199,6,0,B|83:283|188:199|84:66|-30:141,1,230.4,4|0,1:0|0:0,0:0:0:0:
29,295,101463,2,0,P|98:323|153:304,1,115.199996484375,10|0,0:0|0:0,0:0:0:0:
415,163,101728,5,0,1:0:0:0:
500,154,101860,1,0,1:0:0:0:
310,302,101992,5,10,0:0:0:0:
225,311,102124,1,0,0:0:0:0:
261,231,102256,5,0,1:0:0:0:
276,384,102388,1,0,1:0:0:0:
260,216,102520,1,10,0:0:0:0:
5,33,102653,1,0,0:0:0:0:
45,112,102785,5,0,1:0:0:0:
130,121,102917,1,0,1:0:0:0:
356,18,103049,5,10,0:0:0:0:
271,9,103181,1,0,0:0:0:0:
306,88,103313,5,0,1:0:0:0:
439,29,103446,1,0,1:0:0:0:
296,93,103578,1,10,0:0:0:0:
366,379,103710,1,0,0:0:0:0:
481,286,103842,5,0,1:0:0:0:
394,294,103974,1,0,1:0:0:0:
153,148,104106,5,10,0:0:0:0:
238,157,104238,1,0,0:0:0:0:
203,76,104371,5,0,1:0:0:0:
157,2,104503,1,0,1:0:0:0:
292,83,104635,1,10,0:0:0:0:
174,384,104767,1,0,0:0:0:0:
89,340,104899,5,0,1:0:0:0:
75,255,105031,1,0,1:0:0:0:
296,217,105164,5,10,0:0:0:0:
310,302,105296,1,0,0:0:0:0:
223,272,105428,5,0,1:0:0:0:
380,241,105560,1,0,1:0:0:0:
246,361,105692,1,10,0:0:0:0:
0,58,105824,1,0,0:0:0:0:
120,155,105957,5,0,1:0:0:0:
35,141,106089,1,0,1:0:0:0:
342,17,106221,5,10,0:0:0:0:
257,3,106353,1,0,0:0:0:0:
512,49,106485,5,0,1:0:0:0:
369,103,106617,1,0,1:0:0:0:
395,180,106750,1,10,0:0:0:0:
2,300,106882,1,0,0:0:0:0:
89,271,107014,5,0,1:0:0:0:
103,186,107146,1,0,1:0:0:0:
307,215,107278,5,10,0:0:0:0:
293,300,107410,1,0,0:0:0:0:
512,241,107543,5,0,1:0:0:0:
317,209,107675,1,0,1:0:0:0:
331,124,107807,1,10,0:0:0:0:
0,60,107939,1,0,1:0:0:0:
13,142,108071,6,0,P|40:136|64:120,1,57.5999982421876,10|0,0:0|0:0,0:0:0:0:
157,239,108203,6,0,P|180:215|192:184,1,67.1999979492188,0|0,1:0|0:0,0:0:0:0:
396,255,108335,6,0,P|404:218|395:181,1,76.8,8|0,0:0|0:0,0:0:0:0:
152,15,108468,6,0,B|124:16|97:5|97:5|100:74|193:117|255:73,1,259.199992089844,4|0,1:2|0:0,0:0:0:0:
282,3,108732,1,0,1:0:0:0:
316,292,108864,1,8,0:0:0:0:
496,87,108996,5,8,0:0:0:0:
496,87,109062,1,8,0:0:0:0:
496,87,109128,2,0,P|451:99|404:104,1,86.3999973632813,8|0,1:2|0:0,0:0:0:0:
320,207,109261,6,0,P|275:195|228:190,1,76.8,8|0,1:2|0:0,0:0:0:0:
215,103,109393,6,0,P|170:115|123:120,1,67.1999979492188,8|0,0:3|0:0,0:0:0:0:
87,176,109525,6,0,P|42:164|-5:159,1,57.5999982421876,4|0,0:3|0:0,0:0:0:0:
14,164,109657,5,4,1:2:0:0:
23,155,110714,6,0,B|121:143|100:224|200:208,1,192,8|0,1:2|0:0,0:0:0:0:
488,155,111111,2,0,B|391:143|412:224|311:208,1,192,8|0,1:2|0:0,0:0:0:0:
248,93,111507,2,0,B|234:72|256:50|256:50|276:73|264:93,1,96,8|0,1:2|0:0,0:0:0:0:
256,320,111772,1,4,1:2:0:0:
26,39,112697,5,8,0:0:0:0:
26,39,112763,1,8,0:0:0:0:
26,39,112829,1,8,1:2:0:0:
119,125,112961,1,8,0:3:0:0:
226,97,113093,1,4,0:3:0:0:
303,124,113225,2,0,P|391:110|490:96,1,153.6,0|0,1:0|1:0,0:0:0:0:
465,179,113622,2,0,P|410:164|388:135,1,76.8,8|0,0:0|0:0,0:0:0:0:
477,17,113886,5,2,1:2:0:0:
489,24,114415,1,8,0:1:0:0:
476,23,114943,5,2,1:2:0:0:
489,17,115472,1,8,0:1:0:0:
482,27,116001,5,2,1:2:0:0:
483,13,116530,1,8,0:1:0:0:
16,370,116926,5,12,1:2:0:0:
8,384,117587,5,8,1:2:0:0:
0,366,117653,5,8,0:3:0:0:
14,353,117719,5,4,0:3:0:0:
31,363,117785,5,0,1:0:0:0:
27,382,117851,5,12,0:0:0:0:
512,178,118115,6,0,P|465:157|416:162,1,96,6|0,1:0|0:0,0:0:0:0:
299,282,118380,2,0,P|346:284|389:264,1,96,10|0,0:0|1:0,0:0:0:0:
339,94,118644,2,0,L|322:188,1,96,2|0,0:0|1:0,0:0:0:0:
267,31,118908,1,10,0:0:0:0:
422,161,119040,1,2,0:0:0:0:
395,256,119172,6,0,L|412:350,1,96,2|0,1:0|0:0,0:0:0:0:
427,150,119437,1,10,0:0:0:0:
229,214,119569,2,0,B|177:235|177:235|128:182|48:198,1,192,2|2,1:2|1:2,0:0:0:0:
243,125,119965,1,8,0:0:0:0:
98,299,120098,1,2,1:2:0:0:
98,299,120164,1,0,1:0:0:0:
98,299,120230,5,2,1:0:0:0:
56,206,120362,1,2,0:0:0:0:
109,24,120494,5,10,0:0:0:0:
151,117,120626,1,2,1:2:0:0:
97,312,120758,5,2,0:0:0:0:
51,210,120890,1,2,1:2:0:0:
109,10,121022,5,10,0:0:0:0:
155,112,121154,1,0,0:0:0:0:
206,210,121287,6,0,L|308:227,1,96,2|0,1:0|0:0,0:0:0:0:
161,107,121551,1,10,0:0:0:0:
316,318,121683,2,0,P|381:263|345:145,1,192,2|2,1:2|1:2,0:0:0:0:
270,322,122080,2,0,P|305:352|352:354,1,96,8|2,0:0|0:0,0:0:0:0:
355,160,122344,5,2,1:0:0:0:
365,150,122609,2,0,L|383:47,1,96,10|0,0:0|1:0,0:0:0:0:
145,123,122873,2,0,L|127:20,1,96,2|0,0:0|1:0,0:0:0:0:
403,242,123137,2,0,P|450:253|525:270,1,96,10|0,0:0|0:0,0:0:0:0:
227,52,123402,6,0,B|129:40|150:121|50:105,1,192,2|10,1:0|0:0,0:0:0:0:
172,276,123798,2,0,B|223:261|223:261|273:195|198:127,1,192,2|0,1:2|1:0,0:0:0:0:
4,252,124194,1,10,0:0:0:0:
97,202,124327,1,2,0:0:0:0:
235,351,124459,6,0,P|291:358|339:369,1,96,2|2,1:0|0:2,0:0:0:0:
439,167,124723,2,0,P|392:176|344:182,1,96,10|0,0:0|1:0,0:0:0:0:
493,263,124987,1,2,0:0:0:0:
335,175,125120,2,0,P|307:123|315:69,1,96,2|8,1:2|0:0,0:0:0:0:
494,13,125384,5,2,1:0:0:0:
476,14,125648,1,2,0:0:0:0:
390,109,125780,1,2,0:0:0:0:
299,75,125913,1,2,0:0:0:0:
169,22,126045,2,0,L|182:89,1,48,8|0,1:2|0:0,0:0:0:0:
105,123,126177,2,0,L|118:190,1,48,8|0,1:2|0:0,0:0:0:0:
206,206,126309,1,8,0:3:0:0:
158,287,126441,1,4,0:3:0:0:
239,334,126573,5,4,1:2:0:0:
239,334,126838,1,0,1:2:0:0:
68,306,127102,2,0,B|9:275|-17:194|40:147|40:147|103:161|96:227,1,288.000010986329,8|0,0:0|0:0,0:0:0:0:
93,223,127895,1,0,1:0:0:0:
250,343,128159,2,0,P|326:354|402:373,1,144.000005493164,8|0,0:0|0:0,0:0:0:0:
335,222,128688,5,0,1:2:0:0:
335,222,128952,1,0,1:2:0:0:
180,148,129217,2,0,B|117:141|88:62|130:15|130:15|139:71|75:113,1,288.000010986329,8|0,0:0|0:0,0:0:0:0:
65,106,130009,1,0,1:0:0:0:
272,39,130274,2,0,B|323:35|347:65|347:65|371:108|371:108|400:140|450:134,1,216.000008239746,8|0,0:0|0:0,0:0:0:0:
502,20,130802,5,0,1:2:0:0:
502,20,131067,1,0,1:2:0:0:
456,141,131331,2,0,L|490:285,1,144.000005493164,8|0,0:0|0:0,0:0:0:0:
269,121,131860,5,0,1:2:0:0:
269,121,132125,1,0,1:2:0:0:
315,242,132389,2,0,L|281:386,1,144.000005493164,8|0,0:0|0:0,0:0:0:0:
508,211,132917,5,0,1:2:0:0:
508,211,133181,1,0,1:2:0:0:
370,298,133446,2,0,L|229:331,1,144.000005493164,8|0,0:0|0:0,0:0:0:0:
49,54,133974,5,0,1:0:0:0:
49,54,134238,1,0,1:0:0:0:
116,124,134503,5,8,0:0:0:0:
65,383,134635,1,0,1:0:0:0:
119,112,134767,1,8,0:0:0:0:
136,31,134899,6,0,P|183:1|282:17,1,144,4|0,1:2|0:0,0:0:0:0:
269,89,135164,2,0,P|319:96|377:106,1,96,2|10,1:2|0:0,0:0:0:0:
416,20,135428,1,2,0:0:0:0:
305,189,135560,2,0,P|255:196|197:206,1,96,2|0,1:2|0:0,0:0:0:0:
259,82,135824,1,10,0:0:0:0:
320,192,135957,1,0,0:0:0:0:
151,270,136089,6,0,P|119:221|122:174,1,96,2|0,1:2|0:0,0:0:0:0:
307,323,136353,1,10,0:0:0:0:
376,261,136485,2,0,P|407:213|406:165,1,96,2|0,0:0|1:0,0:0:0:0:
237,157,136750,2,0,P|233:214|258:254,1,96,2|8,1:2|0:0,0:0:0:0:
350,0,137014,5,6,1:2:0:0:
355,10,137278,1,2,1:2:0:0:
491,152,137410,1,10,0:0:0:0:
474,42,137543,1,2,0:0:0:0:
311,192,137675,5,2,1:2:0:0:
329,302,137808,1,2,1:2:0:0:
494,163,137939,1,10,0:0:0:0:
386,101,138071,1,2,0:0:0:0:
138,267,138203,6,0,B|108:271|89:249|89:249|120:177|70:117,1,192,6|10,1:2|0:0,0:0:0:0:
110,357,138600,2,0,P|159:357|210:331,1,96,2|0,0:0|1:0,0:0:0:0:
32,311,138864,1,2,1:2:0:0:
213,343,138996,1,8,0:0:0:0:
60,115,139128,1,4,1:2:0:0:
56,102,139393,1,2,1:2:0:0:
229,174,139525,6,0,L|134:190,1,96,6|0,1:2|0:0,0:0:0:0:
163,86,139789,1,10,0:0:0:0:
272,75,139921,1,8,0:0:0:0:
341,163,140054,1,10,0:0:0:0:
386,359,140186,6,0,P|399:311|409:266,1,96,4|2,1:2|0:0,0:0:0:0:
492,339,140450,1,8,0:0:0:0:
157,282,140582,6,0,P|143:234|133:189,1,96,4|0,1:2|0:0,0:0:0:0:
56,257,140846,1,8,0:0:0:0:
229,174,140979,1,8,0:3:0:0:
167,278,141111,1,4,0:3:0:0:
120,176,141243,1,4,0:3:0:0:
90,77,141375,5,12,0:0:0:0:
54,268,141507,1,0,1:0:0:0:
165,313,141639,5,12,0:0:0:0:
208,56,141772,1,0,1:0:0:0:
327,36,141904,5,12,0:0:0:0:
275,363,142036,1,0,1:0:0:0:
393,350,142168,5,12,0:0:0:0:
199,49,142300,1,0,1:0:0:0:
76,65,142432,5,12,0:0:0:0:
407,348,142565,1,0,1:0:0:0:
512,333,142697,5,12,0:0:0:0:
76,254,142961,6,0,P|116:244|159:238,1,76.8,8|0,1:2|0:0,0:0:0:0:
249,240,143093,6,0,P|276:233|322:227,1,67.1999979492188,8|0,1:2|0:0,0:0:0:0:
170,123,143225,6,0,P|198:130|226:135,1,57.5999982421876,8|0,1:2|0:0,0:0:0:0:
307,143,143357,6,0,P|347:153|390:159,1,48,8|0,1:2|0:0,0:0:0:0:
376,158,143490,6,0,B|409:129|401:83|401:83|358:52,1,115.199996484375,4|0,1:0|0:0,0:0:0:0:
0,293,143754,2,0,B|8:336|52:352|52:352|100:330,1,115.199996484375,10|0,0:0|0:0,0:0:0:0:
512,328,144018,1,2,1:2:0:0:
318,218,144150,1,0,1:0:0:0:
76,254,144283,1,10,0:0:0:0:
14,185,144415,1,2,1:2:0:0:
14,185,144481,1,0,1:0:0:0:
14,185,144547,6,0,P|-9:117|-14:68,1,115.199996484375,0|2,0:0|0:0,0:0:0:0:
475,207,144811,2,0,P|494:260|502:317,1,115.199996484375,8|2,0:0|0:0,0:0:0:0:
0,69,145076,1,2,1:2:0:0:
110,37,145208,1,0,1:0:0:0:
387,229,145340,2,0,P|466:203|403:149,1,201.599993847656,10|0,0:0|0:0,0:0:0:0:
327,170,145604,6,0,P|285:131|280:75,1,115.199996484375,2|0,1:2|0:0,0:0:0:0:
47,243,145868,2,0,P|5:281|0:337,1,115.199996484375,10|0,0:0|0:0,0:0:0:0:
512,37,146133,1,2,1:2:0:0:
316,283,146265,1,0,1:0:0:0:
27,153,146397,1,10,0:0:0:0:
59,230,146529,6,0,P|131:205|130:76,1,172.799994726563,2|0,1:2|0:0,0:0:0:0:
74,52,146794,2,0,P|178:31|227:21,1,115.199996484375,2|8,1:2|0:0,0:0:0:0:
47,247,147058,1,2,0:0:0:0:
276,112,147190,2,0,P|297:8|307:-41,1,115.199996484375,2|0,1:2|1:0,0:0:0:0:
64,369,147454,2,0,P|43:265|33:216,1,115.199996484375,10|0,0:0|0:0,0:0:0:0:
456,291,147719,5,2,1:2:0:0:
313,344,147851,1,0,0:0:0:0:
35,267,147983,5,10,0:0:0:0:
302,349,148115,1,0,0:0:0:0:
495,107,148247,5,2,1:2:0:0:
291,354,148379,1,0,1:0:0:0:
0,26,148512,5,10,0:0:0:0:
280,360,148644,1,0,0:0:0:0:
227,272,148776,6,0,B|205:243|164:237|164:237|268:175|333:272,1,268.799991796875,2|8,1:2|0:0,0:0:0:0:
104,303,149172,2,0,P|71:251|82:201,1,115.199996484375,2|0,0:0|1:0,0:0:0:0:
197,27,149437,1,0,1:0:0:0:
411,309,149569,2,0,B|470:423|551:350|452:333,1,172.799994726563,10|0,0:0|0:0,0:0:0:0:
328,284,149833,6,0,P|260:295|195:309,1,115.199996484375,0|0,1:0|0:0,0:0:0:0:
0,2,150098,2,0,P|68:13|133:27,1,115.199996484375,10|0,0:0|0:0,0:0:0:0:
3,381,150362,1,0,1:0:0:0:
256,192,150494,1,0,1:0:0:0:
508,2,150626,1,10,0:0:0:0:
473,70,150758,6,0,B|470:79|470:79|310:113,1,172.799994726563,4|0,1:2|0:0,0:0:0:0:
300,107,151023,1,0,1:0:0:0:
342,19,151155,5,10,1:2:0:0:
218,117,151287,1,8,1:2:0:0:
14,36,151419,5,10,1:2:0:0:
218,117,151551,1,8,1:2:0:0:
262,379,151683,5,10,1:2:0:0:
218,117,151815,1,8,1:2:0:0:
100,117,151948,6,0,P|53:163|51:218,1,115.199996484375,4|0,1:0|0:0,0:0:0:0:
302,295,152212,2,0,P|321:242|301:190,1,115.199996484375,10|0,0:0|0:0,0:0:0:0:
0,358,152476,1,2,1:2:0:0:
175,223,152609,1,0,1:0:0:0:
512,345,152741,1,10,0:0:0:0:
408,375,152873,5,2,1:2:0:0:
408,375,152939,1,0,1:0:0:0:
408,375,153005,2,0,P|420:317|435:259,1,115.199996484375,0|2,1:0|0:0,0:0:0:0:
36,41,153269,2,0,P|21:96|10:153,1,115.199996484375,8|2,0:0|0:0,0:0:0:0:
512,11,153534,1,2,1:2:0:0:
373,34,153666,1,0,1:0:0:0:
114,332,153798,2,0,B|44:326|25:253|25:253|50:280|96:282,1,172.799994726563,10|0,0:0|0:0,0:0:0:0:
91,201,154062,6,0,P|102:136|125:62,1,115.199996484375,2|0,1:2|0:0,0:0:0:0:
447,259,154327,2,0,P|436:194|413:120,1,115.199996484375,10|0,0:0|0:0,0:0:0:0:
26,338,154591,1,2,1:2:0:0:
328,337,154723,1,0,1:0:0:0:
450,58,154855,1,10,0:0:0:0:
377,14,154987,6,0,P|294:33|190:44,1,172.799994726563,2|0,1:2|0:0,0:0:0:0:
304,119,155252,2,0,P|361:126|417:137,1,115.199996484375,2|8,1:2|0:0,0:0:0:0:
103,82,155516,1,2,0:0:0:0:
185,152,155648,1,2,1:2:0:0:
291,123,155780,1,0,1:0:0:0:
409,245,155913,2,0,B|525:266|525:266|470:227,1,172.799994726563,10|0,0:0|0:0,0:0:0:0:
354,173,156177,5,6,1:2:0:0:
372,316,156309,1,0,1:0:0:0:
487,228,156441,1,8,0:0:0:0:
241,267,156573,5,2,0:0:0:0:
107,210,156705,1,0,1:0:0:0:
221,124,156837,1,0,1:0:0:0:
325,44,156970,5,10,0:0:0:0:
216,131,157102,1,0,0:0:0:0:
128,366,157234,5,0,1:0:0:0:
237,279,157366,1,0,1:0:0:0:
209,123,157498,1,10,0:0:0:0:
100,210,157630,1,0,0:0:0:0:
381,322,157763,5,0,1:0:0:0:
360,184,157895,1,0,1:0:0:0:
242,268,158027,1,10,0:0:0:0:
494,238,158159,1,0,0:0:0:0:
53,17,158291,5,4,1:2:0:0:
40,5,158556,5,10,0:0:0:0:
27,94,158689,1,0,1:0:0:0:
485,378,158820,5,10,0:0:0:0:
511,199,158952,1,0,1:0:0:0:
29,1,159084,5,10,0:0:0:0:
0,177,159216,1,0,1:0:0:0:
418,73,159349,6,0,P|384:40|337:30,1,76.8,10|0,0:0|0:0,0:0:0:0:
266,103,159481,6,0,P|238:95|199:99,1,67.1999979492188,0|0,1:0|0:0,0:0:0:0:
180,199,159613,6,0,P|152:205|119:228,1,57.5999982421876,8|0,0:3|0:0,0:0:0:0:
175,300,159745,6,0,P|157:314|142:333,1,48,4|0,0:3|0:0,0:0:0:0:
143,344,159877,6,0,P|158:324|177:309,1,48,2|0,1:2|0:0,0:0:0:0:
127,231,160009,6,0,P|155:214|188:207,1,57.5999982421876,0|0,1:0|0:0,0:0:0:0:
199,108,160142,6,0,P|232:104|265:113,1,67.1999979492188,8|0,0:0|0:0,0:0:0:0:
349,37,160274,6,0,P|384:50|409:79,1,76.8,8|0,0:0|0:0,0:0:0:0:
398,325,160406,5,4,1:0:0:0:
270,196,160538,1,0,1:0:0:0:
398,325,160670,1,8,0:0:0:0:
473,287,160802,2,0,P|480:192|506:100,1,192,2|0,1:0|1:0,0:0:0:0:
390,327,161199,1,8,0:0:0:0:
512,213,161331,1,0,0:0:0:0:
322,284,161463,5,0,1:0:0:0:
141,109,161595,1,0,1:0:0:0:
322,284,161727,1,8,0:0:0:0:
397,246,161859,2,0,P|404:150|430:58,1,192,2|0,1:0|1:0,0:0:0:0:
314,286,162256,1,8,0:0:0:0:
436,172,162388,1,0,0:0:0:0:
244,241,162520,5,0,1:0:0:0:
30,32,162652,1,0,1:0:0:0:
244,241,162784,1,8,0:0:0:0:
319,203,162916,2,0,P|326:107|352:15,1,192,2|0,1:0|1:0,0:0:0:0:
236,243,163313,1,8,0:0:0:0:
358,129,163445,1,0,0:0:0:0:
241,330,163578,5,0,1:0:0:0:
441,156,163710,2,0,P|440:107|417:64,1,96,0|8,1:0|0:0,0:0:0:0:
70,181,163974,2,0,P|157:146|251:160,1,172.799994726563,2|0,1:0|0:0,0:0:0:0:
251,160,164239,1,0,1:0:0:0:
99,254,164371,1,8,0:0:0:0:
93,75,164503,1,8,0:0:0:0:
124,357,164635,5,0,1:0:0:0:
337,222,164767,1,0,1:0:0:0:
124,357,164899,1,8,0:0:0:0:
49,319,165031,2,0,P|42:224|16:132,1,192,2|0,1:0|1:0,0:0:0:0:
132,359,165428,1,8,0:0:0:0:
11,245,165560,1,0,0:0:0:0:
200,316,165692,5,0,1:0:0:0:
420,157,165824,1,0,1:0:0:0:
200,316,165956,1,8,0:0:0:0:
125,278,166088,2,0,P|118:182|92:90,1,192,2|0,1:0|1:0,0:0:0:0:
208,318,166485,1,8,0:0:0:0:
86,204,166617,1,0,0:0:0:0:
278,273,166749,5,0,1:0:0:0:
512,75,166881,1,0,1:0:0:0:
278,273,167013,1,8,0:0:0:0:
203,235,167145,2,0,P|196:139|170:47,1,192,2|0,1:0|1:0,0:0:0:0:
286,275,167542,1,8,0:0:0:0:
164,161,167674,1,0,0:0:0:0:
280,360,167807,5,0,1:0:0:0:
80,186,167939,2,0,P|81:137|104:94,1,96,0|8,1:0|0:0,0:0:0:0:
451,211,168203,2,0,P|364:176|270:190,1,172.799994726563,2|0,1:0|0:0,0:0:0:0:
270,190,168468,1,0,1:0:0:0:
422,284,168600,2,0,P|464:290|498:277,1,67.1999979492188,12|0,0:0|0:0,0:0:0:0:
428,105,168732,1,2,0:0:0:0:
108,364,168864,5,6,1:2:0:0:
8,226,168996,1,2,0:0:0:0:
76,71,169128,1,10,0:0:0:0:
99,376,169261,5,2,0:0:0:0:
0,239,169393,1,2,1:2:0:0:
68,84,169525,1,2,1:2:0:0:
112,147,169657,1,10,0:0:0:0:
268,359,169789,6,0,P|353:319|446:318,1,187.199991430664,6|0,1:2|0:0,0:0:0:0:
453,326,170054,1,2,1:2:0:0:
161,209,170186,5,10,0:0:0:0:
427,238,170318,1,0,1:0:0:0:
401,153,170450,5,10,0:0:0:0:
203,127,170582,1,0,1:0:0:0:
246,54,170714,5,10,0:0:0:0:
378,71,170846,1,0,1:0:0:0:
379,368,170979,5,6,1:2:0:0:
502,194,171111,1,2,0:0:0:0:
417,3,171243,1,10,0:0:0:0:
385,377,171376,5,2,0:0:0:0:
507,206,171508,1,2,1:2:0:0:
422,14,171640,1,2,1:2:0:0:
378,83,171772,1,10,0:0:0:0:
173,355,171904,6,0,P|111:316|-10:312,1,187.199991430664,6|0,1:2|0:0,0:0:0:0:
0,325,172169,1,2,1:2:0:0:
287,187,172300,5,10,0:0:0:0:
27,233,172433,1,0,1:0:0:0:
57,138,172564,5,10,0:0:0:0:
229,105,172697,1,0,1:0:0:0:
175,27,172829,5,10,0:0:0:0:
83,46,172961,1,8,0:0:0:0:
180,353,173093,5,4,1:2:0:0:
143,117,173225,1,0,1:0:0:0:
311,182,173357,5,8,0:0:0:0:
299,262,173490,1,0,0:0:0:0:
388,384,173622,5,0,1:0:0:0:
494,170,173754,1,0,1:0:0:0:
298,276,173886,1,8,0:0:0:0:
395,290,174018,6,0,P|411:220|368:110,1,187.199991430664,4|0,1:2|0:0,0:0:0:0:
430,59,174283,1,0,1:0:0:0:
226,233,174415,1,8,0:0:0:0:
296,286,174547,1,0,0:0:0:0:
9,213,174679,5,0,1:0:0:0:
250,149,174811,1,0,1:0:0:0:
9,213,174943,1,8,0:0:0:0:
250,149,175076,1,0,1:0:0:0:
310,205,175208,6,0,L|508:236,1,187.199991430664,4|0,1:2|0:0,0:0:0:0:
503,241,175472,1,8,0:0:0:0:
168,169,175604,2,0,P|143:122|137:70,1,105.600003222656,2|0,0:0|1:0,0:0:0:0:
19,223,175868,2,0,P|50:276|101:311,1,105.600003222656,2|8,1:2|0:0,0:0:0:0:
384,90,176133,1,2,1:2:0:0:
384,90,176199,1,0,1:0:0:0:
384,90,176265,6,0,L|249:70,1,105.600003222656,0|0,1:0|1:0,0:0:0:0:
84,302,176529,2,0,L|219:282,1,105.600003222656,8|0,0:0|0:0,0:0:0:0:
21,101,176794,1,0,1:0:0:0:
21,101,176926,5,10,1:2:0:0:
104,217,177058,5,10,1:2:0:0:
317,263,177190,5,10,1:2:0:0:
504,50,177322,5,6,1:2:0:0:
506,34,177454,1,0,1:0:0:0:
428,206,177587,5,8,0:0:0:0:
356,25,177719,1,8,0:0:0:0:
373,340,177851,5,0,1:0:0:0:
8,50,178115,86,1,B|96:-17|177:55|177:55|256:133|335:56|335:56|412:-15|507:59,1,556.800016992188,12|0,0:0|0:0,0:0:0:0:
366,225,186573,5,0,1:0:0:0:
386,14,186705,1,8,0:0:0:0:
399,1,186970,5,8,0:0:0:0:
450,139,187102,1,0,0:0:0:0:
376,215,187234,1,0,1:0:0:0:
174,23,187366,5,8,0:0:0:0:
52,44,187498,1,8,0:0:0:0:
4,164,187631,1,8,0:3:0:0:
125,143,187763,1,4,0:3:0:0:
113,152,187895,6,0,B|95:203|118:226|143:250|125:302,1,153.6,4|0,1:0|1:0,0:0:0:0:
200,180,188291,2,0,P|256:174|284:279,1,153.6,8|8,1:2|0:0,0:0:0:0:
113,313,188688,1,0,1:0:0:0:
113,313,189085,1,8,0:0:0:0:
238,354,189217,2,0,P|190:362|153:377,1,76.8,0|0,1:0|0:0,0:0:0:0:
365,327,189481,2,0,L|399:145,1,153.6,8|0,1:2|0:0,0:0:0:0:
36,42,190009,5,0,1:0:0:0:
36,42,190274,1,0,1:0:0:0:
112,78,190406,2,0,L|204:60,1,76.8,8|0,1:2|0:0,0:0:0:0:
169,156,190670,1,8,0:0:0:0:
22,138,190802,2,0,P|78:127|180:165,1,153.6,0|0,1:0|0:0,0:0:0:0:
57,364,191331,1,0,1:0:0:0:
222,299,191595,2,0,B|299:241|256:158|256:158|255:202|214:232,1,230.4,8|0,1:2|0:0,0:0:0:0:
297,337,192124,5,0,1:0:0:0:
297,337,192388,1,0,1:0:0:0:
352,276,192520,2,0,L|400:265,4,38.4,8|8|8|8|8,1:2|0:0|0:0|0:0|0:0,0:0:0:0:
297,337,192917,1,0,1:0:0:0:
463,250,193181,5,0,1:0:0:0:
409,192,193313,2,0,P|438:125|436:36,1,153.6,8|0,1:2|0:0,0:0:0:0:
472,257,193710,1,0,1:0:0:0:
366,1,193974,1,8,1:2:0:0:
16,145,194239,5,0,1:0:0:0:
16,145,194503,1,0,1:0:0:0:
86,193,194635,2,0,P|171:201|242:162,1,153.6,8|0,1:2|0:0,0:0:0:0:
11,231,195031,1,0,1:0:0:0:
441,43,195296,5,12,1:2:0:0:
491,118,195560,1,0,1:0:0:0:
446,31,195824,1,12,1:2:0:0:
287,307,196882,5,8,0:0:0:0:
325,303,196970,5,8,0:0:0:0:
361,316,197058,5,8,0:0:0:0:
389,342,197146,5,8,0:0:0:0:
417,367,197234,5,8,0:0:0:0:
454,378,197322,5,8,0:0:0:0:
492,374,197410,6,0,P|500:310|477:263,1,115.199996484375,4|0,1:0|0:0,0:0:0:0:
0,19,197675,2,0,P|-8:83|15:130,1,115.199996484375,10|0,0:0|0:0,0:0:0:0:
483,244,197939,1,2,1:2:0:0:
211,180,198071,1,0,1:0:0:0:
12,328,198203,1,10,0:0:0:0:
92,384,198335,1,2,1:2:0:0:
92,384,198402,1,0,1:0:0:0:
92,384,198468,6,0,L|214:366,1,115.199996484375,0|2,0:0|0:0,0:0:0:0:
498,9,198732,2,0,L|384:25,1,115.199996484375,8|2,0:0|0:0,0:0:0:0:
11,139,198996,1,2,1:2:0:0:
123,53,199128,1,0,1:0:0:0:
412,264,199261,2,0,B|521:289|521:289|493:273|482:243,1,172.799994726563,10|0,0:0|0:0,0:0:0:0:
398,271,199525,6,0,P|390:327|419:375,1,115.199996484375,2|0,1:2|0:0,0:0:0:0:
12,127,199789,2,0,P|40:78|33:22,1,115.199996484375,10|0,0:0|0:0,0:0:0:0:
481,162,200054,1,2,1:2:0:0:
201,145,200186,1,0,1:0:0:0:
4,341,200318,1,10,0:0:0:0:
75,305,200450,6,0,B|102:284|134:265|134:265|121:213|115:166,1,172.799994726563,2|0,1:2|0:0,0:0:0:0:
137,88,200714,2,0,P|189:57|250:68,1,115.199996484375,2|8,1:2|0:0,0:0:0:0:
14,9,200979,1,2,0:0:0:0:
205,139,201111,1,2,1:2:0:0:
285,150,201243,1,0,1:0:0:0:
506,85,201375,1,10,0:0:0:0:
506,85,201639,5,2,1:2:0:0:
285,150,201772,1,0,0:0:0:0:
307,231,201904,5,10,0:0:0:0:
41,309,202037,1,0,0:0:0:0:
483,9,202168,5,2,1:2:0:0:
262,74,202301,1,0,1:0:0:0:
330,306,202432,5,10,0:0:0:0:
27,384,202565,1,0,0:0:0:0:
105,358,202697,6,0,B|149:347|171:311|171:311|195:215|121:137,1,268.799991796875,2|8,1:2|0:0,0:0:0:0:
336,313,203093,2,0,P|402:342|459:325,1,115.199996484375,2|0,0:0|1:0,0:0:0:0:
60,223,203357,1,0,1:0:0:0:
468,97,203490,2,0,P|514:34|437:24,1,187.199991430664,10|0,0:0|0:0,0:0:0:0:
388,87,203754,6,0,P|330:76|252:64,1,115.199996484375,0|0,1:0|0:0,0:0:0:0:
501,365,204018,2,0,P|444:375|387:384,1,115.199996484375,10|0,0:0|0:0,0:0:0:0:
0,0,204283,1,0,1:0:0:0:
265,193,204415,1,0,1:0:0:0:
512,384,204547,1,10,0:0:0:0:
427,305,204679,6,0,B|428:322|428:322|468:166,1,172.799994726563,4|0,1:2|0:0,0:0:0:0:
476,167,204943,1,0,1:0:0:0:
495,384,205076,5,10,1:2:0:0:
380,239,205208,1,8,1:2:0:0:
475,3,205340,5,10,1:2:0:0:
380,239,205472,1,8,1:2:0:0:
75,290,205604,5,10,1:2:0:0:
380,239,205736,1,8,1:2:0:0:
368,127,205868,6,0,P|338:78|274:49,1,115.199996484375,4|0,1:0|0:0,0:0:0:0:
184,267,206133,2,0,P|234:294|304:287,1,115.199996484375,10|0,0:0|0:0,0:0:0:0:
495,258,206397,1,2,1:2:0:0:
261,177,206529,1,0,1:0:0:0:
11,372,206661,1,10,0:0:0:0:
66,284,206794,1,2,1:2:0:0:
66,284,206860,1,0,1:0:0:0:
66,284,206926,6,0,P|69:214|32:170,1,115.199996484375,0|2,1:0|0:0,0:0:0:0:
467,9,207190,2,0,P|464:79|501:123,1,115.199996484375,8|2,0:0|0:0,0:0:0:0:
34,175,207454,1,2,1:2:0:0:
142,124,207587,1,0,1:0:0:0:
409,349,207719,2,0,B|479:343|498:270|498:270|473:297|427:299,1,172.799994726563,10|0,0:0|0:0,0:0:0:0:
443,215,207983,6,0,P|397:168|375:96,1,115.199996484375,2|0,1:2|0:0,0:0:0:0:
98,369,208247,2,0,P|139:329|162:276,1,115.199996484375,10|0,0:0|0:0,0:0:0:0:
457,8,208512,1,2,1:2:0:0:
105,41,208644,1,0,1:0:0:0:
10,344,208776,1,10,0:0:0:0:
90,376,208908,6,0,P|166:365|282:358,1,172.799994726563,2|0,1:2|0:0,0:0:0:0:
170,279,209172,2,0,P|112:271|58:252,1,115.199996484375,2|8,1:2|0:0,0:0:0:0:
16,329,209437,1,2,0:0:0:0:
181,283,209569,1,2,1:2:0:0:
207,205,209701,1,0,1:0:0:0:
457,287,209833,1,10,0:0:0:0:
468,294,210098,5,6,1:2:0:0:
317,312,210230,1,0,1:0:0:0:
376,172,210362,1,8,0:0:0:0:
282,38,210494,5,2,0:0:0:0:
433,20,210626,1,0,1:0:0:0:
374,160,210758,1,0,1:0:0:0:
476,302,210891,5,10,0:0:0:0:
371,145,211023,1,0,0:0:0:0:
436,10,211155,5,0,1:0:0:0:
315,324,211287,1,0,1:0:0:0:
485,306,211419,5,10,0:0:0:0:
269,30,211551,1,0,0:0:0:0:
376,172,211683,5,0,1:0:0:0:
374,160,211816,1,0,1:0:0:0:
512,153,211948,5,10,0:0:0:0:
361,169,212080,1,0,0:0:0:0:
0,191,212212,5,4,1:2:0:0:
0,191,212476,1,10,0:0:0:0:
12,278,212609,1,0,1:0:0:0:
512,193,212741,5,10,0:0:0:0:
486,18,212873,1,0,1:0:0:0:
0,191,213005,5,10,0:0:0:0:
26,366,213137,1,0,1:0:0:0:
170,366,213269,6,0,P|134:352|109:324,1,76.8,8|0,0:0|0:0,0:0:0:0:
326,298,213401,6,0,P|293:302|261:294,1,67.1999979492188,0|0,1:0|0:0,0:0:0:0:
399,177,213533,6,0,P|375:191|347:198,1,57.5999982421876,8|0,0:0|0:0,0:0:0:0:
385,63,213665,6,0,P|370:82|352:97,1,48,0|0,1:0|0:0,0:0:0:0:
384,53,213797,6,0,P|369:73|350:88,1,48,0|0,1:0|0:0,0:0:0:0:
400,166,213929,6,0,P|372:183|339:190,1,57.5999982421876,8|0,1:2|0:0,0:0:0:0:
328,289,214062,6,0,P|295:293|262:284,1,67.1999979492188,8|0,0:3|0:0,0:0:0:0:
178,360,214194,6,0,P|143:347|118:318,1,76.8,4|0,0:3|0:0,0:0:0:0:
196,98,214327,6,0,B|227:45|284:166|133:240|63:123,1,230.4,4|0,1:0|0:0,0:0:0:0:
163,8,214591,2,0,P|227:-3|289:28,1,115.199996484375,10|0,0:0|0:0,0:0:0:0:
385,228,214855,5,0,1:0:0:0:
470,214,214987,1,0,1:0:0:0:
326,298,215120,5,10,0:0:0:0:
241,284,215252,1,0,0:0:0:0:
295,214,215384,5,0,1:0:0:0:
367,384,215516,1,0,1:0:0:0:
271,372,215648,1,10,0:0:0:0:
412,64,215780,1,0,0:0:0:0:
322,48,215913,5,0,1:0:0:0:
237,34,216045,1,0,1:0:0:0:
423,145,216177,5,10,0:0:0:0:
508,159,216309,1,0,0:0:0:0:
488,62,216441,5,0,1:0:0:0:
512,173,216573,1,0,1:0:0:0:
485,48,216705,1,10,0:0:0:0:
42,159,216838,1,0,0:0:0:0:
13,76,216970,5,0,1:0:0:0:
98,90,217102,1,0,1:0:0:0:
151,257,217234,5,10,0:0:0:0:
66,243,217366,1,0,0:0:0:0:
255,121,217498,5,0,1:0:0:0:
209,190,217631,1,0,1:0:0:0:
262,109,217763,1,10,0:0:0:0:
512,384,217896,1,0,0:0:0:0:
438,323,218027,5,0,1:0:0:0:
353,337,218159,1,0,1:0:0:0:
178,370,218291,5,10,0:0:0:0:
263,356,218423,1,0,0:0:0:0:
32,317,218556,5,0,1:0:0:0:
172,378,218688,1,0,1:0:0:0:
120,303,218820,1,10,0:0:0:0:
222,27,218952,1,0,0:0:0:0:
298,84,219084,5,0,1:0:0:0:
391,101,219217,1,0,1:0:0:0:
126,44,219349,5,10,0:0:0:0:
33,61,219482,1,0,0:0:0:0:
99,132,219613,5,0,1:0:0:0:
231,21,219745,1,0,1:0:0:0:
89,140,219877,1,10,0:0:0:0:
342,384,220009,1,0,0:0:0:0:
436,358,220142,5,0,1:0:0:0:
453,268,220275,1,0,1:0:0:0:
279,228,220406,5,10,0:0:0:0:
265,322,220539,1,0,0:0:0:0:
378,188,220670,5,0,1:0:0:0:
392,101,220802,1,0,1:0:0:0:
388,196,220935,1,10,0:0:0:0:
171,348,221067,1,0,0:0:0:0:
89,294,221199,5,2,1:2:0:0:
0,330,221331,1,0,1:0:0:0:
100,289,221463,1,8,0:0:0:0:
312,355,221595,2,0,P|378:356|525:392,1,172.799994726563,10|0,0:0|0:0,0:0:0:0:
490,384,221860,1,10,0:0:0:0:
345,282,221992,1,10,0:0:0:0:
505,204,222124,1,10,0:0:0:0:
501,294,222256,6,0,P|467:297|431:293,1,57.5999982421876,10|0,1:2|0:0,0:0:0:0:
370,312,222388,6,0,P|315:295|285:269,1,76.8,10|0,1:2|0:0,0:0:0:0:
224,252,222520,6,0,P|203:189|205:145,1,96,10|0,1:2|0:0,0:0:0:0:
140,113,222653,6,0,P|150:50|180:-10,1,115.199996484375,10|0,1:2|0:0,0:0:0:0:
184,0,222785,5,4,1:0:0:0:
211,150,222917,1,2,0:0:0:0:
101,270,223049,1,10,1:2:0:0:
173,374,223181,1,2,0:0:0:0:
0,178,223313,5,2,1:2:0:0:
131,116,223446,1,2,0:0:0:0:
291,205,223578,1,10,1:2:0:0:
459,178,223710,6,0,P|482:97|432:11,1,172.799994726563,2|0,0:0|0:0,0:0:0:0:
472,189,223974,1,2,0:0:0:0:
275,207,224106,1,10,1:2:0:0:
364,134,224239,1,2,0:0:0:0:
418,296,224371,1,2,1:2:0:0:
256,210,224503,1,2,0:0:0:0:
169,298,224635,1,10,1:2:0:0:
72,311,224767,1,0,0:0:0:0:
492,336,224899,5,2,1:2:0:0:
496,340,225031,1,0,0:0:0:0:
500,344,225164,1,8,1:2:0:0:
14,235,225296,5,2,0:0:0:0:
10,239,225428,1,0,1:0:0:0:
6,243,225561,1,0,0:0:0:0:
322,188,225692,5,10,1:2:0:0:
417,218,225824,1,0,0:0:0:0:
512,248,225957,1,0,1:0:0:0:
193,55,226089,5,2,0:0:0:0:
98,85,226221,1,8,1:2:0:0:
3,115,226354,1,0,0:0:0:0:
387,97,226485,5,2,1:2:0:0:
411,17,226617,1,0,0:0:0:0:
20,206,226750,6,0,L|43:279,1,67.1999979492188,14|0,1:2|0:0,0:0:0:0:
44,286,226882,1,0,0:0:0:0:
432,182,227014,5,4,1:0:0:0:
262,120,227146,1,0,1:0:0:0:
151,193,227278,2,0,P|97:215|35:206,1,115.199996484375,8|0,1:2|1:0,0:0:0:0:
43,19,227543,1,0,1:0:0:0:
106,60,227675,1,0,1:0:0:0:
103,88,227807,1,10,1:2:0:0:
92,99,227939,1,2,1:2:0:0:
81,99,228071,5,0,1:0:0:0:
127,189,228203,1,0,1:0:0:0:
55,288,228335,2,0,P|61:352|101:387,1,115.199996484375,8|0,1:2|1:0,0:0:0:0:
486,258,228600,1,0,1:0:0:0:
343,202,228732,1,0,1:0:0:0:
243,330,228864,1,10,1:2:0:0:
42,278,228996,1,0,1:0:0:0:
370,99,229128,5,14,1:2:0:0:
374,95,229260,1,0,1:0:0:0:
142,285,229393,5,10,1:2:0:0:
138,289,229525,1,0,1:0:0:0:
487,373,229657,5,10,1:2:0:0:
410,324,229789,1,0,1:0:0:0:
25,11,229921,1,10,1:2:0:0:
256,192,230054,5,6,1:2:0:0:
277,302,230318,5,10,0:3:0:0:
149,155,230450,1,2,1:2:0:0:
341,117,230582,1,6,0:3:0:0:
396,328,230714,5,2,1:2:0:0:
170,368,230846,1,10,1:2:0:0:
61,164,230979,1,2,1:2:0:0:
221,0,231111,1,6,0:3:0:0:
429,99,231243,1,2,1:0:0:0:
