osu file format v14

[General]
AudioFilename: audio.mp3
AudioLeadIn: 0
PreviewTime: 53580
Countdown: 0
SampleSet: None
StackLeniency: 0.2
Mode: 0
LetterboxInBreaks: 0
WidescreenStoryboard: 1

[Editor]
DistanceSpacing: 1.3
BeatDivisor: 4
GridSize: 32
TimelineZoom: 2.999999

[Metadata]
Title:Sendan Life
TitleUnicode:センダンライフ
Artist:Remo Prototype [CV.Hanamori Yumiri]
ArtistUnicode:リモ Prototype[CV:花守ゆみり]
Creator:bite you death
Version:for brainlets
Source:ガラスの花と壊す世界
Tags:Garakowa -Restore the World- Vitreous Flower & Destroy the World Garasu no Hana to Kowasu Sekai The Glass Flower and The Destroyed World byd
BeatmapID:1986584
BeatmapSetID:454656

[Difficulty]
HPDrainRate:6
CircleSize:3.8
OverallDifficulty:9.2
ApproachRate:9.8
SliderMultiplier:1.7
SliderTickRate:1

[Events]
//Background and Video events
0,0,"garakowa.jpg",0,0
//Break Periods
//Storyboard Layer 0 (Background)
//Storyboard Layer 1 (Fail)
//Storyboard Layer 2 (Pass)
//Storyboard Layer 3 (Foreground)
//Storyboard Sound Samples

[TimingPoints]
330,264.31718061674,4,2,2,20,1,0
7334,-100,4,2,2,20,0,0
7400,-100,4,2,2,25,0,0
7466,-100,4,2,2,30,0,0
7532,-100,4,2,2,35,0,0
7598,-100,4,2,2,40,0,0
7664,-100,4,2,2,45,0,0
7730,-100,4,2,2,50,0,0
11959,-83.3333333333333,4,2,2,60,0,0
20418,-125,4,2,2,50,0,0
28876,-80,4,2,2,55,0,0
29140,-100,4,2,2,55,0,0
37334,-200,4,2,2,50,0,0
45660,-90.9090909090909,4,2,2,60,0,0
53061,-66.6666666666667,4,2,2,60,0,0
53325,-83.3333333333333,4,2,2,60,0,0
54250,-62.5,4,2,2,70,0,1
54515,-76.9230769230769,4,2,2,70,0,1
62708,-62.5,4,2,2,70,0,1
62973,-76.9230769230769,4,2,2,70,0,1
71167,-83.3333333333333,4,2,2,60,0,0

[Colours]
Combo1 : 0,50,100
Combo2 : 196,236,255
Combo3 : 255,176,255
Combo4 : 98,0,0

[HitObjects]
294,241,7334,6,0,L|305:277,8,28.3333333333333,2|2|2|2|2|2|2|2|2,0:0|0:0|0:0|0:0|0:0|0:0|0:0|0:0|0:0,0:0:0:0:
301,301,7730,6,0,P|257:276|201:272,1,85,10|0,3:2|0:0,0:0:0:0:
18,198,7995,2,0,P|60:189|96:167,1,85,10|0,3:2|0:0,0:0:0:0:
388,45,8259,1,10,3:2:0:0:
302,93,8391,2,0,P|261:85|224:63,1,85,10|0,3:2|0:0,0:0:0:0:
382,224,8655,38,0,L|499:200,1,85,10|0,3:2|0:0,0:0:0:0:
216,52,8920,2,0,L|99:28,1,85,10|0,3:2|0:0,0:0:0:0:
363,315,9184,2,0,L|480:291,1,85,10|0,3:2|0:0,0:0:0:0:
197,143,9448,1,10,3:2:0:0:
388,45,9581,2,0,L|365:162,1,85,10|0,3:2|0:0,0:0:0:0:
160,365,9845,6,0,P|201:377|241:367,1,85,10|0,3:2|0:0,0:0:0:0:
379,142,10109,2,0,P|339:131|299:144,1,85,10|0,3:2|0:0,0:0:0:0:
79,364,10374,1,10,3:2:0:0:
201,294,10506,2,0,P|232:265|244:225,1,85,10|0,3:2|0:0,0:0:0:0:
63,56,10770,38,0,L|83:175,1,85,10|0,3:2|0:0,0:0:0:0:
243,226,11034,2,0,L|263:107,1,85,10|0,3:2|0:0,0:0:0:0:
512,196,11299,1,10,3:2:0:0:
423,56,11431,2,0,L|443:175,1,85,10|0,3:2|0:0,0:0:0:0:
507,323,11695,5,10,0:0:0:0:
487,286,11761,1,10,0:0:0:0:
452,263,11827,1,10,0:0:0:0:
410,258,11893,1,10,0:0:0:0:
371,273,11959,38,0,P|326:284|252:244,1,101.999996887207,6|0,3:2|0:0,0:0:0:0:
155,89,12224,1,8,0:0:0:0:
205,316,12356,1,0,0:0:0:0:
205,316,12422,1,0,0:0:0:0:
205,316,12488,1,0,3:0:0:0:
255,108,12620,1,0,3:0:0:0:
105,335,12752,2,0,L|-17:309,1,101.999996887207,10|0,0:0|0:0,0:0:0:0:
188,186,13017,5,0,3:0:0:0:
337,350,13149,1,0,0:0:0:0:
255,108,13281,1,8,0:0:0:0:
105,335,13413,1,0,0:0:0:0:
105,335,13479,1,0,0:0:0:0:
105,335,13545,1,0,3:0:0:0:
313,225,13678,1,0,3:0:0:0:
55,70,13810,2,0,L|79:207,1,101.999996887207,10|0,0:0|0:0,0:0:0:0:
322,30,14074,37,0,3:0:0:0:
188,186,14206,1,0,0:0:0:0:
391,224,14338,1,8,0:0:0:0:
213,67,14470,1,0,0:0:0:0:
213,67,14537,1,0,0:0:0:0:
213,67,14603,1,0,3:0:0:0:
275,293,14735,1,0,3:0:0:0:
409,105,14867,2,0,L|533:128,1,101.999996887207,10|0,0:0|0:0,0:0:0:0:
275,293,15131,5,0,3:0:0:0:
320,62,15263,1,0,0:0:0:0:
497,217,15396,1,8,0:0:0:0:
230,164,15528,1,0,0:0:0:0:
230,164,15594,1,0,0:0:0:0:
230,164,15660,1,0,3:0:0:0:
510,123,15792,1,0,3:0:0:0:
311,383,15924,2,0,L|190:365,1,101.999996887207,10|0,0:0|0:0,0:0:0:0:
19,170,16189,37,0,3:0:0:0:
125,383,16321,1,0,0:0:0:0:
132,148,16453,1,8,0:0:0:0:
12,361,16585,1,0,0:0:0:0:
12,361,16651,1,0,0:0:0:0:
12,361,16717,1,0,3:0:0:0:
60,94,16849,1,0,3:0:0:0:
275,293,16981,2,0,L|396:275,1,101.999996887207,10|0,0:0|0:0,0:0:0:0:
132,148,17246,5,0,3:0:0:0:
211,367,17378,1,0,0:0:0:0:
264,121,17510,1,8,0:0:0:0:
79,340,17642,1,0,0:0:0:0:
79,340,17708,1,0,0:0:0:0:
79,340,17774,1,0,3:0:0:0:
43,47,17907,1,0,3:0:0:0:
218,212,18039,2,0,L|339:194,1,101.999996887207,10|0,0:0|0:0,0:0:0:0:
474,57,18303,37,0,3:0:0:0:
366,285,18435,1,0,0:0:0:0:
222,78,18567,1,8,0:0:0:0:
468,203,18700,1,0,0:0:0:0:
468,203,18766,1,0,0:0:0:0:
468,203,18832,1,0,3:0:0:0:
236,354,18964,1,0,3:0:0:0:
374,82,19096,1,8,0:0:0:0:
504,356,19228,6,0,B|445:351|445:351|414:321|414:321|340:314,1,152.999995330811,6|0,3:2|0:0,0:0:0:0:
275,229,19492,38,0,L|287:300,1,50.9999984436036,2|0,3:2|0:0,0:0:0:0:
146,367,19625,2,0,L|158:296,1,50.9999984436036,10|0,0:0|0:0,0:0:0:0:
17,229,19757,2,0,L|29:300,1,50.9999984436036,10|0,0:0|0:0,0:0:0:0:
85,33,19889,5,2,3:1:0:0:
236,354,20021,1,0,3:0:0:0:
265,59,20153,1,8,0:0:0:0:
56,380,20285,1,0,3:0:0:0:
4,22,20418,37,6,3:2:0:0:
71,124,20682,6,0,L|153:108,1,68,10|0,0:0|3:0,0:0:0:0:
327,23,20946,1,2,0:0:0:0:
265,74,21078,2,0,L|183:58,1,68,2|8,3:2|0:0,0:0:0:0:
84,260,21343,1,2,0:0:0:0:
141,200,21475,38,0,P|220:189|281:246,1,136,2|8,3:2|0:0,0:0:0:0:
403,298,21871,2,0,B|356:325|356:325|264:300,1,136,2|0,0:0|3:0,0:0:0:0:
191,271,22268,2,0,L|206:353,1,68,10|0,0:0|0:0,0:0:0:0:
264,219,22532,21,2,3:2:0:0:
141,200,22664,1,2,0:0:0:0:
218,103,22796,1,10,0:0:0:0:
264,219,22929,1,2,3:2:0:0:
95,84,23061,6,0,L|7:97,1,68,0|2,0:0|3:2,0:0:0:0:
341,122,23325,2,0,L|429:109,1,68,10|2,0:0|0:0,0:0:0:0:
254,311,23589,38,0,L|93:286,1,136,2|10,3:2|0:0,0:0:0:0:
264,219,23986,2,0,B|343:222|307:274|402:272,1,136,2|2,3:2|3:2,0:0:0:0:
490,262,24382,1,8,0:0:0:0:
387,179,24515,1,2,0:0:0:0:
506,78,24647,5,0,3:0:0:0:
506,78,24911,2,0,L|479:196,1,102,10|0,0:0|0:0,0:0:0:0:
477,189,25175,2,0,P|442:169|398:160,1,68,2|0,0:0|3:0,0:0:0:0:
267,95,25440,2,0,P|300:85|329:67,1,68,10|0,0:0|0:0,0:0:0:0:
121,7,25704,38,0,B|129:58|129:58|149:83|149:83|158:153,1,136,2|8,3:2|0:0,0:0:0:0:
246,247,26100,2,0,L|258:158,1,68,2|0,3:2|0:0,0:0:0:0:
64,120,26365,2,0,L|76:209,1,68,2|8,3:2|0:0,0:0:0:0:
267,95,26629,1,2,0:0:0:0:
95,272,26761,5,0,3:0:0:0:
156,134,26893,1,2,0:0:0:0:
220,327,27026,2,0,P|257:331|307:303,1,68,10|0,0:0|3:0,0:0:0:0:
409,180,27290,2,0,P|377:169|344:174,1,68,2|0,0:0|3:0,0:0:0:0:
473,330,27554,1,10,0:0:0:0:
437,257,27686,38,0,L|471:101,1,136,2|2,0:0|0:0,0:0:0:0:
359,22,28083,6,0,L|377:100,1,68,8|0,3:2|0:0,0:0:0:0:
347,262,28347,38,0,L|356:222,1,34,10|0,3:2|0:0,0:0:0:0:
284,142,28479,2,0,L|293:181,1,34
221,262,28611,6,0,L|204:183,1,68,10|0,3:2|0:0,0:0:0:0:
40,51,28876,6,0,B|132:36|92:108|215:77,1,159.375,4|0,3:2|0:0,0:0:0:0:
301,32,29140,2,0,P|288:73|276:133,1,85,10|0,0:0|3:0,0:0:0:0:
81,217,29404,2,0,P|73:175|59:135,1,85,2|0,0:0|3:0,0:0:0:0:
301,239,29669,2,0,P|288:279|279:320,1,85,10|0,0:0|0:0,0:0:0:0:
60,135,29933,6,0,P|112:119|193:158,1,127.5,2|0,3:2|0:0,0:0:0:0:
200,170,30197,1,10,0:0:0:0:
329,87,30329,2,0,P|275:75|228:102,1,85,2|0,3:2|0:0,0:0:0:0:
163,248,30594,2,0,P|204:258|244:245,1,85,2|8,3:2|0:0,0:0:0:0:
80,64,30858,6,0,B|33:43|33:43|54:164,1,170,2|2,0:0|0:0,0:0:0:0:
94,337,31255,1,10,0:0:0:0:
200,170,31387,1,2,3:2:0:0:
29,276,31519,2,0,P|10:316|11:368,1,85,2|2,0:0|3:2,0:0:0:0:
285,190,31783,2,0,P|283:147|265:109,1,85,10|2,0:0|0:0,0:0:0:0:
482,359,32048,6,0,P|414:325|322:315,1,170,2|10,3:2|0:0,0:0:0:0:
171,383,32444,2,0,P|214:379|252:361,1,85,2|0,3:2|0:0,0:0:0:0:
307,165,32708,1,2,3:2:0:0:
247,276,32841,1,10,0:0:0:0:
180,169,32973,1,2,0:0:0:0:
374,272,33105,37,0,3:0:0:0:
374,272,33369,2,0,P|422:274|478:242,1,85,10|0,0:0|3:0,0:0:0:0:
358,93,33633,2,0,P|319:78|277:81,1,85,2|0,0:0|3:0,0:0:0:0:
179,272,33898,2,0,P|222:274|261:260,1,85,10|0,0:0|0:0,0:0:0:0:
97,73,34162,6,0,B|62:57|62:57|80:166,1,127.5,0|0,3:0|0:0,0:0:0:0:
82,176,34426,1,8,0:0:0:0:
224,359,34559,2,0,B|228:301|228:301|210:277|210:277|230:257|230:257|235:173,1,170,2|0,3:2|3:0,0:0:0:0:
244,47,34955,5,10,0:0:0:0:
179,272,35087,1,2,0:0:0:0:
373,130,35219,5,0,3:0:0:0:
233,203,35352,1,2,0:0:0:0:
334,286,35484,2,0,L|319:190,1,85,10|0,0:0|3:0,0:0:0:0:
244,47,35748,1,2,0:0:0:0:
143,130,35880,2,0,L|158:34,1,85,2|8,3:2|0:0,0:0:0:0:
230,251,36144,38,0,B|183:245|183:245|152:221|152:221|81:215,1,127.5,2|0,3:2|0:0,0:0:0:0:
20,160,36409,2,0,P|33:219|47:288,1,127.5,2|0,0:0|0:0,0:0:0:0:
70,365,36673,1,2,0:0:0:0:
218,158,36805,1,2,3:2:0:0:
242,344,36937,1,0,3:0:0:0:
305,194,37070,5,10,0:3:0:0:
317,287,37202,1,10,0:3:0:0:
230,251,37334,37,4,3:2:0:0:
455,80,37730,1,8,0:0:0:0:
490,361,38127,5,0,3:0:0:0:
380,137,38523,1,0,3:0:0:0:
242,344,38920,1,10,0:0:0:0:
179,287,39184,38,0,P|138:281|99:296,1,85,2|0,3:2|3:0,0:0:0:0:
249,353,39713,2,0,P|291:358|330:343,1,85,2|0,0:0|0:0,0:0:0:0:
379,257,40241,6,0,L|364:131,2,127.5,2|0|10,3:2|3:0|0:0,0:0:0:0:
390,341,41299,1,2,3:2:0:0:
312,308,41563,38,0,B|208:294|250:365|143:349,1,170,0|2,3:2|0:0,0:0:0:0:
78,313,42356,1,2,3:2:0:0:
132,136,42620,6,0,B|186:161|186:161|173:273,1,170,0|2,3:0|0:0,0:0:0:0:
157,354,43413,1,2,0:0:0:0:
239,327,43678,38,0,P|283:337|332:349,1,85,0|0,3:0|0:0,0:0:0:0:
431,251,44074,1,8,0:0:0:0:
431,251,44206,2,0,P|390:260|349:270,1,85,0|2,0:0|3:2,0:0:0:0:
165,191,44735,5,2,3:0:0:0:
360,106,44867,1,8,0:0:0:0:
376,114,45263,37,10,0:0:0:0:
127,77,45396,1,0,3:0:0:0:
220,311,45528,1,8,0:0:0:0:
312,23,45660,6,0,B|378:16|378:16|434:47|434:47|506:36,1,187.000005706787,6|2,3:2|3:2,0:0:0:0:
264,204,46056,1,8,1:2:0:0:
432,302,46189,1,2,0:0:0:0:
432,302,46255,1,8,0:0:0:0:
432,302,46321,1,2,3:2:0:0:
376,114,46453,1,0,3:0:0:0:
261,352,46585,2,0,L|150:337,1,93.5000028533936,10|2,1:2|0:0,0:0:0:0:
22,193,46849,38,0,B|105:182|73:234|160:224,1,140.25000428009,2|0,3:2|0:0,0:0:0:0:
184,206,47114,1,10,1:2:0:0:
165,33,47246,2,0,P|149:80|136:131,1,93.5000028533936,2|0,0:0|3:0,0:0:0:0:
330,284,47510,2,0,P|319:238|303:194,1,93.5000028533936,2|8,3:2|1:2,0:0:0:0:
374,23,47774,6,0,P|437:13|501:90,1,140.25000428009,6|0,3:2|0:0,0:0:0:0:
502,88,48039,1,2,3:2:0:0:
303,194,48171,1,10,1:2:0:0:
502,300,48303,1,2,0:0:0:0:
302,92,48435,2,0,L|185:103,1,93.5000028533936,2|0,3:2|3:0,0:0:0:0:
38,255,48700,1,10,1:2:0:0:
136,46,48832,1,2,0:0:0:0:
136,46,48898,1,8,0:0:0:0:
136,46,48964,38,0,P|177:130|199:231,1,187.000005706787,6|10,3:2|1:2,0:0:0:0:
312,323,49360,2,0,P|323:277|343:235,1,93.5000028533936,2|0,0:0|3:2,0:0:0:0:
79,119,49625,2,0,P|100:160|110:206,1,93.5000028533936,2|8,3:2|1:2,0:0:0:0:
312,31,49889,6,0,B|420:9|380:93|503:64,1,187.000005706787,6|0,3:2|0:0,0:0:0:0:
244,225,50285,1,10,1:2:0:0:
342,125,50418,1,2,0:0:0:0:
447,302,50550,2,0,L|351:280,1,93.5000028533936,2|0,3:2|3:0,0:0:0:0:
127,357,50814,1,10,1:2:0:0:
239,135,50946,1,2,0:0:0:0:
239,135,51012,1,8,0:0:0:0:
239,135,51078,37,2,3:2:0:0:
294,383,51211,1,0,3:0:0:0:
164,184,51343,1,10,1:2:0:0:
369,334,51475,2,0,L|478:317,1,93.5000028533936,2|0,0:0|3:0,0:0:0:0:
159,94,51739,2,0,L|50:77,1,93.5000028533936,2|8,3:2|1:2,0:0:0:0:
395,23,52004,1,0,0:0:0:0:
290,293,52136,5,6,3:2:0:0:
229,7,52268,1,0,0:0:0:0:
233,360,52400,37,14,3:2:0:0:
19,120,52532,1,0,0:0:0:0:
320,375,52664,5,12,3:2:0:0:
93,18,52796,1,0,0:0:0:0:
380,314,52929,37,12,3:2:0:0:
508,40,53061,6,0,B|453:2|453:2|312:40,1,191.250007295609,6|0,3:2|0:0,0:0:0:0:
237,78,53325,1,0,3:0:0:0:
382,286,53457,2,0,L|390:218,3,50.9999984436036,8|8|8|8,0:0|0:0|0:0|0:0,0:0:0:0:
470,178,53722,37,2,3:2:0:0:
433,144,53788,5,0,3:0:0:0:
384,134,53854,37,2,3:2:0:0:
336,150,53920,5,0,3:0:0:0:
303,188,53986,37,10,0:0:0:0:
270,225,54052,5,8,0:0:0:0:
223,241,54118,37,8,0:0:0:0:
173,231,54184,5,8,0:0:0:0:
136,198,54250,38,0,B|85:155|85:155|118:333,1,204,6|0,3:2|0:0,0:0:0:0:
197,381,54515,2,0,L|219:262,1,110.499994941712,10|0,1:2|0:0,0:0:0:0:
59,75,54779,1,2,3:2:0:0:
118,319,54911,1,0,3:0:0:0:
177,75,55043,1,8,1:2:0:0:
0,319,55175,6,0,L|124:339,1,110.499994941712,2|0,0:0|3:0,3:0:0:0:
295,75,55440,2,0,L|171:95,1,110.499994941712,2|8,0:0|1:2,3:0:0:0:
481,336,55704,1,2,0:0:0:0:
390,118,55836,1,2,3:2:0:0:
299,336,55968,1,0,3:0:0:0:
477,166,56100,2,0,B|498:117|498:117|462:37,1,110.499994941712,10|0,1:2|0:0,0:0:0:0:
228,247,56365,38,0,L|405:215,1,165.749992412568,2|0,3:2|0:0,0:0:0:0:
492,339,56629,2,0,L|351:313,1,110.499994941712,10|0,1:2|0:0,0:0:0:0:
159,151,56893,1,2,3:2:0:0:
308,366,57026,1,0,3:0:0:0:
298,107,57158,1,10,1:2:0:0:
138,380,57290,6,0,P|75:383|22:348,1,110.499994941712,2|0,0:0|3:0,0:0:0:0:
233,39,57554,2,0,P|283:15|337:20,1,110.499994941712,2|8,0:0|1:2,0:0:0:0:
100,289,57818,1,2,0:0:0:0:
100,289,57885,1,8,0:0:0:0:
100,289,57951,2,0,L|80:171,1,110.499994941712,2|0,3:2|3:0,0:0:0:0:
423,13,58215,2,0,L|403:131,1,110.499994941712,10|0,1:2|0:0,0:0:0:0:
310,318,58479,37,2,3:2:0:0:
254,116,58611,1,0,0:0:0:0:
456,169,58744,5,10,1:2:0:0:
254,225,58876,1,0,0:0:0:0:
306,23,59008,37,2,3:2:0:0:
362,225,59140,1,0,3:0:0:0:
159,173,59272,5,10,1:2:0:0:
361,117,59404,1,0,0:0:0:0:
202,318,59537,38,0,B|115:307|115:307|86:270|86:270|-19:255,1,220.999989883423,2|8,3:2|1:2,0:0:0:0:
192,171,59933,2,0,B|348:144|348:144|303:196,1,220.999989883423,2|0,3:2|0:0,0:0:0:0:
132,369,60329,2,0,B|109:315|109:315|140:250,1,110.499994941712,10|0,1:2|0:0,0:0:0:0:
278,116,60594,5,0,3:0:0:0:
202,318,60726,1,0,0:0:0:0:
18,97,60858,2,0,B|67:56|67:56|187:84,1,165.749992412568,10|0,1:2|0:0,0:0:0:0:
262,111,61122,1,0,3:0:0:0:
90,157,61255,1,0,3:0:0:0:
302,17,61387,1,10,1:2:0:0:
125,259,61519,38,0,L|-16:245,1,110.499994941712,6|0,3:2|0:0,0:0:0:0:
246,106,61783,1,0,3:0:0:0:
290,362,61915,5,10,0:0:0:0:
167,132,62048,1,8,0:0:0:0:
427,141,62180,37,0,3:0:0:0:
146,279,62312,1,0,3:0:0:0:
388,43,62444,6,0,P|443:37|520:92,1,110.499994941712,10|0,1:2|0:0,0:0:0:0:
468,351,62708,38,0,B|416:315|416:315|428:154,1,204,6|0,3:2|0:0,0:0:0:0:
329,124,62973,2,0,L|339:250,1,110.499994941712,10|0,1:2|0:0,0:0:0:0:
464,69,63237,1,2,3:2:0:0:
244,205,63369,1,0,3:0:0:0:
499,153,63501,1,8,1:2:0:0:
226,11,63633,6,0,L|208:129,1,110.499994941712,2|0,0:0|3:0,0:0:0:0:
436,324,63898,2,0,L|418:206,1,110.499994941712,2|8,0:0|1:2,0:0:0:0:
111,338,64162,1,2,0:0:0:0:
319,165,64294,1,2,3:2:0:0:
56,229,64426,1,0,3:0:0:0:
357,383,64559,2,0,L|375:265,1,110.499994941712,10|0,1:2|0:0,0:0:0:0:
226,35,64823,38,0,P|178:67|178:174,1,165.749992412568,2|0,3:2|0:0,0:0:0:0:
251,229,65087,2,0,P|269:175|245:119,1,110.499994941712,10|0,1:2|0:0,0:0:0:0:
83,375,65352,1,2,3:2:0:0:
328,277,65484,1,0,3:0:0:0:
122,113,65616,1,10,1:2:0:0:
281,361,65748,6,0,P|338:373|409:329,1,110.499994941712,2|0,0:0|3:0,0:0:0:0:
179,36,66012,2,0,P|128:17|75:29,1,110.499994941712,2|8,0:0|1:2,0:0:0:0:
328,277,66277,1,2,0:0:0:0:
328,277,66343,1,8,0:0:0:0:
328,277,66409,2,0,L|347:146,1,110.499994941712,2|0,3:2|3:0,0:0:0:0:
26,113,66673,2,0,L|45:244,1,110.499994941712,10|0,1:2|0:0,0:0:0:0:
307,372,66937,38,0,P|392:355|405:218,1,220.999989883423,6|8,3:2|1:2,0:0:0:0:
341,80,67334,2,0,B|303:115|303:115|316:185|316:185|329:203|329:203|322:223|322:223|330:280,1,220.999989883423,2|0,3:2|3:0,0:0:0:0:
447,55,67730,6,0,L|208:30,1,220.999989883423,10|0,1:2|3:0,0:0:0:0:
13,241,68127,1,0,3:0:0:0:
13,241,68259,2,0,L|252:216,1,220.999989883423,10|0,1:2|3:0,0:0:0:0:
110,104,68655,1,0,3:0:0:0:
293,269,68788,2,0,B|358:280|358:280|387:309|387:309|453:321,1,165.749992412568,10|0,1:2|0:0,0:0:0:0:
477,329,69052,38,0,L|458:194,1,110.499994941712,4|0,3:2|0:0,0:0:0:0:
196,4,69316,5,14,1:2:0:0:
264,271,69448,1,0,0:2:0:0:
462,79,69581,37,12,1:2:0:0:
168,153,69713,1,0,0:0:0:0:
380,371,69845,5,12,1:2:0:0:
298,47,69977,1,0,0:0:0:0:
59,281,70109,37,12,1:2:0:0:
362,140,70241,1,0,3:0:0:0:
35,60,70374,1,0,3:0:0:0:
270,357,70506,5,12,1:2:0:0:
270,357,70572,1,0,3:0:0:0:
270,357,70638,1,0,3:0:0:0:
196,4,70770,1,0,3:0:0:0:
457,253,70902,1,8,0:0:0:0:
110,354,71034,1,8,0:0:0:0:
397,64,71167,38,0,L|522:77,1,101.999996887207,6|0,3:2|0:0,0:0:0:0:
255,263,71431,1,8,0:0:0:0:
297,62,71563,1,0,0:0:0:0:
297,62,71629,1,0,0:0:0:0:
297,62,71695,1,0,3:0:0:0:
355,261,71827,1,0,3:0:0:0:
197,60,71959,2,0,L|72:73,1,101.999996887207,10|0,0:0|0:0,0:0:0:0:
306,349,72224,5,0,3:2:0:0:
404,173,72356,1,0,0:0:0:0:
203,176,72488,1,8,0:0:0:0:
406,347,72620,1,0,0:0:0:0:
406,347,72686,1,0,0:0:0:0:
406,347,72752,1,0,3:0:0:0:
453,85,72885,1,0,3:0:0:0:
255,263,73017,2,0,P|204:278|145:261,1,101.999996887207,10|0,0:0|0:0,0:0:0:0:
353,86,73281,37,0,3:0:0:0:
455,260,73413,1,0,0:0:0:0:
402,0,73545,1,8,0:0:0:0:
203,176,73678,1,0,0:0:0:0:
203,176,73744,1,0,0:0:0:0:
203,176,73810,1,0,3:0:0:0:
504,172,73942,1,0,0:0:0:0:
236,76,74074,2,0,L|101:96,1,101.999996887207,10|0,0:0|0:0,0:0:0:0:
307,348,74338,5,0,3:0:0:0:
404,173,74470,1,0,0:0:0:0:
203,176,74603,1,8,0:0:0:0:
378,273,74735,1,0,0:0:0:0:
378,273,74801,1,0,0:0:0:0:
378,273,74867,1,0,3:0:0:0:
375,72,74999,1,0,3:0:0:0:
236,276,75131,2,0,L|101:256,1,101.999996887207,10|0,0:0|0:0,0:0:0:0:
16,79,75396,37,0,3:0:0:0:
203,176,75528,1,0,0:0:0:0:
25,290,75660,1,8,0:0:0:0:
170,76,75792,1,0,0:0:0:0:
170,76,75858,1,0,0:0:0:0:
170,76,75924,1,0,3:0:0:0:
249,306,76056,1,0,3:0:0:0:
367,103,76189,2,0,B|318:82|318:82|252:106,1,101.999996887207,10|0,0:0|0:0,0:0:0:0:
49,268,76453,5,0,3:0:0:0:
315,170,76585,1,0,0:0:0:0:
49,72,76717,1,8,0:0:0:0:
225,290,76849,1,0,0:0:0:0:
225,290,76915,1,0,0:0:0:0:
225,290,76981,1,0,3:0:0:0:
326,28,77114,1,0,3:0:0:0:
137,279,77246,2,0,L|152:393,1,101.999996887207,10|0,0:0|0:0,0:0:0:0:
367,103,77510,37,0,3:0:0:0:
190,209,77642,1,0,0:0:0:0:
326,28,77774,1,8,0:0:0:0:
414,237,77907,1,0,0:0:0:0:
414,237,77973,1,0,0:0:0:0:
414,237,78039,1,0,3:0:0:0:
233,101,78171,1,0,3:0:0:0:
441,13,78303,1,8,0:0:0:0:
259,255,78435,6,0,L|71:221,1,152.999995330811,2|0,3:2|0:0,0:0:0:0:
16,309,78700,2,0,L|110:292,1,50.9999984436036,10|0,0:0|0:0,0:0:0:0:
173,157,78832,2,0,L|122:149,1,50.9999984436036,10|0,0:0|0:0,0:0:0:0:
283,351,78964,1,0,0:0:0:0:
283,351,79030,1,8,0:0:0:0:
283,351,79096,37,0,3:0:0:0:
217,73,79228,1,0,3:0:0:0:
109,371,79360,5,8,0:0:0:0:
422,315,79492,1,0,0:0:0:0:
267,154,79625,37,2,3:2:0:0:
