osu file format v14

[General]
AudioFilename: audio.mp3
AudioLeadIn: 0
PreviewTime: 53580
Countdown: 0
SampleSet: Soft
StackLeniency: 0.2
Mode: 0
LetterboxInBreaks: 0
WidescreenStoryboard: 1

[Editor]
DistanceSpacing: 1.3
BeatDivisor: 4
GridSize: 32
TimelineZoom: 2.999999

[Metadata]
Title:Sendan Life
TitleUnicode:センダンライフ
Artist:Remo Prototype [CV.Hanamori Yumiri]
ArtistUnicode:リモ Prototype[CV:花守ゆみり]
Creator:bite you death
Version:727 looooooooooooooooooooooooooooooooooooooooool
Source:ガラスの花と壊す世界
Tags:Garakowa -Restore the World- Vitreous Flower & Destroy the World Garasu no Hana to Kowasu Sekai The Glass Flower and The Destroyed World byd
BeatmapID:1986576
BeatmapSetID:454656

[Difficulty]
HPDrainRate:6
CircleSize:3.8
OverallDifficulty:9.2
ApproachRate:9.8
SliderMultiplier:1.7
SliderTickRate:1

[Events]
//Background and Video events
0,0,"garakowa.jpg",0,0
//Break Periods
//Storyboard Layer 0 (Background)
//Storyboard Layer 1 (Fail)
//Storyboard Layer 2 (Pass)
//Storyboard Layer 3 (Foreground)
//Storyboard Sound Samples

[TimingPoints]
330,264.31718061674,4,2,2,20,1,0
7334,-100,4,2,2,20,0,0
7400,-100,4,2,2,25,0,0
7466,-100,4,2,2,30,0,0
7532,-100,4,2,2,35,0,0
7598,-100,4,2,2,40,0,0
7664,-100,4,2,2,45,0,0
7730,-100,4,2,2,50,0,0
11959,-83.3333333333333,4,2,2,60,0,0
20418,-125,4,2,2,50,0,0
28876,-80,4,2,2,55,0,0
29140,-100,4,2,2,55,0,0
37334,-200,4,2,2,50,0,0
45660,-90.9090909090909,4,2,2,60,0,0
53061,-66.6666666666667,4,2,2,60,0,0
53325,-83.3333333333333,4,2,2,60,0,0
54250,-62.5,4,2,2,70,0,1
54515,-76.9230769230769,4,2,2,70,0,1
62708,-62.5,4,2,2,70,0,1
62973,-76.9230769230769,4,2,2,70,0,1
71167,-83.3333333333333,4,2,2,60,0,0

[Colours]
Combo1 : 0,50,100
Combo2 : 196,236,255
Combo3 : 255,176,255
Combo4 : 98,0,0

[HitObjects]
218,241,7334,6,0,L|207:277,8,28.3333333333333,2|2|2|2|2|2|2|2|2,0:0|0:0|0:0|0:0|0:0|0:0|0:0|0:0|0:0,0:0:0:0:
211,301,7730,6,0,P|255:276|311:272,1,85,10|0,3:2|0:0,0:0:0:0:
494,198,7995,2,0,P|452:189|416:167,1,85,10|0,3:2|0:0,0:0:0:0:
124,45,8259,1,10,3:2:0:0:
210,93,8391,2,0,P|251:85|288:63,1,85,10|0,3:2|0:0,0:0:0:0:
130,224,8655,38,0,L|13:200,1,85,10|0,3:2|0:0,0:0:0:0:
296,52,8920,2,0,L|413:28,1,85,10|0,3:2|0:0,0:0:0:0:
149,315,9184,2,0,L|32:291,1,85,10|0,3:2|0:0,0:0:0:0:
315,143,9448,1,10,3:2:0:0:
124,45,9581,2,0,L|147:162,1,85,10|0,3:2|0:0,0:0:0:0:
352,365,9845,6,0,P|311:377|271:367,1,85,10|0,3:2|0:0,0:0:0:0:
133,142,10109,2,0,P|173:131|213:144,1,85,10|0,3:2|0:0,0:0:0:0:
433,364,10374,1,10,3:2:0:0:
311,294,10506,2,0,P|280:265|268:225,1,85,10|0,3:2|0:0,0:0:0:0:
449,56,10770,38,0,L|429:175,1,85,10|0,3:2|0:0,0:0:0:0:
269,226,11034,2,0,L|249:107,1,85,10|0,3:2|0:0,0:0:0:0:
0,196,11299,1,10,3:2:0:0:
89,56,11431,2,0,L|69:175,1,85,10|0,3:2|0:0,0:0:0:0:
5,323,11695,5,10,0:0:0:0:
25,286,11761,1,10,0:0:0:0:
60,263,11827,1,10,0:0:0:0:
102,258,11893,1,10,0:0:0:0:
141,273,11959,38,0,P|186:284|260:244,1,101.999996887207,6|0,3:2|0:0,0:0:0:0:
357,89,12224,1,8,0:0:0:0:
307,316,12356,1,0,0:0:0:0:
307,316,12422,1,0,0:0:0:0:
307,316,12488,1,0,3:0:0:0:
257,108,12620,1,0,3:0:0:0:
407,335,12752,2,0,L|529:309,1,101.999996887207,10|0,0:0|0:0,0:0:0:0:
324,186,13017,5,0,3:0:0:0:
175,350,13149,1,0,0:0:0:0:
257,108,13281,1,8,0:0:0:0:
407,335,13413,1,0,0:0:0:0:
407,335,13479,1,0,0:0:0:0:
407,335,13545,1,0,3:0:0:0:
199,225,13678,1,0,3:0:0:0:
457,70,13810,2,0,L|433:207,1,101.999996887207,10|0,0:0|0:0,0:0:0:0:
190,30,14074,37,0,3:0:0:0:
324,186,14206,1,0,0:0:0:0:
121,224,14338,1,8,0:0:0:0:
299,67,14470,1,0,0:0:0:0:
299,67,14537,1,0,0:0:0:0:
299,67,14603,1,0,3:0:0:0:
237,293,14735,1,0,3:0:0:0:
103,105,14867,2,0,L|-21:128,1,101.999996887207,10|0,0:0|0:0,0:0:0:0:
237,293,15131,5,0,3:0:0:0:
192,62,15263,1,0,0:0:0:0:
15,217,15396,1,8,0:0:0:0:
282,164,15528,1,0,0:0:0:0:
282,164,15594,1,0,0:0:0:0:
282,164,15660,1,0,3:0:0:0:
2,123,15792,1,0,3:0:0:0:
201,383,15924,2,0,L|322:365,1,101.999996887207,10|0,0:0|0:0,0:0:0:0:
493,170,16189,37,0,3:0:0:0:
387,383,16321,1,0,0:0:0:0:
380,148,16453,1,8,0:0:0:0:
500,361,16585,1,0,0:0:0:0:
500,361,16651,1,0,0:0:0:0:
500,361,16717,1,0,3:0:0:0:
452,94,16849,1,0,3:0:0:0:
237,293,16981,2,0,L|116:275,1,101.999996887207,10|0,0:0|0:0,0:0:0:0:
380,148,17246,5,0,3:0:0:0:
301,367,17378,1,0,0:0:0:0:
248,121,17510,1,8,0:0:0:0:
433,340,17642,1,0,0:0:0:0:
433,340,17708,1,0,0:0:0:0:
433,340,17774,1,0,3:0:0:0:
469,47,17907,1,0,3:0:0:0:
294,212,18039,2,0,L|173:194,1,101.999996887207,10|0,0:0|0:0,0:0:0:0:
38,57,18303,37,0,3:0:0:0:
146,285,18435,1,0,0:0:0:0:
290,78,18567,1,8,0:0:0:0:
44,203,18700,1,0,0:0:0:0:
44,203,18766,1,0,0:0:0:0:
44,203,18832,1,0,3:0:0:0:
276,354,18964,1,0,3:0:0:0:
138,82,19096,1,8,0:0:0:0:
8,356,19228,6,0,B|67:351|67:351|98:321|98:321|172:314,1,152.999995330811,6|0,3:2|0:0,0:0:0:0:
237,229,19492,38,0,L|225:300,1,50.9999984436036,2|0,3:2|0:0,0:0:0:0:
366,367,19625,2,0,L|354:296,1,50.9999984436036,10|0,0:0|0:0,0:0:0:0:
495,229,19757,2,0,L|483:300,1,50.9999984436036,10|0,0:0|0:0,0:0:0:0:
427,33,19889,5,2,3:1:0:0:
276,354,20021,1,0,3:0:0:0:
247,59,20153,1,8,0:0:0:0:
456,380,20285,1,0,3:0:0:0:
508,22,20418,37,6,3:2:0:0:
441,124,20682,6,0,L|359:108,1,68,10|0,0:0|3:0,0:0:0:0:
185,23,20946,1,2,0:0:0:0:
247,74,21078,2,0,L|329:58,1,68,2|8,3:2|0:0,0:0:0:0:
428,260,21343,1,2,0:0:0:0:
371,200,21475,38,0,P|292:189|231:246,1,136,2|8,3:2|0:0,0:0:0:0:
109,298,21871,2,0,B|156:325|156:325|248:300,1,136,2|0,0:0|3:0,0:0:0:0:
321,271,22268,2,0,L|306:353,1,68,10|0,0:0|0:0,0:0:0:0:
248,219,22532,21,2,3:2:0:0:
371,200,22664,1,2,0:0:0:0:
294,103,22796,1,10,0:0:0:0:
248,219,22929,1,2,3:2:0:0:
417,84,23061,6,0,L|505:97,1,68,0|2,0:0|3:2,0:0:0:0:
171,122,23325,2,0,L|83:109,1,68,10|2,0:0|0:0,0:0:0:0:
258,311,23589,38,0,L|419:286,1,136,2|10,3:2|0:0,0:0:0:0:
248,219,23986,2,0,B|169:222|205:274|110:272,1,136,2|2,3:2|3:2,0:0:0:0:
22,262,24382,1,8,0:0:0:0:
125,179,24515,1,2,0:0:0:0:
6,78,24647,5,0,3:0:0:0:
6,78,24911,2,0,L|33:196,1,102,10|0,0:0|0:0,0:0:0:0:
35,189,25175,2,0,P|70:169|114:160,1,68,2|0,0:0|3:0,0:0:0:0:
245,95,25440,2,0,P|212:85|183:67,1,68,10|0,0:0|0:0,0:0:0:0:
391,7,25704,38,0,B|383:58|383:58|363:83|363:83|354:153,1,136,2|8,3:2|0:0,0:0:0:0:
266,247,26100,2,0,L|254:158,1,68,2|0,3:2|0:0,0:0:0:0:
448,120,26365,2,0,L|436:209,1,68,2|8,3:2|0:0,0:0:0:0:
245,95,26629,1,2,0:0:0:0:
417,272,26761,5,0,3:0:0:0:
356,134,26893,1,2,0:0:0:0:
292,327,27026,2,0,P|255:331|205:303,1,68,10|0,0:0|3:0,0:0:0:0:
103,180,27290,2,0,P|135:169|168:174,1,68,2|0,0:0|3:0,0:0:0:0:
39,330,27554,1,10,0:0:0:0:
75,257,27686,38,0,L|41:101,1,136,2|2,0:0|0:0,0:0:0:0:
153,22,28083,6,0,L|135:100,1,68,8|0,3:2|0:0,0:0:0:0:
165,262,28347,38,0,L|156:222,1,34,10|0,3:2|0:0,0:0:0:0:
228,142,28479,2,0,L|219:181,1,34
291,262,28611,6,0,L|308:183,1,68,10|0,3:2|0:0,0:0:0:0:
472,51,28876,6,0,B|380:36|420:108|297:77,1,159.375,4|0,3:2|0:0,0:0:0:0:
211,32,29140,2,0,P|224:73|236:133,1,85,10|0,0:0|3:0,0:0:0:0:
431,217,29404,2,0,P|439:175|453:135,1,85,2|0,0:0|3:0,0:0:0:0:
211,239,29669,2,0,P|224:279|233:320,1,85,10|0,0:0|0:0,0:0:0:0:
452,135,29933,6,0,P|400:119|319:158,1,127.5,2|0,3:2|0:0,0:0:0:0:
312,170,30197,1,10,0:0:0:0:
183,87,30329,2,0,P|237:75|284:102,1,85,2|0,3:2|0:0,0:0:0:0:
349,248,30594,2,0,P|308:258|268:245,1,85,2|8,3:2|0:0,0:0:0:0:
432,64,30858,6,0,B|479:43|479:43|458:164,1,170,2|2,0:0|0:0,0:0:0:0:
418,337,31255,1,10,0:0:0:0:
312,170,31387,1,2,3:2:0:0:
483,276,31519,2,0,P|502:316|501:368,1,85,2|2,0:0|3:2,0:0:0:0:
227,190,31783,2,0,P|229:147|247:109,1,85,10|2,0:0|0:0,0:0:0:0:
30,359,32048,6,0,P|98:325|190:315,1,170,2|10,3:2|0:0,0:0:0:0:
341,383,32444,2,0,P|298:379|260:361,1,85,2|0,3:2|0:0,0:0:0:0:
205,165,32708,1,2,3:2:0:0:
265,276,32841,1,10,0:0:0:0:
332,169,32973,1,2,0:0:0:0:
138,272,33105,37,0,3:0:0:0:
138,272,33369,2,0,P|90:274|34:242,1,85,10|0,0:0|3:0,0:0:0:0:
154,93,33633,2,0,P|193:78|235:81,1,85,2|0,0:0|3:0,0:0:0:0:
333,272,33898,2,0,P|290:274|251:260,1,85,10|0,0:0|0:0,0:0:0:0:
415,73,34162,6,0,B|450:57|450:57|432:166,1,127.5,0|0,3:0|0:0,0:0:0:0:
430,176,34426,1,8,0:0:0:0:
288,359,34559,2,0,B|284:301|284:301|302:277|302:277|282:257|282:257|277:173,1,170,2|0,3:2|3:0,0:0:0:0:
268,47,34955,5,10,0:0:0:0:
333,272,35087,1,2,0:0:0:0:
139,130,35219,5,0,3:0:0:0:
279,203,35352,1,2,0:0:0:0:
178,286,35484,2,0,L|193:190,1,85,10|0,0:0|3:0,0:0:0:0:
268,47,35748,1,2,0:0:0:0:
369,130,35880,2,0,L|354:34,1,85,2|8,3:2|0:0,0:0:0:0:
282,251,36144,38,0,B|329:245|329:245|360:221|360:221|431:215,1,127.5,2|0,3:2|0:0,0:0:0:0:
492,160,36409,2,0,P|479:219|465:288,1,127.5,2|0,0:0|0:0,0:0:0:0:
442,365,36673,1,2,0:0:0:0:
294,158,36805,1,2,3:2:0:0:
270,344,36937,1,0,3:0:0:0:
207,194,37070,5,10,0:3:0:0:
195,287,37202,1,10,0:3:0:0:
282,251,37334,37,4,3:2:0:0:
57,80,37730,1,8,0:0:0:0:
22,361,38127,5,0,3:0:0:0:
132,137,38523,1,0,3:0:0:0:
270,344,38920,1,10,0:0:0:0:
333,287,39184,38,0,P|374:281|413:296,1,85,2|0,3:2|3:0,0:0:0:0:
263,353,39713,2,0,P|221:358|182:343,1,85,2|0,0:0|0:0,0:0:0:0:
133,257,40241,6,0,L|148:131,2,127.5,2|0|10,3:2|3:0|0:0,0:0:0:0:
122,341,41299,1,2,3:2:0:0:
200,308,41563,38,0,B|304:294|262:365|369:349,1,170,0|2,3:2|0:0,0:0:0:0:
434,313,42356,1,2,3:2:0:0:
380,136,42620,6,0,B|326:161|326:161|339:273,1,170,0|2,3:0|0:0,0:0:0:0:
355,354,43413,1,2,0:0:0:0:
273,327,43678,38,0,P|229:337|180:349,1,85,0|0,3:0|0:0,0:0:0:0:
81,251,44074,1,8,0:0:0:0:
81,251,44206,2,0,P|122:260|163:270,1,85,0|2,0:0|3:2,0:0:0:0:
347,191,44735,5,2,3:0:0:0:
152,106,44867,1,8,0:0:0:0:
136,114,45263,37,10,0:0:0:0:
385,77,45396,1,0,3:0:0:0:
292,311,45528,1,8,0:0:0:0:
200,23,45660,6,0,B|134:16|134:16|78:47|78:47|6:36,1,187.000005706787,6|2,3:2|3:2,0:0:0:0:
248,204,46056,1,8,1:2:0:0:
80,302,46189,1,2,0:0:0:0:
80,302,46255,1,8,0:0:0:0:
80,302,46321,1,2,3:2:0:0:
136,114,46453,1,0,3:0:0:0:
251,352,46585,2,0,L|362:337,1,93.5000028533936,10|2,1:2|0:0,0:0:0:0:
490,193,46849,38,0,B|407:182|439:234|352:224,1,140.25000428009,2|0,3:2|0:0,0:0:0:0:
328,206,47114,1,10,1:2:0:0:
347,33,47246,2,0,P|363:80|376:131,1,93.5000028533936,2|0,0:0|3:0,0:0:0:0:
182,284,47510,2,0,P|193:238|209:194,1,93.5000028533936,2|8,3:2|1:2,0:0:0:0:
138,23,47774,6,0,P|75:13|11:90,1,140.25000428009,6|0,3:2|0:0,0:0:0:0:
10,88,48039,1,2,3:2:0:0:
209,194,48171,1,10,1:2:0:0:
10,300,48303,1,2,0:0:0:0:
210,92,48435,2,0,L|327:103,1,93.5000028533936,2|0,3:2|3:0,0:0:0:0:
474,255,48700,1,10,1:2:0:0:
376,46,48832,1,2,0:0:0:0:
376,46,48898,1,8,0:0:0:0:
376,46,48964,38,0,P|335:130|313:231,1,187.000005706787,6|10,3:2|1:2,0:0:0:0:
200,323,49360,2,0,P|189:277|169:235,1,93.5000028533936,2|0,0:0|3:2,0:0:0:0:
433,119,49625,2,0,P|412:160|402:206,1,93.5000028533936,2|8,3:2|1:2,0:0:0:0:
200,31,49889,6,0,B|92:9|132:93|9:64,1,187.000005706787,6|0,3:2|0:0,0:0:0:0:
268,225,50285,1,10,1:2:0:0:
170,125,50418,1,2,0:0:0:0:
65,302,50550,2,0,L|161:280,1,93.5000028533936,2|0,3:2|3:0,0:0:0:0:
385,357,50814,1,10,1:2:0:0:
273,135,50946,1,2,0:0:0:0:
273,135,51012,1,8,0:0:0:0:
273,135,51078,37,2,3:2:0:0:
218,383,51211,1,0,3:0:0:0:
348,184,51343,1,10,1:2:0:0:
143,334,51475,2,0,L|34:317,1,93.5000028533936,2|0,0:0|3:0,0:0:0:0:
353,94,51739,2,0,L|462:77,1,93.5000028533936,2|8,3:2|1:2,0:0:0:0:
117,23,52004,1,0,0:0:0:0:
222,293,52136,5,6,3:2:0:0:
283,7,52268,1,0,0:0:0:0:
279,360,52400,37,14,3:2:0:0:
493,120,52532,1,0,0:0:0:0:
192,375,52664,5,12,3:2:0:0:
419,18,52796,1,0,0:0:0:0:
132,314,52929,37,12,3:2:0:0:
4,40,53061,6,0,B|59:2|59:2|200:40,1,191.250007295609,6|0,3:2|0:0,0:0:0:0:
275,78,53325,1,0,3:0:0:0:
130,286,53457,2,0,L|122:218,3,50.9999984436036,8|8|8|8,0:0|0:0|0:0|0:0,0:0:0:0:
42,178,53722,37,2,3:2:0:0:
79,144,53788,5,0,3:0:0:0:
128,134,53854,37,2,3:2:0:0:
176,150,53920,5,0,3:0:0:0:
209,188,53986,37,10,0:0:0:0:
242,225,54052,5,8,0:0:0:0:
289,241,54118,37,8,0:0:0:0:
339,231,54184,5,8,0:0:0:0:
376,198,54250,38,0,B|427:155|427:155|394:333,1,204,6|0,3:2|0:0,0:0:0:0:
315,381,54515,2,0,L|293:262,1,110.499994941712,10|0,1:2|0:0,0:0:0:0:
453,75,54779,1,2,3:2:0:0:
394,319,54911,1,0,3:0:0:0:
335,75,55043,1,8,1:2:0:0:
512,319,55175,6,0,L|388:339,1,110.499994941712,2|0,0:0|3:0,3:0:0:0:
217,75,55440,2,0,L|341:95,1,110.499994941712,2|8,0:0|1:2,3:0:0:0:
31,336,55704,1,2,0:0:0:0:
122,118,55836,1,2,3:2:0:0:
213,336,55968,1,0,3:0:0:0:
35,166,56100,2,0,B|14:117|14:117|50:37,1,110.499994941712,10|0,1:2|0:0,0:0:0:0:
284,247,56365,38,0,L|107:215,1,165.749992412568,2|0,3:2|0:0,0:0:0:0:
20,339,56629,2,0,L|161:313,1,110.499994941712,10|0,1:2|0:0,0:0:0:0:
353,151,56893,1,2,3:2:0:0:
204,366,57026,1,0,3:0:0:0:
214,107,57158,1,10,1:2:0:0:
374,380,57290,6,0,P|437:383|490:348,1,110.499994941712,2|0,0:0|3:0,0:0:0:0:
279,39,57554,2,0,P|229:15|175:20,1,110.499994941712,2|8,0:0|1:2,0:0:0:0:
412,289,57818,1,2,0:0:0:0:
412,289,57885,1,8,0:0:0:0:
412,289,57951,2,0,L|432:171,1,110.499994941712,2|0,3:2|3:0,0:0:0:0:
89,13,58215,2,0,L|109:131,1,110.499994941712,10|0,1:2|0:0,0:0:0:0:
202,318,58479,37,2,3:2:0:0:
258,116,58611,1,0,0:0:0:0:
56,169,58744,5,10,1:2:0:0:
258,225,58876,1,0,0:0:0:0:
206,23,59008,37,2,3:2:0:0:
150,225,59140,1,0,3:0:0:0:
353,173,59272,5,10,1:2:0:0:
151,117,59404,1,0,0:0:0:0:
310,318,59537,38,0,B|397:307|397:307|426:270|426:270|531:255,1,220.999989883423,2|8,3:2|1:2,0:0:0:0:
320,171,59933,2,0,B|164:144|164:144|209:196,1,220.999989883423,2|0,3:2|0:0,0:0:0:0:
380,369,60329,2,0,B|403:315|403:315|372:250,1,110.499994941712,10|0,1:2|0:0,0:0:0:0:
234,116,60594,5,0,3:0:0:0:
310,318,60726,1,0,0:0:0:0:
494,97,60858,2,0,B|445:56|445:56|325:84,1,165.749992412568,10|0,1:2|0:0,0:0:0:0:
250,111,61122,1,0,3:0:0:0:
422,157,61255,1,0,3:0:0:0:
210,17,61387,1,10,1:2:0:0:
387,259,61519,38,0,L|528:245,1,110.499994941712,6|0,3:2|0:0,0:0:0:0:
266,106,61783,1,0,3:0:0:0:
222,362,61915,5,10,0:0:0:0:
345,132,62048,1,8,0:0:0:0:
85,141,62180,37,0,3:0:0:0:
366,279,62312,1,0,3:0:0:0:
124,43,62444,6,0,P|69:37|-8:92,1,110.499994941712,10|0,1:2|0:0,0:0:0:0:
44,351,62708,38,0,B|96:315|96:315|84:154,1,204,6|0,3:2|0:0,0:0:0:0:
183,124,62973,2,0,L|173:250,1,110.499994941712,10|0,1:2|0:0,0:0:0:0:
48,69,63237,1,2,3:2:0:0:
268,205,63369,1,0,3:0:0:0:
13,153,63501,1,8,1:2:0:0:
286,11,63633,6,0,L|304:129,1,110.499994941712,2|0,0:0|3:0,0:0:0:0:
76,324,63898,2,0,L|94:206,1,110.499994941712,2|8,0:0|1:2,0:0:0:0:
401,338,64162,1,2,0:0:0:0:
193,165,64294,1,2,3:2:0:0:
456,229,64426,1,0,3:0:0:0:
155,383,64559,2,0,L|137:265,1,110.499994941712,10|0,1:2|0:0,0:0:0:0:
286,35,64823,38,0,P|334:67|334:174,1,165.749992412568,2|0,3:2|0:0,0:0:0:0:
261,229,65087,2,0,P|243:175|267:119,1,110.499994941712,10|0,1:2|0:0,0:0:0:0:
429,375,65352,1,2,3:2:0:0:
184,277,65484,1,0,3:0:0:0:
390,113,65616,1,10,1:2:0:0:
231,361,65748,6,0,P|174:373|103:329,1,110.499994941712,2|0,0:0|3:0,0:0:0:0:
333,36,66012,2,0,P|384:17|437:29,1,110.499994941712,2|8,0:0|1:2,0:0:0:0:
184,277,66277,1,2,0:0:0:0:
184,277,66343,1,8,0:0:0:0:
184,277,66409,2,0,L|165:146,1,110.499994941712,2|0,3:2|3:0,0:0:0:0:
486,113,66673,2,0,L|467:244,1,110.499994941712,10|0,1:2|0:0,0:0:0:0:
205,372,66937,38,0,P|120:355|107:218,1,220.999989883423,6|8,3:2|1:2,0:0:0:0:
171,80,67334,2,0,B|209:115|209:115|196:185|196:185|183:203|183:203|190:223|190:223|182:280,1,220.999989883423,2|0,3:2|3:0,0:0:0:0:
65,55,67730,6,0,L|304:30,1,220.999989883423,10|0,1:2|3:0,0:0:0:0:
499,241,68127,1,0,3:0:0:0:
499,241,68259,2,0,L|260:216,1,220.999989883423,10|0,1:2|3:0,0:0:0:0:
402,104,68655,1,0,3:0:0:0:
219,269,68788,2,0,B|154:280|154:280|125:309|125:309|59:321,1,165.749992412568,10|0,1:2|0:0,0:0:0:0:
35,329,69052,38,0,L|54:194,1,110.499994941712,4|0,3:2|0:0,0:0:0:0:
316,4,69316,5,14,1:2:0:0:
248,271,69448,1,0,0:2:0:0:
50,79,69581,37,12,1:2:0:0:
344,153,69713,1,0,0:0:0:0:
132,371,69845,5,12,1:2:0:0:
214,47,69977,1,0,0:0:0:0:
453,281,70109,37,12,1:2:0:0:
150,140,70241,1,0,3:0:0:0:
477,60,70374,1,0,3:0:0:0:
242,357,70506,5,12,1:2:0:0:
242,357,70572,1,0,3:0:0:0:
242,357,70638,1,0,3:0:0:0:
316,4,70770,1,0,3:0:0:0:
55,253,70902,1,8,0:0:0:0:
402,354,71034,1,8,0:0:0:0:
115,64,71167,38,0,L|-10:77,1,101.999996887207,6|0,3:2|0:0,0:0:0:0:
257,263,71431,1,8,0:0:0:0:
215,62,71563,1,0,0:0:0:0:
215,62,71629,1,0,0:0:0:0:
215,62,71695,1,0,3:0:0:0:
157,261,71827,1,0,3:0:0:0:
315,60,71959,2,0,L|440:73,1,101.999996887207,10|0,0:0|0:0,0:0:0:0:
206,349,72224,5,0,3:2:0:0:
108,173,72356,1,0,0:0:0:0:
309,176,72488,1,8,0:0:0:0:
106,347,72620,1,0,0:0:0:0:
106,347,72686,1,0,0:0:0:0:
106,347,72752,1,0,3:0:0:0:
59,85,72885,1,0,3:0:0:0:
257,263,73017,2,0,P|308:278|367:261,1,101.999996887207,10|0,0:0|0:0,0:0:0:0:
159,86,73281,37,0,3:0:0:0:
57,260,73413,1,0,0:0:0:0:
110,0,73545,1,8,0:0:0:0:
309,176,73678,1,0,0:0:0:0:
309,176,73744,1,0,0:0:0:0:
309,176,73810,1,0,3:0:0:0:
8,172,73942,1,0,0:0:0:0:
276,76,74074,2,0,L|411:96,1,101.999996887207,10|0,0:0|0:0,0:0:0:0:
205,348,74338,5,0,3:0:0:0:
108,173,74470,1,0,0:0:0:0:
309,176,74603,1,8,0:0:0:0:
134,273,74735,1,0,0:0:0:0:
134,273,74801,1,0,0:0:0:0:
134,273,74867,1,0,3:0:0:0:
137,72,74999,1,0,3:0:0:0:
276,276,75131,2,0,L|411:256,1,101.999996887207,10|0,0:0|0:0,0:0:0:0:
496,79,75396,37,0,3:0:0:0:
309,176,75528,1,0,0:0:0:0:
487,290,75660,1,8,0:0:0:0:
342,76,75792,1,0,0:0:0:0:
342,76,75858,1,0,0:0:0:0:
342,76,75924,1,0,3:0:0:0:
263,306,76056,1,0,3:0:0:0:
145,103,76189,2,0,B|194:82|194:82|260:106,1,101.999996887207,10|0,0:0|0:0,0:0:0:0:
463,268,76453,5,0,3:0:0:0:
197,170,76585,1,0,0:0:0:0:
463,72,76717,1,8,0:0:0:0:
287,290,76849,1,0,0:0:0:0:
287,290,76915,1,0,0:0:0:0:
287,290,76981,1,0,3:0:0:0:
186,28,77114,1,0,3:0:0:0:
375,279,77246,2,0,L|360:393,1,101.999996887207,10|0,0:0|0:0,0:0:0:0:
145,103,77510,37,0,3:0:0:0:
322,209,77642,1,0,0:0:0:0:
186,28,77774,1,8,0:0:0:0:
98,237,77907,1,0,0:0:0:0:
98,237,77973,1,0,0:0:0:0:
98,237,78039,1,0,3:0:0:0:
279,101,78171,1,0,3:0:0:0:
71,13,78303,1,8,0:0:0:0:
253,255,78435,6,0,L|441:221,1,152.999995330811,2|0,3:2|0:0,0:0:0:0:
496,309,78700,2,0,L|402:292,1,50.9999984436036,10|0,0:0|0:0,0:0:0:0:
339,157,78832,2,0,L|390:149,1,50.9999984436036,10|0,0:0|0:0,0:0:0:0:
229,351,78964,1,0,0:0:0:0:
229,351,79030,1,8,0:0:0:0:
229,351,79096,37,0,3:0:0:0:
295,73,79228,1,0,3:0:0:0:
403,371,79360,5,8,0:0:0:0:
90,315,79492,1,0,0:0:0:0:
245,154,79625,37,2,3:2:0:0:
