osu file format v14

[General]
AudioFilename: sendan life.mp3
AudioLeadIn: 0
PreviewTime: 142961
Countdown: 0
SampleSet: None
StackLeniency: 0.7
Mode: 0
LetterboxInBreaks: 0
WidescreenStoryboard: 1

[Editor]
DistanceSpacing: 2
BeatDivisor: 4
GridSize: 4
TimelineZoom: 1.4

[Metadata]
Title:Sendan Life
TitleUnicode:センダンライフ
Artist:Remo Prototype [CV.Hanamori Yumiri]
ArtistUnicode:リモ Prototype [CV.花守ゆみり]
Creator:FaiVillager
Version:Flower Withered(AR9.5)
Source:ガラスの花と壊す世界
Tags:vocaloid Chukka やしきん yashikin Glass no Hana to Kowasu Sekai GARAKOWA Restore the World Vitreous Flower Destroy the World
BeatmapID:919535
BeatmapSetID:412852

[Difficulty]
HPDrainRate:5.5
CircleSize:4
OverallDifficulty:9
ApproachRate:9.5
SliderMultiplier:2.2
SliderTickRate:1

[Events]
//Background and Video events
0,0,"1.jpg",0,0
//Break Periods
2,104042,108678
//Storyboard Layer 0 (Background)
//Storyboard Layer 1 (Fail)
//Storyboard Layer 2 (Pass)
//Storyboard Layer 3 (Foreground)
//Storyboard Sound Samples

[TimingPoints]
28247,1057.26872246696,4,2,0,60,1,0
36706,264.31718061674,4,2,0,60,1,0
37366,-100,4,2,0,10,0,0
37763,-100,4,2,1,40,0,0
41992,-100,4,2,1,80,0,0
50714,-100,4,2,1,65,0,0
67366,-133.333333333333,4,2,1,55,0,0
75692,-100,4,2,1,65,0,0
83754,-100,4,2,1,45,0,0
84283,-83.3333333333333,4,2,2,70,0,1
84415,-83.3333333333333,4,2,1,80,0,1
86397,-76.9230769230769,4,2,1,80,0,1
88512,-71.4285714285714,4,2,1,80,0,1
90891,-66.6666666666667,4,2,1,80,0,1
92741,-83.3333333333333,4,2,2,80,0,1
92873,-83.3333333333333,4,2,1,80,0,1
94855,-76.9230769230769,4,2,2,80,0,1
94987,-76.9230769230769,4,2,1,80,0,1
96970,-71.4285714285714,4,2,1,80,0,1
98820,-66.6666666666667,4,2,1,80,0,1
101265,-83.3333333333333,4,2,1,45,0,0
109657,-133.333333333333,4,2,1,45,0,0
114150,-200,4,2,1,45,0,0
117058,-133.333333333333,4,2,1,45,0,0
117851,-100,4,2,1,45,0,0
118115,-100,4,2,1,65,0,0
126573,-133.333333333333,4,2,1,65,0,0
134899,-100,4,2,1,65,0,0
142961,-100,4,2,1,45,0,0
143490,-83.3333333333333,4,2,2,70,0,1
143622,-83.3333333333333,4,2,1,80,0,1
145604,-76.9230769230769,4,2,1,80,0,1
147719,-71.4285714285714,4,2,1,80,0,1
150098,-66.6666666666667,4,2,1,80,0,1
151683,-74.0740740740741,4,2,1,80,0,1
151948,-83.3333333333333,4,2,2,80,0,1
152146,-83.3333333333333,4,2,1,80,0,1
154062,-76.9230769230769,4,2,2,80,0,1
154194,-76.9230769230769,4,2,1,80,0,1
156177,-71.4285714285714,4,2,1,80,0,1
158027,-66.6666666666667,4,2,1,80,0,1
160406,-90.9090909090909,4,2,1,70,0,0
178181,-90.9090909090909,4,2,1,50,0,0
178380,-90.9090909090909,4,2,1,40,0,0
179437,-66.6666666666667,4,2,1,5,0,0
184723,-100,4,2,1,35,0,0
184789,-100,4,2,1,5,0,0
185120,-100,4,2,1,35,0,0
185186,-100,4,2,1,5,0,0
185516,-66.6666666666667,4,2,1,35,0,0
185549,-66.6666666666667,4,2,1,5,0,0
186045,-200,4,2,1,35,0,0
187895,-133.333333333333,4,2,1,35,0,0
195824,-66.6666666666667,4,2,1,35,0,0
195857,-66.6666666666667,4,2,1,10,0,0
196882,-83.3333333333333,4,2,1,60,0,0
197410,-83.3333333333333,4,2,2,80,0,1
197543,-83.3333333333333,4,2,1,80,0,1
199525,-76.9230769230769,4,2,1,80,0,1
201639,-71.4285714285714,4,2,1,80,0,1
204018,-66.6666666666667,4,2,1,80,0,1
205604,-74.0740740740741,4,2,1,80,0,1
205868,-83.3333333333333,4,2,2,80,0,1
206001,-83.3333333333333,4,2,1,80,0,1
207983,-76.9230769230769,4,2,2,80,0,1
208115,-76.9230769230769,4,2,1,80,0,1
210098,-71.4285714285714,4,2,1,80,0,1
211948,-66.6666666666667,4,2,1,80,0,1
214327,-90.9090909090909,4,2,1,70,0,0
229128,-66.6666666666667,4,2,1,60,0,0
231507,-66.6666666666667,4,2,1,50,0,0
231772,-66.6666666666667,4,2,1,30,0,0
232036,-66.6666666666667,4,2,1,20,0,0
232300,-66.6666666666667,4,2,1,5,0,0

[Colours]
Combo1 : 253,204,130
Combo2 : 121,214,253
Combo3 : 254,133,251

[HitObjects]
197,98,37366,6,8,L|178:68,11,27.5
213,124,37763,6,0,P|283:66|359:49,1,165,4|0,0:0|0:0,0:0:0:0:
198,152,38027,2,0,P|129:123|71:47,1,165,6|0,0:0|0:0,0:0:0:0:
237,144,38291,1,8,0:0:0:0:
237,144,38424,2,0,P|262:205|233:304,1,165,6|0,0:0|0:0,0:0:0:0:
127,138,38688,6,0,P|150:76|250:35,1,165,6|0,0:0|0:0,0:0:0:0:
386,89,38952,2,0,P|433:172|398:256,1,165,6|0,0:0|0:0,0:0:0:0:
299,339,39217,2,0,P|211:346|157:289,1,165,6|0,0:0|0:0,0:0:0:0:
268,185,39481,5,8,0:0:0:0:
140,252,39613,1,4,0:0:0:0:
133,237,39679,1,0,0:0:0:0:
126,222,39745,1,0,0:0:0:0:
119,207,39811,1,0,0:0:0:0:
111,192,39877,6,0,B|160:124|160:124|238:91,1,165,6|0,0:0|0:0,0:0:0:0:
472,132,40142,2,0,B|438:208|438:208|356:254,1,165,6|0,0:0|0:0,0:0:0:0:
463,364,40406,1,0,0:0:0:0:
283,243,40538,2,0,B|243:169|243:169|160:132,1,165,6|0,0:0|0:0,0:0:0:0:
55,39,40802,6,0,L|220:55,1,165,2|0,0:0|0:0,0:0:0:0:
479,138,41067,2,0,L|312:148,1,165,2|0,0:0|0:0,0:0:0:0:
145,198,41331,1,8,0:0:0:0:
349,37,41463,1,4,0:0:0:0:
244,203,41595,1,8,0:0:0:0:
132,101,41728,6,0,L|95:84,1,27.5
117,117,41794,2,0,L|80:100,1,27.5
101,135,41860,2,0,L|64:118,1,27.5
86,151,41926,2,0,L|49:134,1,27.5
35,188,41992,6,0,L|155:178,1,110,8|8,0:0|0:0,0:0:0:0:
364,372,42256,1,4,0:0:0:0:
400,80,42388,1,0,0:0:0:0:
232,268,42520,2,0,P|294:248|335:210,1,110,8|8,0:0|0:0,0:0:0:0:
112,256,42785,2,0,P|85:318|88:367,1,110,2|0,0:0|0:0,0:0:0:0:
292,324,43049,5,8,0:0:0:0:
464,140,43181,1,8,0:0:0:0:
220,92,43313,1,4,0:0:0:0:
440,4,43446,1,0,0:0:0:0:
344,176,43578,2,8,P|353:238|383:282,1,110
356,48,43842,2,0,P|306:19|244:15,1,110,2|0,0:0|0:0,0:0:0:0:
39,134,44106,5,8,0:0:0:0:
165,384,44239,1,8,0:0:0:0:
197,103,44371,1,4,0:0:0:0:
458,107,44503,1,0,0:0:0:0:
258,192,44635,2,8,P|256:248|282:301,1,110
283,72,44899,2,0,P|243:27|183:12,1,110,2|0,0:0|0:0,0:0:0:0:
35,248,45164,5,8,0:0:0:0:
197,359,45296,1,8,0:0:0:0:
390,320,45428,1,4,0:0:0:0:
486,147,45560,1,0,0:0:0:0:
239,58,45692,5,8,0:0:0:0:
194,158,45824,1,8,0:0:0:0:
255,250,45957,1,2,0:0:0:0:
364,256,46089,1,0,0:0:0:0:
365,102,46221,6,8,P|325:56|273:35,1,110
221,124,46419,1,0,0:0:0:0:
221,124,46485,2,0,P|157:128|109:150,1,110,4|0,0:0|0:0,0:0:0:0:
120,356,46750,1,8,0:0:0:0:
359,233,46882,1,8,0:0:0:0:
53,264,47014,1,2,0:0:0:0:
322,339,47146,1,0,0:0:0:0:
448,240,47278,6,8,P|472:176|467:115,1,110
219,242,47543,2,0,P|245:308|293:352,1,110,4|0,0:0|0:0,0:0:0:0:
282,83,47807,2,8,L|159:8,1,110
33,246,48071,2,0,L|158:201,1,110,2|0,0:0|0:0,0:0:0:0:
378,307,48335,5,8,0:0:0:0:
493,88,48468,1,8,0:0:0:0:
493,88,48534,1,0,0:0:0:0:
493,88,48600,1,4,0:0:0:0:
229,74,48732,1,0,0:0:0:0:
291,266,48864,2,8,L|403:217,1,110
85,165,49128,1,14,0:0:0:0:
278,310,49261,6,0,L|450:235,1,165
503,175,49525,1,0,0:0:0:0:
271,219,49657,1,0,0:0:0:0:
187,6,49789,1,2,0:0:0:0:
70,136,49921,6,0,L|119:166,1,55
77,174,50054,2,0,L|126:204,1,55
317,256,50186,6,0,L|257:302,1,55
316,295,50318,2,0,L|256:341,1,55
244,187,50450,6,0,P|319:155|403:203,1,165,8|0,0:0|0:0,0:0:0:0:
458,312,50714,6,0,L|472:141,1,165,4|0,0:0|0:0,0:0:0:0:
510,33,50979,2,0,B|484:45|484:45|367:44,1,110,8|2,0:0|0:0,0:0:0:0:
157,217,51243,1,6,0:0:0:0:
268,38,51375,1,0,0:0:0:0:
265,231,51507,2,0,P|209:290|121:323,1,165,8|0,0:0|0:0,0:0:0:0:
32,311,51772,1,12,0:0:0:0:
0,96,51904,2,0,B|135:182|135:182|197:172,1,220,10|0,0:0|0:0,0:0:0:0:
429,118,52300,6,0,P|452:189|446:248,1,110,6|8,0:0|0:0,0:0:0:0:
201,59,52565,1,10,0:0:0:0:
362,26,52697,1,2,0:0:0:0:
88,179,52829,1,4,0:0:0:0:
201,59,52961,1,8,0:0:0:0:
89,344,53093,1,2,0:0:0:0:
88,179,53225,1,2,0:0:0:0:
235,105,53357,1,4,0:0:0:0:
261,277,53490,5,0,0:0:0:0:
261,277,53556,1,0,0:0:0:0:
261,277,53622,2,8,P|312:286|372:280,1,110
111,251,53886,2,0,P|146:306|184:340,1,110,4|0,0:0|0:0,0:0:0:0:
277,86,54150,1,0,0:0:0:0:
173,196,54283,1,0,0:0:0:0:
211,17,54415,1,6,0:0:0:0:
258,169,54547,1,10,0:0:0:0:
173,196,54679,6,0,P|237:259|314:238,1,165,8|0,0:0|0:0,0:0:0:0:
354,175,54943,5,4,0:0:0:0:
166,338,55076,1,8,0:0:0:0:
258,169,55208,2,8,P|259:111|230:61,1,110
242,295,55472,2,0,P|292:325|348:315,1,110,4|0,0:0|0:0,0:0:0:0:
497,191,55736,6,0,L|330:154,1,165,10|0,0:0|0:0,0:0:0:0:
266,90,56001,1,12,0:0:0:0:
388,245,56133,2,0,L|273:218,1,110,8|0,0:0|0:0,0:0:0:0:
460,353,56397,2,0,L|345:326,1,110,8|4,0:0|0:0,0:0:0:0:
57,165,56661,2,0,L|164:190,1,110,8|0,0:0|0:0,0:0:0:0:
352,328,56926,5,2,0:0:0:0:
352,328,57058,2,0,P|394:275|394:179,1,165,6|0,0:0|0:0,0:0:0:0:
264,91,57322,2,0,P|274:190|325:237,1,165,10|0,0:0|0:0,0:0:0:0:
314,144,57587,1,4,0:0:0:0:
168,216,57719,2,0,P|137:264|129:321,1,110,10|0,0:0|0:0,0:0:0:0:
240,133,57983,2,0,P|227:72|199:32,1,110,2|4,0:0|0:0,0:0:0:0:
279,233,58247,5,8,0:0:0:0:
279,233,58313,1,0,0:0:0:0:
279,233,58380,2,0,P|344:246|404:226,1,110
117,137,58644,2,0,P|59:123|9:127,1,110,12|0,0:0|0:0,0:0:0:0:
236,300,58908,6,0,P|330:329|403:317,1,165
459,269,59172,5,12,0:0:0:0:
373,66,59305,1,0,0:0:0:0:
289,197,59437,2,0,L|174:227,1,110,2|0,0:0|0:0,0:0:0:0:
68,171,59635,1,0,0:0:0:0:
68,171,59701,2,0,L|174:143,1,110,4|0,0:0|0:0,0:0:0:0:
373,66,59965,6,0,P|425:157|408:233,1,165,10|0,0:0|0:0,0:0:0:0:
356,295,60230,1,12,0:0:0:0:
320,155,60362,2,0,P|264:126|215:124,1,110,10|0,0:0|0:0,0:0:0:0:
66,302,60626,2,0,L|189:246,1,110,2|4,0:0|0:0,0:0:0:0:
356,295,60891,5,2,0:0:0:0:
384,69,61023,1,10,0:0:0:0:
384,69,61155,1,8,0:0:0:0:
164,134,61287,1,4,0:0:0:0:
164,134,61419,1,2,0:0:0:0:
272,298,61551,5,10,0:0:0:0:
297,56,61683,1,8,0:0:0:0:
176,343,61816,1,4,0:0:0:0:
83,100,61948,1,0,0:0:0:0:
257,209,62080,6,0,P|326:182|375:89,1,165
382,9,62344,1,4,0:0:0:0:
197,129,62476,2,0,P|162:187|160:236,1,110,10|0,0:0|0:0,0:0:0:0:
330,370,62741,1,2,0:0:0:0:
440,208,62873,1,4,0:0:0:0:
233,308,63005,1,2,0:0:0:0:
216,124,63137,6,0,P|164:106|55:129,1,165,8|0,0:0|0:0,0:0:0:0:
14,213,63402,5,12,0:0:0:0:
160,350,63534,1,0,0:0:0:0:
289,211,63666,2,0,P|351:189|406:196,1,110,10|0,0:0|0:0,0:0:0:0:
458,247,63864,1,0,0:0:0:0:
458,247,63930,2,0,L|422:129,1,110,4|0,0:0|0:0,0:0:0:0:
181,54,64194,6,0,P|163:120|172:175,1,110,8|2,0:0|0:0,0:0:0:0:
351,370,64459,2,0,P|369:304|360:249,1,110,4|0,0:0|0:0,0:0:0:0:
82,118,64723,2,0,P|90:194|115:242,1,110,8|2,0:0|0:0,0:0:0:0:
461,318,64987,1,4,0:0:0:0:
467,189,65120,2,0,P|426:131|325:100,1,165,2|0,0:0|0:0,0:0:0:0:
248,111,65384,5,0,0:0:0:0:
161,304,65516,2,0,L|138:172,1,110,4|0,0:0|0:0,0:0:0:0:
269,131,65780,1,8,0:0:0:0:
338,371,65913,2,0,L|359:240,1,110,0|4,0:0|0:0,0:0:0:0:
288,88,66177,6,0,P|239:57|174:48,1,110,2|8,0:0|0:0,0:0:0:0:
101,68,66375,1,0,0:0:0:0:
101,68,66441,1,0,0:0:0:0:
28,293,66573,2,0,P|91:266|128:231,1,110,4|8,0:0|0:0,0:0:0:0:
288,88,66838,5,0,0:0:0:0:
342,86,66904,1,0,0:0:0:0:
394,104,66970,1,0,0:0:0:0:
434,141,67036,1,0,0:0:0:0:
458,190,67102,1,4,0:0:0:0:
463,244,67168,1,0,0:0:0:0:
446,296,67234,1,4,0:0:0:0:
412,339,67300,1,0,0:0:0:0:
361,360,67366,6,0,L|178:304,1,165.000006294251,12|0,0:0|0:0,0:0:0:0:
32,352,67763,2,0,P|96:310|123:219,1,165.000006294251,4|0,0:0|0:0,0:0:0:0:
36,101,68159,2,0,B|88:67|88:67|212:90,1,165.000006294251,4|0,0:0|0:0,0:0:0:0:
389,52,68556,2,0,P|337:121|352:203,1,165.000006294251,12|0,0:0|0:0,0:0:0:0:
454,322,68952,2,0,L|357:298,1,82.5000031471254,8|0,0:0|0:0,0:0:0:0:
204,340,69217,2,0,P|231:274|231:253,1,82.5000031471254,8|0,0:0|0:0,0:0:0:0:
128,109,69481,6,0,B|244:75|244:75|292:84,1,165.000006294251,12|0,0:0|0:0,0:0:0:0:
487,99,69877,2,0,P|445:142|430:246,1,165.000006294251,4|0,0:0|0:0,0:0:0:0:
494,367,70274,2,0,L|333:292,1,165.000006294251,4|0,0:0|0:0,0:0:0:0:
169,298,70670,2,0,B|259:219|259:219|275:162,1,165.000006294251,4|0,0:0|0:0,0:0:0:0:
237,18,71067,2,0,P|184:26|143:49,1,82.5000031471254,8|0,0:0|0:0,0:0:0:0:
341,98,71331,2,0,P|381:73|406:40,1,82.5000031471254,8|0,0:0|0:0,0:0:0:0:
220,105,71595,6,0,L|64:184,1,165.000006294251,4|0,0:0|0:0,0:0:0:0:
94,67,71992,1,4,0:0:0:0:
229,186,72124,2,0,L|138:231,1,82.5000031471254,4|0,0:0|0:0,0:0:0:0:
304,234,72388,2,0,L|148:313,1,165.000006294251,4|0,0:0|0:0,0:0:0:0:
325,333,72785,1,4,0:0:0:0:
155,222,72917,2,0,L|229:186,1,82.5000031471254,0|4,0:0|0:0,0:0:0:0:
416,194,73181,5,0,0:0:0:0:
416,194,73313,1,0,0:0:0:0:
416,194,73446,2,0,P|420:131|410:93,1,82.5000031471254,8|0,0:0|0:0,0:0:0:0:
329,22,73710,2,0,L|181:100,1,165.000006294251,4|0,0:0|0:0,0:0:0:0:
27,139,74106,2,0,P|79:148|149:236,1,165.000006294251,4|0,0:0|0:0,0:0:0:0:
114,352,74503,2,0,L|189:311,1,82.5000031471254,8|0,0:0|0:0,0:0:0:0:
381,304,74767,6,0,P|416:225|399:140,1,165.000006294251,4|0,0:0|0:0,0:0:0:0:
249,164,75164,1,0,0:0:0:0:
91,113,75296,5,2,0:0:0:0:
95,128,75362,1,2,0:0:0:0:
99,143,75428,1,0,0:0:0:0:
103,158,75494,1,0,0:0:0:0:
107,173,75560,1,8,0:0:0:0:
111,188,75626,1,0,0:0:0:0:
92,228,75692,6,0,P|167:218|252:255,1,165,8|0,0:0|0:0,0:0:0:0:
277,337,75957,2,0,P|327:294|337:251,1,110,8|4,0:0|0:0,0:0:0:0:
261,55,76221,1,0,0:0:0:0:
107,119,76353,2,8,L|91:233,1,110
277,337,76617,1,4,0:0:0:0:
207,168,76750,1,0,0:0:0:0:
186,302,76882,5,8,0:0:0:0:
258,88,77014,1,0,0:0:0:0:
310,257,77146,1,4,0:0:0:0:
167,31,77278,1,0,0:0:0:0:
212,193,77410,1,8,0:0:0:0:
212,193,77476,1,0,0:0:0:0:
212,193,77543,2,0,P|255:129|298:104,1,110,0|4,0:0|0:0,0:0:0:0:
471,67,77807,6,0,L|375:209,1,165,8|0,0:0|0:0,0:0:0:0:
345,293,78071,1,0,0:0:0:0:
126,246,78203,1,4,0:0:0:0:
249,345,78335,1,0,0:0:0:0:
219,132,78468,1,8,0:0:0:0:
274,242,78600,1,0,0:0:0:0:
274,242,78666,1,0,0:0:0:0:
274,242,78732,2,0,P|210:224|153:233,1,110,4|0,0:0|0:0,0:0:0:0:
27,351,78996,6,0,L|92:193,1,165,10|0,0:0|0:0,0:0:0:0:
77,108,79261,1,6,0:0:0:0:
294,132,79393,2,0,P|346:89|372:43,1,110,2|0,0:0|0:0,0:0:0:0:
210,182,79657,2,0,P|210:246|235:306,1,110,2|4,0:0|0:0,0:0:0:0:
213,84,79921,6,0,P|146:65|3:105,1,220,2|0,0:0|0:0,0:0:0:0:
120,216,80318,5,4,0:0:0:0:
312,71,80450,1,0,0:0:0:0:
262,306,80582,2,0,L|235:192,1,110
120,333,80846,1,4,0:0:0:0:
37,167,80979,1,0,0:0:0:0:
236,198,81111,6,0,P|302:187|375:107,1,165,8|0,0:0|0:0,0:0:0:0:
387,31,81375,1,4,0:0:0:0:
170,123,81507,2,0,P|141:169|144:240,1,110
355,345,81772,2,0,P|337:282|303:242,1,110,0|4,0:0|0:0,0:0:0:0:
177,333,82036,5,0,0:0:0:0:
170,123,82168,2,0,L|55:177,1,110,4|0,0:0|0:0,0:0:0:0:
300,161,82432,2,0,L|185:215,1,110,4|0,0:0|0:0,0:0:0:0:
430,199,82697,1,4,0:0:0:0:
326,344,82829,1,8,0:0:0:0:
430,199,82961,1,4,0:0:0:0:
430,199,83093,6,0,P|416:126|288:51,1,220,4|0,0:0|0:0,0:0:0:0:
84,143,83490,5,0,0:0:0:0:
102,194,83556,1,0,0:0:0:0:
120,245,83622,1,0,0:0:0:0:
138,296,83688,1,0,0:0:0:0:
156,347,83754,2,0,L|212:305,1,55,4|0,0:0|0:0,0:0:0:0:
375,343,83886,2,0,L|353:282,1,55,4|0,0:0|0:0,0:0:0:0:
445,133,84018,2,0,L|378:133,1,55,4|0,0:0|0:0,0:0:0:0:
260,6,84150,2,0,L|239:71,1,55,4|0,0:0|0:0,0:0:0:0:
84,143,84283,6,0,L|195:225,1,131.99999597168,12|8,0:0|0:0,0:0:0:0:
375,343,84547,1,4,0:0:0:0:
317,116,84679,1,2,0:0:0:0:
283,304,84811,2,0,P|215:287|88:335,1,197.99999395752,8|0,0:0|0:0,0:0:0:0:
0,356,85076,1,14,0:0:0:0:
124,220,85208,5,2,0:0:0:0:
146,31,85340,1,10,0:0:0:0:
284,261,85472,1,0,0:0:0:0:
358,89,85604,1,6,0:0:0:0:
146,31,85736,1,0,0:0:0:0:
183,212,85868,2,0,P|233:166|308:149,1,131.99999597168,10|0,0:0|0:0,0:0:0:0:
388,184,86067,1,2,0:0:0:0:
418,170,86133,2,0,L|494:56,1,131.99999597168,6|0,0:0|0:0,0:0:0:0:
255,55,86397,5,8,0:0:0:0:
100,291,86529,1,0,0:0:0:0:
126,65,86661,1,4,0:0:0:0:
317,283,86794,1,2,0:0:0:0:
403,145,86926,2,0,P|311:122|192:174,1,214.49999018097,10|0,0:0|0:0,0:0:0:0:
135,240,87190,1,4,0:0:0:0:
443,230,87322,2,0,P|491:161|481:91,1,142.99999345398,10|8,0:0|0:0,0:0:0:0:
237,248,87587,5,10,0:0:0:0:
454,367,87719,1,4,0:0:0:0:
331,174,87851,1,8,0:0:0:0:
138,337,87983,2,0,P|128:263|84:201,1,142.99999345398,2|0,0:0|0:0,0:0:0:0:
12,160,88181,1,2,0:0:0:0:
0,126,88247,2,0,L|81:-6,1,142.99999345398,6|0,0:0|0:0,0:0:0:0:
358,31,88512,5,8,0:0:0:0:
396,256,88644,1,10,0:0:0:0:
236,35,88776,1,4,0:0:0:0:
500,108,88908,1,0,0:0:0:0:
201,207,89040,2,0,P|160:276|152:365,1,153.999995300293,8|2,0:0|0:0,0:0:0:0:
306,136,89305,2,0,P|277:53|206:-4,1,153.999995300293,4|0,0:0|0:0,0:0:0:0:
6,1,89569,5,8,0:0:0:0:
256,192,89701,1,0,0:0:0:0:
506,1,89833,1,4,0:0:0:0:
174,91,89965,2,0,P|117:175|110:233,2,153.999995300293,10|2|0,0:0|0:0|0:0,0:0:0:0:
336,282,90362,1,4,0:0:0:0:
311,40,90494,1,0,0:0:0:0:
239,330,90626,2,0,P|238:230|198:177,1,153.999995300293
29,98,90891,5,4,0:0:0:0:
419,36,91023,1,8,0:0:0:0:
68,20,91155,1,0,0:0:0:0:
451,120,91287,1,8,0:0:0:0:
59,245,91419,6,0,P|132:197|212:190,1,165.000006294251,4|0,0:0|0:0,0:0:0:0:
307,234,91617,1,0,0:0:0:0:
346,246,91683,2,8,P|427:236|494:190,1,165.000006294251
207,189,91948,2,0,P|181:272|206:364,1,165.000006294251,4|4,0:0|0:0,0:0:0:0:
434,358,92212,5,12,0:0:0:0:
347,38,92344,1,8,0:0:0:0:
312,312,92476,1,4,0:0:0:0:
451,120,92609,1,4,0:0:0:0:
196,226,92741,6,0,P|148:302|142:361,1,131.99999597168,10|2,0:0|0:0,0:0:0:0:
318,193,93005,2,0,P|310:123|266:71,1,131.99999597168,6|0,0:0|0:0,0:0:0:0:
64,210,93269,2,0,L|226:229,1,131.99999597168,8|8,0:0|0:0,0:0:0:0:
399,377,93534,1,4,0:0:0:0:
486,158,93666,1,8,0:0:0:0:
326,286,93798,1,10,0:0:0:0:
134,151,93930,2,0,L|278:109,1,131.99999597168,8|4,0:0|0:0,0:0:0:0:
343,130,94128,1,0,0:0:0:0:
343,130,94194,1,2,0:0:0:0:
252,333,94327,5,0,0:0:0:0:
468,222,94459,1,2,0:0:0:0:
468,222,94525,1,2,0:0:0:0:
468,222,94591,2,0,P|501:158|494:88,1,131.99999597168,2|0,0:0|0:0,0:0:0:0:
239,62,94855,5,10,0:0:0:0:
358,323,94987,1,8,0:0:0:0:
130,163,95120,1,4,0:0:0:0:
388,16,95252,1,2,0:0:0:0:
230,212,95384,2,0,B|102:319|102:319|112:253,1,214.49999018097,10|0,0:0|0:0,0:0:0:0:
130,163,95648,1,4,0:0:0:0:
369,176,95780,6,0,P|430:110|442:48,1,142.99999345398,8|2,0:0|0:0,0:0:0:0:
230,212,96045,2,0,P|205:288|225:359,1,142.99999345398,8|4,0:0|0:0,0:0:0:0:
481,293,96309,1,0,0:0:0:0:
218,63,96441,1,8,0:0:0:0:
415,148,96573,1,2,0:0:0:0:
90,225,96705,2,0,P|181:205|252:219,1,142.99999345398,4|0,0:0|0:0,0:0:0:0:
481,293,96970,5,8,0:0:0:0:
170,310,97102,2,0,P|128:328|72:333,2,76.9999976501466,0|0|4,0:0|0:0|0:0,0:0:0:0:
316,66,97366,1,0,0:0:0:0:
298,377,97498,1,8,0:0:0:0:
479,176,97631,1,2,0:0:0:0:
166,135,97763,2,0,P|86:162|26:216,1,153.999995300293,4|0,0:0|0:0,0:0:0:0:
278,277,98027,5,8,0:0:0:0:
215,18,98159,1,2,0:0:0:0:
479,176,98291,1,4,0:0:0:0:
210,331,98424,1,0,0:0:0:0:
341,123,98556,2,8,P|423:83|506:93,1,153.999995300293
417,234,98820,5,4,0:0:0:0:
73,119,98952,1,8,0:0:0:0:
429,203,99084,5,4,0:0:0:0:
43,154,99217,1,8,0:0:0:0:
441,172,99349,5,4,0:0:0:0:
26,195,99481,1,8,0:0:0:0:
453,141,99613,5,4,0:0:0:0:
22,237,99745,1,8,0:0:0:0:
466,110,99877,5,4,0:0:0:0:
32,275,100009,1,8,0:0:0:0:
482,270,100142,6,0,P|393:211|330:200,1,165.000006294251,4|0,0:0|0:0,0:0:0:0:
227,239,100340,1,8,0:0:0:0:
193,262,100406,2,0,P|106:285|18:271,1,165.000006294251,4|0,0:0|0:0,0:0:0:0:
187,6,100670,5,12,0:0:0:0:
245,35,100736,1,8,0:0:0:0:
279,91,100802,1,8,0:0:0:0:
276,156,100868,1,8,0:0:0:0:
205,203,100935,5,8,0:0:0:0:
196,268,101001,1,8,0:0:0:0:
227,325,101067,1,8,0:0:0:0:
284,357,101133,1,8,0:0:0:0:
349,350,101199,1,8,0:0:0:0:
256,192,101265,12,0,103842,0:0:0:0:
315,106,109128,5,0,0:0:0:0:
323,123,109194,1,0,0:0:0:0:
332,140,109261,1,0,0:0:0:0:
340,157,109327,1,0,0:0:0:0:
348,174,109393,1,0,0:0:0:0:
356,191,109459,1,0,0:0:0:0:
365,208,109525,1,0,0:0:0:0:
373,225,109591,1,0,0:0:0:0:
408,259,109657,5,8,0:0:0:0:
278,351,109921,6,8,P|275:274|211:215,1,165.000006294251,8|0,0:0|0:0,0:0:0:0:
101,260,110450,1,0,0:0:0:0:
116,142,110582,1,8,0:0:0:0:
116,142,110648,1,0,0:0:0:0:
116,142,110714,2,0,L|279:89,1,165.000006294251,4|0,0:0|0:0,0:0:0:0:
412,11,111111,2,0,P|440:61|421:173,1,165.000006294251,4|0,0:0|0:0,0:0:0:0:
451,285,111507,2,0,L|362:262,1,82.5000031471254,4|0,0:0|0:0,0:0:0:0:
225,297,111772,5,0,0:0:0:0:
225,297,111904,1,0,0:0:0:0:
134,204,112036,1,0,0:0:0:0:
134,204,112168,1,0,0:0:0:0:
266,174,112300,2,0,P|275:117|264:71,2,82.5000031471254
121,259,112829,5,0,0:0:0:0:
195,294,112961,1,0,0:0:0:0:
291,257,113093,5,0,0:0:0:0:
365,292,113225,2,0,P|412:300|454:287,1,82.5000031471254
405,206,113490,5,0,0:0:0:0:
395,124,113622,1,0,0:0:0:0:
293,92,113754,5,0,0:0:0:0:
283,10,113886,1,2,0:0:0:0:
140,69,114150,6,0,L|105:146,1,82.5
71,167,114415,2,0,P|107:208|114:254,1,82.5,2|0,0:0|0:0,0:0:0:0:
94,270,114679,2,0,L|190:252,1,82.5
209,277,114943,2,0,P|255:265|291:275,1,82.5,2|0,0:0|0:0,0:0:0:0:
316,304,115208,5,8,0:0:0:0:
435,258,115340,2,0,L|388:145,2,110
239,344,116133,5,0,0:0:0:0:
156,299,116265,2,0,P|135:245|143:205,1,82.5
156,185,116529,1,0,0:0:0:0:
267,224,116661,2,0,P|306:224|356:200,1,82.5
375,177,116926,1,4,0:0:0:0:
285,124,117058,6,0,L|110:84,1,165.000006294251
11,183,117454,1,0,0:0:0:0:
88,310,117587,5,8,0:0:0:0:
100,307,117653,1,8,0:0:0:0:
112,304,117719,1,8,0:0:0:0:
124,301,117785,1,0,0:0:0:0:
140,298,117851,2,0,L|323:253,1,165,4|0,0:0|0:0,0:0:0:0:
409,291,118115,5,8,0:0:0:0:
341,40,118380,5,4,0:0:0:0:
116,68,118512,1,8,0:0:0:0:
286,108,118644,2,0,P|298:175|277:226,1,110,10|0,0:0|0:0,0:0:0:0:
168,360,118908,1,4,0:0:0:0:
184,158,119040,1,2,0:0:0:0:
285,213,119172,6,0,P|358:218|439:177,1,165,10|0,0:0|0:0,0:0:0:0:
488,101,119437,1,4,0:0:0:0:
286,86,119569,1,2,0:0:0:0:
512,204,119701,1,0,0:0:0:0:
385,51,119833,1,2,0:0:0:0:
396,159,119965,2,0,L|339:274,1,110,4|0,0:0|0:0,0:0:0:0:
161,362,120230,5,10,0:0:0:0:
275,218,120362,1,2,0:0:0:0:
91,308,120494,1,4,0:0:0:0:
259,202,120626,1,2,0:0:0:0:
56,227,120758,1,0,0:0:0:0:
250,181,120891,1,0,0:0:0:0:
61,138,121023,1,4,0:0:0:0:
296,229,121155,5,2,0:0:0:0:
300,239,121221,1,0,0:0:0:0:
304,249,121287,2,0,P|228:229|137:249,1,165,8|0,0:0|0:0,0:0:0:0:
64,303,121551,1,4,0:0:0:0:
191,127,121683,2,0,L|298:99,1,110,2|0,0:0|0:0,0:0:0:0:
373,302,121948,2,0,L|480:274,1,110,2|4,0:0|0:0,0:0:0:0:
207,240,122212,5,2,0:0:0:0:
207,240,122344,2,0,L|314:212,1,110,2|0,0:0|0:0,0:0:0:0:
419,213,122543,1,0,0:0:0:0:
419,213,122609,2,0,P|366:155|365:60,1,165,4|0,0:0|0:0,0:0:0:0:
425,6,122873,2,0,L|308:33,1,110,2|8,0:0|0:0,0:0:0:0:
39,104,123137,2,0,L|172:131,1,110,4|8,0:0|0:0,0:0:0:0:
406,174,123402,6,0,P|327:193|263:258,1,165,8|0,0:0|0:0,0:0:0:0:
244,335,123666,1,0,0:0:0:0:
470,257,123798,1,2,0:0:0:0:
354,98,123930,1,8,0:0:0:0:
374,306,124062,1,2,0:0:0:0:
217,184,124194,2,0,P|155:203|106:242,1,110,4|0,0:0|0:0,0:0:0:0:
291,326,124459,5,10,0:0:0:0:
377,113,124591,2,0,L|412:223,1,110,2|4,0:0|0:0,0:0:0:0:
262,300,124855,1,2,0:0:0:0:
176,84,124987,2,0,L|139:197,1,110,2|0,0:0|0:0,0:0:0:0:
300,289,125252,1,4,0:0:0:0:
407,71,125384,6,0,P|344:41|242:51,1,165,2|0,0:0|0:0,0:0:0:0:
176,84,125648,1,0,0:0:0:0:
301,124,125780,1,4,0:0:0:0:
203,213,125913,1,8,0:0:0:0:
176,84,126045,5,8,0:0:0:0:
166,97,126111,1,0,0:0:0:0:
156,110,126177,1,0,0:0:0:0:
146,123,126243,1,0,0:0:0:0:
136,136,126309,1,0,0:0:0:0:
126,149,126375,1,0,0:0:0:0:
116,162,126441,1,0,0:0:0:0:
106,175,126507,1,0,0:0:0:0:
58,197,126573,6,8,P|146:192|217:235,2,165.000006294251,8|8|12,0:0|0:0|0:0,0:0:0:0:
233,312,127366,2,0,P|273:286|291:242,1,82.5000031471254
278,133,127631,1,8,0:0:0:0:
370,46,127763,1,0,0:0:0:0:
306,155,127895,1,8,0:0:0:0:
306,155,128159,6,0,L|361:329,1,165.000006294251,4|0,0:0|0:0,0:0:0:0:
429,353,128556,1,0,0:0:0:0:
428,271,128688,2,8,P|330:236|277:284,2,165.000006294251,8|8|12,0:0|0:0|0:0,0:0:0:0:
226,325,129481,6,0,L|145:290,1,82.5000031471254
99,171,129745,1,8,0:0:0:0:
17,263,129877,1,0,0:0:0:0:
87,142,130009,1,8,0:0:0:0:
87,142,130274,6,0,L|254:128,1,165.000006294251,4|0,0:0|0:0,0:0:0:0:
300,203,130670,1,0,0:0:0:0:
252,131,130802,2,0,P|217:174|214:213,1,82.5000031471254,8|0,0:0|0:0,0:0:0:0:
264,282,131067,2,0,P|313:288|349:273,1,82.5000031471254,8|0,0:0|0:0,0:0:0:0:
386,194,131331,2,0,P|361:141|336:126,1,82.5000031471254,12|0,0:0|0:0,0:0:0:0:
252,131,131595,6,0,L|158:135,1,82.5000031471254
86,227,131860,1,8,0:0:0:0:
97,354,131992,1,0,0:0:0:0:
116,238,132124,1,8,0:0:0:0:
116,238,132388,6,0,P|188:251|283:206,1,165.000006294251
330,135,132785,1,0,0:0:0:0:
378,224,132917,2,8,L|507:331,2,165.000006294251,8|8|12,0:0|0:0|0:0,0:0:0:0:
359,98,133710,6,0,P|297:109|273:102,1,82.5000031471254
225,24,133974,2,8,P|155:29|86:107,1,165.000006294251
155,257,134503,5,4,0:0:0:0:
356,204,134635,1,8,0:0:0:0:
160,348,134767,1,4,0:0:0:0:
337,228,134899,6,0,P|266:200|216:83,1,165,2|0,0:0|0:0,0:0:0:0:
235,34,135164,1,0,0:0:0:0:
59,182,135296,2,0,L|138:293,1,110,4|0,0:0|0:0,0:0:0:0:
329,380,135560,2,0,P|376:318|386:268,1,110,10|0,0:0|0:0,0:0:0:0:
321,217,135758,1,2,0:0:0:0:
321,217,135824,2,0,P|323:153|347:106,1,110,4|0,0:0|0:0,0:0:0:0:
498,9,136089,5,10,0:0:0:0:
427,193,136221,1,8,0:0:0:0:
236,244,136353,1,4,0:0:0:0:
72,132,136485,2,0,L|197:141,1,110,2|0,0:0|0:0,0:0:0:0:
350,277,136750,1,0,0:0:0:0:
350,277,136882,1,4,0:0:0:0:
375,113,137014,6,0,P|325:71|212:57,1,165,10|0,0:0|0:0,0:0:0:0:
137,9,137278,1,2,0:0:0:0:
178,222,137410,2,0,P|168:291|139:337,1,110,4|0,0:0|0:0,0:0:0:0:
117,141,137675,2,0,P|147:85|194:48,1,110,10|0,0:0|0:0,0:0:0:0:
443,79,137939,1,4,0:0:0:0:
252,170,138071,1,0,0:0:0:0:
357,275,138203,6,0,L|335:95,1,165,10|0,0:0|0:0,0:0:0:0:
385,32,138468,1,4,0:0:0:0:
277,249,138600,2,0,L|261:123,1,110,2|0,0:0|0:0,0:0:0:0:
182,356,138864,2,0,L|166:230,1,110,2|4,0:0|0:0,0:0:0:0:
51,99,139128,6,0,P|137:116|220:80,1,165,10|0,0:0|0:0,0:0:0:0:
277,20,139393,1,2,0:0:0:0:
446,73,139525,2,0,L|349:140,1,110,4|0,0:0|0:0,0:0:0:0:
433,299,139789,1,4,0:0:0:0:
302,218,139921,1,0,0:0:0:0:
147,228,140054,1,0,0:0:0:0:
32,330,140186,1,0,0:0:0:0:
214,288,140318,6,0,P|237:213|179:143,1,165,8|0,0:0|0:0,0:0:0:0:
101,144,140582,1,8,0:0:0:0:
261,244,140714,2,0,P|316:249|388:222,1,110,10|4,0:0|0:0,0:0:0:0:
354,42,140979,2,0,P|314:106|310:157,1,110,10|4,0:0|0:0,0:0:0:0:
421,138,141243,1,0,0:0:0:0:
187,152,141375,6,0,L|203:18,1,110,4|0,0:0|0:0,0:0:0:0:
98,215,141639,2,0,L|114:81,1,110,4|0,0:0|0:0,0:0:0:0:
7,280,141904,1,4,0:0:0:0:
244,210,142036,1,8,0:0:0:0:
7,280,142168,1,4,0:0:0:0:
7,280,142300,2,0,L|23:146,1,110,0|4,0:0|0:0,0:0:0:0:
172,16,142565,1,0,0:0:0:0:
388,56,142697,5,0,0:0:0:0:
401,109,142763,1,0,0:0:0:0:
414,162,142829,1,0,0:0:0:0:
427,215,142895,1,0,0:0:0:0:
439,268,142961,6,0,L|365:262,1,55,4|0,0:0|0:0,0:0:0:0:
249,384,143093,2,0,L|235:314,1,55,4|0,0:0|0:0,0:0:0:0:
82,239,143225,2,0,L|140:202,1,55,4|0,0:0|0:0,0:0:0:0:
168,37,143357,2,0,L|222:90,1,55,4|0,0:0|0:0,0:0:0:0:
388,56,143490,6,0,L|331:188,1,131.99999597168,4|0,0:0|0:0,0:0:0:0:
249,384,143754,1,4,0:0:0:0:
469,229,143886,1,2,0:0:0:0:
282,271,144018,2,0,P|260:179|171:112,1,197.99999395752,2|0,0:0|0:0,0:0:0:0:
80,95,144283,1,4,0:0:0:0:
342,35,144415,1,0,0:0:0:0:
105,203,144547,5,8,0:0:0:0:
308,62,144679,2,0,P|377:74|433:124,1,131.99999597168,2|4,0:0|0:0,0:0:0:0:
320,341,144943,1,2,0:0:0:0:
330,162,145076,1,8,0:0:0:0:
466,354,145208,1,2,0:0:0:0:
466,354,145274,1,0,0:0:0:0:
466,354,145340,2,0,L|335:343,1,131.99999597168,4|0,0:0|0:0,0:0:0:0:
210,361,145538,5,0,0:0:0:0:
210,361,145604,2,0,P|250:284|221:155,1,214.49999018097,10|0,0:0|0:0,0:0:0:0:
157,87,145868,1,4,0:0:0:0:
105,341,146001,1,2,0:0:0:0:
359,247,146133,2,8,L|511:283,1,142.99999345398,8|10,0:0|0:0,0:0:0:0:
105,341,146397,1,4,0:0:0:0:
359,247,146529,6,0,P|266:191|232:83,1,214.49999018097,2|0,0:0|0:0,0:0:0:0:
254,1,146794,1,8,0:0:0:0:
248,277,146926,1,4,0:0:0:0:
471,195,147058,1,2,0:0:0:0:
233,137,147190,1,2,0:0:0:0:
183,131,147256,1,2,0:0:0:0:
133,126,147322,1,2,0:0:0:0:
330,228,147454,2,0,P|365:156|351:91,1,142.99999345398,4|0,0:0|0:0,0:0:0:0:
131,318,147719,5,0,0:0:0:0:
471,384,147851,1,0,0:0:0:0:
353,96,147983,2,0,L|197:71,1,153.999995300293,4|2,0:0|0:0,0:0:0:0:
442,275,148247,2,0,P|500:205|513:142,1,153.999995300293,8|2,0:0|0:0,0:0:0:0:
92,250,148512,2,0,L|225:354,1,153.999995300293,4|0,0:0|0:0,0:0:0:0:
296,17,148776,5,8,0:0:0:0:
52,162,148908,1,0,0:0:0:0:
52,162,148974,1,0,0:0:0:0:
52,162,149040,2,0,B|237:129|237:129|205:169,1,230.99999295044,4|0,0:0|0:0,0:0:0:0:
125,231,149305,1,0,0:0:0:0:
362,164,149437,1,2,0:0:0:0:
407,192,149503,1,0,0:0:0:0:
452,220,149569,1,4,0:0:0:0:
248,230,149701,6,0,P|231:138|408:38,1,307.999990600586,8|0,0:0|0:0,0:0:0:0:
130,204,150098,6,0,B|23:288|23:288|70:284,1,165.000006294251,4|2,0:0|0:0,0:0:0:0:
406,370,150362,1,8,0:0:0:0:
389,32,150494,1,10,0:0:0:0:
226,303,150626,1,4,0:0:0:0:
419,126,150758,2,0,B|321:147|235:48|235:48|241:116,1,247.500009441376,8|0,0:0|0:0,0:0:0:0:
294,229,151023,1,10,0:0:0:0:
0,328,151155,6,0,L|58:268,1,82.5000031471254,4|0,0:0|0:0,0:0:0:0:
294,229,151287,1,0,0:0:0:0:
86,115,151419,6,0,L|0:133,1,82.5000031471254,4|0,0:0|0:0,0:0:0:0:
426,115,151551,2,0,L|506:131,1,82.5000031471254,4|0,0:0|0:0,0:0:0:0:
130,62,151683,6,0,L|49:77,1,74.2500002832413,4|0,0:0|0:0,0:0:0:0:
382,62,151816,2,0,L|463:77,1,74.2500002832413,4|0,0:0|0:0,0:0:0:0:
218,131,151948,6,0,P|199:205|268:302,1,197.99999395752,10|0,0:0|0:0,0:0:0:0:
357,313,152212,1,4,0:0:0:0:
298,48,152344,1,2,0:0:0:0:
298,48,152410,1,0,0:0:0:0:
298,48,152476,2,0,L|157:62,1,131.99999597168,8|0,0:0|0:0,0:0:0:0:
70,298,152741,1,4,0:0:0:0:
264,145,152873,6,0,P|364:179|396:268,1,197.99999395752
359,346,153137,2,0,P|438:345|479:306,1,131.99999597168,8|4,0:0|0:0,0:0:0:0:
475,135,153402,1,2,0:0:0:0:
283,225,153534,2,0,L|240:282,1,65.9999979858399,8|0,0:0|0:0,0:0:0:0:
229,29,153666,2,0,L|186:86,1,65.9999979858399,2|0,0:0|0:0,0:0:0:0:
316,302,153798,2,0,B|408:169|408:169|348:177,1,197.99999395752,4|0,0:0|0:0,0:0:0:0:
256,183,154062,5,10,0:0:0:0:
470,0,154194,1,2,0:0:0:0:
304,261,154327,2,0,P|319:341|370:389,1,142.99999345398,4|2,0:0|0:0,0:0:0:0:
335,85,154591,2,0,P|223:69|138:116,1,214.49999018097,8|0,0:0|0:0,0:0:0:0:
92,198,154855,1,4,0:0:0:0:
336,167,154987,6,0,B|510:181|510:181|455:212,1,214.49999018097,8|0,0:0|0:0,0:0:0:0:
383,273,155252,1,0,0:0:0:0:
340,4,155384,2,0,P|289:58|260:123,1,142.99999345398,4|2,0:0|0:0,0:0:0:0:
284,351,155648,2,0,L|356:375,1,71.4999967269899,8|0,0:0|0:0,0:0:0:0:
100,209,155780,2,0,L|172:233,1,71.4999967269899,2|0,0:0|0:0,0:0:0:0:
34,25,155913,2,0,L|201:78,1,142.99999345398,4|0,0:0|0:0,0:0:0:0:
284,351,156177,5,8,0:0:0:0:
424,72,156309,1,0,0:0:0:0:
219,253,156441,2,0,P|151:267|63:240,1,153.999995300293,4|0,0:0|0:0,0:0:0:0:
235,11,156705,1,8,0:0:0:0:
333,313,156838,1,8,0:0:0:0:
379,56,156970,2,0,P|300:64|237:106,1,153.999995300293,4|0,0:0|0:0,0:0:0:0:
49,369,157234,5,8,0:0:0:0:
345,226,157366,2,0,L|422:242,2,76.9999976501466,2|0|4,0:0|0:0|0:0,0:0:0:0:
28,144,157631,1,0,0:0:0:0:
231,361,157763,1,8,0:0:0:0:
267,87,157895,1,2,0:0:0:0:
267,87,157961,1,0,0:0:0:0:
267,87,158027,6,0,P|188:51|101:58,1,165.000006294251,4|0,0:0|0:0,0:0:0:0:
306,379,158291,5,4,0:0:0:0:
205,4,158424,1,8,0:0:0:0:
158,360,158556,5,4,0:0:0:0:
353,23,158689,1,8,0:0:0:0:
68,242,158820,5,4,0:0:0:0:
443,141,158953,1,8,0:0:0:0:
87,94,159084,5,4,0:0:0:0:
424,289,159217,1,8,0:0:0:0:
205,4,159349,6,0,P|179:93|203:173,1,165.000006294251,4|0,0:0|0:0,0:0:0:0:
281,203,159547,1,0,0:0:0:0:
315,222,159613,2,0,P|332:302|307:380,1,165.000006294251,4|0,0:0|0:0,0:0:0:0:
5,219,159877,5,4,0:0:0:0:
53,173,159943,1,0,0:0:0:0:
114,150,160009,1,0,0:0:0:0:
180,149,160076,1,0,0:0:0:0:
257,197,160142,5,0,0:0:0:0:
320,215,160208,1,0,0:0:0:0:
385,208,160274,1,0,0:0:0:0:
443,177,160340,1,0,0:0:0:0:
475,119,160406,5,0,0:0:0:0:
155,80,160538,1,8,0:0:0:0:
475,119,160670,1,4,0:0:0:0:
234,38,160802,2,0,P|241:106|140:168,1,181.500005538941,8|0,0:0|0:0,0:0:0:0:
63,185,161067,1,8,0:0:0:0:
306,238,161199,2,0,L|415:335,1,121.000003692627,4|0,0:0|0:0,0:0:0:0:
114,333,161463,5,8,0:0:0:0:
326,95,161595,1,8,0:0:0:0:
114,333,161728,1,4,0:0:0:0:
321,197,161860,2,0,P|259:152|140:185,1,181.500005538941,8|0,0:0|0:0,0:0:0:0:
82,230,162124,1,0,0:0:0:0:
248,50,162256,2,0,L|396:42,1,121.000003692627,4|0,0:0|0:0,0:0:0:0:
392,276,162520,5,8,0:0:0:0:
77,361,162653,1,8,0:0:0:0:
161,45,162785,1,4,0:0:0:0:
392,276,162917,2,0,P|299:240|214:280,1,181.500005538941,8|0,0:0|0:0,0:0:0:0:
163,334,163181,1,8,0:0:0:0:
256,71,163313,2,0,L|135:132,1,121.000003692627,4|0,0:0|0:0,0:0:0:0:
314,357,163578,5,8,0:0:0:0:
417,100,163710,1,8,0:0:0:0:
224,315,163842,1,4,0:0:0:0:
110,74,163974,2,0,P|186:108|283:71,1,181.500005538941,4|0,0:0|0:0,0:0:0:0:
336,8,164239,1,8,0:0:0:0:
448,281,164371,1,4,0:0:0:0:
441,53,164503,1,8,0:0:0:0:
346,215,164635,6,8,P|275:259|231:261,1,121.000003692627
161,288,164833,1,0,0:0:0:0:
161,288,164899,1,4,0:0:0:0:
34,111,165031,2,0,P|81:187|55:287,1,181.500005538941,8|0,0:0|0:0,0:0:0:0:
10,351,165296,1,8,0:0:0:0:
256,160,165428,1,4,0:0:0:0:
502,351,165560,1,8,0:0:0:0:
192,231,165692,6,8,P|164:170|179:106,1,121.000003692627
239,50,165891,1,0,0:0:0:0:
239,50,165957,1,4,0:0:0:0:
315,282,166089,2,0,P|261:350|144:358,1,181.500005538941,8|0,0:0|0:0,0:0:0:0:
84,320,166353,1,8,0:0:0:0:
157,50,166485,1,4,0:0:0:0:
41,243,166617,1,8,0:0:0:0:
293,79,166750,6,0,P|378:54|428:53,2,121.000003692627,8|8|4,0:0|0:0|0:0,0:0:0:0:
146,254,167146,2,0,L|330:225,1,181.500005538941,8|0,0:0|0:0,0:0:0:0:
428,248,167410,1,8,0:0:0:0:
208,88,167543,1,4,0:0:0:0:
92,331,167675,1,8,0:0:0:0:
332,191,167807,6,0,P|369:120|381:66,1,121.000003692627,8|8,0:0|0:0,0:0:0:0:
116,231,168071,1,4,0:0:0:0:
328,298,168203,2,0,P|397:257|431:210,1,121.000003692627,12|0,0:0|0:0,0:0:0:0:
226,51,168468,5,0,0:0:0:0:
178,57,168534,1,0,0:0:0:0:
133,76,168600,1,4,0:0:0:0:
96,107,168666,1,0,0:0:0:0:
67,146,168732,1,0,0:0:0:0:
50,191,168798,1,0,0:0:0:0:
15,244,168864,6,8,L|147:212,1,121.000003692627,10|10,0:0|0:0,0:0:0:0:
343,107,169128,1,4,0:0:0:0:
266,357,169261,1,2,0:0:0:0:
254,66,169393,1,8,0:0:0:0:
269,322,169525,1,10,0:0:0:0:
327,28,169657,1,4,0:0:0:0:
271,283,169789,6,0,P|217:236|93:228,1,181.500005538941,2|0,0:0|0:0,0:0:0:0:
29,275,170054,1,10,0:0:0:0:
169,42,170186,1,4,0:0:0:0:
446,197,170318,1,8,0:0:0:0:
219,37,170450,1,0,0:0:0:0:
452,222,170582,1,2,0:0:0:0:
269,36,170714,1,4,0:0:0:0:
446,244,170846,1,8,0:0:0:0:
318,42,170979,6,0,P|260:88|231:134,1,121.000003692627,8|2,0:0|0:0,0:0:0:0:
254,223,171177,1,0,0:0:0:0:
254,223,171243,2,0,P|211:277|154:306,1,121.000003692627,4|2,0:0|0:0,0:0:0:0:
1,84,171507,1,2,0:0:0:0:
49,304,171639,1,8,0:0:0:0:
90,44,171772,1,4,0:0:0:0:
278,162,171904,6,0,P|350:162|435:92,1,181.500005538941,4|0,0:0|0:0,0:0:0:0:
466,11,172168,1,2,0:0:0:0:
205,82,172300,1,4,0:0:0:0:
414,254,172432,1,8,0:0:0:0:
160,178,172565,2,0,P|128:120|89:81,1,121.000003692627,2|0,0:0|0:0,0:0:0:0:
365,92,172829,2,0,L|433:61,1,60.5000018463135,6|0,0:0|0:0,0:0:0:0:
270,286,172961,2,0,L|338:255,1,60.5000018463135,6|0,0:0|0:0,0:0:0:0:
497,363,173093,5,8,0:0:0:0:
469,129,173225,1,2,0:0:0:0:
222,203,173357,1,4,0:0:0:0:
386,55,173490,1,0,0:0:0:0:
378,328,173622,1,2,0:0:0:0:
256,91,173754,1,2,0:0:0:0:
510,150,173886,1,4,0:0:0:0:
259,299,174018,6,0,P|186:248|82:253,1,181.500005538941,8|0,0:0|0:0,0:0:0:0:
17,298,174283,1,8,0:0:0:0:
154,65,174415,1,4,0:0:0:0:
154,340,174547,1,8,0:0:0:0:
196,98,174679,1,2,0:0:0:0:
172,301,174811,1,2,0:0:0:0:
243,75,174943,2,0,P|316:59|371:77,1,121.000003692627,4|0,0:0|0:0,0:0:0:0:
205,266,175208,6,0,P|158:314|109:338,1,121.000003692627,8|2,0:0|0:0,0:0:0:0:
43,94,175472,1,0,0:0:0:0:
314,206,175604,2,0,B|464:218|464:218|434:193,1,181.500005538941,2|0,0:0|0:0,0:0:0:0:
308,126,175868,2,0,P|238:173|279:277,1,181.500005538941,2|0,0:0|0:0,0:0:0:0:
387,299,176133,1,2,0:0:0:0:
167,346,176265,5,8,0:0:0:0:
152,306,176331,1,0,0:0:0:0:
137,266,176397,1,8,0:0:0:0:
122,226,176463,1,0,0:0:0:0:
73,183,176529,5,8,0:0:0:0:
89,131,176595,1,0,0:0:0:0:
123,88,176661,1,0,0:0:0:0:
172,63,176728,1,0,0:0:0:0:
226,58,176794,1,0,0:0:0:0:
278,73,176860,1,0,0:0:0:0:
347,82,176926,6,0,L|323:160,1,60.5000018463135
236,376,177058,2,0,L|224:303,1,60.5000018463135
146,40,177190,2,0,L|158:123,1,60.5000018463135
141,279,177322,6,0,P|207:229|307:260,1,181.500005538941
339,343,177587,1,4,0:0:0:0:
417,179,177719,1,8,0:0:0:0:
489,12,177851,1,4,0:0:0:0:
282,89,178115,5,4,0:0:0:0:
284,106,178181,1,0,0:0:0:0:
286,123,178247,1,0,0:0:0:0:
288,140,178313,1,0,0:0:0:0:
306,177,178380,5,0,0:0:0:0:
288,174,178446,1,0,0:0:0:0:
270,171,178512,1,0,0:0:0:0:
252,168,178578,1,0,0:0:0:0:
234,165,178644,1,0,0:0:0:0:
216,162,178710,1,0,0:0:0:0:
198,159,178776,1,0,0:0:0:0:
180,155,178842,1,0,0:0:0:0:
132,128,178908,5,0,0:0:0:0:
141,143,178974,1,0,0:0:0:0:
147,160,179040,1,0,0:0:0:0:
150,178,179106,1,0,0:0:0:0:
151,196,179172,1,0,0:0:0:0:
148,214,179238,1,0,0:0:0:0:
143,231,179304,1,0,0:0:0:0:
135,247,179370,1,0,0:0:0:0:
97,275,179437,6,0,L|39:263,46,41.2500015735627
135,247,181023,6,0,L|175:255,14,41.2500015735627
115,210,181551,6,0,L|108:160,46,41.2500015735627
157,157,183137,6,0,L|150:107,14,41.2500015735627
198,171,183666,6,0,L|259:151,30,41.2500015735627
261,202,184723,6,0,L|324:180,1,55
203,303,185120,2,0,L|172:368,1,55
148,204,185516,2,0,L|103:168,14,41.2500015735627
180,229,186045,6,0,P|257:204|303:217,1,110
395,287,186573,5,8,0:0:0:0:
468,217,186705,2,0,L|475:151,1,55,4|0,0:0|0:0,0:0:0:0:
352,111,186970,1,0,0:0:0:0:
247,150,187102,2,8,P|202:150|175:140,1,55
331,221,187366,2,0,P|344:274|342:295,1,55,4|8,0:0|0:0,0:0:0:0:
211,290,187631,1,0,0:0:0:0:
211,290,187763,1,0,0:0:0:0:
98,320,187895,6,0,P|124:252|100:184,1,123.750004720688,8|0,0:0|0:0,0:0:0:0:
95,176,188159,1,8,0:0:0:0:
153,95,188291,2,0,L|253:88,1,82.5000031471254,4|0,0:0|0:0,0:0:0:0:
326,173,188556,1,8,0:0:0:0:
403,132,188688,2,8,P|376:187|409:301,1,165.000006294251
274,265,189084,5,0,0:0:0:0:
274,265,189217,2,0,L|104:332,2,165.000006294251,8|4|8,0:0|0:0|0:0,0:0:0:0:
378,148,190009,6,0,P|300:117|243:128,1,123.750004720688,8|0,0:0|0:0,0:0:0:0:
231,137,190274,1,8,0:0:0:0:
165,222,190406,2,0,L|118:59,1,165.000006294251,4|8,0:0|0:0,0:0:0:0:
58,137,190802,2,0,P|143:157|208:100,1,165.000006294251,8|0,0:0|0:0,0:0:0:0:
215,83,191199,1,8,0:0:0:0:
215,83,191331,1,8,0:0:0:0:
215,83,191595,6,0,P|262:114|379:102,1,165.000006294251,4|8,0:0|0:0,0:0:0:0:
486,44,192124,6,0,L|456:189,1,123.750004720688
455,195,192388,1,8,0:0:0:0:
474,297,192520,2,0,P|415:264|317:290,1,165.000006294251,4|8,0:0|0:0,0:0:0:0:
223,368,192917,2,0,L|259:195,1,165.000006294251,8|8,0:0|0:0,0:0:0:0:
197,48,193313,5,4,0:0:0:0:
81,144,193578,5,0,0:0:0:0:
81,144,193710,2,0,L|165:138,1,82.5000031471254,8|0,0:0|0:0,0:0:0:0:
307,129,193974,5,0,0:0:0:0:
376,71,194239,6,0,P|397:119|368:193,1,123.750004720688,8|0,0:0|0:0,0:0:0:0:
353,209,194503,1,8,0:0:0:0:
421,275,194635,2,0,L|254:300,1,165.000006294251,4|0,0:0|0:0,0:0:0:0:
148,318,195031,1,8,0:0:0:0:
64,168,195296,6,0,L|238:188,1,165.000006294251,4|8,0:0|0:0,0:0:0:0:
413,210,195824,6,0,L|473:217,30,41.2500015735627,4|0|0|0|0|0|0|0|0|0|0|0|0|0|0|0|0|0|0|0|0|0|0|0|0|0|0|0|0|0|0,0:0|0:0|0:0|0:0|0:0|0:0|0:0|0:0|0:0|0:0|0:0|0:0|0:0|0:0|0:0|0:0|0:0|0:0|0:0|0:0|0:0|0:0|0:0|0:0|0:0|0:0|0:0|0:0|0:0|0:0|0:0,0:0:0:0:
361,224,196882,6,0,P|349:269|352:318,1,87.9999973144532,8|4,0:0|0:0,0:0:0:0:
342,115,197058,6,0,P|352:72|378:29,1,87.9999973144532,8|4,0:0|0:0,0:0:0:0:
258,224,197234,6,0,P|246:269|249:318,1,87.9999973144532,8|4,0:0|0:0,0:0:0:0:
239,100,197410,6,0,P|159:74|85:82,1,131.99999597168,12|0,0:0|0:0,0:0:0:0:
121,360,197675,1,4,0:0:0:0:
303,165,197807,1,0,0:0:0:0:
303,165,197873,1,0,0:0:0:0:
303,165,197939,2,0,P|380:166|440:200,1,131.99999597168,8|2,0:0|0:0,0:0:0:0:
267,384,198203,1,4,0:0:0:0:
135,167,198335,6,0,P|122:95|140:35,1,131.99999597168,2|8,0:0|0:0,0:0:0:0:
366,149,198600,1,8,0:0:0:0:
117,280,198732,1,4,0:0:0:0:
373,347,198864,1,0,0:0:0:0:
434,89,198996,2,0,P|365:70|297:89,1,131.99999597168,0|2,0:0|0:0,0:0:0:0:
234,153,199194,1,0,0:0:0:0:
210,176,199261,2,0,P|139:182|74:153,1,131.99999597168,4|0,0:0|0:0,0:0:0:0:
255,2,199525,5,8,0:0:0:0:
409,261,199657,1,2,0:0:0:0:
121,284,199789,1,4,0:0:0:0:
255,2,199921,1,0,0:0:0:0:
114,184,200054,2,0,P|68:128|55:53,1,142.99999345398,8|2,0:0|0:0,0:0:0:0:
361,119,200318,1,4,0:0:0:0:
226,342,200450,6,0,B|55:306|55:306|107:290,1,214.49999018097,8|0,0:0|0:0,0:0:0:0:
197,267,200714,1,8,0:0:0:0:
271,2,200846,1,4,0:0:0:0:
475,188,200979,1,2,0:0:0:0:
197,267,201111,1,0,0:0:0:0:
314,135,201243,1,2,0:0:0:0:
314,135,201309,1,0,0:0:0:0:
314,135,201375,2,0,P|232:149|112:91,1,214.49999018097,4|0,0:0|0:0,0:0:0:0:
72,13,201639,5,8,0:0:0:0:
117,319,201772,1,0,0:0:0:0:
22,117,201904,1,4,0:0:0:0:
322,195,202036,1,0,0:0:0:0:
19,268,202168,2,8,P|6:191|28:106,1,153.999995300293
493,116,202432,2,0,P|506:193|484:278,1,153.999995300293,4|0,0:0|0:0,0:0:0:0:
183,358,202697,5,8,0:0:0:0:
256,0,202829,1,0,0:0:0:0:
329,358,202961,1,4,0:0:0:0:
136,160,203093,2,0,P|115:104|135:8,2,153.999995300293,8|2|2,0:0|0:0|0:0,0:0:0:0:
414,255,203490,1,4,0:0:0:0:
54,304,203622,1,8,0:0:0:0:
294,97,203754,6,0,P|396:78|496:171,1,230.99999295044,8|0,0:0|0:0,0:0:0:0:
510,240,204018,5,4,0:0:0:0:
165,384,204150,1,0,0:0:0:0:
220,11,204283,1,8,0:0:0:0:
238,345,204415,1,8,0:0:0:0:
295,89,204547,2,0,B|470:-2|470:-2|449:75,1,247.500009441376,4|0,0:0|0:0,0:0:0:0:
428,137,204811,1,0,0:0:0:0:
503,362,204943,5,8,0:0:0:0:
198,89,205076,1,4,0:0:0:0:
198,89,205208,1,0,0:0:0:0:
80,326,205340,6,0,L|-16:303,1,82.5000031471254,4|0,0:0|0:0,0:0:0:0:
432,326,205472,2,0,L|528:303,1,82.5000031471254,4|0,0:0|0:0,0:0:0:0:
114,286,205604,6,0,L|36:266,1,74.2500002832413,4|0,0:0|0:0,0:0:0:0:
398,286,205736,2,0,L|476:266,1,74.2500002832413,4|0,0:0|0:0,0:0:0:0:
188,178,205868,6,0,L|86:84,1,131.99999597168,10|0,0:0|0:0,0:0:0:0:
12,44,206067,1,0,0:0:0:0:
12,44,206133,2,0,P|86:53|165:38,1,131.99999597168,4|0,0:0|0:0,0:0:0:0:
442,7,206397,2,0,P|445:93|424:144,1,131.99999597168,8|0,0:0|0:0,0:0:0:0:
252,343,206661,1,4,0:0:0:0:
355,79,206794,6,0,P|283:157|185:184,1,197.99999395752,8|0,0:0|0:0,0:0:0:0:
131,120,207058,2,0,P|105:188|128:246,1,131.99999597168,10|0,0:0|0:0,0:0:0:0:
354,359,207322,1,0,0:0:0:0:
263,68,207454,1,0,0:0:0:0:
306,98,207520,1,0,0:0:0:0:
349,128,207587,1,2,0:0:0:0:
181,275,207719,2,0,P|101:328|57:338,1,131.99999597168,4|0,0:0|0:0,0:0:0:0:
106,125,207983,5,10,0:0:0:0:
399,276,208115,1,2,0:0:0:0:
152,39,208247,1,4,0:0:0:0:
399,276,208380,1,2,0:0:0:0:
106,125,208512,2,0,L|257:104,1,142.99999345398
474,16,208776,1,4,0:0:0:0:
451,313,208908,6,0,P|385:252|261:240,1,214.49999018097,8|0,0:0|0:0,0:0:0:0:
191,284,209172,1,2,0:0:0:0:
435,95,209305,2,0,L|318:186,1,142.99999345398
68,376,209569,2,0,L|47:284,1,71.4999967269899,10|0,0:0|0:0,0:0:0:0:
46,12,209701,2,0,L|61:81,1,71.4999967269899,8|0,0:0|0:0,0:0:0:0:
151,316,209833,2,0,P|210:259|290:238,1,142.99999345398,4|0,0:0|0:0,0:0:0:0:
512,343,210098,5,8,0:0:0:0:
251,42,210230,1,0,0:0:0:0:
404,371,210362,2,0,P|394:282|423:220,1,153.999995300293,4|0,0:0|0:0,0:0:0:0:
510,12,210626,5,8,0:0:0:0:
257,348,210758,1,0,0:0:0:0:
119,10,210891,2,0,L|266:84,1,153.999995300293,4|0,0:0|0:0,0:0:0:0:
466,304,211155,5,8,0:0:0:0:
79,374,211287,1,0,0:0:0:0:
79,374,211353,1,0,0:0:0:0:
79,374,211419,2,0,P|141:275|143:231,1,153.999995300293,4|0,0:0|0:0,0:0:0:0:
75,21,211683,1,0,0:0:0:0:
330,246,211816,1,0,0:0:0:0:
330,246,211882,1,0,0:0:0:0:
330,246,211948,6,0,B|257:127|257:127|250:164,1,165.000006294251
120,300,212212,5,4,0:0:0:0:
392,84,212344,1,8,0:0:0:0:
99,325,212476,5,4,0:0:0:0:
413,59,212608,1,8,0:0:0:0:
71,343,212741,5,4,0:0:0:0:
441,41,212873,1,8,0:0:0:0:
39,353,213005,5,4,0:0:0:0:
473,31,213137,1,8,0:0:0:0:
326,384,213269,6,0,P|256:336|221:248,1,165.000006294251,12|0,0:0|0:0,0:0:0:0:
264,166,213468,1,0,0:0:0:0:
270,125,213534,2,0,P|231:46|158:4,1,165.000006294251
2,166,213798,5,4,0:0:0:0:
52,214,213864,5,0,0:0:0:0:
120,229,213930,1,0,0:0:0:0:
189,212,213996,1,0,0:0:0:0:
254,184,214062,5,0,0:0:0:0:
320,156,214128,21,0,0:0:0:0:
389,143,214194,1,0,0:0:0:0:
456,161,214260,1,0,0:0:0:0:
506,211,214326,21,8,0:0:0:0:
287,384,214459,1,0,0:0:0:0:
389,143,214591,1,4,0:0:0:0:
121,107,214723,1,0,0:0:0:0:
336,308,214855,2,0,P|408:308|476:271,1,121.000003692627,8|0,0:0|0:0,0:0:0:0:
227,228,215120,2,0,P|153:271|118:323,1,121.000003692627,2|0,0:0|0:0,0:0:0:0:
454,384,215384,5,8,0:0:0:0:
364,115,215516,1,8,0:0:0:0:
508,311,215648,1,4,0:0:0:0:
279,140,215780,1,0,0:0:0:0:
191,355,215913,2,0,P|111:371|67:361,1,121.000003692627,8|0,0:0|0:0,0:0:0:0:
279,242,216177,2,0,P|334:211|404:201,1,121.000003692627,2|0,0:0|0:0,0:0:0:0:
125,291,216441,5,8,0:0:0:0:
183,60,216573,1,8,0:0:0:0:
125,291,216705,1,4,0:0:0:0:
274,42,216838,1,0,0:0:0:0:
385,238,216970,2,0,L|423:123,1,121.000003692627,8|0,0:0|0:0,0:0:0:0:
65,161,217234,2,0,L|27:276,1,121.000003692627,2|0,0:0|0:0,0:0:0:0:
351,350,217498,5,8,0:0:0:0:
292,87,217631,1,8,0:0:0:0:
259,309,217763,1,4,0:0:0:0:
292,87,217895,1,0,0:0:0:0:
410,266,218027,2,0,P|461:210|483:145,1,121.000003692627,8|0,0:0|0:0,0:0:0:0:
183,201,218291,2,0,P|112:180|62:183,1,121.000003692627,2|0,0:0|0:0,0:0:0:0:
265,355,218556,5,8,0:0:0:0:
385,126,218688,1,8,0:0:0:0:
385,126,218754,1,0,0:0:0:0:
385,126,218820,1,4,0:0:0:0:
142,82,218952,1,0,0:0:0:0:
319,224,219084,2,0,L|192:217,1,121.000003692627,8|0,0:0|0:0,0:0:0:0:
132,318,219283,1,0,0:0:0:0:
132,318,219349,2,0,L|5:311,1,121.000003692627,2|0,0:0|0:0,0:0:0:0:
330,93,219613,6,0,P|381:46|445:20,1,121.000003692627,8|8,0:0|0:0,0:0:0:0:
377,236,219877,2,0,L|310:353,1,121.000003692627,4|0,0:0|0:0,0:0:0:0:
182,93,220142,2,0,P|131:46|67:20,1,121.000003692627,8|0,0:0|0:0,0:0:0:0:
135,236,220406,2,0,L|202:353,1,121.000003692627,2|0,0:0|0:0,0:0:0:0:
388,157,220670,5,8,0:0:0:0:
115,81,220802,1,8,0:0:0:0:
423,84,220935,1,4,0:0:0:0:
80,154,221067,1,0,0:0:0:0:
310,77,221199,2,0,P|278:155|283:207,1,121.000003692627,8|0,0:0|0:0,0:0:0:0:
389,328,221463,1,4,0:0:0:0:
206,333,221595,5,0,0:0:0:0:
192,306,221661,1,0,0:0:0:0:
178,278,221728,1,0,0:0:0:0:
164,251,221794,1,0,0:0:0:0:
123,225,221860,5,8,0:0:0:0:
184,54,221992,1,4,0:0:0:0:
357,2,222124,1,4,0:0:0:0:
506,104,222256,5,8,0:0:0:0:
346,281,222388,1,8,0:0:0:0:
256,0,222520,1,4,0:0:0:0:
236,253,222653,1,0,0:0:0:0:
333,110,222785,6,0,P|406:104|458:124,1,121.000003692627,8|0,0:0|0:0,0:0:0:0:
414,208,222983,1,0,0:0:0:0:
414,208,223049,2,0,P|446:276|446:331,1,121.000003692627
223,358,223313,1,8,0:0:0:0:
239,212,223446,1,0,0:0:0:0:
164,87,223578,1,8,0:0:0:0:
21,60,223710,1,0,0:0:0:0:
33,243,223842,6,0,P|104:231|156:198,1,121.000003692627,8|0,0:0|0:0,0:0:0:0:
219,44,224106,1,8,0:0:0:0:
363,23,224239,1,0,0:0:0:0:
481,106,224371,1,8,0:0:0:0:
506,248,224503,1,0,0:0:0:0:
341,183,224635,1,8,0:0:0:0:
341,183,224767,1,0,0:0:0:0:
197,262,224899,5,0,0:0:0:0:
127,56,225031,2,0,L|76:169,1,121.000003692627
284,293,225296,5,0,0:0:0:0:
313,45,225428,2,0,L|359:163,1,121.000003692627
467,299,225692,5,0,0:0:0:0:
229,209,225824,2,0,P|141:215|92:246,1,121.000003692627
348,380,226089,5,0,0:0:0:0:
400,159,226221,2,0,P|392:86|357:28,1,121.000003692627
140,101,226485,5,0,0:0:0:0:
140,101,226617,1,0,0:0:0:0:
216,344,226750,5,0,0:0:0:0:
216,344,226882,1,0,0:0:0:0:
46,172,227014,6,0,P|22:103|41:40,1,121.000003692627,8|0,0:0|0:0,0:0:0:0:
216,1,227278,1,8,0:0:0:0:
353,46,227410,1,0,0:0:0:0:
427,171,227543,1,8,0:0:0:0:
411,315,227675,1,0,0:0:0:0:
214,240,227807,1,8,0:0:0:0:
309,349,227939,1,0,0:0:0:0:
405,231,228071,6,0,P|428:166|417:98,1,121.000003692627,8|0,0:0|0:0,0:0:0:0:
187,124,228335,1,8,0:0:0:0:
309,349,228468,1,0,0:0:0:0:
149,197,228600,1,8,0:0:0:0:
309,349,228732,1,0,0:0:0:0:
133,273,228864,1,8,0:0:0:0:
309,349,228996,1,0,0:0:0:0:
274,173,229128,6,0,B|337:50|337:50|294:60,1,165.000006294251,4|0,0:0|0:0,0:0:0:0:
229,190,229393,6,0,B|90:193|90:193|116:218,1,165.000006294251,4|0,0:0|0:0,0:0:0:0:
266,218,229657,6,0,B|329:340|329:340|350:300,1,165.000006294251,4|0,0:0|0:0,0:0:0:0:
419,145,229921,5,4,0:0:0:0:
234,62,230054,6,0,B|152:104|40:60|40:60|75:106,1,247.500009441376,4|0,0:0|0:0,0:0:0:0:
146,181,230318,1,12,0:0:0:0:
406,384,230450,2,0,P|358:311|353:220,1,165.000006294251,4|8,0:0|0:0,0:0:0:0:
451,42,230714,5,4,0:0:0:0:
406,384,230846,1,4,0:0:0:0:
59,343,230979,1,4,0:0:0:0:
104,1,231111,1,4,0:0:0:0:
406,384,231243,5,4,0:0:0:0:
256,192,231309,12,0,233358,0:0:0:0:
