osu file format v14

[General]
AudioFilename: audio.mp3
AudioLeadIn: 0
PreviewTime: 142958
Countdown: 0
SampleSet: Soft
StackLeniency: 0.2
Mode: 0
LetterboxInBreaks: 0
WidescreenStoryboard: 1

[Editor]
Bookmarks: 13392,37364,50711,59169,67363,75689,84279,92737,109654,118376,126570,134896,143486,151945,160403,168861,179434,187892,196878,205865,214323,222782
DistanceSpacing: 1.77
BeatDivisor: 4
GridSize: 8
TimelineZoom: 3.400001

[Metadata]
Title:Sendan Life
TitleUnicode:センダンライフ
Artist:Remo Prototype [CV.Hanamori Yumiri]
ArtistUnicode:リモ Prototype [CV.花守ゆみり]
Creator:AtHeoN
Version:CerkeoN's Reminiscent Extra
Source:ガラスの花と壊す世界
Tags:vocaloid Chukka やしきん yashikin Glass no Hana to Kowasu Sekai GARAKOWA Restore the World Vitreous Flower Destroy the World cerkie -tochi snownino lit120 -Hakurei- akitoshi doormat
BeatmapID:970077
BeatmapSetID:452246

[Difficulty]
HPDrainRate:6
CircleSize:4
OverallDifficulty:9
ApproachRate:9.6
SliderMultiplier:2
SliderTickRate:1

[Events]
//Background and Video events
0,0,"BG.jpg",0,0
//Break Periods
2,28409,35564
2,104039,109145
//Storyboard Layer 0 (Background)
Sprite,Foreground,Centre,"sb\cre\collab.png",480,240 S,0,224896,,0.3 C,0,224896,,0,0,0 F,0,224896,225028,0,1 MY,0,224896,227011,140,120 F,0,227011,227143,1,0
Sprite,Foreground,Centre,"sb/out.png",320,240 F,0,186570,186670,0,1 F,0,187892,188092,1,0 S,0,186570,,0.5 P,0,186570,187892,A M,0,186570,,378,228 M,0,186570,186702,378,228,160,312 M,0,186702,186967,160,312,167,325 M,0,186967,187099,167,325,219,227 M,0,187099,187231,219,227,308,293 M,0,187231,187363,308,293,334,141 M,0,187363,187495,334,141,457,233 M,0,187495,187627,457,233,509,136 M,0,187627,187759,509,136 M,0,187759,187892,509,136,486,330 M,0,187892,187958,486,330,448.8189,332.0084 M,0,187958,188024,448.8189,332.0084,413.2536,320.962 M,0,188024,188090,413.2536,320.962,384.3464,297.5021 M,0,188090,188156,384.3464,297.5021,365.4241,265.4372 M,0,188156,188222,365.4241,265.4372
//Storyboard Layer 1 (Fail)
//Storyboard Layer 2 (Pass)
//Storyboard Layer 3 (Foreground)
Sprite,Foreground,Centre,"sb/dot3.png",320,240 M,0,168861,169461,148,342,186,286 S,0,169261,169461,1.671186,0 F,0,168861,169261,0,1 F,0,169261,169461,1,0 C,0,168861,,0,0,255 P,0,168861,,A
Sprite,Foreground,Centre,"sb/dot3.png",320,240 M,0,168861,169461,148,342,186,292 S,0,169261,169461,1.20469,0 F,0,168861,169261,0,1 F,0,169261,169461,1,0 C,0,168861,,0,0,255 P,0,168861,,A
Sprite,Foreground,Centre,"sb/dot3.png",320,240 M,0,168861,169461,148,342,185,328 S,0,169261,169461,1.205993,0 F,0,168861,169261,0,1 F,0,169261,169461,1,0 C,0,168861,,0,0,255 P,0,168861,,A
Sprite,Foreground,Centre,"sb/dot3.png",320,240 M,0,168861,169461,148,342,178,394 S,0,169261,169461,0.9959202,0 F,0,168861,169261,0,1 F,0,169261,169461,1,0 C,0,168861,,0,0,255 P,0,168861,,A
Sprite,Foreground,Centre,"sb/dot3.png",320,240 M,0,168861,169461,148,342,154,313 S,0,169261,169461,0.692668,0 F,0,168861,169261,0,1 F,0,169261,169461,1,0 C,0,168861,,0,0,255 P,0,168861,,A
Sprite,Foreground,Centre,"sb/dot3.png",320,240 M,0,168993,169593,341,304,397,294 S,0,169393,169593,1.338786,0 F,0,168993,169393,0,1 F,0,169393,169593,1,0 C,0,168993,,0,0,255 P,0,168993,,A
Sprite,Foreground,Centre,"sb/dot3.png",320,240 M,0,168993,169593,341,304,384,361 S,0,169393,169593,1.967872,0 F,0,168993,169393,0,1 F,0,169393,169593,1,0 C,0,168993,,0,0,255 P,0,168993,,A
Sprite,Foreground,Centre,"sb/dot3.png",320,240 M,0,168993,169593,341,304,381,315 S,0,169393,169593,1.752266,0 F,0,168993,169393,0,1 F,0,169393,169593,1,0 C,0,168993,,0,0,255 P,0,168993,,A
Sprite,Foreground,Centre,"sb/dot3.png",320,240 M,0,168993,169593,341,304,322,259 S,0,169393,169593,1.418926,0 F,0,168993,169393,0,1 F,0,169393,169593,1,0 C,0,168993,,0,0,255 P,0,168993,,A
Sprite,Foreground,Centre,"sb/dot3.png",320,240 M,0,168993,169593,341,304,389,361 S,0,169393,169593,1.670434,0 F,0,168993,169393,0,1 F,0,169393,169593,1,0 C,0,168993,,0,0,255 P,0,168993,,A
Sprite,Foreground,Centre,"sb/dot3.png",320,240 M,0,168993,169593,341,304,372,266 S,0,169393,169593,1.985424,0 F,0,168993,169393,0,1 F,0,169393,169593,1,0 C,0,168993,,0,0,255 P,0,168993,,A
Sprite,Foreground,Centre,"sb/dot3.png",320,240 M,0,169125,169725,92,256,90,281 S,0,169525,169725,1.147311,0 F,0,169125,169525,0,1 F,0,169525,169725,1,0 C,0,169125,,0,0,255 P,0,169125,,A
Sprite,Foreground,Centre,"sb/dot3.png",320,240 M,0,169125,169725,92,256,70,255 S,0,169525,169725,1.437716,0 F,0,169125,169525,0,1 F,0,169525,169725,1,0 C,0,169125,,0,0,255 P,0,169125,,A
Sprite,Foreground,Centre,"sb/dot3.png",320,240 M,0,169125,169725,92,256,113,313 S,0,169525,169725,0.3459979,0 F,0,169125,169525,0,1 F,0,169525,169725,1,0 C,0,169125,,0,0,255 P,0,169125,,A
Sprite,Foreground,Centre,"sb/dot3.png",320,240 M,0,169125,169725,92,256,44,281 S,0,169525,169725,1.015989,0 F,0,169125,169525,0,1 F,0,169525,169725,1,0 C,0,169125,,0,0,255 P,0,169125,,A
Sprite,Foreground,Centre,"sb/dot3.png",320,240 M,0,169125,169725,92,256,105,201 S,0,169525,169725,1.979379,0 F,0,169125,169525,0,1 F,0,169525,169725,1,0 C,0,169125,,0,0,255 P,0,169125,,A
Sprite,Foreground,Centre,"sb/dot3.png",320,240 M,0,169125,169725,92,256,137,196 S,0,169525,169725,1.573334,0 F,0,169125,169525,0,1 F,0,169525,169725,1,0 C,0,169125,,0,0,255 P,0,169125,,A
Sprite,Foreground,Centre,"sb/dot3.png",320,240 M,0,169257,169857,316,392,284,337 S,0,169657,169857,0.8176553,0 F,0,169257,169657,0,1 F,0,169657,169857,1,0 C,0,169257,,118,141,197 P,0,169257,,A
Sprite,Foreground,Centre,"sb/dot3.png",320,240 M,0,169257,169857,316,392,287,335 S,0,169657,169857,1.109233,0 F,0,169257,169657,0,1 F,0,169657,169857,1,0 C,0,169257,,118,141,197 P,0,169257,,A
Sprite,Foreground,Centre,"sb/dot3.png",320,240 M,0,169257,169857,316,392,368,346 S,0,169657,169857,0.4141239,0 F,0,169257,169657,0,1 F,0,169657,169857,1,0 C,0,169257,,118,141,197 P,0,169257,,A
Sprite,Foreground,Centre,"sb/dot3.png",320,240 M,0,169257,169857,316,392,344,414 S,0,169657,169857,1.832776,0 F,0,169257,169657,0,1 F,0,169657,169857,1,0 C,0,169257,,118,141,197 P,0,169257,,A
Sprite,Foreground,Centre,"sb/dot3.png",320,240 M,0,169257,169857,316,392,266,438 S,0,169657,169857,0.8068886,0 F,0,169257,169657,0,1 F,0,169657,169857,1,0 C,0,169257,,118,141,197 P,0,169257,,A
Sprite,Foreground,Centre,"sb/dot3.png",320,240 M,0,169257,169857,316,392,358,433 S,0,169657,169857,0.4642851,0 F,0,169257,169657,0,1 F,0,169657,169857,1,0 C,0,169257,,118,141,197 P,0,169257,,A
Sprite,Foreground,Centre,"sb/dot3.png",320,240 M,0,169389,169989,359,127,396,94 S,0,169789,169989,1.493708,0 F,0,169389,169789,0,1 F,0,169789,169989,1,0 C,0,169389,,118,141,197 P,0,169389,,A
Sprite,Foreground,Centre,"sb/dot3.png",320,240 M,0,169389,169989,359,127,306,133 S,0,169789,169989,1.078342,0 F,0,169389,169789,0,1 F,0,169789,169989,1,0 C,0,169389,,118,141,197 P,0,169389,,A
Sprite,Foreground,Centre,"sb/dot3.png",320,240 M,0,169389,169989,359,127,309,154 S,0,169789,169989,1.780745,0 F,0,169389,169789,0,1 F,0,169789,169989,1,0 C,0,169389,,118,141,197 P,0,169389,,A
Sprite,Foreground,Centre,"sb/dot3.png",320,240 M,0,169389,169989,359,127,323,97 S,0,169789,169989,1.523715,0 F,0,169389,169789,0,1 F,0,169789,169989,1,0 C,0,169389,,118,141,197 P,0,169389,,A
Sprite,Foreground,Centre,"sb/dot3.png",320,240 M,0,169389,169989,359,127,381,143 S,0,169789,169989,1.423548,0 F,0,169389,169789,0,1 F,0,169789,169989,1,0 C,0,169389,,118,141,197 P,0,169389,,A
Sprite,Foreground,Centre,"sb/dot3.png",320,240 M,0,169389,169989,359,127,365,79 S,0,169789,169989,0.5931322,0 F,0,169389,169789,0,1 F,0,169789,169989,1,0 C,0,169389,,118,141,197 P,0,169389,,A
Sprite,Foreground,Centre,"sb/dot3.png",320,240 M,0,169389,169989,359,127,390,105 S,0,169789,169989,1.813592,0 F,0,169389,169789,0,1 F,0,169789,169989,1,0 C,0,169389,,118,141,197 P,0,169389,,A
Sprite,Foreground,Centre,"sb/dot3.png",320,240 M,0,169522,170122,184,255,208,287 S,0,169922,170122,0.5062571,0 F,0,169522,169922,0,1 F,0,169922,170122,1,0 C,0,169522,,118,141,197 P,0,169522,,A
Sprite,Foreground,Centre,"sb/dot3.png",320,240 M,0,169522,170122,184,255,223,295 S,0,169922,170122,1.688266,0 F,0,169522,169922,0,1 F,0,169922,170122,1,0 C,0,169522,,118,141,197 P,0,169522,,A
Sprite,Foreground,Centre,"sb/dot3.png",320,240 M,0,169522,170122,184,255,201,306 S,0,169922,170122,1.999951,0 F,0,169522,169922,0,1 F,0,169922,170122,1,0 C,0,169522,,118,141,197 P,0,169522,,A
Sprite,Foreground,Centre,"sb/dot3.png",320,240 M,0,169522,170122,184,255,189,298 S,0,169922,170122,1.373969,0 F,0,169522,169922,0,1 F,0,169922,170122,1,0 C,0,169522,,118,141,197 P,0,169522,,A
Sprite,Foreground,Centre,"sb/dot3.png",320,240 M,0,169522,170122,184,255,212,290 S,0,169922,170122,1.657033,0 F,0,169522,169922,0,1 F,0,169922,170122,1,0 C,0,169522,,118,141,197 P,0,169522,,A
Sprite,Foreground,Centre,"sb/dot3.png",320,240 M,0,169654,170254,481,267,461,244 S,0,170054,170254,1.493211,0 F,0,169654,170054,0,1 F,0,170054,170254,1,0 C,0,169654,,118,141,197 P,0,169654,,A
Sprite,Foreground,Centre,"sb/dot3.png",320,240 M,0,169654,170254,481,267,443,300 S,0,170054,170254,1.829317,0 F,0,169654,170054,0,1 F,0,170054,170254,1,0 C,0,169654,,118,141,197 P,0,169654,,A
Sprite,Foreground,Centre,"sb/dot3.png",320,240 M,0,169654,170254,481,267,449,215 S,0,170054,170254,1.058258,0 F,0,169654,170054,0,1 F,0,170054,170254,1,0 C,0,169654,,118,141,197 P,0,169654,,A
Sprite,Foreground,Centre,"sb/dot3.png",320,240 M,0,169654,170254,481,267,432,279 S,0,170054,170254,0.7859012,0 F,0,169654,170054,0,1 F,0,170054,170254,1,0 C,0,169654,,118,141,197 P,0,169654,,A
Sprite,Foreground,Centre,"sb/dot3.png",320,240 M,0,169654,170254,481,267,523,264 S,0,170054,170254,1.043116,0 F,0,169654,170054,0,1 F,0,170054,170254,1,0 C,0,169654,,118,141,197 P,0,169654,,A
Sprite,Foreground,Centre,"sb/dot3.png",320,240 M,0,169654,170254,481,267,502,260 S,0,170054,170254,1.656567,0 F,0,169654,170054,0,1 F,0,170054,170254,1,0 C,0,169654,,118,141,197 P,0,169654,,A
Sprite,Foreground,Centre,"sb/dot3.png",320,240 M,0,169654,170254,481,267,531,272 S,0,170054,170254,1.576111,0 F,0,169654,170054,0,1 F,0,170054,170254,1,0 C,0,169654,,118,141,197 P,0,169654,,A
Sprite,Foreground,Centre,"sb/dot3.png",320,240 M,0,169786,170386,119,407,133,453 S,0,170186,170386,1.141014,0 F,0,169786,170186,0,1 F,0,170186,170386,1,0 C,0,169786,,215,0,107 P,0,169786,170050,A
Sprite,Foreground,Centre,"sb/dot3.png",320,240 M,0,169786,170386,119,407,160,422 S,0,170186,170386,0.7986603,0 F,0,169786,170186,0,1 F,0,170186,170386,1,0 C,0,169786,,215,0,107 P,0,169786,170050,A
Sprite,Foreground,Centre,"sb/dot3.png",320,240 M,0,169786,170386,119,407,97,419 S,0,170186,170386,1.677098,0 F,0,169786,170186,0,1 F,0,170186,170386,1,0 C,0,169786,,215,0,107 P,0,169786,170050,A
Sprite,Foreground,Centre,"sb/dot3.png",320,240 M,0,169786,170386,119,407,118,365 S,0,170186,170386,0.5363689,0 F,0,169786,170186,0,1 F,0,170186,170386,1,0 C,0,169786,,215,0,107 P,0,169786,170050,A
Sprite,Foreground,Centre,"sb/dot3.png",320,240 M,0,169786,170386,119,407,91,421 S,0,170186,170386,1.324321,0 F,0,169786,170186,0,1 F,0,170186,170386,1,0 C,0,169786,,215,0,107 P,0,169786,170050,A
Sprite,Foreground,Centre,"sb/dot3.png",320,240 M,0,169786,170386,119,407,108,463 S,0,170186,170386,1.33471,0 F,0,169786,170186,0,1 F,0,170186,170386,1,0 C,0,169786,,215,0,107 P,0,169786,170050,A
Sprite,Foreground,Centre,"sb/dot3.png",320,240 M,0,169786,170386,119,407,161,376 S,0,170186,170386,0.5984157,0 F,0,169786,170186,0,1 F,0,170186,170386,1,0 C,0,169786,,215,0,107 P,0,169786,170050,A
Sprite,Foreground,Centre,"sb/dot3.png",320,240 M,0,170182,170782,195,333,163,384 S,0,170582,170782,1.820188,0 F,0,170182,170582,0,1 F,0,170582,170782,1,0 C,0,170182,,0,0,255 P,0,170182,170314,A
Sprite,Foreground,Centre,"sb/dot3.png",320,240 M,0,170182,170782,195,333,170,387 S,0,170582,170782,0.3691605,0 F,0,170182,170582,0,1 F,0,170582,170782,1,0 C,0,170182,,0,0,255 P,0,170182,170314,A
Sprite,Foreground,Centre,"sb/dot3.png",320,240 M,0,170182,170782,195,333,194,305 S,0,170582,170782,0.3925505,0 F,0,170182,170582,0,1 F,0,170582,170782,1,0 C,0,170182,,0,0,255 P,0,170182,170314,A
Sprite,Foreground,Centre,"sb/dot3.png",320,240 M,0,170182,170782,195,333,161,365 S,0,170582,170782,1.915477,0 F,0,170182,170582,0,1 F,0,170582,170782,1,0 C,0,170182,,0,0,255 P,0,170182,170314,A
Sprite,Foreground,Centre,"sb/dot3.png",320,240 M,0,170182,170782,195,333,200,323 S,0,170582,170782,0.4665013,0 F,0,170182,170582,0,1 F,0,170582,170782,1,0 C,0,170182,,0,0,255 P,0,170182,170314,A
Sprite,Foreground,Centre,"sb/dot3.png",320,240 M,0,170182,170782,195,333,136,346 S,0,170582,170782,1.225751,0 F,0,170182,170582,0,1 F,0,170582,170782,1,0 C,0,170182,,0,0,255 P,0,170182,170314,A
Sprite,Foreground,Centre,"sb/dot3.png",320,240 M,0,170447,171047,384,79,388,133 S,0,170847,171047,0.209148,0 F,0,170447,170847,0,1 F,0,170847,171047,1,0 C,0,170447,,0,0,255 P,0,170447,170579,A
Sprite,Foreground,Centre,"sb/dot3.png",320,240 M,0,170447,171047,384,79,353,53 S,0,170847,171047,1.730873,0 F,0,170447,170847,0,1 F,0,170847,171047,1,0 C,0,170447,,0,0,255 P,0,170447,170579,A
Sprite,Foreground,Centre,"sb/dot3.png",320,240 M,0,170447,171047,384,79,401,50 S,0,170847,171047,0.7069651,0 F,0,170447,170847,0,1 F,0,170847,171047,1,0 C,0,170447,,0,0,255 P,0,170447,170579,A
Sprite,Foreground,Centre,"sb/dot3.png",320,240 M,0,170447,171047,384,79,426,52 S,0,170847,171047,1.925445,0 F,0,170447,170847,0,1 F,0,170847,171047,1,0 C,0,170447,,0,0,255 P,0,170447,170579,A
Sprite,Foreground,Centre,"sb/dot3.png",320,240 M,0,170447,171047,384,79,349,110 S,0,170847,171047,0.8968465,0 F,0,170447,170847,0,1 F,0,170847,171047,1,0 C,0,170447,,0,0,255 P,0,170447,170579,A
Sprite,Foreground,Centre,"sb/dot3.png",320,240 M,0,170447,171047,384,79,334,129 S,0,170847,171047,0.7045856,0 F,0,170447,170847,0,1 F,0,170847,171047,1,0 C,0,170447,,0,0,255 P,0,170447,170579,A
Sprite,Foreground,Centre,"sb/dot3.png",320,240 M,0,170711,171311,492,383,496,338 S,0,171111,171311,0.3026151,0 F,0,170711,171111,0,1 F,0,171111,171311,1,0 C,0,170711,,0,0,255 P,0,170711,170843,A
Sprite,Foreground,Centre,"sb/dot3.png",320,240 M,0,170711,171311,492,383,467,344 S,0,171111,171311,1.092942,0 F,0,170711,171111,0,1 F,0,171111,171311,1,0 C,0,170711,,0,0,255 P,0,170711,170843,A
Sprite,Foreground,Centre,"sb/dot3.png",320,240 M,0,170711,171311,492,383,437,391 S,0,171111,171311,1.303684,0 F,0,170711,171111,0,1 F,0,171111,171311,1,0 C,0,170711,,0,0,255 P,0,170711,170843,A
Sprite,Foreground,Centre,"sb/dot3.png",320,240 M,0,170711,171311,492,383,476,355 S,0,171111,171311,1.536192,0 F,0,170711,171111,0,1 F,0,171111,171311,1,0 C,0,170711,,0,0,255 P,0,170711,170843,A
Sprite,Foreground,Centre,"sb/dot3.png",320,240 M,0,170711,171311,492,383,458,425 S,0,171111,171311,1.880107,0 F,0,170711,171111,0,1 F,0,171111,171311,1,0 C,0,170711,,0,0,255 P,0,170711,170843,A
Sprite,Foreground,Centre,"sb/dot3.png",320,240 M,0,170975,171575,245,224,228,275 S,0,171375,171575,1.307735,0 F,0,170975,171375,0,1 F,0,171375,171575,1,0 C,0,170975,,118,141,197 P,0,170975,,A
Sprite,Foreground,Centre,"sb/dot3.png",320,240 M,0,170975,171575,245,224,206,251 S,0,171375,171575,1.433228,0 F,0,170975,171375,0,1 F,0,171375,171575,1,0 C,0,170975,,118,141,197 P,0,170975,,A
Sprite,Foreground,Centre,"sb/dot3.png",320,240 M,0,170975,171575,245,224,299,242 S,0,171375,171575,0.5109817,0 F,0,170975,171375,0,1 F,0,171375,171575,1,0 C,0,170975,,118,141,197 P,0,170975,,A
Sprite,Foreground,Centre,"sb/dot3.png",320,240 M,0,170975,171575,245,224,224,266 S,0,171375,171575,1.2964,0 F,0,170975,171375,0,1 F,0,171375,171575,1,0 C,0,170975,,118,141,197 P,0,170975,,A
Sprite,Foreground,Centre,"sb/dot3.png",320,240 M,0,170975,171575,245,224,225,214 S,0,171375,171575,1.994807,0 F,0,170975,171375,0,1 F,0,171375,171575,1,0 C,0,170975,,118,141,197 P,0,170975,,A
Sprite,Foreground,Centre,"sb/dot3.png",320,240 M,0,170975,171575,245,224,258,249 S,0,171375,171575,0.314186,0 F,0,170975,171375,0,1 F,0,171375,171575,1,0 C,0,170975,,118,141,197 P,0,170975,,A
Sprite,Foreground,Centre,"sb/dot3.png",320,240 M,0,171108,171708,468,189,416,193 S,0,171508,171708,1.222555,0 F,0,171108,171508,0,1 F,0,171508,171708,1,0 C,0,171108,,118,141,197 P,0,171108,,A
Sprite,Foreground,Centre,"sb/dot3.png",320,240 M,0,171108,171708,468,189,517,246 S,0,171508,171708,1.129459,0 F,0,171108,171508,0,1 F,0,171508,171708,1,0 C,0,171108,,118,141,197 P,0,171108,,A
Sprite,Foreground,Centre,"sb/dot3.png",320,240 M,0,171108,171708,468,189,525,147 S,0,171508,171708,0.3398765,0 F,0,171108,171508,0,1 F,0,171508,171708,1,0 C,0,171108,,118,141,197 P,0,171108,,A
Sprite,Foreground,Centre,"sb/dot3.png",320,240 M,0,171108,171708,468,189,422,197 S,0,171508,171708,0.4803776,0 F,0,171108,171508,0,1 F,0,171508,171708,1,0 C,0,171108,,118,141,197 P,0,171108,,A
Sprite,Foreground,Centre,"sb/dot3.png",320,240 M,0,171108,171708,468,189,411,185 S,0,171508,171708,1.356538,0 F,0,171108,171508,0,1 F,0,171508,171708,1,0 C,0,171108,,118,141,197 P,0,171108,,A
Sprite,Foreground,Centre,"sb/dot3.png",320,240 M,0,171108,171708,468,189,508,174 S,0,171508,171708,1.195151,0 F,0,171108,171508,0,1 F,0,171508,171708,1,0 C,0,171108,,118,141,197 P,0,171108,,A
Sprite,Foreground,Centre,"sb/dot3.png",320,240 M,0,171108,171708,468,189,457,172 S,0,171508,171708,1.990184,0 F,0,171108,171508,0,1 F,0,171508,171708,1,0 C,0,171108,,118,141,197 P,0,171108,,A
Sprite,Foreground,Centre,"sb/dot3.png",320,240 M,0,171240,171840,185,166,241,110 S,0,171640,171840,1.038266,0 F,0,171240,171640,0,1 F,0,171640,171840,1,0 C,0,171240,,118,141,197 P,0,171240,171372,A
Sprite,Foreground,Centre,"sb/dot3.png",320,240 M,0,171240,171840,185,166,212,223 S,0,171640,171840,0.5893508,0 F,0,171240,171640,0,1 F,0,171640,171840,1,0 C,0,171240,,118,141,197 P,0,171240,171372,A
Sprite,Foreground,Centre,"sb/dot3.png",320,240 M,0,171240,171840,185,166,131,195 S,0,171640,171840,0.6144332,0 F,0,171240,171640,0,1 F,0,171640,171840,1,0 C,0,171240,,118,141,197 P,0,171240,171372,A
Sprite,Foreground,Centre,"sb/dot3.png",320,240 M,0,171240,171840,185,166,172,188 S,0,171640,171840,1.00442,0 F,0,171240,171640,0,1 F,0,171640,171840,1,0 C,0,171240,,118,141,197 P,0,171240,171372,A
Sprite,Foreground,Centre,"sb/dot3.png",320,240 M,0,171240,171840,185,166,195,143 S,0,171640,171840,0.2357288,0 F,0,171240,171640,0,1 F,0,171640,171840,1,0 C,0,171240,,118,141,197 P,0,171240,171372,A
Sprite,Foreground,Centre,"sb/dot3.png",320,240 M,0,171240,171840,185,166,138,215 S,0,171640,171840,1.668881,0 F,0,171240,171640,0,1 F,0,171640,171840,1,0 C,0,171240,,118,141,197 P,0,171240,171372,A
Sprite,Foreground,Centre,"sb/dot3.png",320,240 M,0,171504,172104,314,358,290,322 S,0,171904,172104,0.2532386,0 F,0,171504,171904,0,1 F,0,171904,172104,1,0 C,0,171504,,0,0,255 P,0,171504,,A
Sprite,Foreground,Centre,"sb/dot3.png",320,240 M,0,171504,172104,314,358,368,341 S,0,171904,172104,1.933201,0 F,0,171504,171904,0,1 F,0,171904,172104,1,0 C,0,171504,,0,0,255 P,0,171504,,A
Sprite,Foreground,Centre,"sb/dot3.png",320,240 M,0,171504,172104,314,358,304,377 S,0,171904,172104,0.2303658,0 F,0,171504,171904,0,1 F,0,171904,172104,1,0 C,0,171504,,0,0,255 P,0,171504,,A
Sprite,Foreground,Centre,"sb/dot3.png",320,240 M,0,171504,172104,314,358,290,397 S,0,171904,172104,0.7009931,0 F,0,171504,171904,0,1 F,0,171904,172104,1,0 C,0,171504,,0,0,255 P,0,171504,,A
Sprite,Foreground,Centre,"sb/dot3.png",320,240 M,0,171504,172104,314,358,261,389 S,0,171904,172104,1.258026,0 F,0,171504,171904,0,1 F,0,171904,172104,1,0 C,0,171504,,0,0,255 P,0,171504,,A
Sprite,Foreground,Centre,"sb/dot3.png",320,240 M,0,171504,172104,314,358,286,306 S,0,171904,172104,0.7835005,0 F,0,171504,171904,0,1 F,0,171904,172104,1,0 C,0,171504,,0,0,255 P,0,171504,,A
Sprite,Foreground,Centre,"sb/dot3.png",320,240 M,0,171636,172236,319,141,329,106 S,0,172036,172236,1.794799,0 F,0,171636,172036,0,1 F,0,172036,172236,1,0 C,0,171636,,0,0,255 P,0,171636,,A
Sprite,Foreground,Centre,"sb/dot3.png",320,240 M,0,171636,172236,319,141,277,158 S,0,172036,172236,0.6593141,0 F,0,171636,172036,0,1 F,0,172036,172236,1,0 C,0,171636,,0,0,255 P,0,171636,,A
Sprite,Foreground,Centre,"sb/dot3.png",320,240 M,0,171636,172236,319,141,357,188 S,0,172036,172236,1.815056,0 F,0,171636,172036,0,1 F,0,172036,172236,1,0 C,0,171636,,0,0,255 P,0,171636,,A
Sprite,Foreground,Centre,"sb/dot3.png",320,240 M,0,171636,172236,319,141,270,176 S,0,172036,172236,1.789206,0 F,0,171636,172036,0,1 F,0,172036,172236,1,0 C,0,171636,,0,0,255 P,0,171636,,A
Sprite,Foreground,Centre,"sb/dot3.png",320,240 M,0,171636,172236,319,141,296,151 S,0,172036,172236,1.613081,0 F,0,171636,172036,0,1 F,0,172036,172236,1,0 C,0,171636,,0,0,255 P,0,171636,,A
Sprite,Foreground,Centre,"sb/dot3.png",320,240 M,0,171636,172236,319,141,340,115 S,0,172036,172236,0.8342902,0 F,0,171636,172036,0,1 F,0,172036,172236,1,0 C,0,171636,,0,0,255 P,0,171636,,A
Sprite,Foreground,Centre,"sb/dot3.png",320,240 M,0,171636,172236,319,141,273,124 S,0,172036,172236,0.2601975,0 F,0,171636,172036,0,1 F,0,172036,172236,1,0 C,0,171636,,0,0,255 P,0,171636,,A
Sprite,Foreground,Centre,"sb/dot3.png",320,240 M,0,171768,172368,296,382,280,426 S,0,172168,172368,0.5508394,0 F,0,171768,172168,0,1 F,0,172168,172368,1,0 C,0,171768,,0,0,255 P,0,171768,,A
Sprite,Foreground,Centre,"sb/dot3.png",320,240 M,0,171768,172368,296,382,274,368 S,0,172168,172368,1.246321,0 F,0,171768,172168,0,1 F,0,172168,172368,1,0 C,0,171768,,0,0,255 P,0,171768,,A
Sprite,Foreground,Centre,"sb/dot3.png",320,240 M,0,171768,172368,296,382,349,393 S,0,172168,172368,0.7586537,0 F,0,171768,172168,0,1 F,0,172168,172368,1,0 C,0,171768,,0,0,255 P,0,171768,,A
Sprite,Foreground,Centre,"sb/dot3.png",320,240 M,0,171768,172368,296,382,340,329 S,0,172168,172368,1.611336,0 F,0,171768,172168,0,1 F,0,172168,172368,1,0 C,0,171768,,0,0,255 P,0,171768,,A
Sprite,Foreground,Centre,"sb/dot3.png",320,240 M,0,171768,172368,296,382,338,432 S,0,172168,172368,1.302507,0 F,0,171768,172168,0,1 F,0,172168,172368,1,0 C,0,171768,,0,0,255 P,0,171768,,A
Sprite,Foreground,Centre,"sb/dot3.png",320,240 M,0,171768,172368,296,382,310,402 S,0,172168,172368,1.380115,0 F,0,171768,172168,0,1 F,0,172168,172368,1,0 C,0,171768,,0,0,255 P,0,171768,,A
Sprite,Foreground,Centre,"sb/dot3.png",320,240 M,0,171900,172500,432,163,377,124 S,0,172300,172500,0.3751146,0 F,0,171900,172300,0,1 F,0,172300,172500,1,0 C,0,171900,,215,0,107 P,0,171900,172164,A
Sprite,Foreground,Centre,"sb/dot3.png",320,240 M,0,171900,172500,432,163,381,173 S,0,172300,172500,1.47957,0 F,0,171900,172300,0,1 F,0,172300,172500,1,0 C,0,171900,,215,0,107 P,0,171900,172164,A
Sprite,Foreground,Centre,"sb/dot3.png",320,240 M,0,171900,172500,432,163,408,128 S,0,172300,172500,1.372276,0 F,0,171900,172300,0,1 F,0,172300,172500,1,0 C,0,171900,,215,0,107 P,0,171900,172164,A
Sprite,Foreground,Centre,"sb/dot3.png",320,240 M,0,171900,172500,432,163,463,182 S,0,172300,172500,0.6766995,0 F,0,171900,172300,0,1 F,0,172300,172500,1,0 C,0,171900,,215,0,107 P,0,171900,172164,A
Sprite,Foreground,Centre,"sb/dot3.png",320,240 M,0,171900,172500,432,163,418,204 S,0,172300,172500,0.5526287,0 F,0,171900,172300,0,1 F,0,172300,172500,1,0 C,0,171900,,215,0,107 P,0,171900,172164,A
Sprite,Foreground,Centre,"sb/dot3.png",320,240 M,0,171900,172500,432,163,442,192 S,0,172300,172500,1.084852,0 F,0,171900,172300,0,1 F,0,172300,172500,1,0 C,0,171900,,215,0,107 P,0,171900,172164,A
Sprite,Foreground,Centre,"sb/dot3.png",320,240 M,0,172297,172897,382,386,425,409 S,0,172697,172897,0.8641497,0 F,0,172297,172697,0,1 F,0,172697,172897,1,0 C,0,172297,,118,141,197 P,0,172297,172429,A
Sprite,Foreground,Centre,"sb/dot3.png",320,240 M,0,172297,172897,382,386,348,363 S,0,172697,172897,1.991757,0 F,0,172297,172697,0,1 F,0,172697,172897,1,0 C,0,172297,,118,141,197 P,0,172297,172429,A
Sprite,Foreground,Centre,"sb/dot3.png",320,240 M,0,172297,172897,382,386,394,411 S,0,172697,172897,0.2032844,0 F,0,172297,172697,0,1 F,0,172697,172897,1,0 C,0,172297,,118,141,197 P,0,172297,172429,A
Sprite,Foreground,Centre,"sb/dot3.png",320,240 M,0,172297,172897,382,386,384,405 S,0,172697,172897,1.931224,0 F,0,172297,172697,0,1 F,0,172697,172897,1,0 C,0,172297,,118,141,197 P,0,172297,172429,A
Sprite,Foreground,Centre,"sb/dot3.png",320,240 M,0,172297,172897,382,386,350,332 S,0,172697,172897,1.590063,0 F,0,172297,172697,0,1 F,0,172697,172897,1,0 C,0,172297,,118,141,197 P,0,172297,172429,A
Sprite,Foreground,Centre,"sb/dot3.png",320,240 M,0,172561,173161,302,68,277,59 S,0,172961,173161,0.3125046,0 F,0,172561,172961,0,1 F,0,172961,173161,1,0 C,0,172561,,118,141,197 P,0,172561,172693,A
Sprite,Foreground,Centre,"sb/dot3.png",320,240 M,0,172561,173161,302,68,303,89 S,0,172961,173161,1.519035,0 F,0,172561,172961,0,1 F,0,172961,173161,1,0 C,0,172561,,118,141,197 P,0,172561,172693,A
Sprite,Foreground,Centre,"sb/dot3.png",320,240 M,0,172561,173161,302,68,339,89 S,0,172961,173161,1.711689,0 F,0,172561,172961,0,1 F,0,172961,173161,1,0 C,0,172561,,118,141,197 P,0,172561,172693,A
Sprite,Foreground,Centre,"sb/dot3.png",320,240 M,0,172561,173161,302,68,265,71 S,0,172961,173161,1.231354,0 F,0,172561,172961,0,1 F,0,172961,173161,1,0 C,0,172561,,118,141,197 P,0,172561,172693,A
Sprite,Foreground,Centre,"sb/dot3.png",320,240 M,0,172561,173161,302,68,284,36 S,0,172961,173161,1.706948,0 F,0,172561,172961,0,1 F,0,172961,173161,1,0 C,0,172561,,118,141,197 P,0,172561,172693,A
Sprite,Foreground,Centre,"sb/dot3.png",320,240 M,0,172561,173161,302,68,245,26 S,0,172961,173161,1.005268,0 F,0,172561,172961,0,1 F,0,172961,173161,1,0 C,0,172561,,118,141,197 P,0,172561,172693,A
Sprite,Foreground,Centre,"sb/dot3.png",320,240 M,0,172561,173161,302,68,343,118 S,0,172961,173161,1.645703,0 F,0,172561,172961,0,1 F,0,172961,173161,1,0 C,0,172561,,118,141,197 P,0,172561,172693,A
Sprite,Foreground,Centre,"sb/dot3.png",320,240 M,0,172826,173426,90,360,115,386 S,0,173226,173426,1.600644,0 F,0,172826,173226,0,1 F,0,173226,173426,1,0 C,0,172826,,118,141,197 P,0,172826,172958,A
Sprite,Foreground,Centre,"sb/dot3.png",320,240 M,0,172826,173426,90,360,64,356 S,0,173226,173426,1.364912,0 F,0,172826,173226,0,1 F,0,173226,173426,1,0 C,0,172826,,118,141,197 P,0,172826,172958,A
Sprite,Foreground,Centre,"sb/dot3.png",320,240 M,0,172826,173426,90,360,93,355 S,0,173226,173426,1.296078,0 F,0,172826,173226,0,1 F,0,173226,173426,1,0 C,0,172826,,118,141,197 P,0,172826,172958,A
Sprite,Foreground,Centre,"sb/dot3.png",320,240 M,0,172826,173426,90,360,147,363 S,0,173226,173426,1.322913,0 F,0,172826,173226,0,1 F,0,173226,173426,1,0 C,0,172826,,118,141,197 P,0,172826,172958,A
Sprite,Foreground,Centre,"sb/dot3.png",320,240 M,0,172826,173426,90,360,63,368 S,0,173226,173426,1.771695,0 F,0,172826,173226,0,1 F,0,173226,173426,1,0 C,0,172826,,118,141,197 P,0,172826,172958,A
Sprite,Foreground,Centre,"sb/dot3.png",320,240 M,0,172826,173426,90,360,92,330 S,0,173226,173426,0.4477508,0 F,0,172826,173226,0,1 F,0,173226,173426,1,0 C,0,172826,,118,141,197 P,0,172826,172958,A
Sprite,Foreground,Centre,"sb/dot3.png",320,240 M,0,173024,173624,191,198,175,205 S,0,173424,173624,1.409946,0 F,0,173024,173424,0,1 F,0,173424,173624,1,0 C,0,173024,,118,141,197 P,0,173024,,A
Sprite,Foreground,Centre,"sb/dot3.png",320,240 M,0,173024,173624,191,198,185,154 S,0,173424,173624,1.759102,0 F,0,173024,173424,0,1 F,0,173424,173624,1,0 C,0,173024,,118,141,197 P,0,173024,,A
Sprite,Foreground,Centre,"sb/dot3.png",320,240 M,0,173024,173624,191,198,178,252 S,0,173424,173624,1.615943,0 F,0,173024,173424,0,1 F,0,173424,173624,1,0 C,0,173024,,118,141,197 P,0,173024,,A
Sprite,Foreground,Centre,"sb/dot3.png",320,240 M,0,173024,173624,191,198,182,256 S,0,173424,173624,1.693346,0 F,0,173024,173424,0,1 F,0,173424,173624,1,0 C,0,173024,,118,141,197 P,0,173024,,A
Sprite,Foreground,Centre,"sb/dot3.png",320,240 M,0,173024,173624,191,198,237,216 S,0,173424,173624,1.140519,0 F,0,173024,173424,0,1 F,0,173424,173624,1,0 C,0,173024,,118,141,197 P,0,173024,,A
Sprite,Foreground,Centre,"sb/dot3.png",320,240 M,0,173090,173690,191,198,139,212 S,0,173490,173690,1.195821,0 F,0,173090,173490,0,1 F,0,173490,173690,1,0 C,0,173090,,0,0,255 P,0,173090,,A
Sprite,Foreground,Centre,"sb/dot3.png",320,240 M,0,173090,173690,191,198,178,148 S,0,173490,173690,0.649911,0 F,0,173090,173490,0,1 F,0,173490,173690,1,0 C,0,173090,,0,0,255 P,0,173090,,A
Sprite,Foreground,Centre,"sb/dot3.png",320,240 M,0,173090,173690,191,198,186,241 S,0,173490,173690,1.028237,0 F,0,173090,173490,0,1 F,0,173490,173690,1,0 C,0,173090,,0,0,255 P,0,173090,,A
Sprite,Foreground,Centre,"sb/dot3.png",320,240 M,0,173090,173690,191,198,189,180 S,0,173490,173690,0.8073148,0 F,0,173090,173490,0,1 F,0,173490,173690,1,0 C,0,173090,,0,0,255 P,0,173090,,A
Sprite,Foreground,Centre,"sb/dot3.png",320,240 M,0,173090,173690,191,198,217,223 S,0,173490,173690,0.4704712,0 F,0,173090,173490,0,1 F,0,173490,173690,1,0 C,0,173090,,0,0,255 P,0,173090,,A
Sprite,Foreground,Centre,"sb/dot3.png",320,240 M,0,173090,173690,191,198,233,174 S,0,173490,173690,0.5695246,0 F,0,173090,173490,0,1 F,0,173490,173690,1,0 C,0,173090,,0,0,255 P,0,173090,,A
Sprite,Foreground,Centre,"sb/dot3.png",320,240 M,0,173222,173822,381,298,392,344 S,0,173622,173822,1.591852,0 F,0,173222,173622,0,1 F,0,173622,173822,1,0 C,0,173222,,0,0,255 P,0,173222,,A
Sprite,Foreground,Centre,"sb/dot3.png",320,240 M,0,173222,173822,381,298,372,243 S,0,173622,173822,0.3821735,0 F,0,173222,173622,0,1 F,0,173622,173822,1,0 C,0,173222,,0,0,255 P,0,173222,,A
Sprite,Foreground,Centre,"sb/dot3.png",320,240 M,0,173222,173822,381,298,337,331 S,0,173622,173822,0.4149401,0 F,0,173222,173622,0,1 F,0,173622,173822,1,0 C,0,173222,,0,0,255 P,0,173222,,A
Sprite,Foreground,Centre,"sb/dot3.png",320,240 M,0,173222,173822,381,298,330,329 S,0,173622,173822,1.212284,0 F,0,173222,173622,0,1 F,0,173622,173822,1,0 C,0,173222,,0,0,255 P,0,173222,,A
Sprite,Foreground,Centre,"sb/dot3.png",320,240 M,0,173222,173822,381,298,338,350 S,0,173622,173822,1.353212,0 F,0,173222,173622,0,1 F,0,173622,173822,1,0 C,0,173222,,0,0,255 P,0,173222,,A
Sprite,Foreground,Centre,"sb/dot3.png",320,240 M,0,173354,173954,223,304,181,311 S,0,173754,173954,1.024322,0 F,0,173354,173754,0,1 F,0,173754,173954,1,0 C,0,173354,,0,0,255 P,0,173354,,A
Sprite,Foreground,Centre,"sb/dot3.png",320,240 M,0,173354,173954,223,304,199,320 S,0,173754,173954,0.4202162,0 F,0,173354,173754,0,1 F,0,173754,173954,1,0 C,0,173354,,0,0,255 P,0,173354,,A
Sprite,Foreground,Centre,"sb/dot3.png",320,240 M,0,173354,173954,223,304,171,270 S,0,173754,173954,0.709775,0 F,0,173354,173754,0,1 F,0,173754,173954,1,0 C,0,173354,,0,0,255 P,0,173354,,A
Sprite,Foreground,Centre,"sb/dot3.png",320,240 M,0,173354,173954,223,304,263,253 S,0,173754,173954,1.638705,0 F,0,173354,173754,0,1 F,0,173754,173954,1,0 C,0,173354,,0,0,255 P,0,173354,,A
Sprite,Foreground,Centre,"sb/dot3.png",320,240 M,0,173354,173954,223,304,249,346 S,0,173754,173954,0.6751733,0 F,0,173354,173754,0,1 F,0,173754,173954,1,0 C,0,173354,,0,0,255 P,0,173354,,A
Sprite,Foreground,Centre,"sb/dot3.png",320,240 M,0,173486,174086,413,192,357,139 S,0,173886,174086,0.7297799,0 F,0,173486,173886,0,1 F,0,173886,174086,1,0 C,0,173486,,0,0,255 P,0,173486,,A
Sprite,Foreground,Centre,"sb/dot3.png",320,240 M,0,173486,174086,413,192,430,211 S,0,173886,174086,1.681779,0 F,0,173486,173886,0,1 F,0,173886,174086,1,0 C,0,173486,,0,0,255 P,0,173486,,A
Sprite,Foreground,Centre,"sb/dot3.png",320,240 M,0,173486,174086,413,192,362,184 S,0,173886,174086,1.912814,0 F,0,173486,173886,0,1 F,0,173886,174086,1,0 C,0,173486,,0,0,255 P,0,173486,,A
Sprite,Foreground,Centre,"sb/dot3.png",320,240 M,0,173486,174086,413,192,472,146 S,0,173886,174086,1.901697,0 F,0,173486,173886,0,1 F,0,173886,174086,1,0 C,0,173486,,0,0,255 P,0,173486,,A
Sprite,Foreground,Centre,"sb/dot3.png",320,240 M,0,173486,174086,413,192,358,242 S,0,173886,174086,1.813022,0 F,0,173486,173886,0,1 F,0,173886,174086,1,0 C,0,173486,,0,0,255 P,0,173486,,A
Sprite,Foreground,Centre,"sb/dot3.png",320,240 M,0,173486,174086,413,192,455,228 S,0,173886,174086,1.719812,0 F,0,173486,173886,0,1 F,0,173886,174086,1,0 C,0,173486,,0,0,255 P,0,173486,,A
Sprite,Foreground,Centre,"sb/dot3.png",320,240 M,0,173619,174219,283,75,271,23 S,0,174019,174219,0.7477245,0 F,0,173619,174019,0,1 F,0,174019,174219,1,0 C,0,173619,,0,0,255 P,0,173619,173751,A
Sprite,Foreground,Centre,"sb/dot3.png",320,240 M,0,173619,174219,283,75,338,83 S,0,174019,174219,0.9037546,0 F,0,173619,174019,0,1 F,0,174019,174219,1,0 C,0,173619,,0,0,255 P,0,173619,173751,A
Sprite,Foreground,Centre,"sb/dot3.png",320,240 M,0,173619,174219,283,75,308,56 S,0,174019,174219,1.39318,0 F,0,173619,174019,0,1 F,0,174019,174219,1,0 C,0,173619,,0,0,255 P,0,173619,173751,A
Sprite,Foreground,Centre,"sb/dot3.png",320,240 M,0,173619,174219,283,75,320,93 S,0,174019,174219,1.877595,0 F,0,173619,174019,0,1 F,0,174019,174219,1,0 C,0,173619,,0,0,255 P,0,173619,173751,A
Sprite,Foreground,Centre,"sb/dot3.png",320,240 M,0,173619,174219,283,75,332,29 S,0,174019,174219,0.7383814,0 F,0,173619,174019,0,1 F,0,174019,174219,1,0 C,0,173619,,0,0,255 P,0,173619,173751,A
Sprite,Foreground,Centre,"sb/dot3.png",320,240 M,0,173619,174219,283,75,284,30 S,0,174019,174219,0.8168121,0 F,0,173619,174019,0,1 F,0,174019,174219,1,0 C,0,173619,,0,0,255 P,0,173619,173751,A
Sprite,Foreground,Centre,"sb/dot3.png",320,240 M,0,173883,174483,413,310,409,349 S,0,174283,174483,0.5904152,0 F,0,173883,174283,0,1 F,0,174283,174483,1,0 C,0,173883,,0,0,255 P,0,173883,,A
Sprite,Foreground,Centre,"sb/dot3.png",320,240 M,0,173883,174483,413,310,446,349 S,0,174283,174483,1.135377,0 F,0,173883,174283,0,1 F,0,174283,174483,1,0 C,0,173883,,0,0,255 P,0,173883,,A
Sprite,Foreground,Centre,"sb/dot3.png",320,240 M,0,173883,174483,413,310,447,281 S,0,174283,174483,1.9094,0 F,0,173883,174283,0,1 F,0,174283,174483,1,0 C,0,173883,,0,0,255 P,0,173883,,A
Sprite,Foreground,Centre,"sb/dot3.png",320,240 M,0,173883,174483,413,310,415,327 S,0,174283,174483,1.094567,0 F,0,173883,174283,0,1 F,0,174283,174483,1,0 C,0,173883,,0,0,255 P,0,173883,,A
Sprite,Foreground,Centre,"sb/dot3.png",320,240 M,0,173883,174483,413,310,472,369 S,0,174283,174483,0.5384384,0 F,0,173883,174283,0,1 F,0,174283,174483,1,0 C,0,173883,,0,0,255 P,0,173883,,A
Sprite,Foreground,Centre,"sb/dot3.png",320,240 M,0,174015,174615,140,287,112,291 S,0,174415,174615,1.260005,0 F,0,174015,174415,0,1 F,0,174415,174615,1,0 C,0,174015,,215,0,107 P,0,174015,174279,A
Sprite,Foreground,Centre,"sb/dot3.png",320,240 M,0,174015,174615,140,287,108,318 S,0,174415,174615,0.8484194,0 F,0,174015,174415,0,1 F,0,174415,174615,1,0 C,0,174015,,215,0,107 P,0,174015,174279,A
Sprite,Foreground,Centre,"sb/dot3.png",320,240 M,0,174015,174615,140,287,196,310 S,0,174415,174615,1.620087,0 F,0,174015,174415,0,1 F,0,174415,174615,1,0 C,0,174015,,215,0,107 P,0,174015,174279,A
Sprite,Foreground,Centre,"sb/dot3.png",320,240 M,0,174015,174615,140,287,173,342 S,0,174415,174615,0.3845729,0 F,0,174015,174415,0,1 F,0,174415,174615,1,0 C,0,174015,,215,0,107 P,0,174015,174279,A
Sprite,Foreground,Centre,"sb/dot3.png",320,240 M,0,174015,174615,140,287,166,253 S,0,174415,174615,1.346987,0 F,0,174015,174415,0,1 F,0,174415,174615,1,0 C,0,174015,,215,0,107 P,0,174015,174279,A
Sprite,Foreground,Centre,"sb/dot3.png",320,240 M,0,174015,174615,140,287,90,268 S,0,174415,174615,1.669175,0 F,0,174015,174415,0,1 F,0,174415,174615,1,0 C,0,174015,,215,0,107 P,0,174015,174279,A
Sprite,Foreground,Centre,"sb/dot3.png",320,240 M,0,174015,174615,140,287,99,254 S,0,174415,174615,0.6313396,0 F,0,174015,174415,0,1 F,0,174415,174615,1,0 C,0,174015,,215,0,107 P,0,174015,174279,A
Sprite,Foreground,Centre,"sb/dot3.png",320,240 M,0,174411,175011,520,396,540,396 S,0,174811,175011,1.394221,0 F,0,174411,174811,0,1 F,0,174811,175011,1,0 C,0,174411,,0,0,255 P,0,174411,174543,A
Sprite,Foreground,Centre,"sb/dot3.png",320,240 M,0,174411,175011,520,396,521,394 S,0,174811,175011,1.15978,0 F,0,174411,174811,0,1 F,0,174811,175011,1,0 C,0,174411,,0,0,255 P,0,174411,174543,A
Sprite,Foreground,Centre,"sb/dot3.png",320,240 M,0,174411,175011,520,396,491,344 S,0,174811,175011,0.4866414,0 F,0,174411,174811,0,1 F,0,174811,175011,1,0 C,0,174411,,0,0,255 P,0,174411,174543,A
Sprite,Foreground,Centre,"sb/dot3.png",320,240 M,0,174411,175011,520,396,573,445 S,0,174811,175011,0.3148417,0 F,0,174411,174811,0,1 F,0,174811,175011,1,0 C,0,174411,,0,0,255 P,0,174411,174543,A
Sprite,Foreground,Centre,"sb/dot3.png",320,240 M,0,174411,175011,520,396,526,398 S,0,174811,175011,1.973449,0 F,0,174411,174811,0,1 F,0,174811,175011,1,0 C,0,174411,,0,0,255 P,0,174411,174543,A
Sprite,Foreground,Centre,"sb/dot3.png",320,240 M,0,174676,175276,321,103,284,72 S,0,175076,175276,0.2613115,0 F,0,174676,175076,0,1 F,0,175076,175276,1,0 C,0,174676,,0,0,255 P,0,174676,174808,A
Sprite,Foreground,Centre,"sb/dot3.png",320,240 M,0,174676,175276,321,103,340,63 S,0,175076,175276,1.23217,0 F,0,174676,175076,0,1 F,0,175076,175276,1,0 C,0,174676,,0,0,255 P,0,174676,174808,A
Sprite,Foreground,Centre,"sb/dot3.png",320,240 M,0,174676,175276,321,103,301,136 S,0,175076,175276,0.6037376,0 F,0,174676,175076,0,1 F,0,175076,175276,1,0 C,0,174676,,0,0,255 P,0,174676,174808,A
Sprite,Foreground,Centre,"sb/dot3.png",320,240 M,0,174676,175276,321,103,309,68 S,0,175076,175276,0.4831388,0 F,0,174676,175076,0,1 F,0,175076,175276,1,0 C,0,174676,,0,0,255 P,0,174676,174808,A
Sprite,Foreground,Centre,"sb/dot3.png",320,240 M,0,174676,175276,321,103,358,91 S,0,175076,175276,1.699219,0 F,0,174676,175076,0,1 F,0,175076,175276,1,0 C,0,174676,,0,0,255 P,0,174676,174808,A
Sprite,Foreground,Centre,"sb/dot3.png",320,240 M,0,174676,175276,321,103,357,94 S,0,175076,175276,0.6325333,0 F,0,174676,175076,0,1 F,0,175076,175276,1,0 C,0,174676,,0,0,255 P,0,174676,174808,A
Sprite,Foreground,Centre,"sb/dot3.png",320,240 M,0,174940,175540,193,414,173,467 S,0,175340,175540,0.5234871,0 F,0,174940,175340,0,1 F,0,175340,175540,1,0 C,0,174940,,0,0,255 P,0,174940,,A
Sprite,Foreground,Centre,"sb/dot3.png",320,240 M,0,174940,175540,193,414,177,367 S,0,175340,175540,1.512301,0 F,0,174940,175340,0,1 F,0,175340,175540,1,0 C,0,174940,,0,0,255 P,0,174940,,A
Sprite,Foreground,Centre,"sb/dot3.png",320,240 M,0,174940,175540,193,414,237,468 S,0,175340,175540,0.611649,0 F,0,174940,175340,0,1 F,0,175340,175540,1,0 C,0,174940,,0,0,255 P,0,174940,,A
Sprite,Foreground,Centre,"sb/dot3.png",320,240 M,0,174940,175540,193,414,181,388 S,0,175340,175540,0.2802586,0 F,0,174940,175340,0,1 F,0,175340,175540,1,0 C,0,174940,,0,0,255 P,0,174940,,A
Sprite,Foreground,Centre,"sb/dot3.png",320,240 M,0,174940,175540,193,414,138,368 S,0,175340,175540,1.07223,0 F,0,174940,175340,0,1 F,0,175340,175540,1,0 C,0,174940,,0,0,255 P,0,174940,,A
Sprite,Foreground,Centre,"sb/dot3.png",320,240 M,0,174940,175540,193,414,213,419 S,0,175340,175540,1.29342,0 F,0,174940,175340,0,1 F,0,175340,175540,1,0 C,0,174940,,0,0,255 P,0,174940,,A
Sprite,Foreground,Centre,"sb/dot3.png",320,240 M,0,175072,175672,95,187,53,160 S,0,175472,175672,0.5470399,0 F,0,175072,175472,0,1 F,0,175472,175672,1,0 C,0,175072,,0,0,255 P,0,175072,,A
Sprite,Foreground,Centre,"sb/dot3.png",320,240 M,0,175072,175672,95,187,125,130 S,0,175472,175672,0.4428451,0 F,0,175072,175472,0,1 F,0,175472,175672,1,0 C,0,175072,,0,0,255 P,0,175072,,A
Sprite,Foreground,Centre,"sb/dot3.png",320,240 M,0,175072,175672,95,187,80,237 S,0,175472,175672,1.560377,0 F,0,175072,175472,0,1 F,0,175472,175672,1,0 C,0,175072,,0,0,255 P,0,175072,,A
Sprite,Foreground,Centre,"sb/dot3.png",320,240 M,0,175072,175672,95,187,40,169 S,0,175472,175672,1.496824,0 F,0,175072,175472,0,1 F,0,175472,175672,1,0 C,0,175072,,0,0,255 P,0,175072,,A
Sprite,Foreground,Centre,"sb/dot3.png",320,240 M,0,175072,175672,95,187,152,213 S,0,175472,175672,0.3535829,0 F,0,175072,175472,0,1 F,0,175472,175672,1,0 C,0,175072,,0,0,255 P,0,175072,,A
Sprite,Foreground,Centre,"sb/dot3.png",320,240 M,0,175072,175672,95,187,103,214 S,0,175472,175672,0.2723402,0 F,0,175072,175472,0,1 F,0,175472,175672,1,0 C,0,175072,,0,0,255 P,0,175072,,A
Sprite,Foreground,Centre,"sb/dot3.png",320,240 M,0,175072,175672,95,187,39,200 S,0,175472,175672,0.8232785,0 F,0,175072,175472,0,1 F,0,175472,175672,1,0 C,0,175072,,0,0,255 P,0,175072,,A
Sprite,Foreground,Centre,"sb/dot3.png",320,240 M,0,175204,175804,335,245,349,298 S,0,175604,175804,1.035397,0 F,0,175204,175604,0,1 F,0,175604,175804,1,0 C,0,175204,,118,141,197 P,0,175204,175468,A
Sprite,Foreground,Centre,"sb/dot3.png",320,240 M,0,175204,175804,335,245,372,290 S,0,175604,175804,1.70829,0 F,0,175204,175604,0,1 F,0,175604,175804,1,0 C,0,175204,,118,141,197 P,0,175204,175468,A
Sprite,Foreground,Centre,"sb/dot3.png",320,240 M,0,175204,175804,335,245,338,275 S,0,175604,175804,1.83043,0 F,0,175204,175604,0,1 F,0,175604,175804,1,0 C,0,175204,,118,141,197 P,0,175204,175468,A
Sprite,Foreground,Centre,"sb/dot3.png",320,240 M,0,175204,175804,335,245,326,214 S,0,175604,175804,1.667911,0 F,0,175204,175604,0,1 F,0,175604,175804,1,0 C,0,175204,,118,141,197 P,0,175204,175468,A
Sprite,Foreground,Centre,"sb/dot3.png",320,240 M,0,175204,175804,335,245,295,253 S,0,175604,175804,1.552666,0 F,0,175204,175604,0,1 F,0,175604,175804,1,0 C,0,175204,,118,141,197 P,0,175204,175468,A
Sprite,Foreground,Centre,"sb/dot3.png",320,240 M,0,175601,176201,466,205,419,162 S,0,176001,176201,1.252209,0 F,0,175601,176001,0,1 F,0,176001,176201,1,0 C,0,175601,,0,0,255 P,0,175601,175733,A
Sprite,Foreground,Centre,"sb/dot3.png",320,240 M,0,175601,176201,466,205,430,264 S,0,176001,176201,0.2937103,0 F,0,175601,176001,0,1 F,0,176001,176201,1,0 C,0,175601,,0,0,255 P,0,175601,175733,A
Sprite,Foreground,Centre,"sb/dot3.png",320,240 M,0,175601,176201,466,205,467,176 S,0,176001,176201,0.4885661,0 F,0,175601,176001,0,1 F,0,176001,176201,1,0 C,0,175601,,0,0,255 P,0,175601,175733,A
Sprite,Foreground,Centre,"sb/dot3.png",320,240 M,0,175601,176201,466,205,462,154 S,0,176001,176201,0.997805,0 F,0,175601,176001,0,1 F,0,176001,176201,1,0 C,0,175601,,0,0,255 P,0,175601,175733,A
Sprite,Foreground,Centre,"sb/dot3.png",320,240 M,0,175601,176201,466,205,475,158 S,0,176001,176201,1.862246,0 F,0,175601,176001,0,1 F,0,176001,176201,1,0 C,0,175601,,0,0,255 P,0,175601,175733,A
Sprite,Foreground,Centre,"sb/dot3.png",320,240 M,0,175865,176465,230,348,171,294 S,0,176265,176465,0.7540559,0 F,0,175865,176265,0,1 F,0,176265,176465,1,0 C,0,175865,,0,0,255 P,0,175865,175997,A
Sprite,Foreground,Centre,"sb/dot3.png",320,240 M,0,175865,176465,230,348,172,333 S,0,176265,176465,1.757563,0 F,0,175865,176265,0,1 F,0,176265,176465,1,0 C,0,175865,,0,0,255 P,0,175865,175997,A
Sprite,Foreground,Centre,"sb/dot3.png",320,240 M,0,175865,176465,230,348,269,395 S,0,176265,176465,1.400183,0 F,0,175865,176265,0,1 F,0,176265,176465,1,0 C,0,175865,,0,0,255 P,0,175865,175997,A
Sprite,Foreground,Centre,"sb/dot3.png",320,240 M,0,175865,176465,230,348,213,341 S,0,176265,176465,1.986792,0 F,0,175865,176265,0,1 F,0,176265,176465,1,0 C,0,175865,,0,0,255 P,0,175865,175997,A
Sprite,Foreground,Centre,"sb/dot3.png",320,240 M,0,175865,176465,230,348,223,362 S,0,176265,176465,0.2927081,0 F,0,175865,176265,0,1 F,0,176265,176465,1,0 C,0,175865,,0,0,255 P,0,175865,175997,A
Sprite,Foreground,Centre,"sb/dot3.png",320,240 M,0,175865,176465,230,348,214,365 S,0,176265,176465,1.461351,0 F,0,175865,176265,0,1 F,0,176265,176465,1,0 C,0,175865,,0,0,255 P,0,175865,175997,A
Sprite,Foreground,Centre,"sb/dot3.png",320,240 M,0,176130,176730,308,109,257,79 S,0,176530,176730,1.891968,0 F,0,176130,176530,0,1 F,0,176530,176730,1,0 C,0,176130,,0,0,255 P,0,176130,,A
Sprite,Foreground,Centre,"sb/dot3.png",320,240 M,0,176130,176730,308,109,287,104 S,0,176530,176730,0.5317332,0 F,0,176130,176530,0,1 F,0,176530,176730,1,0 C,0,176130,,0,0,255 P,0,176130,,A
Sprite,Foreground,Centre,"sb/dot3.png",320,240 M,0,176130,176730,308,109,305,68 S,0,176530,176730,0.8924259,0 F,0,176130,176530,0,1 F,0,176530,176730,1,0 C,0,176130,,0,0,255 P,0,176130,,A
Sprite,Foreground,Centre,"sb/dot3.png",320,240 M,0,176130,176730,308,109,318,158 S,0,176530,176730,1.137676,0 F,0,176130,176530,0,1 F,0,176530,176730,1,0 C,0,176130,,0,0,255 P,0,176130,,A
Sprite,Foreground,Centre,"sb/dot3.png",320,240 M,0,176130,176730,308,109,261,157 S,0,176530,176730,0.7234278,0 F,0,176130,176530,0,1 F,0,176530,176730,1,0 C,0,176130,,0,0,255 P,0,176130,,A
Sprite,Foreground,Centre,"sb/dot3.png",320,240 M,0,176130,176730,308,109,261,71 S,0,176530,176730,1.622761,0 F,0,176130,176530,0,1 F,0,176530,176730,1,0 C,0,176130,,0,0,255 P,0,176130,,A
Sprite,Foreground,Centre,"sb/dot3.png",320,240 M,0,176130,176730,308,109,357,77 S,0,176530,176730,0.9286293,0 F,0,176130,176530,0,1 F,0,176530,176730,1,0 C,0,176130,,0,0,255 P,0,176130,,A
Sprite,Foreground,Centre,"sb/dot3.png",320,240 M,0,176262,176862,91,154,117,100 S,0,176662,176862,0.3335901,0 F,0,176262,176662,0,1 F,0,176662,176862,1,0 C,0,176262,,118,141,197 P,0,176262,,A
Sprite,Foreground,Centre,"sb/dot3.png",320,240 M,0,176262,176862,91,154,132,180 S,0,176662,176862,1.849224,0 F,0,176262,176662,0,1 F,0,176662,176862,1,0 C,0,176262,,118,141,197 P,0,176262,,A
Sprite,Foreground,Centre,"sb/dot3.png",320,240 M,0,176262,176862,91,154,60,153 S,0,176662,176862,1.373717,0 F,0,176262,176662,0,1 F,0,176662,176862,1,0 C,0,176262,,118,141,197 P,0,176262,,A
Sprite,Foreground,Centre,"sb/dot3.png",320,240 M,0,176262,176862,91,154,48,205 S,0,176662,176862,0.626206,0 F,0,176262,176662,0,1 F,0,176662,176862,1,0 C,0,176262,,118,141,197 P,0,176262,,A
Sprite,Foreground,Centre,"sb/dot3.png",320,240 M,0,176262,176862,91,154,102,162 S,0,176662,176862,1.204124,0 F,0,176262,176662,0,1 F,0,176662,176862,1,0 C,0,176262,,118,141,197 P,0,176262,,A
Sprite,Foreground,Centre,"sb/dot3.png",320,240 M,0,176262,176862,91,154,141,146 S,0,176662,176862,1.537074,0 F,0,176262,176662,0,1 F,0,176662,176862,1,0 C,0,176262,,118,141,197 P,0,176262,,A
Sprite,Foreground,Centre,"sb/dot3.png",320,240 M,0,176262,176862,91,154,36,170 S,0,176662,176862,1.259506,0 F,0,176262,176662,0,1 F,0,176662,176862,1,0 C,0,176262,,118,141,197 P,0,176262,,A
Sprite,Foreground,Centre,"sb/dot3.png",320,240 M,0,176394,176994,256,280,243,338 S,0,176794,176994,0.2741291,0 F,0,176394,176794,0,1 F,0,176794,176994,1,0 C,0,176394,,118,141,197 P,0,176394,,A
Sprite,Foreground,Centre,"sb/dot3.png",320,240 M,0,176394,176994,256,280,291,286 S,0,176794,176994,1.377782,0 F,0,176394,176794,0,1 F,0,176794,176994,1,0 C,0,176394,,118,141,197 P,0,176394,,A
Sprite,Foreground,Centre,"sb/dot3.png",320,240 M,0,176394,176994,256,280,219,276 S,0,176794,176994,1.297114,0 F,0,176394,176794,0,1 F,0,176794,176994,1,0 C,0,176394,,118,141,197 P,0,176394,,A
Sprite,Foreground,Centre,"sb/dot3.png",320,240 M,0,176394,176994,256,280,204,334 S,0,176794,176994,1.607017,0 F,0,176394,176794,0,1 F,0,176794,176994,1,0 C,0,176394,,118,141,197 P,0,176394,,A
Sprite,Foreground,Centre,"sb/dot3.png",320,240 M,0,176394,176994,256,280,275,225 S,0,176794,176994,0.2816286,0 F,0,176394,176794,0,1 F,0,176794,176994,1,0 C,0,176394,,118,141,197 P,0,176394,,A
Sprite,Foreground,Centre,"sb/dot3.png",320,240 M,0,176394,176994,256,280,290,256 S,0,176794,176994,1.161488,0 F,0,176394,176794,0,1 F,0,176794,176994,1,0 C,0,176394,,118,141,197 P,0,176394,,A
Sprite,Foreground,Centre,"sb/dot3.png",320,240 M,0,176526,177126,176,120,175,140 S,0,176926,177126,0.5004007,0 F,0,176526,176926,0,1 F,0,176926,177126,1,0 C,0,176526,,118,141,197 P,0,176526,,A
Sprite,Foreground,Centre,"sb/dot3.png",320,240 M,0,176526,177126,176,120,235,73 S,0,176926,177126,1.506865,0 F,0,176526,176926,0,1 F,0,176926,177126,1,0 C,0,176526,,118,141,197 P,0,176526,,A
Sprite,Foreground,Centre,"sb/dot3.png",320,240 M,0,176526,177126,176,120,228,159 S,0,176926,177126,1.205403,0 F,0,176526,176926,0,1 F,0,176926,177126,1,0 C,0,176526,,118,141,197 P,0,176526,,A
Sprite,Foreground,Centre,"sb/dot3.png",320,240 M,0,176526,177126,176,120,171,131 S,0,176926,177126,1.306371,0 F,0,176526,176926,0,1 F,0,176926,177126,1,0 C,0,176526,,118,141,197 P,0,176526,,A
Sprite,Foreground,Centre,"sb/dot3.png",320,240 M,0,176526,177126,176,120,137,97 S,0,176926,177126,1.939147,0 F,0,176526,176926,0,1 F,0,176926,177126,1,0 C,0,176526,,118,141,197 P,0,176526,,A
Sprite,Foreground,Centre,"sb/dot3.png",320,240 M,0,176526,177126,176,120,187,147 S,0,176926,177126,1.43366,0 F,0,176526,176926,0,1 F,0,176926,177126,1,0 C,0,176526,,118,141,197 P,0,176526,,A
Sprite,Foreground,Centre,"sb/dot3.png",320,240 M,0,176526,177126,176,120,160,165 S,0,176926,177126,1.465762,0 F,0,176526,176926,0,1 F,0,176926,177126,1,0 C,0,176526,,118,141,197 P,0,176526,,A
Sprite,Foreground,Centre,"sb/dot3.png",320,240 M,0,176658,177258,152,360,151,318 S,0,177058,177258,0.3064543,0 F,0,176658,177058,0,1 F,0,177058,177258,1,0 C,0,176658,,118,141,197 P,0,176658,,A
Sprite,Foreground,Centre,"sb/dot3.png",320,240 M,0,176658,177258,152,360,170,390 S,0,177058,177258,1.381121,0 F,0,176658,177058,0,1 F,0,177058,177258,1,0 C,0,176658,,118,141,197 P,0,176658,,A
Sprite,Foreground,Centre,"sb/dot3.png",320,240 M,0,176658,177258,152,360,156,304 S,0,177058,177258,0.7774749,0 F,0,176658,177058,0,1 F,0,177058,177258,1,0 C,0,176658,,118,141,197 P,0,176658,,A
Sprite,Foreground,Centre,"sb/dot3.png",320,240 M,0,176658,177258,152,360,106,413 S,0,177058,177258,1.623748,0 F,0,176658,177058,0,1 F,0,177058,177258,1,0 C,0,176658,,118,141,197 P,0,176658,,A
Sprite,Foreground,Centre,"sb/dot3.png",320,240 M,0,176658,177258,152,360,153,315 S,0,177058,177258,0.3338829,0 F,0,176658,177058,0,1 F,0,177058,177258,1,0 C,0,176658,,118,141,197 P,0,176658,,A
Sprite,Foreground,Centre,"sb/dot3.png",320,240 M,0,176790,177390,360,257,313,264 S,0,177190,177390,1.610585,0 F,0,176790,177190,0,1 F,0,177190,177390,1,0 C,0,176790,,0,0,255 P,0,176790,,A
Sprite,Foreground,Centre,"sb/dot3.png",320,240 M,0,176790,177390,360,257,419,250 S,0,177190,177390,0.9231425,0 F,0,176790,177190,0,1 F,0,177190,177390,1,0 C,0,176790,,0,0,255 P,0,176790,,A
Sprite,Foreground,Centre,"sb/dot3.png",320,240 M,0,176790,177390,360,257,319,288 S,0,177190,177390,0.6145253,0 F,0,176790,177190,0,1 F,0,177190,177390,1,0 C,0,176790,,0,0,255 P,0,176790,,A
Sprite,Foreground,Centre,"sb/dot3.png",320,240 M,0,176790,177390,360,257,346,292 S,0,177190,177390,1.219381,0 F,0,176790,177190,0,1 F,0,177190,177390,1,0 C,0,176790,,0,0,255 P,0,176790,,A
Sprite,Foreground,Centre,"sb/dot3.png",320,240 M,0,176790,177390,360,257,412,309 S,0,177190,177390,1.409612,0 F,0,176790,177190,0,1 F,0,177190,177390,1,0 C,0,176790,,0,0,255 P,0,176790,,A
Sprite,Foreground,Centre,"sb/dot3.png",320,240 M,0,176790,177390,360,257,419,254 S,0,177190,177390,1.505035,0 F,0,176790,177190,0,1 F,0,177190,177390,1,0 C,0,176790,,0,0,255 P,0,176790,,A
Sprite,Foreground,Centre,"sb/dot3.png",320,240 M,0,176922,177522,154,162,205,160 S,0,177322,177522,0.2376991,0 F,0,176922,177322,0,1 F,0,177322,177522,1,0 C,0,176922,,0,0,255 P,0,176922,,A
Sprite,Foreground,Centre,"sb/dot3.png",320,240 M,0,176922,177522,154,162,170,112 S,0,177322,177522,1.038913,0 F,0,176922,177322,0,1 F,0,177322,177522,1,0 C,0,176922,,0,0,255 P,0,176922,,A
Sprite,Foreground,Centre,"sb/dot3.png",320,240 M,0,176922,177522,154,162,211,156 S,0,177322,177522,1.92715,0 F,0,176922,177322,0,1 F,0,177322,177522,1,0 C,0,176922,,0,0,255 P,0,176922,,A
Sprite,Foreground,Centre,"sb/dot3.png",320,240 M,0,176922,177522,154,162,149,112 S,0,177322,177522,0.6387293,0 F,0,176922,177322,0,1 F,0,177322,177522,1,0 C,0,176922,,0,0,255 P,0,176922,,A
Sprite,Foreground,Centre,"sb/dot3.png",320,240 M,0,176922,177522,154,162,140,110 S,0,177322,177522,1.930247,0 F,0,176922,177322,0,1 F,0,177322,177522,1,0 C,0,176922,,0,0,255 P,0,176922,,A
Sprite,Foreground,Centre,"sb/dot3.png",320,240 M,0,177055,177655,304,376,265,353 S,0,177455,177655,0.9262769,0 F,0,177055,177455,0,1 F,0,177455,177655,1,0 C,0,177055,,0,0,255 P,0,177055,,A
Sprite,Foreground,Centre,"sb/dot3.png",320,240 M,0,177055,177655,304,376,360,426 S,0,177455,177655,1.283318,0 F,0,177055,177455,0,1 F,0,177455,177655,1,0 C,0,177055,,0,0,255 P,0,177055,,A
Sprite,Foreground,Centre,"sb/dot3.png",320,240 M,0,177055,177655,304,376,279,425 S,0,177455,177655,1.836228,0 F,0,177055,177455,0,1 F,0,177455,177655,1,0 C,0,177055,,0,0,255 P,0,177055,,A
Sprite,Foreground,Centre,"sb/dot3.png",320,240 M,0,177055,177655,304,376,305,405 S,0,177455,177655,0.5028985,0 F,0,177055,177455,0,1 F,0,177455,177655,1,0 C,0,177055,,0,0,255 P,0,177055,,A
Sprite,Foreground,Centre,"sb/dot3.png",320,240 M,0,177055,177655,304,376,266,381 S,0,177455,177655,0.3679944,0 F,0,177055,177455,0,1 F,0,177455,177655,1,0 C,0,177055,,0,0,255 P,0,177055,,A
Sprite,Foreground,Centre,"sb/dot3.png",320,240 M,0,177055,177655,304,376,262,420 S,0,177455,177655,1.611222,0 F,0,177055,177455,0,1 F,0,177455,177655,1,0 C,0,177055,,0,0,255 P,0,177055,,A
Sprite,Foreground,Centre,"sb/dot3.png",320,240 M,0,177187,177787,411,155,470,139 S,0,177587,177787,0.3715514,0 F,0,177187,177587,0,1 F,0,177587,177787,1,0 C,0,177187,,0,0,255 P,0,177187,,A
Sprite,Foreground,Centre,"sb/dot3.png",320,240 M,0,177187,177787,411,155,451,97 S,0,177587,177787,1.22143,0 F,0,177187,177587,0,1 F,0,177587,177787,1,0 C,0,177187,,0,0,255 P,0,177187,,A
Sprite,Foreground,Centre,"sb/dot3.png",320,240 M,0,177187,177787,411,155,402,144 S,0,177587,177787,1.070184,0 F,0,177187,177587,0,1 F,0,177587,177787,1,0 C,0,177187,,0,0,255 P,0,177187,,A
Sprite,Foreground,Centre,"sb/dot3.png",320,240 M,0,177187,177787,411,155,461,190 S,0,177587,177787,0.4582864,0 F,0,177187,177587,0,1 F,0,177587,177787,1,0 C,0,177187,,0,0,255 P,0,177187,,A
Sprite,Foreground,Centre,"sb/dot3.png",320,240 M,0,177187,177787,411,155,446,146 S,0,177587,177787,0.4898313,0 F,0,177187,177587,0,1 F,0,177587,177787,1,0 C,0,177187,,0,0,255 P,0,177187,,A
Sprite,Foreground,Centre,"sb/dot3.png",320,240 M,0,177187,177787,411,155,456,96 S,0,177587,177787,1.840471,0 F,0,177187,177587,0,1 F,0,177587,177787,1,0 C,0,177187,,0,0,255 P,0,177187,,A
Sprite,Foreground,Centre,"sb/dot3.png",320,240 M,0,177187,177787,411,155,377,115 S,0,177587,177787,1.355488,0 F,0,177187,177587,0,1 F,0,177587,177787,1,0 C,0,177187,,0,0,255 P,0,177187,,A
Sprite,Foreground,Centre,"sb/dot3.png",320,240 M,0,177319,177919,157,282,111,276 S,0,177719,177919,0.3897603,0 F,0,177319,177719,0,1 F,0,177719,177919,1,0 C,0,177319,,215,0,107 P,0,177319,,A
Sprite,Foreground,Centre,"sb/dot3.png",320,240 M,0,177319,177919,157,282,104,301 S,0,177719,177919,0.2360362,0 F,0,177319,177719,0,1 F,0,177719,177919,1,0 C,0,177319,,215,0,107 P,0,177319,,A
Sprite,Foreground,Centre,"sb/dot3.png",320,240 M,0,177319,177919,157,282,155,273 S,0,177719,177919,0.4471653,0 F,0,177319,177719,0,1 F,0,177719,177919,1,0 C,0,177319,,215,0,107 P,0,177319,,A
Sprite,Foreground,Centre,"sb/dot3.png",320,240 M,0,177319,177919,157,282,185,227 S,0,177719,177919,1.041318,0 F,0,177319,177719,0,1 F,0,177719,177919,1,0 C,0,177319,,215,0,107 P,0,177319,,A
Sprite,Foreground,Centre,"sb/dot3.png",320,240 M,0,177319,177919,157,282,143,303 S,0,177719,177919,1.128911,0 F,0,177319,177719,0,1 F,0,177719,177919,1,0 C,0,177319,,215,0,107 P,0,177319,,A
Sprite,Foreground,Centre,"sb/dot3.png",320,240 M,0,177319,177919,157,282,153,251 S,0,177719,177919,0.7593501,0 F,0,177319,177719,0,1 F,0,177719,177919,1,0 C,0,177319,,215,0,107 P,0,177319,,A
Sprite,Foreground,Centre,"sb/dot3.png",320,240 M,0,177451,178051,463,324,459,321 S,0,177851,178051,0.3320535,0 F,0,177451,177851,0,1 F,0,177851,178051,1,0 C,0,177451,,215,0,107 P,0,177451,,A
Sprite,Foreground,Centre,"sb/dot3.png",320,240 M,0,177451,178051,463,324,437,286 S,0,177851,178051,1.154589,0 F,0,177451,177851,0,1 F,0,177851,178051,1,0 C,0,177451,,215,0,107 P,0,177451,,A
Sprite,Foreground,Centre,"sb/dot3.png",320,240 M,0,177451,178051,463,324,492,317 S,0,177851,178051,0.4265359,0 F,0,177451,177851,0,1 F,0,177851,178051,1,0 C,0,177451,,215,0,107 P,0,177451,,A
Sprite,Foreground,Centre,"sb/dot3.png",320,240 M,0,177451,178051,463,324,442,271 S,0,177851,178051,1.963431,0 F,0,177451,177851,0,1 F,0,177851,178051,1,0 C,0,177451,,215,0,107 P,0,177451,,A
Sprite,Foreground,Centre,"sb/dot3.png",320,240 M,0,177451,178051,463,324,462,295 S,0,177851,178051,0.9226921,0 F,0,177451,177851,0,1 F,0,177851,178051,1,0 C,0,177451,,215,0,107 P,0,177451,,A
Sprite,Foreground,Centre,"sb/dot3.png",320,240 M,0,177451,178051,463,324,432,379 S,0,177851,178051,0.9611673,0 F,0,177451,177851,0,1 F,0,177851,178051,1,0 C,0,177451,,215,0,107 P,0,177451,,A
Sprite,Foreground,Centre,"sb/dot3.png",320,240 M,0,177451,178051,463,324,405,269 S,0,177851,178051,0.2211216,0 F,0,177451,177851,0,1 F,0,177851,178051,1,0 C,0,177451,,215,0,107 P,0,177451,,A
Sprite,Foreground,Centre,"sb/dot3.png",320,240 M,0,177583,178183,352,67,311,77 S,0,177983,178183,0.9134795,0 F,0,177583,177983,0,1 F,0,177983,178183,1,0 C,0,177583,,215,0,107 P,0,177583,,A
Sprite,Foreground,Centre,"sb/dot3.png",320,240 M,0,177583,178183,352,67,325,96 S,0,177983,178183,0.3143018,0 F,0,177583,177983,0,1 F,0,177983,178183,1,0 C,0,177583,,215,0,107 P,0,177583,,A
Sprite,Foreground,Centre,"sb/dot3.png",320,240 M,0,177583,178183,352,67,343,121 S,0,177983,178183,1.387887,0 F,0,177583,177983,0,1 F,0,177983,178183,1,0 C,0,177583,,215,0,107 P,0,177583,,A
Sprite,Foreground,Centre,"sb/dot3.png",320,240 M,0,177583,178183,352,67,375,22 S,0,177983,178183,1.183221,0 F,0,177583,177983,0,1 F,0,177983,178183,1,0 C,0,177583,,215,0,107 P,0,177583,,A
Sprite,Foreground,Centre,"sb/dot3.png",320,240 M,0,177583,178183,352,67,386,13 S,0,177983,178183,1.301979,0 F,0,177583,177983,0,1 F,0,177983,178183,1,0 C,0,177583,,215,0,107 P,0,177583,,A
Sprite,Foreground,Centre,"sb/dot3.png",320,240 M,0,177583,178183,352,67,374,70 S,0,177983,178183,0.5326325,0 F,0,177583,177983,0,1 F,0,177983,178183,1,0 C,0,177583,,215,0,107 P,0,177583,,A
Sprite,Foreground,Centre,"sb/dot3.png",320,240 M,0,177583,178183,352,67,299,94 S,0,177983,178183,1.330233,0 F,0,177583,177983,0,1 F,0,177983,178183,1,0 C,0,177583,,215,0,107 P,0,177583,,A
Sprite,Foreground,Centre,"sb/dot3.png",320,240 M,0,177715,178315,258,365,213,419 S,0,178115,178315,1.633021,0 F,0,177715,178115,0,1 F,0,178115,178315,1,0 C,0,177715,,215,0,107 P,0,177715,,A
Sprite,Foreground,Centre,"sb/dot3.png",320,240 M,0,177715,178315,258,365,316,324 S,0,178115,178315,1.481583,0 F,0,177715,178115,0,1 F,0,178115,178315,1,0 C,0,177715,,215,0,107 P,0,177715,,A
Sprite,Foreground,Centre,"sb/dot3.png",320,240 M,0,177715,178315,258,365,263,327 S,0,178115,178315,0.6693655,0 F,0,177715,178115,0,1 F,0,178115,178315,1,0 C,0,177715,,215,0,107 P,0,177715,,A
Sprite,Foreground,Centre,"sb/dot3.png",320,240 M,0,177715,178315,258,365,310,358 S,0,178115,178315,1.933928,0 F,0,177715,178115,0,1 F,0,178115,178315,1,0 C,0,177715,,215,0,107 P,0,177715,,A
Sprite,Foreground,Centre,"sb/dot3.png",320,240 M,0,177715,178315,258,365,259,377 S,0,178115,178315,1.544605,0 F,0,177715,178115,0,1 F,0,178115,178315,1,0 C,0,177715,,215,0,107 P,0,177715,,A
Sprite,Foreground,Centre,"sb/dot3.png",320,240 M,0,177715,178315,258,365,280,356 S,0,178115,178315,1.525334,0 F,0,177715,178115,0,1 F,0,178115,178315,1,0 C,0,177715,,215,0,107 P,0,177715,,A
Sprite,Foreground,Centre,"sb/dot3.png",320,240 M,0,177715,178315,258,365,280,324 S,0,178115,178315,1.467068,0 F,0,177715,178115,0,1 F,0,178115,178315,1,0 C,0,177715,,215,0,107 P,0,177715,,A
Sprite,Foreground,Centre,"sb/dot3.png",320,240 M,0,177848,178448,542,267,562,310 S,0,178248,178448,1.764632,0 F,0,177848,178248,0,1 F,0,178248,178448,1,0 C,0,177848,,70,0,140 P,0,177848,177980,A
Sprite,Foreground,Centre,"sb/dot3.png",320,240 M,0,177848,178448,542,267,506,218 S,0,178248,178448,1.978569,0 F,0,177848,178248,0,1 F,0,178248,178448,1,0 C,0,177848,,70,0,140 P,0,177848,177980,A
Sprite,Foreground,Centre,"sb/dot3.png",320,240 M,0,177848,178448,542,267,558,259 S,0,178248,178448,1.899049,0 F,0,177848,178248,0,1 F,0,178248,178448,1,0 C,0,177848,,70,0,140 P,0,177848,177980,A
Sprite,Foreground,Centre,"sb/dot3.png",320,240 M,0,177848,178448,542,267,513,224 S,0,178248,178448,1.219637,0 F,0,177848,178248,0,1 F,0,178248,178448,1,0 C,0,177848,,70,0,140 P,0,177848,177980,A
Sprite,Foreground,Centre,"sb/dot3.png",320,240 M,0,177848,178448,542,267,574,283 S,0,178248,178448,1.345072,0 F,0,177848,178248,0,1 F,0,178248,178448,1,0 C,0,177848,,70,0,140 P,0,177848,177980,A
Sprite,Foreground,Centre,"sb/dot3.png",320,240 M,0,178112,178712,169,211,138,213 S,0,178512,178712,0.5943616,0 F,0,178112,178512,0,1 F,0,178512,178712,1,0 C,0,178112,,128,128,128 P,0,178112,179367,A
Sprite,Foreground,Centre,"sb/dot3.png",320,240 M,0,178112,178712,169,211,175,192 S,0,178512,178712,0.6955919,0 F,0,178112,178512,0,1 F,0,178512,178712,1,0 C,0,178112,,128,128,128 P,0,178112,179367,A
Sprite,Foreground,Centre,"sb/dot3.png",320,240 M,0,178112,178712,169,211,191,178 S,0,178512,178712,0.855114,0 F,0,178112,178512,0,1 F,0,178512,178712,1,0 C,0,178112,,128,128,128 P,0,178112,179367,A
Sprite,Foreground,Centre,"sb/dot3.png",320,240 M,0,178112,178712,169,211,168,177 S,0,178512,178712,1.841313,0 F,0,178112,178512,0,1 F,0,178512,178712,1,0 C,0,178112,,128,128,128 P,0,178112,179367,A
Sprite,Foreground,Centre,"sb/dot3.png",320,240 M,0,178112,178712,169,211,155,223 S,0,178512,178712,0.2387492,0 F,0,178112,178512,0,1 F,0,178512,178712,1,0 C,0,178112,,128,128,128 P,0,178112,179367,A
//Storyboard Sound Samples

[TimingPoints]
444,600,4,2,10,50,1,0
444,-133.333333333333,4,2,10,50,0,0
623,451.127819548872,4,2,10,50,1,0
623,-133.333333333333,4,2,10,50,0,0
1074,387.096774193548,4,2,10,20,1,0
1461,458.015267175573,4,2,10,40,1,0
1461,-133.333333333333,4,2,10,40,0,0
1919,779.220779220779,4,2,10,30,1,0
3461,461.538461538462,4,2,10,50,1,0
3461,-133.333333333333,4,2,10,50,0,0
3922,413.793103448276,4,2,10,50,1,0
3922,-133.333333333333,4,2,10,50,0,0
4335,400,4,2,10,20,1,0
4735,468.75,4,2,10,30,1,0
4735,-133.333333333333,4,2,10,30,0,0
5203,415.22491349481,4,2,10,40,1,0
6863,468.75,4,2,10,50,1,0
7097,535.714285714286,4,2,10,50,1,0
7364,600,4,2,10,50,1,0
7364,-133.333333333333,4,2,10,50,0,0
7505,451.127819548872,4,2,10,50,1,0
7505,-133.333333333333,4,2,10,50,0,0
7843,400,4,2,10,20,1,0
8243,419.58041958042,4,2,10,30,1,0
8243,-133.333333333333,4,2,10,30,0,0
8663,400,4,2,10,40,1,0
10263,425.531914893617,4,2,10,50,1,0
10263,-133.333333333333,4,2,10,50,0,0
10475,478.08764940239,4,2,10,50,1,0
10714,422.535211267606,4,2,10,50,1,0
11559,540.540540540541,4,2,10,40,1,0
11559,-133.333333333333,4,2,10,40,0,0
12099,645.161290322581,4,2,10,20,1,0
13392,389.61038961039,4,2,10,50,1,0
13392,-133.333333333333,4,2,10,50,0,0
13820,413.793103448276,4,2,10,50,1,0
14647,419.58041958042,4,2,10,50,1,0
15065,352.941176470588,4,2,10,30,1,0
15417,468.75,4,2,10,50,1,0
15651,350.877192982456,4,2,10,50,1,0
15651,-200,4,2,10,50,0,0
15738,-200,4,2,10,5,0,0
17054,451.127819548872,4,2,10,50,1,0
17505,406.779661016949,4,2,10,50,1,0
18725,613.81074168798,4,2,10,60,1,0
18725,-133.333333333333,4,2,10,60,0,0
18878,-133.333333333333,4,2,10,5,0,0
19955,413.793103448276,4,2,10,40,1,0
20368,447.761194029851,4,2,10,50,1,0
20815,413.793103448276,4,2,10,50,1,0
20815,-125,4,2,10,50,0,0
21642,352.941176470588,4,2,10,20,1,0
21994,461.538461538462,4,2,10,50,1,0
22455,416.666666666667,4,2,10,60,1,0
22455,-111.111111111111,4,2,10,60,0,0
22871,410.958904109589,4,2,10,40,1,0
23281,769.230769230769,4,2,10,20,1,0
24050,441.176470588235,4,2,10,50,1,0
24491,413.793103448276,4,2,10,50,1,0
24904,392.156862745098,4,2,10,50,1,0
25296,410.958904109589,4,2,10,50,1,0
25706,454.545454545455,4,2,10,35,1,0
26160,535.714285714286,4,2,10,40,1,0
26695,612.244897959184,4,2,10,45,1,0
27307,902.255639097744,4,2,10,50,1,0
28209,1016.94915254237,4,2,10,60,1,0
37364,264.31718061674,4,2,10,60,1,0
37364,-200,4,2,10,60,0,0
37693,-133.333333333333,4,2,10,5,0,0
37760,264.31718061674,4,2,1,60,1,0
39808,-100,4,2,1,5,0,0
39874,-100,4,2,1,60,0,0
41724,-83.3333333333333,4,2,1,70,0,0
41922,-83.3333333333333,4,2,1,5,0,0
41989,-100,4,2,1,60,0,0
49257,-76.9230769230769,4,2,1,60,0,0
50711,-117.647058823529,4,2,1,60,0,0
58112,-100,4,2,1,60,0,0
58376,-90.9090909090909,4,2,1,60,0,0
58641,-83.3333333333333,4,2,1,60,0,0
59169,-100,4,2,1,60,0,0
66174,-90.9090909090909,4,2,1,70,0,0
66306,-100,4,2,1,60,0,0
67099,-133.333333333333,4,2,1,60,0,0
67231,-200,4,2,1,60,0,0
67363,-142.857142857143,4,2,1,50,0,0
75689,-100,4,2,1,60,0,0
83090,-76.9230769230769,4,2,1,80,0,0
83354,-100,4,2,1,70,0,0
84279,-83.3333333333333,4,2,1,80,0,1
90887,-71.4285714285714,4,2,1,80,0,1
91152,-83.3333333333333,4,2,1,80,0,1
99015,-83.3333333333333,4,2,1,5,0,1
99081,-83.3333333333333,4,2,1,80,0,1
101196,-125,4,2,1,60,0,0
113883,-125,4,2,3,60,0,0
116922,-80,4,2,1,80,0,0
117848,-90.9090909090909,4,2,1,70,0,0
118046,-90.9090909090909,4,2,1,5,0,0
118112,-100,4,2,1,60,0,0
125381,-90.9090909090909,4,2,1,60,0,0
125513,-100,4,2,1,60,0,0
126306,-133.333333333333,4,2,1,60,0,0
126438,-200,4,2,1,60,0,0
126570,-142.857142857143,4,2,1,50,0,0
134896,-100,4,2,1,60,0,0
142693,-76.9230769230769,4,2,1,80,0,0
142892,-76.9230769230769,4,2,1,5,0,0
142958,-76.9230769230769,4,2,1,80,0,0
143486,-83.3333333333333,4,2,1,80,0,1
145535,-83.3333333333333,4,2,1,5,0,1
145601,-83.3333333333333,4,2,1,80,0,1
150094,-71.4285714285714,4,2,1,80,0,1
150359,-83.3333333333333,4,2,1,80,0,1
158222,-83.3333333333333,4,2,1,5,0,1
158288,-83.3333333333333,4,2,1,80,0,1
160403,-100,4,2,1,60,0,0
163971,-83.3333333333333,4,2,1,60,0,0
164235,-100,4,2,1,60,0,0
168200,-83.3333333333333,4,2,1,60,0,0
168464,-100,4,2,1,60,0,0
169786,-76.9230769230769,4,2,1,70,0,0
170182,-100,4,2,1,60,0,0
171900,-76.9230769230769,4,2,1,70,0,0
172297,-100,4,2,1,60,0,0
174015,-76.9230769230769,4,2,1,70,0,0
174411,-100,4,2,1,60,0,0
178112,-142.857142857143,4,2,1,60,0,0
178178,-133.333333333333,4,2,1,5,0,0
179434,-166.666666666667,4,2,4,40,0,0
179500,-166.666666666667,4,2,1,40,0,0
184654,-166.666666666667,4,2,1,40,0,0
184720,-142.857142857143,4,2,1,50,0,0
184984,-142.857142857143,4,2,1,20,0,0
185116,-166.666666666667,4,2,1,45,0,0
185381,-166.666666666667,4,2,1,15,0,0
185513,-200,4,2,1,40,0,0
187892,-133.333333333333,4,2,1,50,0,0
189742,-133.333333333333,4,2,1,30,0,0
190006,-133.333333333333,4,2,1,50,0,0
191856,-133.333333333333,4,2,1,30,0,0
192121,-133.333333333333,4,2,1,50,0,0
194169,-133.333333333333,4,2,1,5,0,0
194235,-133.333333333333,4,2,1,50,0,0
195821,-200,4,2,1,40,0,0
196878,-100,4,2,1,60,0,0
197407,-83.3333333333333,4,2,1,80,0,1
204015,-71.4285714285714,4,2,1,80,0,1
204279,-83.3333333333333,4,2,1,80,0,1
212143,-83.3333333333333,4,2,1,5,0,1
212209,-83.3333333333333,4,2,1,80,0,1
214323,-100,4,2,1,60,0,0
222782,-83.3333333333333,4,2,1,80,0,1
229059,-83.3333333333333,4,2,1,60,0,0
229125,-71.4285714285714,4,2,1,90,0,1
229323,-83.3333333333333,4,2,1,5,0,0
229389,-71.4285714285714,4,2,1,90,0,1
229588,-83.3333333333333,4,2,1,5,0,0
229654,-71.4285714285714,4,2,1,90,0,1
229852,-83.3333333333333,4,2,1,5,0,0
229918,-71.4285714285714,4,2,1,90,0,1
229984,-83.3333333333333,4,2,1,5,0,0
230050,-71.4285714285714,4,2,1,80,0,1
231240,-100,4,2,1,80,0,0

[Colours]
Combo1 : 128,128,128
Combo2 : 0,0,255
Combo3 : 118,141,197
Combo4 : 70,0,140
Combo5 : 215,0,107
Combo6 : 206,0,0
Combo7 : 221,72,0
Combo8 : 192,192,192

[HitObjects]
105,222,444,102,0,L|108:198,1,18.7500007152558,0|0,0:0|0:0,0:0:0:0:
55,151,623,6,0,L|224:150,1,150.000005722046,6|0,0:0|0:0,0:0:0:0:
277,229,1461,102,0,P|309:159|290:87,1,150.000005722046,0|0,0:0|0:0,0:0:0:0:
318,237,3461,5,2,0:0:0:0:
236,178,3691,1,2,0:0:0:0:
143,218,3922,102,0,P|146:128|216:80,1,150.000005722046,6|0,0:0|0:0,0:0:0:0:
236,178,4535,1,2,0:0:0:0:
236,178,4735,6,0,B|268:196|308:181|308:181|344:180|385:204,1,150.000005722046,0|0,0:0|0:0,0:0:0:0:
433,58,6863,102,0,P|443:111|425:172,1,100,2|2,0:0|0:0,0:0:0:0:
326,276,7364,2,0,L|327:302,1,18.7500007152558
256,228,7505,6,0,P|325:194|371:206,1,112.500004291535,6|0,0:0|0:0,0:0:0:0:
231,136,8243,102,0,L|74:108,1,150.000005722046,0|0,0:0|0:0,0:0:0:0:
307,328,10263,5,2,0:0:0:0:
257,216,10475,1,2,0:0:0:0:
257,216,10714,102,0,B|198:253|147:244|147:244|110:202|55:209,1,200,6|0,0:0|0:0,0:0:0:0:
79,301,11348,1,2,0:0:0:0:
79,301,11559,6,0,L|70:137,1,150.000005722046
72,152,13389,101,2,0:0:0:0:
134,240,13586,1,2,0:0:0:0:
200,144,13820,5,2,0:0:0:0:
278,255,14026,1,2,0:0:0:0:
344,140,14233,102,0,L|336:39,1,100,6|0,0:0|0:0,0:0:0:0:
428,282,14647,1,0,0:0:0:0:
452,94,15065,1,0,0:0:0:0:
420,304,15417,5,2,0:0:0:0:
226,206,15651,2,0,B|189:211|162:232|162:232|141:179|82:159|29:179|-1:225|-5:286|42:336|105:330,1,400,2|2,0:0|0:0,0:0:0:0:
120,351,17110,2,0,P|163:323|191:320,1,75,0|2,0:0|0:0,0:0:0:0:
368,304,17505,102,0,P|398:212|367:106,1,200,6|0,0:0|0:0,0:0:0:0:
492,112,18115,1,2,0:0:0:0:
392,24,18318,2,0,L|288:40,1,100,0|0,0:0|0:0,0:0:0:0:
300,144,18725,6,0,B|248:140|208:103|208:103|149:147|149:147|75:120|10:165,1,300.000011444092,2|2,0:0|0:0,0:0:0:0:
95,238,20368,1,2,0:0:0:0:
296,264,20815,102,0,P|367:208|449:212,2,160,6|0|0,0:0|0:0|0:0,0:0:0:0:
144,240,21994,2,0,L|169:338,1,100,2|2,0:0|0:0,0:0:0:0:
72,104,22455,2,0,L|24:280,1,179.999994506836,0|0,0:0|0:0,0:0:0:0:
220,33,23281,2,0,P|297:83|393:92,1,183.333333333333,0|0,0:0|0:0,0:0:0:0:
460,44,24050,6,0,L|455:2,2,25,2|0|6,0:0|0:0|0:0,0:0:0:0:
432,192,24491,1,0,0:0:0:0:
389,281,24904,1,0,0:0:0:0:
310,339,25296,1,0,0:0:0:0:
207,354,25706,101,0,0:0:0:0:
88,297,26160,5,0,0:0:0:0:
26,162,26695,101,0,0:0:0:0:
84,4,27307,5,0,0:0:0:0:
256,192,28209,5,6,0:0:0:0:
370,264,37364,86,0,B|344:264|344:264|312:248|312:248|280:264|280:264|253:264,1,125
169,222,37760,22,8,P|160:270|175:318,1,100,8|0,0:0|0:0,0:0:0:0:
327,171,38024,2,8,P|335:122|320:74,1,100,8|0,0:0|0:0,0:0:0:0:
213,131,38288,1,8,0:0:0:0:
252,264,38420,2,8,B|394:263,1,100,8|0,0:0|0:0,0:0:0:0:
420,74,38685,2,8,B|278:75,1,100,8|0,0:0|0:0,0:0:0:0:
113,166,38949,2,8,B|105:125|105:125|123:70,1,100,8|0,0:0|0:0,0:0:0:0:
320,74,39213,2,8,B|328:115|328:115|310:170,1,100,8|0,0:0|0:0,0:0:0:0:
197,272,39478,1,8,0:0:0:0:
320,74,39610,86,8,P|410:36|455:98,1,150,12|8,0:0|0:0,0:0:0:0:
449,85,39874,38,0,L|456:184,1,100,8|0,0:0|0:0,0:0:0:0:
310,170,40138,2,0,L|317:269,1,100,8|0,0:0|0:0,0:0:0:0:
170,235,40403,1,8,0:0:0:0:
122,43,40535,2,0,L|17:35,1,100,8|0,0:0|0:0,0:0:0:0:
170,235,40799,2,0,L|275:227,1,100,8|0,0:0|0:0,0:0:0:0:
147,137,41063,2,0,L|42:129,1,100,8|0,0:0|0:0,0:0:0:0:
195,329,41328,1,8,0:0:0:0:
347,263,41460,2,0,P|362:209|340:141,1,100,10|0,0:1|0:0,0:0:0:0:
217,174,41724,38,0,P|227:247|280:197,1,179.999994506836,4|0,0:0|0:0,0:0:0:0:
271,98,41989,6,0,P|224:82|175:91,1,100,4|0,3:0|0:0,0:0:0:0:
91,220,42253,37,10,0:1:0:0:
43,50,42385,1,0,0:0:0:0:
271,98,42517,2,0,L|373:82,1,100,0|0,3:0|3:0,0:0:0:0:
189,235,42782,2,0,L|87:219,1,100,10|0,0:1|3:0,0:0:0:0:
330,317,43046,5,0,3:0:0:0:
413,160,43178,1,0,0:0:0:0:
356,327,43310,1,10,0:1:0:0:
245,141,43442,1,0,0:0:0:0:
131,337,43574,2,0,B|166:351|166:351|254:330,1,100,0|0,3:0|3:0,0:0:0:0:
136,140,43839,2,0,B|101:126|101:126|13:147,1,100,10|0,0:1|3:0,0:0:0:0:
189,235,44103,101,0,3:0:0:0:
197,58,44235,1,0,0:0:0:0:
40,140,44367,1,10,0:1:0:0:
230,53,44500,1,0,0:0:0:0:
84,243,44632,2,0,P|69:296|83:358,1,100,0|0,3:0|3:0,0:0:0:0:
263,384,44896,2,2,P|278:331|264:269,1,100,10|0,0:1|3:0,0:0:0:0:
183,144,45160,5,0,3:0:0:0:
348,208,45293,1,0,0:0:0:0:
178,266,45425,1,10,0:1:0:0:
411,280,45557,1,0,0:0:0:0:
283,65,45689,2,0,B|231:55|231:55|172:66,1,100,0|0,3:0|3:0,0:0:0:0:
83,219,45953,2,2,B|131:229|131:229|181:219,1,100,10|0,0:1|3:0,0:0:0:0:
383,121,46218,101,0,3:0:0:0:
324,294,46350,1,0,0:0:0:0:
183,144,46482,1,10,0:1:0:0:
419,232,46614,1,0,0:0:0:0:
214,345,46746,2,0,P|204:289|217:237,1,100,0|0,3:0|3:0,0:0:0:0:
330,52,47011,2,0,L|341:151,1,100,10|0,0:1|3:0,0:0:0:0:
427,349,47275,5,0,3:0:0:0:
278,200,47407,1,0,0:0:0:0:
470,165,47539,1,10,0:1:0:0:
320,350,47671,1,0,0:0:0:0:
209,117,47804,2,0,P|158:104|88:119,1,100,0|0,3:0|3:0,0:0:0:0:
366,255,48068,2,0,L|378:134,1,100,10|0,0:1|3:0,0:0:0:0:
459,27,48332,101,0,3:0:0:0:
293,142,48464,1,0,0:0:0:0:
477,228,48597,1,10,0:1:0:0:
223,260,48729,5,0,3:0:0:0:
389,136,48861,1,2,0:1:0:0:
199,54,48993,1,0,3:0:0:0:
265,326,49125,1,8,0:0:0:0:
485,150,49257,38,0,B|407:180|345:134|345:134|293:124|237:188,1,259.999988098145,4|0,3:2|3:0,0:0:0:0:
128,352,49654,53,0,0:1:0:0:
104,88,49786,1,8,0:0:0:0:
104,88,49852,1,8,0:0:0:0:
104,88,49918,6,0,P|146:86|169:92,1,64.9999970245363,10|0,3:1|0:0,0:0:0:0:
392,256,50050,2,0,P|360:263|328:260,1,64.9999970245363,8|0,3:2|0:0,0:0:0:0:
332,28,50182,2,0,P|334:70|327:93,1,64.9999970245363,8|0,3:2|0:0,0:0:0:0:
164,316,50314,2,0,P|156:284|159:252,1,64.9999970245363,8|0,3:2|0:0,0:0:0:0:
247,178,50447,101,4,3:2:0:0:
293,354,50711,22,0,B|375:330|375:330|469:350,1,170.000003242493,8|0,0:0|0:0,0:0:0:0:
487,221,51108,1,0,3:0:0:0:
288,256,51240,2,0,P|251:226|225:193,1,85.0000016212464,8|0,0:0|0:0,0:0:0:0:
79,224,51504,6,0,P|141:179|231:199,1,170.000003242493,2|8,3:1|0:0,0:0:0:0:
47,128,51900,1,0,3:0:0:0:
165,270,52033,2,0,L|156:363,1,85.0000016212464,0|0,0:0|3:0,0:0:0:0:
330,247,52297,2,0,L|321:162,1,85.0000016212464,8|0,0:0|0:0,0:0:0:0:
320,0,52561,102,0,L|336:172,1,170.000003242493,2|8,3:1|0:0,0:0:0:0:
468,214,52958,1,0,3:0:0:0:
246,207,53090,1,0,0:0:0:0:
336,169,53222,1,0,3:0:0:0:
208,116,53354,1,8,0:0:0:0:
299,79,53486,1,0,0:0:0:0:
227,228,53619,6,0,L|237:316,1,85.0000016212464,2|0,3:1|0:0,0:0:0:0:
331,384,53883,1,8,0:0:0:0:
428,249,54015,2,0,L|336:259,1,85.0000016212464,0|0,3:0|0:0,0:0:0:0:
145,282,54279,1,0,3:0:0:0:
297,173,54411,1,8,0:0:0:0:
315,359,54544,1,0,0:0:0:0:
119,294,54676,102,0,P|126:232|120:161,1,127.50000243187,2|0,3:1|0:0,0:0:0:0:
109,133,54940,2,0,L|199:145,1,85.0000016212464,8|0,0:0|3:0,0:0:0:0:
322,23,55204,1,0,0:0:0:0:
212,57,55337,1,0,3:0:0:0:
385,187,55469,1,8,0:0:0:0:
389,73,55602,1,0,0:0:0:0:
262,174,55733,6,0,B|250:237|250:237|277:354,1,170.000003242493,2|8,3:1|0:0,0:0:0:0:
456,270,56130,2,0,B|413:268|413:268|364:286,1,85.0000016212464,0|0,3:0|0:0,0:0:0:0:
135,258,56394,2,0,B|178:260|178:260|227:242,1,85.0000016212464,0|8,3:0|0:0,0:0:0:0:
312,106,56658,1,0,0:0:0:0:
411,236,56790,102,0,P|386:198|377:143,1,85.0000016212464,2|0,3:1|0:0,0:0:0:0:
296,5,57055,1,8,0:0:0:0:
449,49,57187,1,0,3:0:0:0:
281,28,57319,2,0,L|368:38,1,85.0000016212464,0|0,0:0|3:0,0:0:0:0:
237,141,57583,1,8,0:0:0:0:
41,190,57715,1,0,0:0:0:0:
252,164,57848,6,0,L|168:174,1,85.0000016212464,2|0,3:1|0:0,0:0:0:0:
349,180,58112,102,0,P|338:125|309:81,1,100,8|0,0:0|3:0,0:0:0:0:
413,267,58376,2,0,P|443:220|454:168,1,110.000003356934,8|0,0:0|3:0,0:0:0:0:
396,378,58641,2,0,P|455:366|505:334,1,119.999996337891,12|0,0:0|0:0,0:0:0:0:
423,91,58905,5,6,3:1:0:0:
398,74,59169,70,0,P|345:59|267:62,1,100,8|0,0:0|3:0,0:0:0:0:
85,236,59434,2,0,P|134:233|182:219,1,100,0|0,0:0|3:0,0:0:0:0:
353,262,59698,1,8,0:0:0:0:
240,136,59830,1,0,0:0:0:0:
426,57,59962,6,0,B|469:101|469:101|449:254,1,200,2|8,3:1|0:0,0:0:0:0:
422,342,60359,1,0,3:0:0:0:
268,127,60491,2,0,P|318:118|378:141,1,100,2|0,0:1|3:0,0:0:0:0:
206,214,60755,2,0,P|173:175|163:111,1,100,10|0,0:1|3:0,0:0:0:0:
310,239,61019,102,0,L|306:338,1,100,2|0,3:1|0:0,0:0:0:0:
364,131,61284,5,8,0:0:0:0:
206,214,61416,1,0,3:0:0:0:
394,261,61548,101,0,0:0:0:0:
237,113,61680,1,0,3:0:0:0:
473,178,61812,5,8,0:0:0:0:
252,320,61945,1,0,0:0:0:0:
326,38,62077,102,0,B|335:113|335:113|313:168|313:168|323:247,1,200,2|8,3:1|0:0,0:0:0:0:
385,364,62473,1,0,3:0:0:0:
512,194,62605,2,0,L|411:188,1,100,2|0,0:1|3:0,0:0:0:0:
212,207,62870,1,8,0:0:0:0:
343,98,63002,1,0,0:0:0:0:
275,326,63134,1,2,3:1:0:0:
275,326,63398,6,0,P|214:334|158:322,1,100,8|0,0:0|3:0,0:0:0:0:
362,108,63663,2,0,P|394:147|413:192,1,100,0|0,0:0|3:0,0:0:0:0:
130,141,63927,2,0,P|147:94|177:54,1,100,8|0,0:0|0:0,0:0:0:0:
257,194,64191,102,0,B|102:175|102:175|144:125,1,200,2|8,3:1|0:0,0:0:0:0:
214,288,64588,1,0,3:0:0:0:
362,108,64720,2,0,P|414:91|493:102,1,100,2|0,0:1|3:0,0:0:0:0:
431,211,64984,1,10,0:1:0:0:
177,54,65116,1,0,0:0:0:0:
180,343,65248,1,2,3:1:0:0:
64,193,65381,5,0,0:0:0:0:
179,164,65513,2,0,L|278:169,1,100,8|0,0:0|3:0,0:0:0:0:
451,278,65777,1,0,0:0:0:0:
336,249,65909,2,0,L|236:254,1,100,0|8,3:0|0:0,0:0:0:0:
99,71,66174,102,0,L|243:79,1,110.000003356934,4|0,3:1|0:0,0:0:0:0:
465,217,66438,1,8,0:0:0:0:
232,176,66570,1,0,3:0:0:0:
392,16,66702,1,0,3:0:0:0:
465,217,66834,5,10,0:1:0:0:
465,217,66900,1,2,0:1:0:0:
465,217,66967,2,0,P|435:215|406:205,1,50,8|0,0:0|0:0,0:0:0:0:
374,295,67099,102,0,P|349:276|331:252,1,37.5000014305115,8|0,3:2|0:0,0:0:0:0:
255,307,67231,6,0,P|251:284|253:259,1,25,0|0,3:2|0:0,0:0:0:0:
90,307,67363,6,0,L|68:164,1,139.999995727539,4|0,3:1|0:0,0:0:0:0:
192,265,67760,2,0,P|264:285|332:289,1,139.999995727539,8|0,0:0|0:0,0:0:0:0:
448,252,68156,2,0,P|472:298|415:278,1,139.999995727539,0|0,3:0|0:0,0:0:0:0:
368,188,68552,1,0,3:0:0:0:
368,188,68817,5,0,0:0:0:0:
224,124,68949,2,0,B|136:152|136:152|76:144,2,139.999995727539,8|0|0,0:0|3:0|3:0,0:0:0:0:
456,136,69874,1,8,0:0:0:0:
328,24,70271,2,0,P|340:92|344:168,1,139.999995727539,0|0,3:0|0:0,0:0:0:0:
304,260,70667,1,0,3:0:0:0:
304,260,70931,101,0,0:0:0:0:
216,144,71063,2,0,L|200:216,1,69.9999978637696,8|0,0:0|0:0,0:0:0:0:
120,312,71328,2,0,L|104:240,1,69.9999978637696,0|0,3:0|0:0,0:0:0:0:
24,96,71592,6,0,B|96:116|96:116|168:80,1,139.999995727539,4|0,3:1|0:0,0:0:0:0:
316,112,71989,1,8,0:0:0:0:
264,52,72121,2,0,L|292:192,1,139.999995727539,0|0,0:0|3:0,0:0:0:0:
488,320,72649,102,0,P|424:316|380:252,1,139.999995727539,4|0,3:1|0:0,0:0:0:0:
428,140,73046,1,8,0:0:0:0:
459,247,73178,2,0,L|314:240,1,139.999995727539,0|0,0:0|3:0,0:0:0:0:
60,140,73707,6,0,B|128:172|196:149|196:149|232:172|268:180,1,209.999993591309,2|8,3:1|0:0,0:0:0:0:
267,84,74235,1,0,0:0:0:0:
416,21,74500,2,0,P|403:89|408:159,1,139.999995727539,0|0,3:0|0:0,0:0:0:0:
459,247,74896,1,0,3:0:0:0:
168,156,75293,101,8,0:0:0:0:
315,188,75425,1,0,3:0:0:0:
211,300,75557,1,8,0:0:0:0:
68,105,75689,86,0,B|48:171|80:232|80:232|68:285|82:322,1,200,4|0,3:1|3:0,0:0:0:0:
265,134,76085,2,0,L|163:156,1,100,8|0,0:0|0:0,0:0:0:0:
76,300,76350,2,0,L|173:279,1,100,0|0,3:0|3:0,0:0:0:0:
310,60,76614,1,8,0:0:0:0:
345,288,76746,1,0,0:0:0:0:
119,200,76878,6,0,B|249:172,1,100,0|0,3:0|3:0,0:0:0:0:
412,62,77143,1,8,0:0:0:0:
315,226,77275,1,0,0:0:0:0:
221,62,77407,101,2,3:1:0:0:
437,203,77539,1,2,3:1:0:0:
226,320,77671,1,10,0:1:0:0:
345,62,77804,6,0,B|397:44|439:62|470:115|470:115|487:57,1,200,4|0,3:1|3:0,0:0:0:0:
379,149,78200,1,8,0:0:0:0:
231,9,78332,1,0,0:0:0:0:
124,239,78464,2,0,B|177:250|177:250|237:235,1,100,2|0,3:1|3:0,0:0:0:0:
140,72,78729,2,0,B|88:60|88:60|36:72,1,100,8|0,0:0|0:0,0:0:0:0:
20,338,78993,102,0,B|155:331,1,100,4|0,3:1|0:0,0:0:0:0:
221,238,79257,1,8,0:0:0:0:
381,368,79389,2,0,B|246:361,1,100,0|0,0:0|3:0,0:0:0:0:
124,239,79654,1,0,3:0:0:0:
313,160,79786,1,8,0:0:0:0:
162,318,79918,6,0,P|62:298|58:187,1,200,4|0,3:1|3:0,0:0:0:0:
154,53,80315,1,8,0:0:0:0:
124,239,80447,1,0,0:0:0:0:
321,173,80579,2,0,L|221:165,1,100,2|0,3:1|3:0,0:0:0:0:
67,362,80843,101,8,0:0:0:0:
28,120,80975,1,0,0:0:0:0:
260,251,81108,2,0,L|160:243,1,100,0|0,3:0|3:0,0:0:0:0:
26,296,81372,1,8,0:0:0:0:
321,318,81504,2,0,P|346:273|339:206,1,100,0|0,0:0|3:0,0:0:0:0:
143,97,81768,5,2,3:1:0:0:
344,156,81900,1,10,0:1:0:0:
192,209,82033,1,2,3:1:0:0:
342,51,82165,101,14,0:1:0:0:
262,289,82297,1,0,0:0:0:0:
223,24,82429,5,10,0:1:0:0:
339,250,82561,1,0,0:0:0:0:
114,71,82693,101,10,0:1:0:0:
345,166,82826,1,0,3:0:0:0:
144,316,82958,1,10,0:1:0:0:
304,90,83090,54,0,P|393:95|372:248,1,259.999988098145,4|0,3:1|3:0,0:0:0:0:
162,226,83486,1,8,0:0:0:0:
464,359,83619,1,8,0:0:0:0:
464,359,83685,1,8,0:0:0:0:
464,359,83751,6,0,L|386:341,1,50,10|0,0:0|0:0,0:0:0:0:
246,275,83883,2,0,L|324:257,1,50,8|0,0:0|0:0,0:0:0:0:
484,249,84015,2,0,L|406:231,1,50,10|0,0:0|0:0,0:0:0:0:
266,165,84147,2,0,L|344:147,1,50,8|0,0:0|0:0,0:0:0:0:
512,173,84279,70,0,B|477:138|430:137|430:137|363:80|372:0,1,239.999992675781,6|8,3:0|0:0,0:0:0:0:
435,237,84676,1,0,0:0:0:0:
237,73,84808,2,0,P|290:47|349:50,1,119.999996337891,2|0,3:1|3:0,0:0:0:0:
512,173,85072,1,8,0:0:0:0:
324,273,85204,6,0,L|313:145,1,119.999996337891,2|0,0:1|3:0,0:0:0:0:
187,0,85469,2,0,L|176:128,1,119.999996337891,2|8,0:1|0:0,0:0:0:0:
324,273,85733,1,2,0:1:0:0:
93,214,85865,1,2,3:1:0:0:
336,91,85997,1,0,3:0:0:0:
284,365,86130,2,0,P|241:323|225:266,1,119.999996337891,10|0,0:1|0:0,0:0:0:0:
408,111,86394,102,0,B|333:130|333:130|249:104|249:104|175:119,1,239.999992675781,2|10,3:1|0:1,0:0:0:0:
95,232,86790,1,0,0:0:0:0:
72,21,86922,2,0,P|89:79|83:143,1,119.999996337891,2|0,3:1|3:0,0:0:0:0:
5,266,87187,1,8,0:0:0:0:
160,383,87319,6,0,L|291:370,1,119.999996337891,2|0,3:1|0:0,0:0:0:0:
411,289,87583,1,2,3:1:0:0:
346,66,87715,1,8,0:0:0:0:
183,233,87848,1,0,0:0:0:0:
467,214,87980,2,0,B|405:198|405:198|345:222,1,119.999996337891,2|0,3:1|3:0,0:0:0:0:
68,84,88244,2,0,B|130:100|130:100|190:76,1,119.999996337891,10|0,0:1|0:0,0:0:0:0:
412,72,88508,101,2,3:1:0:0:
396,304,88641,1,0,0:0:0:0:
236,176,88773,1,10,0:1:0:0:
504,144,88905,1,8,0:0:0:0:
212,276,89037,2,0,B|152:256|152:256|84:264,1,119.999996337891,2|0,3:1|3:0,0:0:0:0:
352,52,89301,2,0,B|412:72|412:72|468:65,1,119.999996337891,10|0,0:1|0:0,0:0:0:0:
275,279,89566,6,2,B|154:238|154:238|41:252,1,239.999992675781,2|10,3:1|0:0,0:1:0:0:
351,242,89962,1,2,0:1:0:0:
165,352,90094,1,0,3:0:0:0:
159,121,90226,1,0,3:0:0:0:
431,189,90359,2,0,P|441:251|418:317,1,119.999996337891,10|0,0:1|0:0,0:0:0:0:
72,178,90623,2,0,P|62:116|85:50,1,119.999996337891,0|0,3:0|0:0,0:0:0:0:
421,88,90887,6,2,B|373:97|345:133|345:133|240:95|252:159|137:113,1,279.999991455078,14|0,0:1|3:0,0:1:0:0:
100,36,91284,1,0,3:0:0:0:
284,208,91416,1,10,0:1:0:0:
52,208,91548,6,2,P|27:306|122:277,1,239.999992675781,4|2,3:2|0:0,0:1:0:0:
380,176,91945,101,10,0:1:0:0:
337,358,92077,1,8,0:1:0:0:
206,244,92209,5,2,3:1:0:0:
485,268,92341,1,8,3:2:0:0:
274,84,92473,101,10,0:1:0:0:
337,358,92605,1,8,0:0:0:0:
488,128,92737,54,0,B|491:53|491:53|457:88,1,119.999996337891,6|0,3:1|0:0,0:0:0:0:
324,262,93002,2,0,L|199:243,1,119.999996337891,10|0,0:1|0:0,0:0:0:0:
187,115,93266,2,0,L|314:136,1,119.999996337891,2|0,3:1|3:0,0:0:0:0:
411,311,93530,1,10,0:1:0:0:
135,308,93663,6,0,P|114:253|128:190,1,119.999996337891,2|0,0:1|3:0,0:0:0:0:
371,181,93927,2,0,P|313:169|258:191,1,119.999996337891,2|8,0:1|0:0,0:0:0:0:
240,376,94191,1,2,0:1:0:0:
157,132,94323,2,0,B|141:78|141:78|156:8,1,119.999996337891,2|2,3:1|0:0,0:0:0:0:
135,308,94588,2,2,B|81:324|81:324|11:309,1,119.999996337891,10|0,0:1|0:0,0:0:0:0:
315,258,94852,102,0,B|339:212|358:103|358:103|362:151|381:228,1,239.999992675781,2|10,3:1|0:1,0:0:0:0:
403,345,95248,1,0,0:0:0:0:
226,195,95381,2,0,B|170:181|170:181|91:197,1,119.999996337891,2|0,3:1|3:0,0:0:0:0:
186,341,95645,1,10,0:1:0:0:
371,181,95777,2,0,B|395:103|369:19|369:19|345:93,1,239.999992675781,2|2,3:1|3:1,0:0:0:0:
225,194,96174,5,8,0:0:0:0:
462,92,96306,1,2,0:1:0:0:
187,7,96438,2,0,P|158:58|165:117,1,119.999996337891,2|0,3:1|3:0,0:0:0:0:
349,290,96702,2,2,P|378:239|370:180,1,119.999996337891,10|0,0:1|0:0,0:0:0:0:
99,232,96967,102,2,B|279:219|279:219|252:215|225:194,1,239.999992675781,6|8,3:1|0:0,1:0:0:0:
57,130,97363,1,10,0:1:0:0:
266,23,97495,2,2,P|290:77|283:136,1,119.999996337891,0|0,3:0|3:0,0:0:0:0:
216,287,97759,6,2,P|226:194|146:265,1,239.999992675781,10|0,0:1|3:0,0:1:0:0:
139,337,98156,1,0,0:0:0:0:
322,191,98288,102,0,P|256:117|100:140,1,239.999992675781,10|0,0:1|3:0,0:0:0:0:
139,337,98685,1,0,3:0:0:0:
447,277,98817,2,2,B|384:266|384:266|324:284|324:284|272:277,1,179.999994506836,10|0,0:1|0:0,0:1:0:0:
203,171,99081,6,0,L|351:195,1,119.999996337891,4|0,3:1|0:0,0:0:0:0:
496,126,99345,101,10,0:1:0:0:
447,277,99478,1,0,3:0:0:0:
292,99,99610,5,10,0:1:0:0:
512,215,99742,1,0,3:0:0:0:
404,29,99874,101,10,0:1:0:0:
360,316,100006,1,0,3:0:0:0:
188,83,100138,6,0,B|129:70|129:70|165:141,1,119.999996337891,10|0,0:1|3:0,0:0:0:0:
329,209,100403,1,0,3:0:0:0:
201,324,100535,101,4,3:1:0:0:
327,93,100667,1,8,0:0:0:0:
305,329,100799,1,0,3:0:0:0:
220,21,100931,1,8,0:0:0:0:
444,158,101063,1,8,0:0:0:0:
132,247,101196,5,4,3:2:0:0:
256,192,101262,12,0,103839,0:0:0:0:
308,204,109654,5,4,3:2:0:0:
308,204,109918,6,0,B|348:183|400:192|400:192|431:188|457:154,2,160,0|0|0,2:0|2:0|2:0,0:0:0:0:
232,312,110711,101,8,0:0:0:0:
264,104,111108,5,8,0:0:0:0:
244,336,111504,101,8,0:0:0:0:
32,224,111768,6,0,P|87:189|70:329,1,320,4|0,3:2|0:0,0:0:0:0:
124,96,112693,101,8,0:0:0:0:
124,96,112759,1,8,0:0:0:0:
124,96,112826,2,0,L|216:112,1,80,8|0,0:0|3:0,0:0:0:0:
408,188,113090,1,0,3:0:0:0:
316,216,113222,2,0,P|284:144|308:48,1,160,0|0,3:0|3:0,0:0:0:0:
388,280,113619,2,0,P|352:304|308:312,1,80,8|0,0:0|0:0,0:0:0:0:
112,280,113883,53,0,3:0:0:0:
99,366,114147,1,0,0:0:0:0:
182,228,114411,1,2,0:0:0:0:
191,315,114676,1,0,0:0:0:0:
108,190,114940,5,0,3:0:0:0:
92,293,115204,1,0,0:0:0:0:
191,136,115469,1,2,0:0:0:0:
203,239,115733,1,0,0:0:0:0:
108,81,115997,101,0,3:0:0:0:
88,204,116262,1,0,0:0:0:0:
200,28,116526,1,2,0:0:0:0:
212,151,116790,1,0,0:0:0:0:
397,82,116922,53,8,0:0:0:0:
195,384,117583,5,8,3:2:0:0:
205,353,117649,1,0,3:0:0:0:
224,326,117715,1,0,3:0:0:0:
250,309,117781,1,0,3:0:0:0:
280,302,117848,6,0,P|203:268|222:202,1,165.000005035401,4|0,0:0|0:0,0:0:0:0:
128,167,118112,6,0,P|179:180|224:206,1,100,4|0,3:0|0:0,0:0:0:0:
374,332,118376,38,0,P|427:324|474:303,1,100,8|0,0:0|3:0,0:0:0:0:
400,106,118641,2,0,P|347:114|300:135,1,100,0|0,0:0|3:0,0:0:0:0:
220,203,118905,1,8,0:0:0:0:
131,73,119037,1,0,0:0:0:0:
54,311,119169,6,0,B|262:327,1,200,0|8,3:0|0:0,0:0:0:0:
328,224,119566,1,0,3:0:0:0:
470,306,119698,2,0,L|351:307,1,100,2|0,0:1|3:0,0:0:0:0:
181,147,119962,2,0,L|300:148,1,100,10|0,0:1|0:0,0:0:0:0:
54,311,120226,102,0,P|38:247|59:176,1,100,2|0,3:1|0:0,0:0:0:0:
123,72,120491,5,8,0:0:0:0:
249,246,120623,1,0,3:0:0:0:
31,129,120755,101,0,0:0:0:0:
241,28,120887,1,0,3:0:0:0:
137,248,121019,2,0,L|148:148,1,100,8|0,0:0|0:0,0:0:0:0:
311,328,121284,6,0,B|243:355|181:329|181:329|144:352|89:334,1,200,2|8,3:1|0:0,0:0:0:0:
12,231,121680,1,0,3:0:0:0:
295,246,121813,2,0,P|246:265|187:244,1,100,2|0,0:1|3:0,0:0:0:0:
104,142,122077,1,8,0:0:0:0:
116,340,122209,1,2,0:1:0:0:
201,53,122341,1,2,3:1:0:0:
201,53,122605,102,0,B|218:98|218:98|203:152,1,100,8|0,0:0|3:0,0:0:0:0:
163,309,122870,2,0,B|193:271|193:271|243:258,1,100,0|0,0:0|3:0,0:0:0:0:
403,213,123134,2,0,B|356:206|356:206|319:169,1,100,8|0,0:0|0:0,0:0:0:0:
465,135,123398,6,0,P|497:248|421:313,1,200,2|8,3:1|0:0,0:0:0:0:
301,346,123795,1,0,3:0:0:0:
176,119,123927,2,0,B|122:98|53:124,1,100,2|0,0:1|3:0,0:0:0:0:
121,253,124191,1,10,0:1:0:0:
312,53,124323,1,0,0:0:0:0:
404,315,124456,101,2,3:1:0:0:
266,204,124588,1,0,0:0:0:0:
430,79,124720,2,0,L|433:200,1,100,8|0,0:0|3:0,0:0:0:0:
265,231,124984,1,0,0:0:0:0:
116,71,125116,2,0,L|112:219,1,100,0|8,3:0|0:0,0:0:0:0:
321,127,125381,6,0,P|268:111|215:123,1,110.000003356934,0|0,3:0|0:0,0:0:0:0:
85,361,125645,1,0,0:0:0:0:
266,204,125777,1,0,3:0:0:0:
40,125,125909,1,0,0:0:0:0:
203,315,126041,101,10,3:1:0:0:
203,315,126108,1,8,0:1:0:0:
203,315,126174,2,0,P|233:313|262:304,1,50,8|0,0:0|0:0,0:0:0:0:
322,355,126306,6,0,P|346:336|365:313,1,37.5000014305115,0|0,3:0|0:0,0:0:0:0:
438,327,126438,102,0,P|446:304|449:280,1,25,0|0,3:0|0:0,0:0:0:0:
442,147,126570,21,4,3:2:0:0:
444,155,126834,1,0,3:0:0:0:
447,163,127099,2,0,P|381:180|335:232,1,139.999995727539,8|0,0:0|0:0,0:0:0:0:
352,332,127495,1,0,0:0:0:0:
260,304,127627,2,0,P|224:308|184:304,1,69.9999978637696
120,364,127892,2,0,P|91:341|66:310,1,69.9999978637696,0|0,3:0|0:0,0:0:0:0:
128,100,128156,2,0,P|132:172|120:244,2,139.999995727539,8|0|0,0:0|0:0|3:0,0:0:0:0:
28,224,128949,5,0,3:0:0:0:
200,52,129213,2,0,B|272:68|272:68|352:36,1,139.999995727539,8|0,0:0|0:0,0:0:0:0:
432,108,129610,1,0,0:0:0:0:
316,208,129742,2,0,P|274:176|252:147,1,69.9999978637696,0|0,0:0|0:0,0:0:0:0:
408,292,130006,2,0,P|455:271|483:247,1,69.9999978637696,0|0,3:0|0:0,0:0:0:0:
432,108,130271,1,8,0:0:0:0:
432,108,130535,2,0,P|432:144|424:184,1,69.9999978637696,0|0,0:0|0:0,0:0:0:0:
304,312,130799,102,0,P|232:288|160:304,1,139.999995727539,0|0,3:0|3:0,0:0:0:0:
20,120,131328,2,0,P|92:144|164:128,1,139.999995727539,8|0,0:0|0:0,0:0:0:0:
212,40,131724,1,0,0:0:0:0:
272,168,131856,2,0,L|256:307,1,139.999995727539,0|0,3:0|3:0,0:0:0:0:
440,148,132385,2,0,L|455:8,2,139.999995727539,8|0|2,0:0|0:0|3:1,0:0:0:0:
444,352,133178,5,0,3:0:0:0:
500,260,133442,2,0,P|416:252|352:288,1,139.999995727539,8|0,0:0|0:0,0:0:0:0:
208,360,133971,2,0,P|124:368|60:332,1,139.999995727539,0|0,3:0|3:0,0:0:0:0:
112,96,134500,101,8,0:0:0:0:
148,276,134632,1,0,3:0:0:0:
128,72,134764,1,8,0:0:0:0:
318,158,134896,86,0,P|433:168|461:67,1,200,4|0,3:2|3:0,0:0:0:0:
410,2,135293,1,8,0:0:0:0:
227,79,135425,1,0,0:0:0:0:
385,114,135557,2,0,L|396:213,1,100,0|0,3:0|3:0,0:0:0:0:
175,136,135821,2,0,L|166:36,1,100,8|0,0:0|0:0,0:0:0:0:
346,288,136085,6,0,B|397:299|397:299|473:275,1,100,2|0,3:1|3:0,0:0:0:0:
316,123,136350,1,8,0:0:0:0:
232,284,136482,1,0,0:0:0:0:
342,94,136614,101,2,3:1:0:0:
309,336,136746,1,2,3:1:0:0:
108,181,136878,1,10,0:1:0:0:
396,213,137011,6,0,B|330:233|269:201|269:201|226:217|179:199,1,200,4|0,3:2|3:0,0:0:0:0:
18,87,137407,1,8,0:0:0:0:
225,122,137539,1,0,0:0:0:0:
26,231,137671,1,2,3:1:0:0:
127,31,137804,1,0,3:0:0:0:
165,247,137936,1,8,0:0:0:0:
263,0,138068,1,0,0:0:0:0:
322,264,138200,102,0,L|467:270,1,100,4|0,3:2|0:0,0:0:0:0:
225,122,138464,1,8,0:0:0:0:
146,267,138597,2,0,L|1:273,1,100,0|0,0:0|3:0,0:0:0:0:
229,151,138861,1,0,3:0:0:0:
291,331,138993,1,8,0:0:0:0:
368,57,139125,6,0,B|305:65|305:65|225:39|225:39|148:56,1,200,4|0,3:2|0:0,0:0:0:0:
39,158,139522,2,0,B|89:175|89:175|153:163,1,100,4|0,3:2|0:0,0:0:0:0:
306,63,139786,1,8,0:0:0:0:
243,214,139918,1,8,0:0:0:0:
446,154,140050,1,8,0:0:0:0:
247,140,140182,102,0,P|172:191|237:288,1,200,4|0,3:2|0:0,0:0:0:0:
421,137,140579,2,0,P|427:87|423:37,1,100,4|0,3:2|0:0,0:0:0:0:
334,267,140843,1,8,0:0:0:0:
271,116,140975,1,0,0:0:0:0:
474,176,141108,2,0,B|415:159|415:159|350:174,1,100,0|0,3:0|3:0,0:0:0:0:
242,230,141372,5,14,0:1:0:0:
410,58,141504,1,0,0:0:0:0:
189,152,141636,101,10,0:1:0:0:
412,284,141768,1,0,0:0:0:0:
146,239,141900,5,10,0:1:0:0:
408,136,142033,1,0,3:0:0:0:
92,161,142165,101,10,0:1:0:0:
384,211,142297,1,0,3:0:0:0:
201,316,142429,5,10,0:1:0:0:
328,23,142561,1,0,0:0:0:0:
48,90,142693,38,0,P|11:174|76:241,1,194.999991073609,4|0,3:2|0:0,0:0:0:0:
232,296,142958,6,0,L|167:286,1,64.9999970245363,10|0,3:1|0:0,0:0:0:0:
92,160,143090,2,0,L|156:149,1,64.9999970245363,8|0,0:0|0:0,0:0:0:0:
347,206,143222,2,0,L|282:196,1,64.9999970245363,10|0,0:1|0:0,0:0:0:0:
207,70,143354,2,0,L|271:59,1,64.9999970245363,8|0,0:0|0:0,0:0:0:0:
440,287,143486,70,0,P|341:240|229:297,1,239.999992675781,6|10,3:1|0:1,0:0:0:0:
124,356,143883,1,0,0:0:0:0:
263,171,144015,2,0,P|321:161|383:163,1,119.999996337891,2|0,3:1|3:0,0:0:0:0:
134,43,144279,1,10,0:1:0:0:
263,172,144411,1,2,0:1:0:0:
72,231,144544,5,0,3:0:0:0:
116,29,144676,1,2,0:1:0:0:
56,252,144808,2,0,L|71:381,1,119.999996337891,8|0,0:0|0:0,0:0:0:0:
263,172,145072,1,2,3:1:0:0:
227,377,145204,1,0,3:0:0:0:
141,146,145337,2,0,L|163:341,1,179.999994506836,10|0,0:1|0:0,0:0:0:0:
162,325,145601,102,0,P|179:270|235:223,1,119.999996337891,2|0,3:1|0:0,0:0:0:0:
428,168,145865,2,0,P|372:178|303:153,1,119.999996337891,10|0,0:1|0:0,0:0:0:0:
161,15,146130,2,0,P|198:56|211:129,1,119.999996337891,2|0,3:1|3:0,0:0:0:0:
162,325,146394,1,10,0:1:0:0:
0,165,146526,6,0,B|49:176|98:154|98:154|125:171|125:171|172:142|234:150,1,239.999992675781,2|2,3:1|3:1,0:0:0:0:
408,79,146922,1,8,0:0:0:0:
344,268,147055,1,2,0:1:0:0:
252,52,147187,1,2,3:1:0:0:
472,176,147319,1,0,3:0:0:0:
264,332,147451,2,0,P|248:268|260:204,1,119.999996337891,10|0,0:1|0:0,0:0:0:0:
408,79,147715,102,0,L|288:91,1,119.999996337891,2|0,3:1|0:0,0:0:0:0:
104,305,147980,2,0,L|224:293,1,119.999996337891,10|8,0:1|0:0,0:0:0:0:
143,40,148244,2,0,L|155:160,1,119.999996337891,2|0,3:1|3:0,0:0:0:0:
369,344,148509,2,0,L|357:224,1,119.999996337891,10|0,0:1|0:0,0:0:0:0:
433,0,148773,6,2,L|456:238,1,239.999992675781,2|8,3:1|0:0,0:1:0:0:
258,294,149169,1,2,0:1:0:0:
185,73,149301,1,0,3:0:0:0:
413,120,149434,1,0,3:0:0:0:
191,201,149566,102,2,P|305:192|371:285,1,239.999992675781,10|0,0:1|3:0,0:1:0:0:
282,384,149962,1,0,0:0:0:0:
41,272,150094,22,2,B|57:184|57:184|27:96|27:96|40:-2,1,279.999991455078,12|0,0:0|3:0,0:1:0:0:
278,152,150491,1,0,3:0:0:0:
24,293,150623,1,10,0:1:0:0:
334,151,150755,6,2,P|246:106|255:204,1,239.999992675781,4|0,3:1|0:0,0:1:0:0:
439,152,151152,101,10,0:1:0:0:
385,328,151284,1,8,0:0:0:0:
351,115,151416,5,2,3:1:0:0:
389,349,151548,1,8,3:2:0:0:
428,62,151680,101,10,0:1:0:0:
393,370,151812,1,8,0:0:0:0:
272,231,151945,54,0,B|333:217|333:217|410:248,1,119.999996337891,4|0,3:2|0:0,0:0:0:0:
95,187,152209,2,0,B|76:126|76:126|91:54,1,119.999996337891,10|0,0:1|0:0,0:0:0:0:
291,92,152473,2,0,L|151:123,1,119.999996337891,2|0,3:1|3:0,0:0:0:0:
21,257,152737,1,10,0:1:0:0:
235,344,152870,6,0,B|250:283|250:283|238:220,1,119.999996337891,2|0,0:1|3:0,0:0:0:0:
327,38,153134,2,0,B|312:99|312:99|324:162,1,119.999996337891,2|8,0:1|0:0,0:0:0:0:
459,311,153398,1,2,0:1:0:0:
512,97,153530,2,0,L|392:101,1,119.999996337891,2|0,3:1|3:0,0:0:0:0:
309,264,153795,2,0,L|171:269,1,119.999996337891,10|0,0:1|0:0,0:0:0:0:
95,52,154059,102,0,P|149:87|157:162,1,119.999996337891,2|0,3:1|0:0,0:0:0:0:
50,326,154323,2,0,L|58:182,1,119.999996337891,10|0,0:1|0:0,0:0:0:0:
208,28,154588,1,2,3:1:0:0:
130,214,154720,1,0,3:0:0:0:
37,27,154852,1,10,0:1:0:0:
288,186,154984,6,0,B|318:209|367:206|367:206|404:111|499:123,1,239.999992675781,2|2,3:1|3:1,0:0:0:0:
487,239,155381,1,8,0:0:0:0:
296,76,155513,1,2,0:1:0:0:
218,292,155645,2,0,B|155:305|155:305|76:283,1,119.999996337891,2|0,3:1|3:0,0:0:0:0:
366,203,155909,2,0,B|408:238|408:238|434:297,1,119.999996337891,10|0,0:1|0:0,0:0:0:0:
203,119,156174,102,2,B|108:150|108:150|67:72|140:10,1,239.999992675781,4|0,3:2|0:0,0:1:0:0:
338,86,156570,1,10,0:1:0:0:
282,310,156702,2,0,P|273:252|288:191,1,119.999996337891,0|0,3:0|3:0,0:0:0:0:
458,270,156967,6,2,P|364:290|409:206,1,239.999992675781,10|0,0:1|3:0,0:1:0:0:
494,192,157363,1,0,0:0:0:0:
131,124,157495,102,0,B|186:106|235:141|235:141|305:114|305:114|356:134,1,239.999992675781,10|0,0:1|3:0,0:1:0:0:
441,121,157892,1,0,3:0:0:0:
173,213,158024,2,2,B|211:233|245:233|245:233|301:213|301:213|352:233,1,179.999994506836,10|0,0:1|0:1,0:1:0:0:
483,241,158288,6,0,L|359:219,1,119.999996337891,4|0,3:2|0:0,0:0:0:0:
89,278,158552,101,10,0:1:0:0:
251,153,158685,1,0,3:0:0:0:
26,182,158817,5,10,0:1:0:0:
258,318,158949,1,0,3:0:0:0:
156,52,159081,101,10,0:1:0:0:
55,295,159213,1,0,3:0:0:0:
307,165,159345,5,10,0:1:0:0:
0,95,159478,1,0,3:0:0:0:
94,384,159610,1,8,0:0:0:0:
387,224,159742,102,0,B|402:167|402:167|384:109,1,119.999996337891,4|0,3:2|0:0,0:0:0:0:
328,48,159940,1,0,0:0:0:0:
328,48,160006,1,0,3:0:0:0:
337,295,160138,1,8,0:0:0:0:
228,162,160271,1,8,0:0:0:0:
460,144,160403,22,4,L|260:160,1,200,4|8,3:2|0:0,0:0:0:0:
350,307,160799,1,0,3:0:0:0:
418,238,160931,2,0,P|440:280|443:335,1,100,0|0,0:0|3:0,0:0:0:0:
220,292,161196,2,4,L|120:284,1,100,8|0,0:0|0:0,0:0:0:0:
260,159,161460,6,4,L|359:151,1,100,0|0,3:0|0:0,0:0:0:0:
184,40,161724,1,8,0:0:0:0:
120,204,161856,2,0,P|100:152|64:116,1,100,0|0,3:0|0:0,0:0:0:0:
44,320,162121,1,0,3:0:0:0:
220,292,162253,2,0,L|323:316,1,100,8|0,0:0|0:0,0:0:0:0:
359,151,162517,102,0,P|303:107|255:207,1,200,0|8,3:0|0:0,0:0:0:0:
317,315,162914,1,0,3:0:0:0:
458,145,163046,2,0,L|346:151,1,100,0|0,0:0|3:0,0:0:0:0:
401,365,163310,2,0,L|513:371,1,100,8|0,0:0|0:0,0:0:0:0:
250,183,163574,5,0,3:0:0:0:
195,351,163707,2,0,P|168:310|158:262,1,100,0|8,0:0|0:0,0:0:0:0:
477,225,163971,2,0,B|403:254|321:239|321:239|287:268|248:273,1,239.999992675781,0|0,3:0|3:0,0:0:0:0:
44,300,164367,1,8,0:0:0:0:
164,64,164500,1,8,0:0:0:0:
76,160,164632,102,0,B|127:174|127:174|179:155,1,100,0|0,3:0|0:0,0:0:0:0:
396,83,164896,1,8,0:0:0:0:
296,149,165028,2,0,L|312:264,1,100,0|0,3:0|0:0,0:0:0:0:
488,216,165293,1,0,3:0:0:0:
345,362,165425,2,0,L|241:346,1,100,8|0,0:0|0:0,0:0:0:0:
107,151,165689,6,0,L|205:166,1,100,0|0,3:0|0:0,0:0:0:0:
416,272,165953,1,8,0:0:0:0:
205,166,166085,2,0,P|203:254|291:245,1,200,0|0,3:0|3:0,0:0:0:0:
300,60,166482,1,10,0:1:0:0:
108,152,166614,1,2,0:1:0:0:
384,260,166746,102,0,P|375:206|335:158,1,100,2|0,3:1|0:0,0:0:0:0:
108,152,167011,1,8,0:0:0:0:
312,80,167143,2,0,B|404:60|412:136|516:88,1,200,0|0,3:0|3:0,0:0:0:0:
203,41,167539,2,0,L|218:139,1,100,8|0,0:0|0:0,0:0:0:0:
234,351,167804,5,0,3:0:0:0:
73,210,167936,2,0,P|127:204|187:217,1,100,0|8,0:0|0:0,0:0:0:0:
459,339,168200,2,0,B|418:306|366:316|366:316|309:363|234:351,1,239.999992675781,0|0,3:0|3:0,0:0:0:0:
263,150,168597,2,0,P|277:197|276:247,1,100,12|0,0:0|0:0,0:0:0:0:
84,286,168861,69,2,3:1:0:0:
277,248,168993,1,2,0:1:0:0:
28,200,169125,1,10,0:1:0:0:
252,336,169257,5,0,0:0:0:0:
295,71,169389,1,2,3:1:0:0:
120,199,169522,1,2,3:1:0:0:
417,211,169654,1,8,0:0:0:0:
55,351,169786,38,2,B|14:295|37:236|37:236|25:198|25:198|53:157|41:94,1,259.999988098145,6|0,3:1|3:0,0:1:0:0:
131,277,170182,54,0,B|182:290|182:290|256:279,1,100,10|0,0:1|0:0,0:0:0:0:
320,23,170447,2,0,B|283:60|283:60|255:130,1,100,10|0,3:1|3:0,0:0:0:0:
428,327,170711,2,0,B|413:276|413:276|367:217,1,100,10|0,0:1|0:0,0:0:0:0:
181,168,170975,5,4,3:2:0:0:
404,133,171108,1,2,0:1:0:0:
121,110,171240,2,0,P|100:167|116:217,1,100,10|0,0:1|0:0,0:0:0:0:
250,302,171504,101,2,3:1:0:0:
255,85,171636,1,2,3:1:0:0:
232,326,171768,1,10,0:1:0:0:
368,107,171900,54,2,B|439:65|439:65|515:118|480:243,1,259.999988098145,6|0,3:1|3:1,0:1:0:0:
318,330,172297,70,0,P|316:282|338:218,1,100,10|0,0:1|0:0,0:0:0:0:
238,12,172561,2,0,P|240:60|218:124,1,100,2|0,3:1|3:0,0:0:0:0:
26,304,172826,2,0,P|24:256|46:192,1,100,10|8,0:1|0:0,0:0:0:0:
127,142,173024,1,8,0:0:0:0:
127,142,173090,101,6,3:1:0:0:
317,242,173222,1,0,0:0:0:0:
159,248,173354,1,10,0:1:0:0:
349,136,173486,1,0,0:0:0:0:
219,19,173619,2,0,B|214:75|214:75|232:136,1,100,2|0,3:1|3:0,0:0:0:0:
349,254,173883,1,10,0:1:0:0:
76,231,174015,54,2,B|154:280|209:279|209:279|273:238|322:243,1,259.999988098145,6|0,3:1|3:0,0:1:0:0:
456,340,174411,54,0,L|465:237,1,100,2|0,0:1|0:0,0:0:0:0:
257,47,174676,2,0,L|266:150,1,100,2|0,3:1|3:0,0:0:0:0:
129,358,174940,1,2,0:1:0:0:
31,131,175072,1,0,0:0:0:0:
271,189,175204,6,0,P|314:263|242:243,1,200,6|2,2:1|3:1,0:0:0:0:
402,149,175601,102,0,L|526:124,1,100,2|0,0:1|3:0,0:0:0:0:
166,292,175865,2,0,L|68:272,1,100,2|0,3:1|0:0,0:0:0:0:
244,53,176130,1,2,0:1:0:0:
27,98,176262,5,0,3:0:0:0:
192,224,176394,1,0,3:0:0:0:
112,64,176526,1,0,0:0:0:0:
88,304,176658,1,0,0:0:0:0:
296,201,176790,101,0,3:0:0:0:
90,106,176922,1,0,3:0:0:0:
240,320,177055,1,8,0:0:0:0:
347,99,177187,1,0,0:0:0:0:
93,226,177319,53,6,3:1:0:0:
399,268,177451,1,0,3:0:0:0:
288,11,177583,1,8,0:1:0:0:
194,309,177715,1,10,0:1:0:0:
478,211,177848,6,0,L|357:190,1,100,2|0,3:1|0:0,0:0:0:0:
105,155,178112,22,0,B|162:203|239:204|299:176|311:141|301:107|333:80|376:76|429:84|465:101|496:139|507:189|492:251|455:289|402:302|356:294|312:261,1,664.999979705811,4|0,3:1|0:0,0:0:0:0:
298,242,179434,102,0,B|334:232|372:245|403:284|403:284|382:337|328:341|279:327|279:327|226:355|226:355|176:348|146:298|146:298|109:286|63:284|34:321|59:360|120:368|186:317|177:248|165:202,1,719.999978027344,4|0,0:0|0:0,0:0:0:0:
119,93,181284,1,0,0:0:0:0:
453,241,181548,6,0,B|417:195|352:198|352:198|305:147|306:101|340:59|406:66|435:120|401:168|352:198|352:198|318:214|298:241|298:241|238:209|228:135|240:73|291:29,1,719.999978027344,0|0,3:0|0:0,0:0:0:0:
408,0,183398,1,0,0:0:0:0:
177,288,183663,102,0,B|154:247|164:201|164:201|153:232|140:270|100:307|28:294|-21:234|-12:169|48:108|116:136,1,449.99998626709,0|0,3:0|0:0,0:0:0:0:
148,63,184720,6,0,L|164:202,1,139.999995727539,0|0,3:0|0:0,0:0:0:0:
260,118,185116,102,0,L|276:252,1,119.999996337891,0|0,3:0|0:0,0:0:0:0:
417,216,185513,6,0,P|381:155|314:173,1,150,0|0,3:0|0:0,0:0:0:0:
301,337,186041,2,0,P|287:290|261:247,1,100,2|2,0:1|0:1,0:0:0:0:
89,243,186438,37,0,0:0:0:0:
314,172,186570,1,0,3:0:0:0:
96,256,186702,1,8,0:0:0:0:
103,269,186967,5,8,0:0:0:0:
155,171,187099,1,2,0:1:0:0:
244,237,187231,1,8,3:2:0:0:
270,85,187363,1,8,0:0:0:0:
393,177,187495,1,10,0:1:0:0:
445,80,187627,1,8,0:3:0:0:
445,80,187759,1,8,0:3:0:0:
422,274,187892,70,0,P|338:258|296:186,1,150.000005722046,6|0,3:1|3:0,0:0:0:0:
472,194,188288,2,0,B|472:363,1,150.000005722046,8|8,0:0|0:0,0:0:0:0:
392,176,188685,6,0,P|386:103|432:46,1,150.000005722046,2|0,3:1|0:0,0:0:0:0:
477,131,189081,1,8,0:0:0:0:
301,209,189213,2,0,B|195:207|195:207|242:173,1,150.000005722046,0|8,3:0|0:0,0:0:0:0:
331,120,189610,1,0,0:0:0:0:
176,294,189742,1,0,0:0:0:0:
169,296,189808,1,0,0:0:0:0:
162,298,189874,1,0,3:0:0:0:
154,299,189940,1,0,3:0:0:0:
146,299,190006,102,0,P|102:230|115:134,1,150.000005722046,2|0,3:1|3:0,0:0:0:0:
232,51,190403,2,0,L|244:221,1,150.000005722046,8|8,0:0|0:0,0:0:0:0:
146,299,190799,6,0,P|176:232|243:201,1,150.000005722046,2|0,3:1|0:0,0:0:0:0:
409,244,191196,1,8,0:0:0:0:
252,308,191328,1,0,3:0:0:0:
258,66,191592,102,8,P|296:61|345:69,1,75.0000028610231,8|0,0:0|0:0,0:0:0:0:
193,201,191856,1,0,0:0:0:0:
185,200,191922,1,0,0:0:0:0:
177,198,191989,1,0,3:0:0:0:
169,195,192055,1,0,3:0:0:0:
161,194,192121,6,0,P|142:250|188:360,1,150.000005722046,2|0,3:1|3:0,0:0:0:0:
405,261,192517,2,0,P|428:190|409:119,1,150.000005722046,10|8,0:0|0:0,0:0:0:0:
332,36,192914,1,2,3:1:0:0:
214,296,193178,1,0,3:0:0:0:
98,242,193310,1,8,0:0:0:0:
98,242,193442,102,0,P|89:202|91:167,1,75.0000028610231,2|0,0:1|0:0,0:0:0:0:
273,62,193707,2,0,P|275:99|266:135,1,75.0000028610231,2|0,3:1|0:0,0:0:0:0:
214,296,193971,2,0,B|268:279|268:279|339:292,1,112.500004291535,8|0,0:0|0:0,0:0:0:0:
372,369,194235,6,0,B|352:295|352:295|372:219,1,150.000005722046,2|0,3:1|3:0,0:0:0:0:
240,66,194632,2,0,B|260:140|260:140|240:216,1,150.000005722046,8|8,0:0|0:0,0:0:0:0:
104,288,195028,1,0,3:0:0:0:
104,288,195293,102,0,B|133:278|162:293|162:293|204:325|268:322,1,150.000005722046,14|0,0:1|3:0,0:0:0:0:
290,102,195821,102,0,P|178:184|314:208,1,350,14|0,0:1|0:0,0:0:0:0:
378,213,196878,38,0,P|344:215|312:208,1,66.6666666666667,0|10,3:0|0:0,0:0:0:0:
290,102,197055,6,0,P|304:72|326:47,1,66.6666666666667,0|10,3:0|0:0,0:0:0:0:
430,81,197231,102,0,P|448:108|458:140,1,66.6666666666667,0|10,3:0|0:0,0:0:0:0:
458,304,197407,6,0,B|322:291|340:353|219:341,1,239.999992675781,6|10,3:1|0:1,0:0:0:0:
23,287,197804,1,0,0:0:0:0:
184,360,197936,2,2,P|197:305|192:241,1,119.999996337891,2|0,3:1|3:0,0:0:0:0:
103,138,198200,1,10,0:1:0:0:
184,360,198332,1,2,0:1:0:0:
251,170,198464,102,0,P|183:150|107:282,1,239.999992675781,0|8,3:0|0:0,0:0:0:0:
316,243,198861,1,2,0:1:0:0:
359,40,198993,2,0,P|355:100|367:168,1,119.999996337891,2|0,3:1|3:0,0:0:0:0:
472,346,199257,1,10,0:1:0:0:
252,190,199389,1,0,0:0:0:0:
456,257,199522,6,0,L|332:245,1,119.999996337891,2|0,3:1|0:0,0:0:0:0:
64,136,199786,2,0,L|188:124,1,119.999996337891,10|0,0:1|0:0,0:0:0:0:
232,333,200050,2,0,P|180:305|149:255,1,119.999996337891,2|0,3:1|3:0,0:0:0:0:
232,36,200315,1,10,0:1:0:0:
441,178,200447,102,0,P|329:155|247:237,1,239.999992675781,2|2,3:1|3:1,0:0:0:0:
71,335,200843,2,0,P|130:335|181:305,1,119.999996337891,8|2,0:0|0:1,0:0:0:0:
435,302,201108,2,0,P|376:302|325:332,1,119.999996337891,2|0,3:1|3:0,0:0:0:0:
107,250,201372,1,10,0:1:0:0:
341,193,201504,1,0,0:0:0:0:
160,40,201636,6,0,L|43:69,1,119.999996337891,2|0,3:1|0:0,0:0:0:0:
352,40,201900,2,0,L|476:72,1,119.999996337891,10|0,0:1|0:0,0:0:0:0:
80,152,202165,2,0,P|36:200|15:262,1,119.999996337891,2|0,3:1|3:0,0:0:0:0:
431,152,202429,2,0,P|472:194|494:250,1,119.999996337891,10|0,0:1|0:0,0:0:0:0:
172,372,202693,102,2,P|132:324|107:259,1,119.999996337891,2|0,3:1|0:0,0:1:0:0:
224,96,202958,1,8,0:0:0:0:
312,344,203090,2,2,P|206:283|191:161,1,239.999992675781,2|0,0:1|3:0,0:1:0:0:
332,64,203486,2,0,L|93:94,1,239.999992675781,10|0,0:1|3:0,0:0:0:0:
395,177,203883,1,0,0:0:0:0:
64,273,204015,22,2,B|121:272|157:309|157:309|227:293|227:293|269:326|330:321,1,279.999991455078,14|0,0:1|3:0,0:1:0:0:
482,261,204411,1,0,3:0:0:0:
151,339,204544,1,10,0:1:0:0:
422,195,204676,6,2,B|453:175|488:173|488:173|446:164|419:146|419:146|373:165|318:150,1,239.999992675781,6|0,3:1|3:0,0:1:0:0:
96,53,205072,101,10,0:1:0:0:
325,151,205204,1,8,0:0:0:0:
84,163,205337,5,2,3:1:0:0:
337,261,205469,1,8,3:2:0:0:
64,273,205601,101,10,0:1:0:0:
349,371,205733,1,8,0:0:0:0:
220,78,205865,54,0,B|203:137|203:137|220:219,1,119.999996337891,6|0,3:1|0:0,0:0:0:0:
444,153,206130,2,0,B|322:150,1,119.999996337891,10|0,0:1|0:0,0:0:0:0:
64,273,206394,2,0,L|183:275,1,119.999996337891,2|0,3:1|3:0,0:0:0:0:
362,227,206658,1,10,0:1:0:0:
192,113,206790,6,0,P|173:55|191:-4,1,119.999996337891,2|0,0:1|3:0,0:0:0:0:
428,164,207055,2,0,P|449:219|435:282,1,119.999996337891,2|8,0:1|0:0,0:0:0:0:
229,273,207319,1,2,0:1:0:0:
315,90,207451,1,2,3:1:0:0:
354,334,207583,1,0,3:0:0:0:
164,145,207715,2,0,B|108:128|108:128|30:162,1,119.999996337891,10|0,0:1|0:0,0:0:0:0:
406,248,207980,102,0,P|277:204|231:313,1,239.999992675781,2|10,3:1|0:1,0:0:0:0:
321,288,208376,1,0,0:0:0:0:
444,120,208508,2,0,L|444:-17,1,119.999996337891,2|0,3:1|3:0,0:0:0:0:
512,310,208773,1,10,0:1:0:0:
313,82,208905,6,0,B|243:87|212:143|212:143|153:173|93:132,1,239.999992675781,2|2,3:1|3:1,0:0:0:0:
310,192,209301,1,8,0:0:0:0:
160,68,209434,1,2,0:1:0:0:
406,137,209566,2,0,B|421:193|421:193|408:253,1,119.999996337891,2|0,3:1|3:0,0:0:0:0:
103,253,209830,2,0,B|87:196|87:196|100:136,1,119.999996337891,2|0,0:1|0:0,0:0:0:0:
324,308,210094,102,2,B|406:313|466:222|466:222|389:262,1,239.999992675781,6|8,3:1|0:1,0:1:0:0:
197,316,210491,1,2,0:1:0:0:
259,118,210623,2,0,P|277:171|261:264,1,119.999996337891,0|0,3:0|3:0,0:0:0:0:
46,74,210887,6,2,B|7:25|7:25|192:60,1,239.999992675781,10|0,0:1|3:0,0:1:0:0:
309,174,211284,1,0,0:0:0:0:
38,260,211416,102,0,B|-1:309|-1:309|184:274,1,239.999992675781,10|0,0:1|3:0,0:0:0:0:
342,171,211813,1,0,3:0:0:0:
120,178,211945,2,2,P|89:96|140:-11,1,179.999994506836,10|0,0:1|0:0,0:1:0:0:
325,247,212209,6,0,P|271:267|206:253,1,119.999996337891,4|0,3:2|0:0,0:0:0:0:
6,138,212473,101,10,0:1:0:0:
280,44,212605,1,0,3:0:0:0:
150,288,212737,5,10,0:1:0:0:
23,35,212870,1,0,3:0:0:0:
306,176,213002,101,10,0:1:0:0:
0,237,213134,1,0,3:0:0:0:
255,351,213266,6,0,L|238:206,1,119.999996337891,10|0,0:1|3:0,0:0:0:0:
224,76,213530,1,0,0:0:0:0:
107,263,213663,101,4,3:2:0:0:
284,148,213795,1,0,0:0:0:0:
80,50,213927,1,8,3:2:0:0:
315,67,214059,1,8,0:0:0:0:
114,197,214191,1,8,0:0:0:0:
157,11,214323,38,0,L|168:115,1,100,4|0,3:2|0:0,0:0:0:0:
220,329,214588,2,0,L|230:229,1,100,10|0,0:1|0:0,0:0:0:0:
356,128,214852,2,0,P|305:126|252:139,1,100,0|0,3:0|3:0,0:0:0:0:
38,191,215117,2,0,P|85:202|137:201,1,100,10|0,0:1|0:0,0:0:0:0:
356,128,215381,101,0,3:0:0:0:
386,323,215513,1,0,0:0:0:0:
242,171,215645,1,10,0:1:0:0:
425,242,215777,1,0,0:0:0:0:
275,359,215909,2,0,L|162:347,1,100,0|0,3:0|3:0,0:0:0:0:
53,178,216174,2,0,L|166:166,1,100,10|0,0:1|0:0,0:0:0:0:
231,12,216438,5,0,3:0:0:0:
276,210,216570,1,0,0:0:0:0:
368,118,216702,1,10,0:1:0:0:
152,167,216834,1,0,0:0:0:0:
343,19,216967,2,0,L|450:41,1,100,0|0,3:0|3:0,0:0:0:0:
350,253,217231,101,10,0:1:0:0:
212,99,217363,1,0,0:0:0:0:
131,236,217495,2,0,P|130:286|144:336,1,100,0|0,3:0|0:0,0:0:0:0:
411,230,217759,5,10,0:1:0:0:
225,273,217892,1,0,0:0:0:0:
280,90,218024,2,0,L|287:191,1,100,0|0,3:0|3:0,0:0:0:0:
467,284,218288,2,0,L|475:185,1,100,10|0,0:1|0:0,0:0:0:0:
267,70,218552,101,0,3:0:0:0:
307,278,218685,1,0,0:0:0:0:
391,154,218817,1,10,0:1:0:0:
184,195,218949,1,0,0:0:0:0:
300,376,219081,2,0,P|311:324|306:274,1,100,0|0,3:0|3:0,0:0:0:0:
304,52,219345,2,0,L|187:64,1,100,10|0,0:1|0:0,0:0:0:0:
378,223,219610,5,0,3:0:0:0:
426,43,219742,1,0,0:0:0:0:
396,312,219874,2,0,P|344:304|296:264,1,100,10|0,0:1|0:0,0:0:0:0:
109,164,220138,101,0,3:0:0:0:
281,188,220271,1,0,3:0:0:0:
105,288,220403,2,0,L|9:258,1,100,10|0,0:1|0:0,0:0:0:0:
168,64,220667,6,0,L|263:93,1,100,0|0,3:0|0:0,0:0:0:0:
200,256,220931,1,10,0:1:0:0:
52,88,221063,1,2,0:1:0:0:
208,280,221196,101,2,3:1:0:0:
284,132,221328,1,0,3:0:0:0:
288,368,221460,1,8,0:0:0:0:
375,133,221592,6,0,P|327:57|223:69,1,200,6|10,3:1|0:1,0:0:0:0:
297,344,221989,1,10,0:1:0:0:
460,214,222121,1,0,0:0:0:0:
460,214,222187,1,0,0:0:0:0:
460,214,222253,1,2,3:1:0:0:
284,132,222385,101,0,3:0:0:0:
303,371,222517,1,10,0:1:0:0:
382,113,222649,1,10,0:1:0:0:
232,240,222782,86,0,P|168:240|107:218,1,119.999996337891,6|0,3:1|0:0,0:0:0:0:
334,40,223046,2,0,P|398:40|459:62,1,119.999996337891,8|0,3:1|0:0,0:0:0:0:
357,321,223310,1,2,3:1:0:0:
245,104,223442,1,0,0:0:0:0:
153,333,223574,1,10,3:1:0:0:
361,186,223707,1,2,0:1:0:0:
157,50,223839,6,0,L|25:34,1,119.999996337891,0|2,3:0|0:1,0:0:0:0:
305,245,224103,2,0,L|442:262,1,119.999996337891,8|0,3:1|0:0,0:0:0:0:
106,318,224367,1,2,3:1:0:0:
203,81,224500,1,0,0:0:0:0:
305,245,224632,1,10,3:1:0:0:
49,170,224764,1,2,0:1:0:0:
288,28,224896,102,0,P|294:90|267:170,1,119.999996337891,2|0,3:1|0:0,0:0:0:0:
336,333,225160,2,0,P|330:271|357:191,1,119.999996337891,8|2,3:1|0:1,0:0:0:0:
429,65,225425,1,2,3:1:0:0:
194,166,225557,1,0,0:0:0:0:
431,284,225689,1,10,3:1:0:0:
286,51,225821,1,2,0:1:0:0:
214,344,225953,6,0,P|156:353|94:334,1,119.999996337891,0|2,3:0|0:1,0:0:0:0:
387,145,226218,2,0,L|405:7,1,119.999996337891,8|0,3:1|0:0,0:0:0:0:
449,317,226482,101,2,3:1:0:0:
302,85,226614,1,0,0:0:0:0:
485,179,226746,5,14,3:1:0:0:
203,206,226878,1,0,0:0:0:0:
429,57,227011,101,2,3:1:0:0:
338,303,227143,1,0,3:0:0:0:
133,119,227275,6,0,L|132:0,1,119.999996337891,8|0,3:1|3:0,0:0:0:0:
253,281,227539,101,2,3:1:0:0:
288,13,227671,1,0,3:0:0:0:
42,126,227804,1,10,3:1:0:0:
330,215,227936,1,2,3:1:0:0:
198,55,228068,6,0,P|142:34|62:65,1,119.999996337891,2|0,3:1|3:0,0:0:0:0:
159,331,228332,1,8,3:1:0:0:
321,131,228464,1,0,3:0:0:0:
72,187,228597,1,2,3:1:0:0:
308,285,228729,1,0,3:0:0:0:
142,61,228861,101,10,3:1:0:0:
90,334,228993,1,2,3:1:0:0:
366,164,229125,54,0,B|375:102|337:56|337:56|383:41|435:103,1,209.999993591309,2|0,3:1|0:0,0:0:0:0:
448,172,229389,6,0,P|383:243|291:196,1,209.999993591309,10|0,0:1|0:0,0:0:0:0:
232,55,229654,102,0,B|277:54|306:92|306:92|368:41|452:110,1,209.999993591309,10|0,0:1|0:0,0:0:0:0:
237,138,229918,1,10,0:1:0:0:
424,266,230050,6,0,B|476:176|422:89|422:89|382:124|365:162,1,279.999991455078,6|0,0:1|0:0,0:0:0:0:
301,351,230447,101,0,3:0:0:0:
251,96,230579,1,8,0:0:0:0:
496,180,230711,1,0,3:0:0:0:
149,141,230843,5,8,0:0:0:0:
479,62,230976,1,0,3:0:0:0:
380,384,231108,1,2,3:1:0:0:
256,24,231240,101,6,3:1:0:0:
