osu file format v14

[General]
AudioFilename: audio.mp3
AudioLeadIn: 0
PreviewTime: 55889
Countdown: 1
SampleSet: Soft
StackLeniency: 0.7
Mode: 3
LetterboxInBreaks: 0
SpecialStyle: 0
WidescreenStoryboard: 0

[Editor]
DistanceSpacing: 0.8
BeatDivisor: 4
GridSize: 16
TimelineZoom: 1.9

[Metadata]
Title:Mermaid girl -Akiba Koubou MIX-
TitleUnicode:Mermaid girl -秋葉工房MIX-
Artist:Remixed by DJ Command
ArtistUnicode:Remixed by DJ Command
Creator:Envory
Version:Another Lv. 26
Source:beatmania IIDX 19 Lincle
Tags:19th cream puff dance eurobeat ryu* ryu☆
BeatmapID:1715540
BeatmapSetID:818160

[Difficulty]
HPDrainRate:8
CircleSize:4
OverallDifficulty:8
ApproachRate:5
SliderMultiplier:1.4
SliderTickRate:1

[Events]
//Background and Video events
0,0,"766349.jpg",0,0
//Break Periods
//Storyboard Layer 0 (Background)
//Storyboard Layer 1 (Fail)
//Storyboard Layer 2 (Pass)
//Storyboard Layer 3 (Foreground)
//Storyboard Sound Samples

[TimingPoints]
389,400,4,2,0,40,1,0
9989,-153.846153846154,4,2,0,40,0,0
10089,-66.6666666666667,4,2,0,40,0,0
10189,-100,4,2,0,40,0,0
10289,-153.846153846154,4,2,0,40,0,0
10389,-66.6666666666667,4,2,0,40,0,0
10489,-100,4,2,0,40,0,0
10589,-153.846153846154,4,2,0,40,0,0
10689,-66.6666666666667,4,2,0,40,0,0
10789,-100,4,2,0,40,0,0
11589,-153.846153846154,4,2,0,40,0,0
11689,-66.6666666666667,4,2,0,40,0,0
11789,-100,4,2,0,40,0,0
11889,-153.846153846154,4,2,0,40,0,0
11989,-66.6666666666667,4,2,0,40,0,0
12089,-100,4,2,0,40,0,0
12189,-100,4,2,0,40,0,0
29189,-66.6666666666667,4,2,0,40,0,0
29389,-133.333333333333,4,2,0,40,0,0
29589,-66.6666666666667,4,2,0,40,0,0
29789,-133.333333333333,4,2,0,40,0,0
29989,-100,4,2,0,40,0,0
30789,-100,4,2,0,40,0,0
54789,-66.6666666666667,4,2,0,40,0,0
54989,-133.333333333333,4,2,0,40,0,0
55189,-66.6666666666667,4,2,0,40,0,0
55389,-133.333333333333,4,2,0,40,0,0
55589,-100,4,2,0,40,0,0
56389,-100,4,2,0,40,0,1
69189,-100,4,2,0,40,0,0
70789,-117.647058823529,4,2,0,40,0,0
72389,-100,4,2,0,40,0,0
73989,-117.647058823529,4,2,0,40,0,0
75589,-100,4,2,0,40,0,0
81989,-100,4,2,0,40,0,0
88389,-100,4,2,0,40,0,0
91589,-100,4,2,0,40,0,0
93189,-66.6666666666667,4,2,0,40,0,0
93389,-133.333333333333,4,2,0,40,0,0
93589,-66.6666666666667,4,2,0,40,0,0
93789,-100,4,2,0,40,0,0
96389,-100,4,2,0,40,0,1
109189,-100,4,2,0,40,0,0
121989,-133.333333333333,4,2,0,30,0,0

[HitObjects]
64,192,389,128,0,2789:0:0:0:0:
448,192,389,128,0,1989:0:0:0:0:
192,192,1989,128,0,3589:0:0:0:0:
448,192,2789,1,0,0:0:0:0:
320,192,2855,1,0,0:0:0:0:
64,192,2922,1,0,0:0:0:0:
448,192,2989,1,0,0:0:0:0:
320,192,3055,1,0,0:0:0:0:
64,192,3122,1,0,0:0:0:0:
448,192,3189,128,0,3589:0:0:0:0:
320,192,3589,1,0,0:0:0:0:
64,192,3589,1,0,0:0:0:0:
448,192,3789,1,0,0:0:0:0:
192,192,3789,1,0,0:0:0:0:
320,192,3889,1,0,0:0:0:0:
64,192,3889,1,0,0:0:0:0:
64,192,4189,1,0,0:0:0:0:
192,192,4189,1,0,0:0:0:0:
192,192,4389,1,0,0:0:0:0:
320,192,4389,1,0,0:0:0:0:
320,192,4589,1,0,0:0:0:0:
448,192,4589,1,0,0:0:0:0:
64,192,4789,1,0,0:0:0:0:
448,192,4789,128,0,5189:0:0:0:0:
192,192,5189,1,0,0:0:0:0:
64,192,5189,1,0,0:0:0:0:
320,192,5389,1,0,0:0:0:0:
448,192,5389,1,0,0:0:0:0:
64,192,5589,1,0,0:0:0:0:
448,192,5589,1,0,0:0:0:0:
320,192,5789,1,0,0:0:0:0:
64,192,5789,1,0,0:0:0:0:
192,192,5989,1,0,0:0:0:0:
448,192,5989,1,0,0:0:0:0:
64,192,6189,1,0,0:0:0:0:
448,192,6189,1,0,0:0:0:0:
320,192,6389,1,0,0:0:0:0:
192,192,6389,128,0,6789:0:0:0:0:
64,192,6789,1,0,0:0:0:0:
448,192,6789,1,0,0:0:0:0:
320,192,6989,1,0,0:0:0:0:
448,192,6989,1,0,0:0:0:0:
448,192,7089,1,0,0:0:0:0:
320,192,7089,1,0,0:0:0:0:
192,192,7289,1,0,0:0:0:0:
64,192,7289,1,0,0:0:0:0:
64,192,7389,1,0,0:0:0:0:
192,192,7389,1,0,0:0:0:0:
320,192,7589,1,0,0:0:0:0:
448,192,7589,1,0,0:0:0:0:
320,192,7789,1,0,0:0:0:0:
192,192,7789,1,0,0:0:0:0:
64,192,7989,1,0,0:0:0:0:
448,192,7989,128,0,8389:0:0:0:0:
192,192,8389,1,0,0:0:0:0:
64,192,8389,1,0,0:0:0:0:
320,192,8589,1,0,0:0:0:0:
448,192,8589,1,0,0:0:0:0:
320,192,8789,1,0,0:0:0:0:
64,192,8789,1,0,0:0:0:0:
192,192,8989,1,0,0:0:0:0:
448,192,8989,1,0,0:0:0:0:
64,192,9189,1,0,0:0:0:0:
448,192,9189,128,0,9589:0:0:0:0:
64,192,9589,128,0,9989:0:0:0:0:
192,192,9589,1,0,0:0:0:0:
320,192,9789,1,0,0:0:0:0:
448,192,9789,1,0,0:0:0:0:
448,192,9889,1,0,0:0:0:0:
320,192,9889,1,0,0:0:0:0:
320,192,9989,1,0,0:0:0:0:
448,192,9989,1,0,0:0:0:0:
192,192,9989,1,0,0:0:0:0:
192,192,10189,1,0,0:0:0:0:
64,192,10189,1,0,0:0:0:0:
320,192,10289,1,0,0:0:0:0:
448,192,10289,1,0,0:0:0:0:
64,192,10489,1,0,0:0:0:0:
448,192,10489,1,0,0:0:0:0:
320,192,10589,1,0,0:0:0:0:
192,192,10589,1,0,0:0:0:0:
320,192,10889,1,0,0:0:0:0:
448,192,10889,1,0,0:0:0:0:
192,192,10989,1,0,0:0:0:0:
64,192,10989,1,0,0:0:0:0:
448,192,11189,1,0,0:0:0:0:
64,192,11189,1,0,0:0:0:0:
320,192,11289,1,0,0:0:0:0:
192,192,11289,1,0,0:0:0:0:
64,192,11389,1,0,0:0:0:0:
448,192,11389,1,0,0:0:0:0:
192,192,11589,1,0,0:0:0:0:
320,192,11589,1,0,0:0:0:0:
448,192,11589,1,0,0:0:0:0:
192,192,11889,1,0,0:0:0:0:
320,192,11889,1,0,0:0:0:0:
64,192,11889,1,0,0:0:0:0:
320,192,12189,1,0,0:0:0:0:
448,192,12189,1,0,0:0:0:0:
64,192,12189,1,0,0:0:0:0:
192,192,12389,1,0,0:0:0:0:
64,192,12489,1,0,0:0:0:0:
448,192,12489,1,0,0:0:0:0:
320,192,12589,1,0,0:0:0:0:
64,192,12789,1,0,0:0:0:0:
448,192,12789,1,0,0:0:0:0:
192,192,12889,1,0,0:0:0:0:
320,192,12989,1,0,0:0:0:0:
448,192,12989,1,0,0:0:0:0:
192,192,13089,1,0,0:0:0:0:
64,192,13089,1,0,0:0:0:0:
64,192,13189,1,0,0:0:0:0:
448,192,13189,1,0,0:0:0:0:
320,192,13189,1,0,0:0:0:0:
192,192,13289,1,0,0:0:0:0:
64,192,13389,1,0,0:0:0:0:
448,192,13389,1,0,0:0:0:0:
320,192,13489,1,0,0:0:0:0:
192,192,13489,1,0,0:0:0:0:
448,192,13589,1,0,0:0:0:0:
64,192,13589,1,0,0:0:0:0:
320,192,13689,1,0,0:0:0:0:
192,192,13689,1,0,0:0:0:0:
64,192,13789,1,0,0:0:0:0:
448,192,13789,1,0,0:0:0:0:
320,192,13889,1,0,0:0:0:0:
448,192,13989,1,0,0:0:0:0:
64,192,13989,1,0,0:0:0:0:
192,192,13989,1,0,0:0:0:0:
192,192,14189,1,0,0:0:0:0:
320,192,14189,1,0,0:0:0:0:
64,192,14389,128,0,14789:0:0:0:0:
448,192,14389,1,0,0:0:0:0:
192,192,14589,128,0,14789:0:0:0:0:
320,192,14789,1,0,0:0:0:0:
448,192,14789,1,0,0:0:0:0:
64,192,14989,1,0,0:0:0:0:
448,192,14989,1,0,0:0:0:0:
320,192,15089,1,0,0:0:0:0:
192,192,15089,1,0,0:0:0:0:
64,192,15289,1,0,0:0:0:0:
448,192,15289,1,0,0:0:0:0:
192,192,15389,1,0,0:0:0:0:
320,192,15389,1,0,0:0:0:0:
64,192,15589,128,0,15789:0:0:0:0:
448,192,15689,1,0,0:0:0:0:
320,192,15789,128,0,15989:0:0:0:0:
64,192,15989,128,0,16389:0:0:0:0:
192,192,15989,1,0,0:0:0:0:
448,192,16089,1,0,0:0:0:0:
192,192,16189,1,0,0:0:0:0:
320,192,16289,1,0,0:0:0:0:
448,192,16389,1,0,0:0:0:0:
192,192,16389,1,0,0:0:0:0:
64,192,16489,1,0,0:0:0:0:
320,192,16589,1,0,0:0:0:0:
448,192,16589,1,0,0:0:0:0:
64,192,16689,1,0,0:0:0:0:
192,192,16689,1,0,0:0:0:0:
320,192,16789,1,0,0:0:0:0:
448,192,16889,1,0,0:0:0:0:
64,192,16889,1,0,0:0:0:0:
192,192,16989,1,0,0:0:0:0:
320,192,16989,1,0,0:0:0:0:
64,192,17089,1,0,0:0:0:0:
192,192,17189,1,0,0:0:0:0:
448,192,17189,1,0,0:0:0:0:
448,192,17389,1,0,0:0:0:0:
64,192,17389,1,0,0:0:0:0:
320,192,17589,1,0,0:0:0:0:
192,192,17589,1,0,0:0:0:0:
64,192,17789,1,0,0:0:0:0:
320,192,17989,1,0,0:0:0:0:
448,192,17989,1,0,0:0:0:0:
192,192,18089,1,0,0:0:0:0:
64,192,18089,1,0,0:0:0:0:
320,192,18189,1,0,0:0:0:0:
448,192,18189,1,0,0:0:0:0:
192,192,18289,1,0,0:0:0:0:
64,192,18389,1,0,0:0:0:0:
448,192,18389,1,0,0:0:0:0:
320,192,18489,1,0,0:0:0:0:
192,192,18589,1,0,0:0:0:0:
448,192,18589,1,0,0:0:0:0:
64,192,18689,1,0,0:0:0:0:
192,192,18789,1,0,0:0:0:0:
320,192,18789,1,0,0:0:0:0:
320,192,18989,1,0,0:0:0:0:
448,192,18989,1,0,0:0:0:0:
64,192,19189,1,0,0:0:0:0:
192,192,19189,1,0,0:0:0:0:
448,192,19389,1,0,0:0:0:0:
192,192,19589,1,0,0:0:0:0:
64,192,19589,1,0,0:0:0:0:
320,192,19789,1,0,0:0:0:0:
448,192,19789,1,0,0:0:0:0:
192,192,19889,1,0,0:0:0:0:
64,192,19889,1,0,0:0:0:0:
320,192,19989,1,0,0:0:0:0:
448,192,19989,1,0,0:0:0:0:
64,192,20089,1,0,0:0:0:0:
192,192,20189,1,0,0:0:0:0:
320,192,20189,1,0,0:0:0:0:
448,192,20289,1,0,0:0:0:0:
64,192,20389,1,0,0:0:0:0:
192,192,20389,1,0,0:0:0:0:
320,192,20589,1,0,0:0:0:0:
448,192,20589,1,0,0:0:0:0:
64,192,20789,1,0,0:0:0:0:
448,192,20789,1,0,0:0:0:0:
192,192,20855,1,0,0:0:0:0:
320,192,20922,1,0,0:0:0:0:
448,192,20989,1,0,0:0:0:0:
320,192,21039,1,0,0:0:0:0:
192,192,21089,1,0,0:0:0:0:
64,192,21139,1,0,0:0:0:0:
320,192,21189,1,0,0:0:0:0:
448,192,21189,1,0,0:0:0:0:
64,192,21389,1,0,0:0:0:0:
192,192,21389,1,0,0:0:0:0:
320,192,21489,1,0,0:0:0:0:
448,192,21489,1,0,0:0:0:0:
64,192,21689,1,0,0:0:0:0:
448,192,21689,1,0,0:0:0:0:
192,192,21789,1,0,0:0:0:0:
320,192,21789,1,0,0:0:0:0:
64,192,21989,1,0,0:0:0:0:
192,192,21989,1,0,0:0:0:0:
448,192,22089,1,0,0:0:0:0:
320,192,22189,1,0,0:0:0:0:
192,192,22289,1,0,0:0:0:0:
64,192,22389,1,0,0:0:0:0:
448,192,22389,1,0,0:0:0:0:
192,192,22489,1,0,0:0:0:0:
320,192,22489,1,0,0:0:0:0:
448,192,22589,1,0,0:0:0:0:
64,192,22589,1,0,0:0:0:0:
192,192,22689,1,0,0:0:0:0:
448,192,22789,1,0,0:0:0:0:
320,192,22789,1,0,0:0:0:0:
64,192,22789,1,0,0:0:0:0:
192,192,22889,1,0,0:0:0:0:
320,192,22989,1,0,0:0:0:0:
448,192,22989,1,0,0:0:0:0:
192,192,23089,1,0,0:0:0:0:
64,192,23089,1,0,0:0:0:0:
448,192,23189,1,0,0:0:0:0:
320,192,23189,1,0,0:0:0:0:
64,192,23289,1,0,0:0:0:0:
192,192,23389,1,0,0:0:0:0:
320,192,23389,1,0,0:0:0:0:
448,192,23489,1,0,0:0:0:0:
64,192,23489,1,0,0:0:0:0:
192,192,23589,1,0,0:0:0:0:
320,192,23589,1,0,0:0:0:0:
64,192,23789,1,0,0:0:0:0:
448,192,23789,1,0,0:0:0:0:
192,192,23989,1,0,0:0:0:0:
448,192,23989,1,0,0:0:0:0:
320,192,24189,1,0,0:0:0:0:
64,192,24389,1,0,0:0:0:0:
192,192,24389,1,0,0:0:0:0:
320,192,24489,1,0,0:0:0:0:
448,192,24489,1,0,0:0:0:0:
192,192,24589,1,0,0:0:0:0:
64,192,24589,1,0,0:0:0:0:
320,192,24689,1,0,0:0:0:0:
448,192,24689,1,0,0:0:0:0:
192,192,24789,1,0,0:0:0:0:
64,192,24789,1,0,0:0:0:0:
448,192,24889,1,0,0:0:0:0:
64,192,24989,1,0,0:0:0:0:
320,192,24989,1,0,0:0:0:0:
192,192,25089,1,0,0:0:0:0:
448,192,25089,1,0,0:0:0:0:
320,192,25189,1,0,0:0:0:0:
64,192,25189,1,0,0:0:0:0:
192,192,25389,1,0,0:0:0:0:
448,192,25389,1,0,0:0:0:0:
448,192,25589,1,0,0:0:0:0:
64,192,25589,1,0,0:0:0:0:
320,192,25789,1,0,0:0:0:0:
192,192,25989,1,0,0:0:0:0:
64,192,25989,1,0,0:0:0:0:
448,192,25989,1,0,0:0:0:0:
320,192,26089,1,0,0:0:0:0:
192,192,26189,1,0,0:0:0:0:
64,192,26189,1,0,0:0:0:0:
320,192,26289,1,0,0:0:0:0:
448,192,26289,1,0,0:0:0:0:
192,192,26389,1,0,0:0:0:0:
64,192,26389,1,0,0:0:0:0:
320,192,26489,1,0,0:0:0:0:
448,192,26589,1,0,0:0:0:0:
64,192,26589,1,0,0:0:0:0:
192,192,26689,1,0,0:0:0:0:
448,192,26789,1,0,0:0:0:0:
64,192,26789,1,0,0:0:0:0:
320,192,26789,1,0,0:0:0:0:
192,192,26889,1,0,0:0:0:0:
64,192,26989,1,0,0:0:0:0:
320,192,26989,1,0,0:0:0:0:
192,192,27089,1,0,0:0:0:0:
448,192,27089,1,0,0:0:0:0:
320,192,27189,1,0,0:0:0:0:
64,192,27189,1,0,0:0:0:0:
448,192,27289,1,0,0:0:0:0:
320,192,27389,1,0,0:0:0:0:
192,192,27389,1,0,0:0:0:0:
64,192,27489,1,0,0:0:0:0:
192,192,27589,1,0,0:0:0:0:
320,192,27589,1,0,0:0:0:0:
448,192,27589,1,0,0:0:0:0:
64,192,27789,1,0,0:0:0:0:
192,192,27839,1,0,0:0:0:0:
320,192,27889,1,0,0:0:0:0:
448,192,27939,1,0,0:0:0:0:
64,192,27989,1,0,0:0:0:0:
192,192,27989,1,0,0:0:0:0:
320,192,28189,1,0,0:0:0:0:
448,192,28189,1,0,0:0:0:0:
192,192,28289,1,0,0:0:0:0:
64,192,28289,1,0,0:0:0:0:
320,192,28389,1,0,0:0:0:0:
448,192,28389,1,0,0:0:0:0:
192,192,28489,1,0,0:0:0:0:
64,192,28589,1,0,0:0:0:0:
448,192,28589,1,0,0:0:0:0:
320,192,28689,1,0,0:0:0:0:
192,192,28689,1,0,0:0:0:0:
448,192,28789,1,0,0:0:0:0:
64,192,28789,1,0,0:0:0:0:
192,192,28889,1,0,0:0:0:0:
320,192,28989,1,0,0:0:0:0:
448,192,28989,1,0,0:0:0:0:
192,192,29089,1,0,0:0:0:0:
320,192,29189,1,0,0:0:0:0:
448,192,29189,1,0,0:0:0:0:
64,192,29189,1,0,0:0:0:0:
320,192,29589,1,0,0:0:0:0:
192,192,29589,1,0,0:0:0:0:
64,192,29589,1,0,0:0:0:0:
448,192,29989,1,0,0:0:0:0:
320,192,30055,1,0,0:0:0:0:
192,192,30122,1,0,0:0:0:0:
64,192,30189,1,0,0:0:0:0:
448,192,30255,1,0,0:0:0:0:
320,192,30322,1,0,0:0:0:0:
192,192,30389,1,0,0:0:0:0:
64,192,30455,1,0,0:0:0:0:
448,192,30522,1,0,0:0:0:0:
320,192,30589,1,0,0:0:0:0:
64,192,30655,1,0,0:0:0:0:
192,192,30722,1,0,0:0:0:0:
320,192,30789,1,0,0:0:0:0:
448,192,30789,1,0,0:0:0:0:
64,192,30789,1,0,0:0:0:0:
192,192,30989,1,0,0:0:0:0:
64,192,30989,128,0,31189:0:0:0:0:
320,192,31189,1,0,0:0:0:0:
448,192,31189,1,0,0:0:0:0:
64,192,31389,1,0,0:0:0:0:
192,192,31389,128,0,31589:0:0:0:0:
320,192,31589,1,0,0:0:0:0:
448,192,31589,1,0,0:0:0:0:
64,192,31789,1,0,0:0:0:0:
448,192,31789,128,0,31989:0:0:0:0:
320,192,31989,1,0,0:0:0:0:
192,192,31989,1,0,0:0:0:0:
64,192,32189,128,0,32389:0:0:0:0:
448,192,32189,1,0,0:0:0:0:
448,192,32389,1,0,0:0:0:0:
192,192,32389,128,0,32589:0:0:0:0:
320,192,32589,128,0,32789:0:0:0:0:
64,192,32589,1,0,0:0:0:0:
448,192,32789,128,0,32989:0:0:0:0:
192,192,32789,1,0,0:0:0:0:
320,192,32989,1,0,0:0:0:0:
64,192,32989,128,0,33189:0:0:0:0:
192,192,33189,1,0,0:0:0:0:
448,192,33189,1,0,0:0:0:0:
320,192,33389,128,0,33589:0:0:0:0:
64,192,33389,1,0,0:0:0:0:
448,192,33589,1,0,0:0:0:0:
192,192,33589,1,0,0:0:0:0:
320,192,33789,128,0,33989:0:0:0:0:
448,192,33789,1,0,0:0:0:0:
64,192,33989,1,0,0:0:0:0:
448,192,33989,1,0,0:0:0:0:
192,192,34189,128,0,34389:0:0:0:0:
448,192,34189,1,0,0:0:0:0:
320,192,34389,1,0,0:0:0:0:
64,192,34389,1,0,0:0:0:0:
448,192,34589,128,0,34789:0:0:0:0:
192,192,34589,1,0,0:0:0:0:
320,192,34789,1,0,0:0:0:0:
64,192,34789,1,0,0:0:0:0:
64,192,34989,128,0,35189:0:0:0:0:
192,192,34989,1,0,0:0:0:0:
320,192,35189,1,0,0:0:0:0:
448,192,35189,1,0,0:0:0:0:
192,192,35389,128,0,35589:0:0:0:0:
64,192,35389,1,0,0:0:0:0:
448,192,35589,128,0,35789:0:0:0:0:
320,192,35589,1,0,0:0:0:0:
320,192,35789,128,0,35989:0:0:0:0:
192,192,35789,1,0,0:0:0:0:
192,192,35989,128,0,36189:0:0:0:0:
64,192,35989,1,0,0:0:0:0:
64,192,36189,128,0,36389:0:0:0:0:
320,192,36189,1,0,0:0:0:0:
448,192,36389,128,0,36589:0:0:0:0:
192,192,36389,1,0,0:0:0:0:
320,192,36589,1,0,0:0:0:0:
64,192,36589,1,0,0:0:0:0:
192,192,36689,1,0,0:0:0:0:
448,192,36789,1,0,0:0:0:0:
320,192,36789,1,0,0:0:0:0:
64,192,36889,1,0,0:0:0:0:
192,192,36889,1,0,0:0:0:0:
320,192,36989,1,0,0:0:0:0:
448,192,36989,1,0,0:0:0:0:
64,192,37089,1,0,0:0:0:0:
192,192,37189,1,0,0:0:0:0:
448,192,37189,1,0,0:0:0:0:
320,192,37189,1,0,0:0:0:0:
448,192,37389,128,0,37589:0:0:0:0:
64,192,37389,1,0,0:0:0:0:
192,192,37589,1,0,0:0:0:0:
320,192,37589,1,0,0:0:0:0:
64,192,37789,128,0,37989:0:0:0:0:
192,192,37789,1,0,0:0:0:0:
320,192,37989,1,0,0:0:0:0:
448,192,37989,1,0,0:0:0:0:
192,192,38189,128,0,38389:0:0:0:0:
64,192,38189,1,0,0:0:0:0:
320,192,38389,1,0,0:0:0:0:
448,192,38389,1,0,0:0:0:0:
448,192,38589,128,0,38789:0:0:0:0:
64,192,38589,1,0,0:0:0:0:
64,192,38789,1,0,0:0:0:0:
192,192,38789,1,0,0:0:0:0:
320,192,38789,1,0,0:0:0:0:
192,192,38989,1,0,0:0:0:0:
320,192,38989,128,0,39189:0:0:0:0:
448,192,39189,1,0,0:0:0:0:
64,192,39189,1,0,0:0:0:0:
64,192,39389,1,0,0:0:0:0:
192,192,39389,128,0,39589:0:0:0:0:
64,192,39589,1,0,0:0:0:0:
320,192,39589,1,0,0:0:0:0:
448,192,39589,1,0,0:0:0:0:
192,192,39789,1,0,0:0:0:0:
320,192,39889,1,0,0:0:0:0:
64,192,39989,128,0,40389:0:0:0:0:
448,192,39989,1,0,0:0:0:0:
192,192,40189,128,0,40389:0:0:0:0:
320,192,40389,1,0,0:0:0:0:
448,192,40389,1,0,0:0:0:0:
192,192,40589,1,0,0:0:0:0:
448,192,40589,128,0,40789:0:0:0:0:
320,192,40789,1,0,0:0:0:0:
64,192,40789,1,0,0:0:0:0:
192,192,40989,128,0,41189:0:0:0:0:
448,192,40989,1,0,0:0:0:0:
320,192,41189,1,0,0:0:0:0:
64,192,41189,1,0,0:0:0:0:
64,192,41389,128,0,41589:0:0:0:0:
192,192,41389,1,0,0:0:0:0:
320,192,41589,1,0,0:0:0:0:
448,192,41589,1,0,0:0:0:0:
192,192,41789,1,0,0:0:0:0:
448,192,41789,128,0,41989:0:0:0:0:
64,192,41989,1,0,0:0:0:0:
320,192,41989,128,0,42189:0:0:0:0:
192,192,42189,128,0,42389:0:0:0:0:
64,192,42189,1,0,0:0:0:0:
64,192,42389,128,0,42589:0:0:0:0:
320,192,42389,1,0,0:0:0:0:
448,192,42589,128,0,42789:0:0:0:0:
192,192,42589,1,0,0:0:0:0:
320,192,42789,1,0,0:0:0:0:
64,192,42789,1,0,0:0:0:0:
192,192,42889,1,0,0:0:0:0:
448,192,42889,1,0,0:0:0:0:
320,192,42989,1,0,0:0:0:0:
64,192,42989,1,0,0:0:0:0:
448,192,43089,1,0,0:0:0:0:
192,192,43189,1,0,0:0:0:0:
64,192,43189,128,0,43589:0:0:0:0:
320,192,43389,1,0,0:0:0:0:
448,192,43389,1,0,0:0:0:0:
320,192,43589,1,0,0:0:0:0:
448,192,43589,1,0,0:0:0:0:
192,192,43589,1,0,0:0:0:0:
448,192,43789,128,0,43989:0:0:0:0:
192,192,43789,1,0,0:0:0:0:
320,192,43989,1,0,0:0:0:0:
64,192,43989,1,0,0:0:0:0:
320,192,44189,128,0,44389:0:0:0:0:
448,192,44189,1,0,0:0:0:0:
192,192,44389,1,0,0:0:0:0:
64,192,44389,1,0,0:0:0:0:
448,192,44589,1,0,0:0:0:0:
64,192,44589,128,0,44789:0:0:0:0:
192,192,44789,1,0,0:0:0:0:
320,192,44789,1,0,0:0:0:0:
448,192,44989,128,0,45189:0:0:0:0:
64,192,44989,1,0,0:0:0:0:
320,192,45189,1,0,0:0:0:0:
192,192,45189,1,0,0:0:0:0:
320,192,45389,1,0,0:0:0:0:
64,192,45389,128,0,45589:0:0:0:0:
192,192,45589,1,0,0:0:0:0:
448,192,45589,1,0,0:0:0:0:
448,192,45789,1,0,0:0:0:0:
320,192,45789,128,0,45989:0:0:0:0:
448,192,45989,1,0,0:0:0:0:
64,192,45989,1,0,0:0:0:0:
192,192,46189,128,0,46389:0:0:0:0:
64,192,46189,1,0,0:0:0:0:
320,192,46389,1,0,0:0:0:0:
448,192,46389,1,0,0:0:0:0:
320,192,46589,1,0,0:0:0:0:
448,192,46589,1,0,0:0:0:0:
64,192,46589,128,0,46789:0:0:0:0:
192,192,46789,1,0,0:0:0:0:
320,192,46789,1,0,0:0:0:0:
448,192,46989,128,0,47189:0:0:0:0:
64,192,46989,1,0,0:0:0:0:
192,192,47189,1,0,0:0:0:0:
320,192,47189,1,0,0:0:0:0:
64,192,47389,128,0,47589:0:0:0:0:
320,192,47389,1,0,0:0:0:0:
448,192,47589,1,0,0:0:0:0:
192,192,47589,1,0,0:0:0:0:
320,192,47789,128,0,47989:0:0:0:0:
448,192,47789,1,0,0:0:0:0:
192,192,47989,1,0,0:0:0:0:
64,192,47989,1,0,0:0:0:0:
448,192,48089,1,0,0:0:0:0:
320,192,48189,1,0,0:0:0:0:
64,192,48189,1,0,0:0:0:0:
64,192,48289,1,0,0:0:0:0:
448,192,48389,1,0,0:0:0:0:
320,192,48389,1,0,0:0:0:0:
192,192,48589,1,0,0:0:0:0:
448,192,48589,1,0,0:0:0:0:
320,192,48789,1,0,0:0:0:0:
64,192,48789,1,0,0:0:0:0:
64,192,48889,1,0,0:0:0:0:
320,192,48889,1,0,0:0:0:0:
448,192,49089,1,0,0:0:0:0:
320,192,49189,1,0,0:0:0:0:
192,192,49189,1,0,0:0:0:0:
64,192,49289,1,0,0:0:0:0:
448,192,49289,1,0,0:0:0:0:
192,192,49389,1,0,0:0:0:0:
320,192,49489,1,0,0:0:0:0:
448,192,49589,1,0,0:0:0:0:
64,192,49589,1,0,0:0:0:0:
192,192,49789,1,0,0:0:0:0:
64,192,49789,1,0,0:0:0:0:
320,192,49989,1,0,0:0:0:0:
192,192,49989,1,0,0:0:0:0:
448,192,49989,1,0,0:0:0:0:
448,192,50189,1,0,0:0:0:0:
64,192,50189,128,0,50389:0:0:0:0:
192,192,50389,1,0,0:0:0:0:
320,192,50389,1,0,0:0:0:0:
448,192,50589,128,0,50789:0:0:0:0:
320,192,50589,1,0,0:0:0:0:
192,192,50789,1,0,0:0:0:0:
64,192,50789,1,0,0:0:0:0:
320,192,50989,128,0,51189:0:0:0:0:
448,192,50989,1,0,0:0:0:0:
192,192,51189,1,0,0:0:0:0:
64,192,51189,1,0,0:0:0:0:
64,192,51389,128,0,51589:0:0:0:0:
448,192,51389,1,0,0:0:0:0:
320,192,51589,1,0,0:0:0:0:
192,192,51589,1,0,0:0:0:0:
448,192,51789,128,0,51989:0:0:0:0:
320,192,51789,1,0,0:0:0:0:
192,192,51989,1,0,0:0:0:0:
64,192,51989,1,0,0:0:0:0:
64,192,52189,1,0,0:0:0:0:
320,192,52189,128,0,52389:0:0:0:0:
448,192,52389,1,0,0:0:0:0:
192,192,52389,1,0,0:0:0:0:
64,192,52589,128,0,52789:0:0:0:0:
192,192,52589,1,0,0:0:0:0:
320,192,52789,1,0,0:0:0:0:
448,192,52789,1,0,0:0:0:0:
448,192,52989,1,0,0:0:0:0:
320,192,52989,128,0,53189:0:0:0:0:
64,192,53189,1,0,0:0:0:0:
192,192,53189,1,0,0:0:0:0:
448,192,53189,1,0,0:0:0:0:
320,192,53389,1,0,0:0:0:0:
192,192,53389,128,0,53589:0:0:0:0:
64,192,53589,1,0,0:0:0:0:
448,192,53589,1,0,0:0:0:0:
448,192,53789,128,0,53989:0:0:0:0:
320,192,53789,1,0,0:0:0:0:
192,192,53989,1,0,0:0:0:0:
64,192,53989,1,0,0:0:0:0:
320,192,54089,1,0,0:0:0:0:
448,192,54189,1,0,0:0:0:0:
64,192,54189,1,0,0:0:0:0:
192,192,54289,1,0,0:0:0:0:
320,192,54389,1,0,0:0:0:0:
448,192,54389,1,0,0:0:0:0:
192,192,54489,1,0,0:0:0:0:
64,192,54589,1,0,0:0:0:0:
448,192,54589,1,0,0:0:0:0:
320,192,54689,1,0,0:0:0:0:
192,192,54789,1,0,0:0:0:0:
64,192,54789,1,0,0:0:0:0:
448,192,54789,1,0,0:0:0:0:
192,192,55189,1,0,0:0:0:0:
320,192,55189,1,0,0:0:0:0:
448,192,55189,1,0,0:0:0:0:
64,192,55589,1,0,0:0:0:0:
448,192,55589,1,0,0:0:0:0:
320,192,55655,1,0,0:0:0:0:
192,192,55722,1,0,0:0:0:0:
64,192,55789,1,0,0:0:0:0:
448,192,55855,1,0,0:0:0:0:
320,192,55922,1,0,0:0:0:0:
192,192,55989,1,0,0:0:0:0:
64,192,56055,1,0,0:0:0:0:
448,192,56089,1,0,0:0:0:0:
320,192,56139,1,0,0:0:0:0:
64,192,56189,1,0,0:0:0:0:
192,192,56239,1,0,0:0:0:0:
448,192,56289,1,0,0:0:0:0:
320,192,56339,1,0,0:0:0:0:
192,192,56389,1,0,0:0:0:0:
64,192,56389,1,0,0:0:0:0:
448,192,56489,1,0,0:0:0:0:
192,192,56589,1,0,0:0:0:0:
64,192,56589,1,0,0:0:0:0:
448,192,56689,1,0,0:0:0:0:
320,192,56689,1,0,0:0:0:0:
64,192,56789,1,0,0:0:0:0:
192,192,56889,1,0,0:0:0:0:
64,192,56989,1,0,0:0:0:0:
320,192,56989,1,0,0:0:0:0:
448,192,57089,1,0,0:0:0:0:
192,192,57189,1,0,0:0:0:0:
320,192,57189,128,0,57389:0:0:0:0:
448,192,57389,128,0,57589:0:0:0:0:
64,192,57389,1,0,0:0:0:0:
192,192,57589,1,0,0:0:0:0:
64,192,57589,128,0,57789:0:0:0:0:
192,192,57789,1,0,0:0:0:0:
448,192,57789,1,0,0:0:0:0:
320,192,57889,1,0,0:0:0:0:
64,192,57989,128,0,58189:0:0:0:0:
448,192,57989,1,0,0:0:0:0:
448,192,58189,128,0,58389:0:0:0:0:
192,192,58189,1,0,0:0:0:0:
192,192,58389,128,0,58589:0:0:0:0:
320,192,58389,1,0,0:0:0:0:
320,192,58589,128,0,58789:0:0:0:0:
64,192,58589,1,0,0:0:0:0:
448,192,58789,128,0,58989:0:0:0:0:
192,192,58789,1,0,0:0:0:0:
64,192,58989,128,0,59189:0:0:0:0:
320,192,58989,1,0,0:0:0:0:
192,192,59189,128,0,59589:0:0:0:0:
448,192,59189,1,0,0:0:0:0:
320,192,59389,1,0,0:0:0:0:
448,192,59489,1,0,0:0:0:0:
64,192,59589,1,0,0:0:0:0:
320,192,59589,1,0,0:0:0:0:
448,192,59689,1,0,0:0:0:0:
192,192,59789,1,0,0:0:0:0:
64,192,59789,1,0,0:0:0:0:
320,192,59889,1,0,0:0:0:0:
448,192,59889,1,0,0:0:0:0:
64,192,59989,1,0,0:0:0:0:
192,192,60089,1,0,0:0:0:0:
320,192,60089,1,0,0:0:0:0:
448,192,60189,1,0,0:0:0:0:
64,192,60189,1,0,0:0:0:0:
320,192,60289,1,0,0:0:0:0:
192,192,60389,1,0,0:0:0:0:
64,192,60389,128,0,60589:0:0:0:0:
320,192,60589,128,0,60789:0:0:0:0:
448,192,60589,1,0,0:0:0:0:
448,192,60789,128,0,61189:0:0:0:0:
192,192,60789,1,0,0:0:0:0:
64,192,60989,1,0,0:0:0:0:
320,192,61089,1,0,0:0:0:0:
192,192,61189,1,0,0:0:0:0:
64,192,61189,1,0,0:0:0:0:
320,192,61289,1,0,0:0:0:0:
448,192,61389,1,0,0:0:0:0:
192,192,61389,1,0,0:0:0:0:
64,192,61489,1,0,0:0:0:0:
192,192,61589,1,0,0:0:0:0:
320,192,61589,1,0,0:0:0:0:
448,192,61689,1,0,0:0:0:0:
320,192,61789,1,0,0:0:0:0:
64,192,61789,1,0,0:0:0:0:
192,192,61889,1,0,0:0:0:0:
64,192,61989,1,0,0:0:0:0:
448,192,61989,1,0,0:0:0:0:
320,192,62039,1,0,0:0:0:0:
192,192,62089,1,0,0:0:0:0:
64,192,62139,1,0,0:0:0:0:
448,192,62189,1,0,0:0:0:0:
192,192,62289,1,0,0:0:0:0:
320,192,62389,1,0,0:0:0:0:
448,192,62389,1,0,0:0:0:0:
64,192,62489,1,0,0:0:0:0:
192,192,62589,1,0,0:0:0:0:
320,192,62589,1,0,0:0:0:0:
448,192,62689,1,0,0:0:0:0:
192,192,62789,1,0,0:0:0:0:
64,192,62789,1,0,0:0:0:0:
320,192,62789,1,0,0:0:0:0:
448,192,62889,1,0,0:0:0:0:
64,192,62989,1,0,0:0:0:0:
192,192,62989,1,0,0:0:0:0:
320,192,63089,1,0,0:0:0:0:
448,192,63089,1,0,0:0:0:0:
64,192,63189,1,0,0:0:0:0:
192,192,63289,1,0,0:0:0:0:
320,192,63389,1,0,0:0:0:0:
64,192,63389,1,0,0:0:0:0:
448,192,63489,1,0,0:0:0:0:
320,192,63589,1,0,0:0:0:0:
192,192,63589,128,0,63789:0:0:0:0:
64,192,63789,128,0,63989:0:0:0:0:
448,192,63789,1,0,0:0:0:0:
448,192,63989,128,0,64389:0:0:0:0:
192,192,63989,1,0,0:0:0:0:
320,192,64189,1,0,0:0:0:0:
64,192,64389,128,0,64589:0:0:0:0:
192,192,64389,1,0,0:0:0:0:
192,192,64589,128,0,64789:0:0:0:0:
320,192,64589,1,0,0:0:0:0:
320,192,64789,128,0,64989:0:0:0:0:
448,192,64789,1,0,0:0:0:0:
448,192,64989,128,0,65189:0:0:0:0:
64,192,64989,1,0,0:0:0:0:
64,192,65189,128,0,65389:0:0:0:0:
192,192,65189,1,0,0:0:0:0:
320,192,65389,128,0,65589:0:0:0:0:
448,192,65389,1,0,0:0:0:0:
192,192,65589,128,0,65989:0:0:0:0:
64,192,65589,1,0,0:0:0:0:
320,192,65789,1,0,0:0:0:0:
448,192,65789,1,0,0:0:0:0:
64,192,65989,1,0,0:0:0:0:
320,192,65989,1,0,0:0:0:0:
448,192,65989,1,0,0:0:0:0:
192,192,66089,1,0,0:0:0:0:
320,192,66189,1,0,0:0:0:0:
448,192,66189,1,0,0:0:0:0:
192,192,66289,1,0,0:0:0:0:
64,192,66289,1,0,0:0:0:0:
448,192,66389,1,0,0:0:0:0:
320,192,66489,1,0,0:0:0:0:
64,192,66489,1,0,0:0:0:0:
192,192,66589,1,0,0:0:0:0:
448,192,66589,1,0,0:0:0:0:
64,192,66689,1,0,0:0:0:0:
320,192,66789,1,0,0:0:0:0:
448,192,66789,128,0,66989:0:0:0:0:
192,192,66989,128,0,67189:0:0:0:0:
64,192,66989,1,0,0:0:0:0:
64,192,67189,128,0,67589:0:0:0:0:
320,192,67189,1,0,0:0:0:0:
448,192,67389,1,0,0:0:0:0:
320,192,67589,1,0,0:0:0:0:
192,192,67589,1,0,0:0:0:0:
448,192,67689,1,0,0:0:0:0:
64,192,67789,1,0,0:0:0:0:
192,192,67789,1,0,0:0:0:0:
320,192,67889,1,0,0:0:0:0:
448,192,67889,1,0,0:0:0:0:
64,192,67989,1,0,0:0:0:0:
192,192,68089,1,0,0:0:0:0:
448,192,68089,1,0,0:0:0:0:
320,192,68189,1,0,0:0:0:0:
64,192,68189,1,0,0:0:0:0:
192,192,68289,1,0,0:0:0:0:
448,192,68389,1,0,0:0:0:0:
320,192,68389,128,0,68589:0:0:0:0:
64,192,68589,1,0,0:0:0:0:
448,192,68589,128,0,68789:0:0:0:0:
192,192,68789,1,0,0:0:0:0:
64,192,68789,128,0,69189:0:0:0:0:
320,192,68889,1,0,0:0:0:0:
448,192,68989,1,0,0:0:0:0:
192,192,68989,1,0,0:0:0:0:
448,192,69189,1,0,0:0:0:0:
320,192,69189,1,0,0:0:0:0:
192,192,69189,1,0,0:0:0:0:
64,192,69289,1,0,0:0:0:0:
320,192,69389,1,0,0:0:0:0:
448,192,69389,1,0,0:0:0:0:
192,192,69489,1,0,0:0:0:0:
64,192,69489,1,0,0:0:0:0:
320,192,69589,1,0,0:0:0:0:
448,192,69689,1,0,0:0:0:0:
64,192,69689,1,0,0:0:0:0:
320,192,69789,1,0,0:0:0:0:
192,192,69789,1,0,0:0:0:0:
64,192,69889,1,0,0:0:0:0:
192,192,69989,1,0,0:0:0:0:
448,192,69989,128,0,70189:0:0:0:0:
320,192,70189,128,0,70389:0:0:0:0:
64,192,70189,1,0,0:0:0:0:
64,192,70389,128,0,70789:0:0:0:0:
448,192,70389,1,0,0:0:0:0:
192,192,70589,128,0,70789:0:0:0:0:
320,192,70789,1,0,0:0:0:0:
448,192,70789,1,0,0:0:0:0:
320,192,70989,1,0,0:0:0:0:
64,192,71189,1,0,0:0:0:0:
448,192,71189,1,0,0:0:0:0:
64,192,71389,1,0,0:0:0:0:
192,192,71589,1,0,0:0:0:0:
320,192,71589,1,0,0:0:0:0:
192,192,71789,1,0,0:0:0:0:
320,192,71989,1,0,0:0:0:0:
448,192,71989,128,0,72389:0:0:0:0:
192,192,72189,1,0,0:0:0:0:
64,192,72189,1,0,0:0:0:0:
192,192,72389,1,0,0:0:0:0:
64,192,72389,1,0,0:0:0:0:
320,192,72389,1,0,0:0:0:0:
448,192,72489,1,0,0:0:0:0:
64,192,72589,1,0,0:0:0:0:
192,192,72589,1,0,0:0:0:0:
320,192,72689,1,0,0:0:0:0:
448,192,72689,1,0,0:0:0:0:
64,192,72789,1,0,0:0:0:0:
192,192,72889,1,0,0:0:0:0:
320,192,72889,1,0,0:0:0:0:
448,192,72989,1,0,0:0:0:0:
64,192,72989,1,0,0:0:0:0:
192,192,73089,1,0,0:0:0:0:
320,192,73089,1,0,0:0:0:0:
64,192,73189,1,0,0:0:0:0:
448,192,73189,128,0,73389:0:0:0:0:
192,192,73389,128,0,73589:0:0:0:0:
320,192,73389,1,0,0:0:0:0:
320,192,73589,128,0,73989:0:0:0:0:
64,192,73589,1,0,0:0:0:0:
448,192,73789,128,0,73989:0:0:0:0:
192,192,73989,1,0,0:0:0:0:
64,192,73989,1,0,0:0:0:0:
64,192,74189,1,0,0:0:0:0:
192,192,74389,1,0,0:0:0:0:
448,192,74389,1,0,0:0:0:0:
448,192,74589,1,0,0:0:0:0:
64,192,74789,128,0,75189:0:0:0:0:
192,192,74789,1,0,0:0:0:0:
448,192,74889,1,0,0:0:0:0:
320,192,74989,1,0,0:0:0:0:
192,192,75089,1,0,0:0:0:0:
320,192,75189,1,0,0:0:0:0:
448,192,75189,1,0,0:0:0:0:
64,192,75389,1,0,0:0:0:0:
192,192,75389,1,0,0:0:0:0:
320,192,75589,1,0,0:0:0:0:
448,192,75589,1,0,0:0:0:0:
64,192,75589,1,0,0:0:0:0:
192,192,75689,1,0,0:0:0:0:
448,192,75689,1,0,0:0:0:0:
320,192,75789,1,0,0:0:0:0:
64,192,75789,1,0,0:0:0:0:
192,192,75889,1,0,0:0:0:0:
64,192,75989,1,0,0:0:0:0:
448,192,75989,1,0,0:0:0:0:
320,192,76089,1,0,0:0:0:0:
64,192,76189,1,0,0:0:0:0:
192,192,76189,1,0,0:0:0:0:
448,192,76289,1,0,0:0:0:0:
320,192,76389,1,0,0:0:0:0:
192,192,76389,128,0,76589:0:0:0:0:
64,192,76589,128,0,76789:0:0:0:0:
448,192,76589,1,0,0:0:0:0:
448,192,76789,128,0,77189:0:0:0:0:
192,192,76789,1,0,0:0:0:0:
320,192,76989,1,0,0:0:0:0:
320,192,77189,1,0,0:0:0:0:
192,192,77189,1,0,0:0:0:0:
64,192,77189,1,0,0:0:0:0:
448,192,77289,1,0,0:0:0:0:
64,192,77289,1,0,0:0:0:0:
320,192,77389,1,0,0:0:0:0:
192,192,77389,1,0,0:0:0:0:
448,192,77489,1,0,0:0:0:0:
64,192,77489,1,0,0:0:0:0:
192,192,77589,1,0,0:0:0:0:
320,192,77589,1,0,0:0:0:0:
64,192,77689,1,0,0:0:0:0:
192,192,77789,1,0,0:0:0:0:
448,192,77789,1,0,0:0:0:0:
64,192,77989,128,0,78189:0:0:0:0:
448,192,77989,1,0,0:0:0:0:
192,192,78189,128,0,78389:0:0:0:0:
320,192,78189,1,0,0:0:0:0:
448,192,78389,128,0,78789:0:0:0:0:
64,192,78389,1,0,0:0:0:0:
320,192,78589,1,0,0:0:0:0:
320,192,78789,1,0,0:0:0:0:
192,192,78789,1,0,0:0:0:0:
64,192,78789,1,0,0:0:0:0:
448,192,78889,1,0,0:0:0:0:
64,192,78989,1,0,0:0:0:0:
320,192,78989,1,0,0:0:0:0:
192,192,79089,1,0,0:0:0:0:
320,192,79189,1,0,0:0:0:0:
448,192,79189,1,0,0:0:0:0:
64,192,79289,1,0,0:0:0:0:
192,192,79389,1,0,0:0:0:0:
448,192,79389,1,0,0:0:0:0:
320,192,79489,1,0,0:0:0:0:
448,192,79589,1,0,0:0:0:0:
64,192,79589,1,0,0:0:0:0:
192,192,79589,1,0,0:0:0:0:
320,192,79689,1,0,0:0:0:0:
64,192,79789,1,0,0:0:0:0:
192,192,79789,1,0,0:0:0:0:
448,192,79889,1,0,0:0:0:0:
320,192,79989,1,0,0:0:0:0:
64,192,79989,1,0,0:0:0:0:
192,192,80089,1,0,0:0:0:0:
320,192,80189,1,0,0:0:0:0:
448,192,80189,1,0,0:0:0:0:
64,192,80289,1,0,0:0:0:0:
448,192,80389,1,0,0:0:0:0:
192,192,80389,1,0,0:0:0:0:
320,192,80389,1,0,0:0:0:0:
64,192,80589,1,0,0:0:0:0:
192,192,80639,1,0,0:0:0:0:
320,192,80689,1,0,0:0:0:0:
448,192,80739,1,0,0:0:0:0:
192,192,80789,1,0,0:0:0:0:
64,192,80789,1,0,0:0:0:0:
320,192,80889,1,0,0:0:0:0:
64,192,80989,1,0,0:0:0:0:
448,192,80989,1,0,0:0:0:0:
320,192,81089,1,0,0:0:0:0:
192,192,81089,1,0,0:0:0:0:
64,192,81189,1,0,0:0:0:0:
448,192,81189,1,0,0:0:0:0:
192,192,81289,1,0,0:0:0:0:
320,192,81389,1,0,0:0:0:0:
448,192,81389,1,0,0:0:0:0:
64,192,81489,1,0,0:0:0:0:
192,192,81589,1,0,0:0:0:0:
320,192,81589,1,0,0:0:0:0:
448,192,81689,1,0,0:0:0:0:
64,192,81789,1,0,0:0:0:0:
192,192,81789,1,0,0:0:0:0:
320,192,81889,1,0,0:0:0:0:
448,192,81989,1,0,0:0:0:0:
192,192,81989,1,0,0:0:0:0:
64,192,81989,128,0,82789:0:0:0:0:
320,192,82189,128,0,82389:0:0:0:0:
320,192,82589,128,0,82789:0:0:0:0:
64,192,82989,128,0,83189:0:0:0:0:
448,192,83389,128,0,83589:0:0:0:0:
192,192,83789,128,0,83989:0:0:0:0:
448,192,84189,128,0,84389:0:0:0:0:
64,192,84589,128,0,84989:0:0:0:0:
320,192,84589,128,0,84789:0:0:0:0:
448,192,84989,128,0,85189:0:0:0:0:
192,192,85389,128,0,85589:0:0:0:0:
320,192,85789,128,0,85989:0:0:0:0:
64,192,86189,128,0,86389:0:0:0:0:
448,192,86589,128,0,86789:0:0:0:0:
192,192,86989,128,0,87189:0:0:0:0:
320,192,87389,128,0,87589:0:0:0:0:
64,192,87789,128,0,87989:0:0:0:0:
448,192,87789,1,0,0:0:0:0:
192,192,87989,128,0,88389:0:0:0:0:
320,192,88189,1,0,0:0:0:0:
448,192,88189,1,0,0:0:0:0:
320,192,88289,1,0,0:0:0:0:
448,192,88289,1,0,0:0:0:0:
64,192,88389,1,0,0:0:0:0:
320,192,88389,1,0,0:0:0:0:
448,192,88389,1,0,0:0:0:0:
192,192,88589,128,0,88789:0:0:0:0:
64,192,88789,1,0,0:0:0:0:
320,192,88789,1,0,0:0:0:0:
448,192,88989,128,0,89189:0:0:0:0:
192,192,89189,1,0,0:0:0:0:
64,192,89189,1,0,0:0:0:0:
320,192,89389,128,0,89589:0:0:0:0:
448,192,89589,1,0,0:0:0:0:
64,192,89589,1,0,0:0:0:0:
192,192,89789,128,0,89989:0:0:0:0:
64,192,89989,1,0,0:0:0:0:
448,192,89989,1,0,0:0:0:0:
320,192,90189,128,0,90389:0:0:0:0:
448,192,90389,1,0,0:0:0:0:
192,192,90389,1,0,0:0:0:0:
448,192,90589,128,0,90789:0:0:0:0:
192,192,90789,1,0,0:0:0:0:
64,192,90789,128,0,91189:0:0:0:0:
448,192,91389,1,0,0:0:0:0:
320,192,91389,1,0,0:0:0:0:
320,192,91489,1,0,0:0:0:0:
448,192,91489,1,0,0:0:0:0:
192,192,91589,1,0,0:0:0:0:
448,192,91589,1,0,0:0:0:0:
64,192,91589,1,0,0:0:0:0:
320,192,91789,128,0,91989:0:0:0:0:
64,192,91789,1,0,0:0:0:0:
192,192,91989,1,0,0:0:0:0:
448,192,91989,1,0,0:0:0:0:
320,192,92189,1,0,0:0:0:0:
64,192,92189,128,0,92389:0:0:0:0:
192,192,92389,1,0,0:0:0:0:
448,192,92389,1,0,0:0:0:0:
320,192,92489,1,0,0:0:0:0:
448,192,92589,1,0,0:0:0:0:
64,192,92589,1,0,0:0:0:0:
192,192,92689,1,0,0:0:0:0:
320,192,92789,1,0,0:0:0:0:
64,192,92789,1,0,0:0:0:0:
448,192,92889,1,0,0:0:0:0:
192,192,92989,1,0,0:0:0:0:
320,192,92989,1,0,0:0:0:0:
64,192,93089,1,0,0:0:0:0:
192,192,93189,1,0,0:0:0:0:
320,192,93189,1,0,0:0:0:0:
448,192,93189,1,0,0:0:0:0:
64,192,93589,1,0,0:0:0:0:
448,192,93589,1,0,0:0:0:0:
320,192,93589,1,0,0:0:0:0:
448,192,93989,1,0,0:0:0:0:
64,192,93989,1,0,0:0:0:0:
192,192,93989,1,0,0:0:0:0:
320,192,94055,1,0,0:0:0:0:
192,192,94122,1,0,0:0:0:0:
64,192,94189,1,0,0:0:0:0:
448,192,94255,1,0,0:0:0:0:
320,192,94322,1,0,0:0:0:0:
192,192,94389,1,0,0:0:0:0:
64,192,94455,1,0,0:0:0:0:
448,192,94539,1,0,0:0:0:0:
320,192,94589,1,0,0:0:0:0:
64,192,94639,1,0,0:0:0:0:
192,192,94689,1,0,0:0:0:0:
320,192,94739,1,0,0:0:0:0:
448,192,94789,1,0,0:0:0:0:
64,192,94789,1,0,0:0:0:0:
192,192,94789,1,0,0:0:0:0:
320,192,94989,1,0,0:0:0:0:
448,192,94989,1,0,0:0:0:0:
192,192,95089,1,0,0:0:0:0:
64,192,95089,1,0,0:0:0:0:
448,192,95289,1,0,0:0:0:0:
64,192,95289,1,0,0:0:0:0:
192,192,95389,1,0,0:0:0:0:
320,192,95389,1,0,0:0:0:0:
448,192,95489,1,0,0:0:0:0:
320,192,95589,1,0,0:0:0:0:
192,192,95589,1,0,0:0:0:0:
64,192,95589,1,0,0:0:0:0:
448,192,95789,1,0,0:0:0:0:
64,192,95789,1,0,0:0:0:0:
320,192,95789,1,0,0:0:0:0:
192,192,95989,128,0,96389:0:0:0:0:
64,192,95989,1,0,0:0:0:0:
448,192,95989,1,0,0:0:0:0:
320,192,96189,1,0,0:0:0:0:
320,192,96389,1,0,0:0:0:0:
448,192,96389,1,0,0:0:0:0:
64,192,96389,1,0,0:0:0:0:
192,192,96489,1,0,0:0:0:0:
448,192,96589,1,0,0:0:0:0:
64,192,96589,1,0,0:0:0:0:
192,192,96689,1,0,0:0:0:0:
320,192,96689,1,0,0:0:0:0:
448,192,96789,1,0,0:0:0:0:
64,192,96789,1,0,0:0:0:0:
320,192,96889,1,0,0:0:0:0:
192,192,96989,1,0,0:0:0:0:
64,192,96989,1,0,0:0:0:0:
320,192,97089,1,0,0:0:0:0:
448,192,97189,128,0,97389:0:0:0:0:
192,192,97189,1,0,0:0:0:0:
64,192,97389,128,0,97589:0:0:0:0:
320,192,97389,1,0,0:0:0:0:
320,192,97589,128,0,97989:0:0:0:0:
192,192,97589,1,0,0:0:0:0:
64,192,97789,1,0,0:0:0:0:
448,192,97989,1,0,0:0:0:0:
192,192,97989,128,0,98189:0:0:0:0:
64,192,98189,128,0,98389:0:0:0:0:
320,192,98189,1,0,0:0:0:0:
448,192,98389,128,0,98589:0:0:0:0:
192,192,98389,1,0,0:0:0:0:
320,192,98589,128,0,98789:0:0:0:0:
64,192,98589,1,0,0:0:0:0:
64,192,98789,128,0,98989:0:0:0:0:
192,192,98789,1,0,0:0:0:0:
192,192,98989,128,0,99189:0:0:0:0:
448,192,98989,1,0,0:0:0:0:
448,192,99189,128,0,99589:0:0:0:0:
320,192,99189,1,0,0:0:0:0:
64,192,99389,1,0,0:0:0:0:
320,192,99489,1,0,0:0:0:0:
192,192,99589,1,0,0:0:0:0:
64,192,99589,1,0,0:0:0:0:
320,192,99689,1,0,0:0:0:0:
192,192,99789,1,0,0:0:0:0:
64,192,99789,1,0,0:0:0:0:
320,192,99889,1,0,0:0:0:0:
448,192,99889,1,0,0:0:0:0:
192,192,99989,1,0,0:0:0:0:
64,192,100089,1,0,0:0:0:0:
448,192,100089,1,0,0:0:0:0:
320,192,100189,1,0,0:0:0:0:
192,192,100189,1,0,0:0:0:0:
448,192,100289,1,0,0:0:0:0:
320,192,100389,1,0,0:0:0:0:
64,192,100389,128,0,100589:0:0:0:0:
192,192,100589,128,0,100789:0:0:0:0:
448,192,100589,1,0,0:0:0:0:
448,192,100789,128,0,101189:0:0:0:0:
320,192,100789,1,0,0:0:0:0:
64,192,100989,1,0,0:0:0:0:
320,192,101089,1,0,0:0:0:0:
192,192,101189,1,0,0:0:0:0:
64,192,101189,1,0,0:0:0:0:
320,192,101289,1,0,0:0:0:0:
448,192,101389,1,0,0:0:0:0:
192,192,101389,1,0,0:0:0:0:
64,192,101489,1,0,0:0:0:0:
192,192,101589,1,0,0:0:0:0:
320,192,101589,1,0,0:0:0:0:
448,192,101689,1,0,0:0:0:0:
320,192,101789,1,0,0:0:0:0:
64,192,101789,1,0,0:0:0:0:
192,192,101889,1,0,0:0:0:0:
64,192,101989,1,0,0:0:0:0:
192,192,102039,1,0,0:0:0:0:
320,192,102089,1,0,0:0:0:0:
448,192,102139,1,0,0:0:0:0:
64,192,102189,1,0,0:0:0:0:
192,192,102189,1,0,0:0:0:0:
320,192,102289,1,0,0:0:0:0:
448,192,102389,1,0,0:0:0:0:
64,192,102389,1,0,0:0:0:0:
192,192,102489,1,0,0:0:0:0:
320,192,102589,1,0,0:0:0:0:
448,192,102589,1,0,0:0:0:0:
64,192,102689,1,0,0:0:0:0:
192,192,102789,1,0,0:0:0:0:
320,192,102789,1,0,0:0:0:0:
448,192,102789,1,0,0:0:0:0:
64,192,102889,1,0,0:0:0:0:
192,192,102989,1,0,0:0:0:0:
320,192,102989,1,0,0:0:0:0:
64,192,103089,1,0,0:0:0:0:
448,192,103089,1,0,0:0:0:0:
320,192,103189,1,0,0:0:0:0:
64,192,103289,1,0,0:0:0:0:
192,192,103389,1,0,0:0:0:0:
448,192,103389,128,0,103589:0:0:0:0:
320,192,103589,128,0,103789:0:0:0:0:
64,192,103589,1,0,0:0:0:0:
64,192,103789,128,0,103989:0:0:0:0:
192,192,103789,1,0,0:0:0:0:
192,192,103989,128,0,104389:0:0:0:0:
448,192,103989,1,0,0:0:0:0:
320,192,104189,1,0,0:0:0:0:
64,192,104389,1,0,0:0:0:0:
448,192,104389,128,0,104589:0:0:0:0:
320,192,104589,128,0,104789:0:0:0:0:
192,192,104589,1,0,0:0:0:0:
192,192,104789,128,0,104989:0:0:0:0:
64,192,104789,1,0,0:0:0:0:
64,192,104989,128,0,105189:0:0:0:0:
448,192,104989,1,0,0:0:0:0:
320,192,105189,128,0,105389:0:0:0:0:
192,192,105189,1,0,0:0:0:0:
448,192,105389,128,0,105589:0:0:0:0:
64,192,105389,1,0,0:0:0:0:
64,192,105589,128,0,105989:0:0:0:0:
192,192,105589,1,0,0:0:0:0:
320,192,105789,1,0,0:0:0:0:
448,192,105789,1,0,0:0:0:0:
192,192,105989,1,0,0:0:0:0:
320,192,105989,1,0,0:0:0:0:
448,192,105989,1,0,0:0:0:0:
64,192,106089,1,0,0:0:0:0:
192,192,106189,1,0,0:0:0:0:
320,192,106189,1,0,0:0:0:0:
448,192,106289,1,0,0:0:0:0:
64,192,106289,1,0,0:0:0:0:
320,192,106389,1,0,0:0:0:0:
64,192,106489,1,0,0:0:0:0:
192,192,106589,1,0,0:0:0:0:
448,192,106589,1,0,0:0:0:0:
320,192,106689,1,0,0:0:0:0:
64,192,106689,1,0,0:0:0:0:
448,192,106789,1,0,0:0:0:0:
192,192,106789,128,0,106989:0:0:0:0:
64,192,106989,128,0,107189:0:0:0:0:
320,192,106989,1,0,0:0:0:0:
448,192,107189,128,0,107589:0:0:0:0:
192,192,107189,1,0,0:0:0:0:
320,192,107389,1,0,0:0:0:0:
192,192,107589,1,0,0:0:0:0:
64,192,107589,1,0,0:0:0:0:
320,192,107689,1,0,0:0:0:0:
64,192,107789,1,0,0:0:0:0:
192,192,107789,1,0,0:0:0:0:
320,192,107889,1,0,0:0:0:0:
448,192,107889,1,0,0:0:0:0:
64,192,107989,1,0,0:0:0:0:
448,192,108089,1,0,0:0:0:0:
192,192,108089,1,0,0:0:0:0:
320,192,108189,1,0,0:0:0:0:
64,192,108189,1,0,0:0:0:0:
448,192,108289,1,0,0:0:0:0:
192,192,108389,1,0,0:0:0:0:
320,192,108389,128,0,108589:0:0:0:0:
64,192,108589,128,0,108789:0:0:0:0:
448,192,108589,1,0,0:0:0:0:
448,192,108789,128,0,109189:0:0:0:0:
192,192,108789,1,0,0:0:0:0:
320,192,108889,1,0,0:0:0:0:
192,192,108989,1,0,0:0:0:0:
64,192,108989,1,0,0:0:0:0:
320,192,109189,1,0,0:0:0:0:
192,192,109189,1,0,0:0:0:0:
64,192,109189,1,0,0:0:0:0:
448,192,109289,1,0,0:0:0:0:
320,192,109389,1,0,0:0:0:0:
192,192,109389,1,0,0:0:0:0:
64,192,109489,1,0,0:0:0:0:
448,192,109489,1,0,0:0:0:0:
192,192,109589,1,0,0:0:0:0:
448,192,109689,1,0,0:0:0:0:
320,192,109789,1,0,0:0:0:0:
64,192,109789,1,0,0:0:0:0:
192,192,109889,1,0,0:0:0:0:
448,192,109889,1,0,0:0:0:0:
64,192,109989,1,0,0:0:0:0:
320,192,109989,1,0,0:0:0:0:
448,192,109989,128,0,110189:0:0:0:0:
192,192,110189,128,0,110389:0:0:0:0:
64,192,110189,1,0,0:0:0:0:
320,192,110389,128,0,110789:0:0:0:0:
448,192,110389,1,0,0:0:0:0:
64,192,110589,1,0,0:0:0:0:
192,192,110789,1,0,0:0:0:0:
448,192,110789,1,0,0:0:0:0:
320,192,110889,1,0,0:0:0:0:
64,192,110889,1,0,0:0:0:0:
192,192,110989,1,0,0:0:0:0:
448,192,110989,1,0,0:0:0:0:
320,192,111089,1,0,0:0:0:0:
64,192,111189,1,0,0:0:0:0:
448,192,111189,1,0,0:0:0:0:
192,192,111289,1,0,0:0:0:0:
320,192,111389,1,0,0:0:0:0:
64,192,111389,1,0,0:0:0:0:
448,192,111489,1,0,0:0:0:0:
192,192,111489,1,0,0:0:0:0:
320,192,111589,1,0,0:0:0:0:
64,192,111589,128,0,111789:0:0:0:0:
192,192,111789,1,0,0:0:0:0:
448,192,111789,128,0,111989:0:0:0:0:
320,192,111989,128,0,112389:0:0:0:0:
64,192,111989,1,0,0:0:0:0:
192,192,112189,1,0,0:0:0:0:
192,192,112389,1,0,0:0:0:0:
448,192,112389,1,0,0:0:0:0:
64,192,112389,1,0,0:0:0:0:
320,192,112489,1,0,0:0:0:0:
448,192,112589,1,0,0:0:0:0:
64,192,112689,1,0,0:0:0:0:
320,192,112689,1,0,0:0:0:0:
192,192,112789,1,0,0:0:0:0:
448,192,112789,1,0,0:0:0:0:
320,192,112889,1,0,0:0:0:0:
192,192,112989,1,0,0:0:0:0:
64,192,112989,1,0,0:0:0:0:
320,192,113089,1,0,0:0:0:0:
448,192,113089,1,0,0:0:0:0:
192,192,113189,1,0,0:0:0:0:
64,192,113189,128,0,113389:0:0:0:0:
320,192,113389,128,0,113589:0:0:0:0:
448,192,113389,1,0,0:0:0:0:
192,192,113589,1,0,0:0:0:0:
448,192,113589,128,0,113989:0:0:0:0:
64,192,113655,1,0,0:0:0:0:
192,192,113722,1,0,0:0:0:0:
320,192,113789,1,0,0:0:0:0:
64,192,113855,1,0,0:0:0:0:
192,192,113922,1,0,0:0:0:0:
64,192,113989,128,0,114189:0:0:0:0:
320,192,113989,128,0,114189:0:0:0:0:
192,192,114289,1,0,0:0:0:0:
448,192,114289,1,0,0:0:0:0:
64,192,114389,128,0,114589:0:0:0:0:
320,192,114389,128,0,114589:0:0:0:0:
448,192,114589,128,0,114789:0:0:0:0:
192,192,114589,128,0,114789:0:0:0:0:
320,192,114789,128,0,115189:0:0:0:0:
64,192,114789,128,0,114989:0:0:0:0:
192,192,114989,128,0,115189:0:0:0:0:
64,192,115189,128,0,115389:0:0:0:0:
448,192,115189,128,0,115389:0:0:0:0:
320,192,115389,1,0,0:0:0:0:
192,192,115389,1,0,0:0:0:0:
192,192,115589,1,0,0:0:0:0:
320,192,115589,1,0,0:0:0:0:
64,192,115589,1,0,0:0:0:0:
448,192,115689,1,0,0:0:0:0:
64,192,115789,1,0,0:0:0:0:
192,192,115789,1,0,0:0:0:0:
320,192,115889,1,0,0:0:0:0:
448,192,115889,1,0,0:0:0:0:
64,192,115989,1,0,0:0:0:0:
192,192,116089,1,0,0:0:0:0:
320,192,116189,1,0,0:0:0:0:
64,192,116189,1,0,0:0:0:0:
448,192,116289,1,0,0:0:0:0:
320,192,116389,128,0,116589:0:0:0:0:
192,192,116389,1,0,0:0:0:0:
448,192,116589,128,0,116789:0:0:0:0:
64,192,116589,1,0,0:0:0:0:
192,192,116789,128,0,117189:0:0:0:0:
64,192,116789,1,0,0:0:0:0:
320,192,116989,1,0,0:0:0:0:
448,192,117189,1,0,0:0:0:0:
320,192,117189,1,0,0:0:0:0:
64,192,117189,1,0,0:0:0:0:
192,192,117289,1,0,0:0:0:0:
64,192,117289,1,0,0:0:0:0:
320,192,117389,1,0,0:0:0:0:
448,192,117389,1,0,0:0:0:0:
192,192,117489,1,0,0:0:0:0:
64,192,117589,1,0,0:0:0:0:
448,192,117589,1,0,0:0:0:0:
320,192,117689,1,0,0:0:0:0:
192,192,117789,1,0,0:0:0:0:
448,192,117789,1,0,0:0:0:0:
64,192,117889,1,0,0:0:0:0:
320,192,117989,1,0,0:0:0:0:
192,192,117989,128,0,118189:0:0:0:0:
448,192,118189,128,0,118389:0:0:0:0:
64,192,118189,1,0,0:0:0:0:
64,192,118389,128,0,118789:0:0:0:0:
320,192,118389,1,0,0:0:0:0:
192,192,118589,1,0,0:0:0:0:
192,192,118789,1,0,0:0:0:0:
320,192,118789,1,0,0:0:0:0:
448,192,118789,1,0,0:0:0:0:
64,192,118889,1,0,0:0:0:0:
192,192,118989,1,0,0:0:0:0:
448,192,118989,1,0,0:0:0:0:
320,192,119089,1,0,0:0:0:0:
448,192,119189,1,0,0:0:0:0:
64,192,119189,1,0,0:0:0:0:
192,192,119289,1,0,0:0:0:0:
320,192,119389,1,0,0:0:0:0:
64,192,119389,1,0,0:0:0:0:
448,192,119489,1,0,0:0:0:0:
320,192,119589,1,0,0:0:0:0:
192,192,119589,1,0,0:0:0:0:
64,192,119589,1,0,0:0:0:0:
448,192,119689,1,0,0:0:0:0:
320,192,119789,1,0,0:0:0:0:
192,192,119789,1,0,0:0:0:0:
64,192,119889,1,0,0:0:0:0:
192,192,119989,1,0,0:0:0:0:
448,192,119989,1,0,0:0:0:0:
320,192,120089,1,0,0:0:0:0:
448,192,120189,1,0,0:0:0:0:
64,192,120189,1,0,0:0:0:0:
192,192,120289,1,0,0:0:0:0:
320,192,120389,1,0,0:0:0:0:
448,192,120389,1,0,0:0:0:0:
64,192,120389,1,0,0:0:0:0:
64,192,120589,1,0,0:0:0:0:
192,192,120639,1,0,0:0:0:0:
320,192,120689,1,0,0:0:0:0:
448,192,120739,1,0,0:0:0:0:
192,192,120789,1,0,0:0:0:0:
64,192,120789,1,0,0:0:0:0:
320,192,120889,1,0,0:0:0:0:
448,192,120989,1,0,0:0:0:0:
64,192,120989,1,0,0:0:0:0:
192,192,121089,1,0,0:0:0:0:
320,192,121089,1,0,0:0:0:0:
64,192,121189,1,0,0:0:0:0:
448,192,121189,1,0,0:0:0:0:
192,192,121289,1,0,0:0:0:0:
320,192,121389,1,0,0:0:0:0:
448,192,121389,1,0,0:0:0:0:
64,192,121489,1,0,0:0:0:0:
192,192,121489,1,0,0:0:0:0:
320,192,121589,1,0,0:0:0:0:
448,192,121589,1,0,0:0:0:0:
192,192,121689,1,0,0:0:0:0:
64,192,121689,1,0,0:0:0:0:
320,192,121789,1,0,0:0:0:0:
448,192,121789,1,0,0:0:0:0:
192,192,121889,1,0,0:0:0:0:
448,192,121989,1,0,0:0:0:0:
64,192,121989,1,0,0:0:0:0:
320,192,121989,1,0,0:0:0:0:
