osu file format v14

[General]
AudioFilename: Keep it-AKIBA KOUBOU mix-.mp3
AudioLeadIn: 1000
PreviewTime: 63176
Countdown: 0
SampleSet: Soft
StackLeniency: 0.7
Mode: 3
LetterboxInBreaks: 0
SpecialStyle: 0
WidescreenStoryboard: 0

[Editor]
DistanceSpacing: 0.9
BeatDivisor: 4
GridSize: 16
TimelineZoom: 2.5

[Metadata]
Title:Keep it-Akiba Koubou Mix-
TitleUnicode:Keep it-秋葉工房 Mix-
Artist:Remixed by DJ Command
ArtistUnicode:Remixed by DJ Command
Creator:Lieselotte
Version:Lv.28
Source:Beatmania IIDX
Tags:17th SIRIUS
BeatmapID:1632235
BeatmapSetID:776870

[Difficulty]
HPDrainRate:8
CircleSize:7
OverallDifficulty:8
ApproachRate:5
SliderMultiplier:1.9
SliderTickRate:1

[Events]
//Background and Video events
0,0,"BG.jpg",0,0
//Break Periods
//Storyboard Layer 0 (Background)
//Storyboard Layer 1 (Fail)
//Storyboard Layer 2 (Pass)
//Storyboard Layer 3 (Foreground)
//Storyboard Sound Samples

[TimingPoints]
5345,361.44578313253,4,2,0,5,1,0

[Colours]
Combo1 : 5,5,240
Combo2 : 5,240,5

[HitObjects]
256,192,5345,5,0,0:0:0:0:
36,192,5345,128,0,7513:0:0:0:0:
475,192,5345,128,0,10766:0:0:0:0:
329,192,8236,128,0,10947:0:0:0:0:
182,192,9682,128,0,11128:0:0:0:0:
475,192,10947,1,0,0:0:0:0:
402,192,11037,1,0,0:0:0:0:
329,192,11128,1,0,0:0:0:0:
109,192,11128,128,0,14019:0:0:0:0:
402,192,12573,128,0,14019:0:0:0:0:
36,192,14019,128,0,15465:0:0:0:0:
475,192,14019,128,0,15465:0:0:0:0:
109,192,15465,128,0,16820:0:0:0:0:
402,192,15465,128,0,16820:0:0:0:0:
182,192,16188,128,0,16820:0:0:0:0:
329,192,16188,128,0,16820:0:0:0:0:
36,192,16911,1,0,0:0:0:0:
182,192,16911,1,0,0:0:0:0:
329,192,16911,1,0,0:0:0:0:
475,192,16911,1,0,0:0:0:0:
256,192,16911,128,0,18357:0:0:0:0:
36,192,17272,1,0,0:0:0:0:
475,192,17272,1,0,0:0:0:0:
36,192,17634,1,0,0:0:0:0:
475,192,17634,1,0,0:0:0:0:
475,192,17995,1,0,0:0:0:0:
36,192,17995,1,0,0:0:0:0:
36,192,18357,1,0,0:0:0:0:
475,192,18357,1,0,0:0:0:0:
109,192,18447,1,0,0:0:0:0:
182,192,18537,1,0,0:0:0:0:
329,192,18628,1,0,0:0:0:0:
182,192,18718,1,0,0:0:0:0:
36,192,18718,1,0,0:0:0:0:
402,192,18808,1,0,0:0:0:0:
256,192,18899,1,0,0:0:0:0:
109,192,18989,1,0,0:0:0:0:
182,192,19079,1,0,0:0:0:0:
402,192,19079,1,0,0:0:0:0:
329,192,19170,1,0,0:0:0:0:
402,192,19260,1,0,0:0:0:0:
329,192,19351,1,0,0:0:0:0:
256,192,19441,1,0,0:0:0:0:
36,192,19441,1,0,0:0:0:0:
109,192,19531,1,0,0:0:0:0:
182,192,19622,1,0,0:0:0:0:
256,192,19712,1,0,0:0:0:0:
329,192,19802,1,0,0:0:0:0:
475,192,19802,1,0,0:0:0:0:
109,192,19802,128,0,20254:0:0:0:0:
329,192,20164,1,0,0:0:0:0:
475,192,20164,1,0,0:0:0:0:
36,192,20344,128,0,20796:0:0:0:0:
182,192,20344,128,0,20796:0:0:0:0:
475,192,20525,1,0,0:0:0:0:
329,192,20525,1,0,0:0:0:0:
329,192,20887,1,0,0:0:0:0:
475,192,20887,1,0,0:0:0:0:
109,192,20887,128,0,21158:0:0:0:0:
329,192,21248,1,0,0:0:0:0:
402,192,21248,1,0,0:0:0:0:
36,192,21248,128,0,22513:0:0:0:0:
329,192,21610,1,0,0:0:0:0:
475,192,21610,1,0,0:0:0:0:
329,192,21971,1,0,0:0:0:0:
402,192,21971,1,0,0:0:0:0:
329,192,22332,1,0,0:0:0:0:
475,192,22332,1,0,0:0:0:0:
182,192,22513,1,0,0:0:0:0:
109,192,22604,1,0,0:0:0:0:
36,192,22694,1,0,0:0:0:0:
329,192,22694,1,0,0:0:0:0:
475,192,22694,128,0,23326:0:0:0:0:
182,192,22875,1,0,0:0:0:0:
36,192,23055,1,0,0:0:0:0:
256,192,23055,1,0,0:0:0:0:
109,192,23236,1,0,0:0:0:0:
36,192,23417,1,0,0:0:0:0:
182,192,23417,1,0,0:0:0:0:
329,192,23417,128,0,24049:0:0:0:0:
109,192,23598,1,0,0:0:0:0:
36,192,23778,1,0,0:0:0:0:
182,192,23778,1,0,0:0:0:0:
109,192,23959,1,0,0:0:0:0:
36,192,24140,1,0,0:0:0:0:
256,192,24140,1,0,0:0:0:0:
475,192,24140,128,0,24772:0:0:0:0:
182,192,24320,1,0,0:0:0:0:
36,192,24501,1,0,0:0:0:0:
256,192,24501,1,0,0:0:0:0:
109,192,24682,1,0,0:0:0:0:
36,192,24863,1,0,0:0:0:0:
182,192,24863,1,0,0:0:0:0:
402,192,24863,128,0,25495:0:0:0:0:
256,192,25043,1,0,0:0:0:0:
182,192,25224,1,0,0:0:0:0:
36,192,25224,1,0,0:0:0:0:
109,192,25405,1,0,0:0:0:0:
182,192,25585,1,0,0:0:0:0:
329,192,25585,1,0,0:0:0:0:
36,192,25585,128,0,27031:0:0:0:0:
475,192,25585,128,0,27031:0:0:0:0:
256,192,25766,1,0,0:0:0:0:
402,192,25947,1,0,0:0:0:0:
109,192,25947,1,0,0:0:0:0:
256,192,26128,1,0,0:0:0:0:
329,192,26308,1,0,0:0:0:0:
182,192,26308,1,0,0:0:0:0:
182,192,26489,1,0,0:0:0:0:
329,192,26489,1,0,0:0:0:0:
182,192,26670,1,0,0:0:0:0:
109,192,26670,1,0,0:0:0:0:
329,192,26760,1,0,0:0:0:0:
402,192,26760,1,0,0:0:0:0:
182,192,26851,1,0,0:0:0:0:
109,192,26851,1,0,0:0:0:0:
329,192,26941,1,0,0:0:0:0:
402,192,26941,1,0,0:0:0:0:
182,192,27031,1,0,0:0:0:0:
109,192,27031,1,0,0:0:0:0:
329,192,27122,1,0,0:0:0:0:
182,192,27212,1,0,0:0:0:0:
329,192,27302,1,0,0:0:0:0:
109,192,27393,1,0,0:0:0:0:
402,192,27483,1,0,0:0:0:0:
182,192,27573,1,0,0:0:0:0:
329,192,27664,1,0,0:0:0:0:
182,192,27754,1,0,0:0:0:0:
475,192,27754,1,0,0:0:0:0:
402,192,27844,1,0,0:0:0:0:
109,192,27844,1,0,0:0:0:0:
329,192,27935,1,0,0:0:0:0:
36,192,27935,1,0,0:0:0:0:
109,192,28025,1,0,0:0:0:0:
402,192,28025,1,0,0:0:0:0:
182,192,28116,1,0,0:0:0:0:
329,192,28116,1,0,0:0:0:0:
36,192,28206,1,0,0:0:0:0:
475,192,28206,1,0,0:0:0:0:
402,192,28296,1,0,0:0:0:0:
109,192,28296,1,0,0:0:0:0:
329,192,28387,1,0,0:0:0:0:
182,192,28387,1,0,0:0:0:0:
256,192,28477,1,0,0:0:0:0:
475,192,28477,1,0,0:0:0:0:
36,192,28477,128,0,28658:0:0:0:0:
329,192,28567,1,0,0:0:0:0:
475,192,28658,1,0,0:0:0:0:
402,192,28748,1,0,0:0:0:0:
329,192,28838,1,0,0:0:0:0:
109,192,28838,128,0,29019:0:0:0:0:
475,192,29019,1,0,0:0:0:0:
329,192,29110,1,0,0:0:0:0:
402,192,29200,1,0,0:0:0:0:
182,192,29200,1,0,0:0:0:0:
36,192,29200,1,0,0:0:0:0:
256,192,29290,1,0,0:0:0:0:
329,192,29381,1,0,0:0:0:0:
109,192,29381,128,0,29561:0:0:0:0:
475,192,29561,1,0,0:0:0:0:
402,192,29652,1,0,0:0:0:0:
329,192,29742,1,0,0:0:0:0:
182,192,29742,128,0,30284:0:0:0:0:
36,192,29742,128,0,31369:0:0:0:0:
256,192,30284,1,0,0:0:0:0:
475,192,30284,1,0,0:0:0:0:
402,192,30375,1,0,0:0:0:0:
329,192,30465,1,0,0:0:0:0:
402,192,30555,1,0,0:0:0:0:
475,192,30646,1,0,0:0:0:0:
182,192,30646,1,0,0:0:0:0:
329,192,30736,1,0,0:0:0:0:
182,192,30826,1,0,0:0:0:0:
329,192,30917,1,0,0:0:0:0:
182,192,31007,1,0,0:0:0:0:
475,192,31007,1,0,0:0:0:0:
256,192,31098,1,0,0:0:0:0:
329,192,31188,1,0,0:0:0:0:
402,192,31278,1,0,0:0:0:0:
475,192,31369,1,0,0:0:0:0:
182,192,31369,128,0,31459:0:0:0:0:
329,192,31459,128,0,31549:0:0:0:0:
109,192,31549,128,0,31640:0:0:0:0:
256,192,31640,128,0,31730:0:0:0:0:
36,192,31730,128,0,31820:0:0:0:0:
182,192,31820,128,0,31911:0:0:0:0:
402,192,31911,128,0,32001:0:0:0:0:
256,192,32001,128,0,32091:0:0:0:0:
109,192,32091,128,0,32182:0:0:0:0:
402,192,32182,128,0,32272:0:0:0:0:
182,192,32272,128,0,32363:0:0:0:0:
329,192,32363,128,0,32453:0:0:0:0:
256,192,32453,1,0,0:0:0:0:
36,192,32453,128,0,32543:0:0:0:0:
329,192,32543,1,0,0:0:0:0:
109,192,32543,128,0,32634:0:0:0:0:
402,192,32634,1,0,0:0:0:0:
182,192,32634,128,0,32724:0:0:0:0:
475,192,32724,1,0,0:0:0:0:
256,192,32724,128,0,32814:0:0:0:0:
402,192,32814,1,0,0:0:0:0:
109,192,32814,1,0,0:0:0:0:
402,192,32905,1,0,0:0:0:0:
109,192,32905,1,0,0:0:0:0:
182,192,32995,1,0,0:0:0:0:
329,192,32995,1,0,0:0:0:0:
256,192,33085,1,0,0:0:0:0:
475,192,33357,1,0,0:0:0:0:
36,192,33357,1,0,0:0:0:0:
36,192,33447,1,0,0:0:0:0:
475,192,33447,1,0,0:0:0:0:
402,192,33537,1,0,0:0:0:0:
109,192,33537,1,0,0:0:0:0:
256,192,33628,1,0,0:0:0:0:
36,192,33899,1,0,0:0:0:0:
475,192,33899,1,0,0:0:0:0:
109,192,33989,1,0,0:0:0:0:
329,192,33989,1,0,0:0:0:0:
182,192,34079,1,0,0:0:0:0:
475,192,34079,1,0,0:0:0:0:
109,192,34170,1,0,0:0:0:0:
329,192,34170,1,0,0:0:0:0:
182,192,34260,1,0,0:0:0:0:
475,192,34260,128,0,34441:0:0:0:0:
36,192,34260,128,0,34622:0:0:0:0:
109,192,34622,1,0,0:0:0:0:
256,192,34622,1,0,0:0:0:0:
402,192,34622,128,0,34802:0:0:0:0:
36,192,34802,1,0,0:0:0:0:
109,192,34893,1,0,0:0:0:0:
182,192,34983,1,0,0:0:0:0:
329,192,34983,1,0,0:0:0:0:
475,192,34983,1,0,0:0:0:0:
109,192,35073,1,0,0:0:0:0:
182,192,35164,1,0,0:0:0:0:
402,192,35164,128,0,35344:0:0:0:0:
256,192,35344,1,0,0:0:0:0:
36,192,35344,1,0,0:0:0:0:
182,192,35435,1,0,0:0:0:0:
109,192,35525,1,0,0:0:0:0:
329,192,35525,128,0,36067:0:0:0:0:
475,192,35525,128,0,37152:0:0:0:0:
256,192,36067,1,0,0:0:0:0:
36,192,36067,1,0,0:0:0:0:
109,192,36158,1,0,0:0:0:0:
182,192,36248,1,0,0:0:0:0:
109,192,36338,1,0,0:0:0:0:
36,192,36429,1,0,0:0:0:0:
329,192,36429,1,0,0:0:0:0:
182,192,36519,1,0,0:0:0:0:
329,192,36610,1,0,0:0:0:0:
182,192,36700,1,0,0:0:0:0:
36,192,36790,1,0,0:0:0:0:
329,192,36790,1,0,0:0:0:0:
256,192,36881,1,0,0:0:0:0:
182,192,36971,1,0,0:0:0:0:
109,192,37061,1,0,0:0:0:0:
36,192,37152,1,0,0:0:0:0:
329,192,37152,128,0,37242:0:0:0:0:
475,192,37242,128,0,37332:0:0:0:0:
256,192,37332,128,0,37423:0:0:0:0:
402,192,37423,128,0,37513:0:0:0:0:
182,192,37513,128,0,37604:0:0:0:0:
329,192,37604,128,0,37694:0:0:0:0:
109,192,37694,128,0,37784:0:0:0:0:
256,192,37784,128,0,37875:0:0:0:0:
402,192,37875,128,0,37965:0:0:0:0:
109,192,37965,128,0,38055:0:0:0:0:
329,192,38055,128,0,38146:0:0:0:0:
182,192,38146,128,0,38236:0:0:0:0:
256,192,38236,1,0,0:0:0:0:
475,192,38236,128,0,38326:0:0:0:0:
182,192,38326,1,0,0:0:0:0:
402,192,38326,128,0,38417:0:0:0:0:
109,192,38417,1,0,0:0:0:0:
329,192,38417,128,0,38507:0:0:0:0:
36,192,38507,1,0,0:0:0:0:
256,192,38507,128,0,38598:0:0:0:0:
109,192,38598,1,0,0:0:0:0:
402,192,38598,1,0,0:0:0:0:
475,192,38869,1,0,0:0:0:0:
256,192,38869,1,0,0:0:0:0:
36,192,38869,1,0,0:0:0:0:
256,192,39140,1,0,0:0:0:0:
402,192,39140,1,0,0:0:0:0:
109,192,39140,1,0,0:0:0:0:
182,192,39411,1,0,0:0:0:0:
256,192,39411,1,0,0:0:0:0:
329,192,39411,1,0,0:0:0:0:
475,192,39682,1,0,0:0:0:0:
256,192,39682,1,0,0:0:0:0:
36,192,39682,1,0,0:0:0:0:
109,192,39772,1,0,0:0:0:0:
182,192,39863,1,0,0:0:0:0:
329,192,39863,1,0,0:0:0:0:
402,192,39953,1,0,0:0:0:0:
475,192,40043,1,0,0:0:0:0:
256,192,40043,1,0,0:0:0:0:
36,192,40043,1,0,0:0:0:0:
402,192,40224,1,0,0:0:0:0:
109,192,40224,128,0,40405:0:0:0:0:
329,192,40405,1,0,0:0:0:0:
475,192,40405,1,0,0:0:0:0:
36,192,40585,1,0,0:0:0:0:
182,192,40585,128,0,40766:0:0:0:0:
256,192,40766,1,0,0:0:0:0:
402,192,40766,1,0,0:0:0:0:
109,192,40947,128,0,41128:0:0:0:0:
329,192,40947,1,0,0:0:0:0:
256,192,41128,1,0,0:0:0:0:
475,192,41128,1,0,0:0:0:0:
182,192,41308,128,0,41489:0:0:0:0:
402,192,41308,1,0,0:0:0:0:
329,192,41489,1,0,0:0:0:0:
36,192,41489,1,0,0:0:0:0:
109,192,41670,1,0,0:0:0:0:
402,192,41670,128,0,41851:0:0:0:0:
182,192,41760,1,0,0:0:0:0:
256,192,41851,1,0,0:0:0:0:
36,192,41851,1,0,0:0:0:0:
329,192,42031,128,0,42212:0:0:0:0:
475,192,42031,1,0,0:0:0:0:
256,192,42212,1,0,0:0:0:0:
109,192,42212,1,0,0:0:0:0:
182,192,42393,1,0,0:0:0:0:
402,192,42393,128,0,42573:0:0:0:0:
256,192,42573,1,0,0:0:0:0:
36,192,42573,1,0,0:0:0:0:
109,192,42754,1,0,0:0:0:0:
329,192,42754,128,0,42935:0:0:0:0:
36,192,42935,1,0,0:0:0:0:
182,192,42935,1,0,0:0:0:0:
109,192,43116,128,0,43296:0:0:0:0:
256,192,43116,1,0,0:0:0:0:
329,192,43296,1,0,0:0:0:0:
475,192,43296,1,0,0:0:0:0:
36,192,43477,1,0,0:0:0:0:
182,192,43477,128,0,43658:0:0:0:0:
256,192,43658,1,0,0:0:0:0:
402,192,43658,1,0,0:0:0:0:
109,192,43748,1,0,0:0:0:0:
256,192,43838,1,0,0:0:0:0:
402,192,43929,1,0,0:0:0:0:
182,192,44019,1,0,0:0:0:0:
36,192,44019,1,0,0:0:0:0:
256,192,44110,1,0,0:0:0:0:
329,192,44200,1,0,0:0:0:0:
402,192,44290,1,0,0:0:0:0:
475,192,44381,1,0,0:0:0:0:
109,192,44381,1,0,0:0:0:0:
182,192,44561,1,0,0:0:0:0:
256,192,44742,1,0,0:0:0:0:
402,192,44742,1,0,0:0:0:0:
36,192,44742,128,0,45465:0:0:0:0:
329,192,44923,128,0,45194:0:0:0:0:
182,192,45284,128,0,45646:0:0:0:0:
475,192,45465,128,0,45826:0:0:0:0:
402,192,45465,1,0,0:0:0:0:
329,192,45555,1,0,0:0:0:0:
256,192,45646,1,0,0:0:0:0:
36,192,45646,1,0,0:0:0:0:
36,192,45826,1,0,0:0:0:0:
182,192,45826,1,0,0:0:0:0:
329,192,45826,1,0,0:0:0:0:
256,192,46007,1,0,0:0:0:0:
402,192,46007,128,0,46188:0:0:0:0:
182,192,46188,1,0,0:0:0:0:
36,192,46188,1,0,0:0:0:0:
475,192,46369,1,0,0:0:0:0:
329,192,46369,128,0,46549:0:0:0:0:
256,192,46549,1,0,0:0:0:0:
109,192,46549,1,0,0:0:0:0:
329,192,46730,1,0,0:0:0:0:
475,192,46730,128,0,46911:0:0:0:0:
182,192,46911,1,0,0:0:0:0:
36,192,46911,1,0,0:0:0:0:
109,192,47091,1,0,0:0:0:0:
402,192,47091,128,0,47272:0:0:0:0:
36,192,47272,1,0,0:0:0:0:
256,192,47272,1,0,0:0:0:0:
109,192,47453,128,0,47634:0:0:0:0:
475,192,47453,1,0,0:0:0:0:
402,192,47543,1,0,0:0:0:0:
329,192,47634,1,0,0:0:0:0:
182,192,47634,1,0,0:0:0:0:
256,192,47814,1,0,0:0:0:0:
36,192,47814,128,0,47995:0:0:0:0:
329,192,47995,1,0,0:0:0:0:
475,192,47995,1,0,0:0:0:0:
36,192,48176,1,0,0:0:0:0:
182,192,48176,128,0,48357:0:0:0:0:
256,192,48357,1,0,0:0:0:0:
402,192,48357,1,0,0:0:0:0:
329,192,48537,1,0,0:0:0:0:
109,192,48537,128,0,48718:0:0:0:0:
256,192,48718,1,0,0:0:0:0:
36,192,48718,1,0,0:0:0:0:
109,192,48899,1,0,0:0:0:0:
402,192,48899,128,0,49079:0:0:0:0:
182,192,49079,1,0,0:0:0:0:
36,192,49079,1,0,0:0:0:0:
329,192,49260,1,0,0:0:0:0:
475,192,49260,128,0,49441:0:0:0:0:
256,192,49441,1,0,0:0:0:0:
109,192,49441,1,0,0:0:0:0:
182,192,49622,1,0,0:0:0:0:
402,192,49622,128,0,49802:0:0:0:0:
36,192,49802,1,0,0:0:0:0:
256,192,49802,1,0,0:0:0:0:
109,192,49983,1,0,0:0:0:0:
329,192,49983,128,0,50164:0:0:0:0:
36,192,50164,1,0,0:0:0:0:
182,192,50164,1,0,0:0:0:0:
256,192,50254,1,0,0:0:0:0:
329,192,50344,1,0,0:0:0:0:
475,192,50344,1,0,0:0:0:0:
256,192,50435,1,0,0:0:0:0:
109,192,50525,1,0,0:0:0:0:
402,192,50525,1,0,0:0:0:0:
36,192,50706,1,0,0:0:0:0:
475,192,50706,1,0,0:0:0:0:
256,192,50706,128,0,50977:0:0:0:0:
256,192,51067,128,0,51248:0:0:0:0:
109,192,51067,1,0,0:0:0:0:
402,192,51067,1,0,0:0:0:0:
182,192,51248,1,0,0:0:0:0:
36,192,51248,1,0,0:0:0:0:
329,192,51338,1,0,0:0:0:0:
475,192,51338,1,0,0:0:0:0:
182,192,51429,1,0,0:0:0:0:
109,192,51429,1,0,0:0:0:0:
329,192,51519,1,0,0:0:0:0:
402,192,51519,1,0,0:0:0:0:
182,192,51610,1,0,0:0:0:0:
36,192,51610,1,0,0:0:0:0:
256,192,51790,1,0,0:0:0:0:
402,192,51790,1,0,0:0:0:0:
329,192,51971,1,0,0:0:0:0:
182,192,51971,1,0,0:0:0:0:
256,192,52152,1,0,0:0:0:0:
402,192,52152,1,0,0:0:0:0:
36,192,52152,128,0,52694:0:0:0:0:
475,192,52332,1,0,0:0:0:0:
329,192,52423,1,0,0:0:0:0:
182,192,52513,1,0,0:0:0:0:
256,192,52604,1,0,0:0:0:0:
329,192,52694,1,0,0:0:0:0:
475,192,52694,1,0,0:0:0:0:
256,192,52875,1,0,0:0:0:0:
182,192,53055,1,0,0:0:0:0:
36,192,53055,1,0,0:0:0:0:
329,192,53055,128,0,53236:0:0:0:0:
109,192,53236,1,0,0:0:0:0:
182,192,53417,1,0,0:0:0:0:
36,192,53417,1,0,0:0:0:0:
329,192,53417,128,0,53598:0:0:0:0:
109,192,53598,1,0,0:0:0:0:
475,192,53598,128,0,54140:0:0:0:0:
36,192,53778,1,0,0:0:0:0:
182,192,53869,1,0,0:0:0:0:
329,192,53959,1,0,0:0:0:0:
256,192,54049,1,0,0:0:0:0:
182,192,54140,1,0,0:0:0:0:
36,192,54140,1,0,0:0:0:0:
36,192,54320,1,0,0:0:0:0:
182,192,54320,1,0,0:0:0:0:
109,192,54501,1,0,0:0:0:0:
256,192,54501,1,0,0:0:0:0:
329,192,54591,1,0,0:0:0:0:
182,192,54682,1,0,0:0:0:0:
36,192,54772,1,0,0:0:0:0:
256,192,54863,1,0,0:0:0:0:
402,192,54863,1,0,0:0:0:0:
182,192,55043,1,0,0:0:0:0:
475,192,55043,128,0,55314:0:0:0:0:
109,192,55224,1,0,0:0:0:0:
256,192,55224,1,0,0:0:0:0:
182,192,55405,1,0,0:0:0:0:
402,192,55405,128,0,55676:0:0:0:0:
256,192,55585,1,0,0:0:0:0:
36,192,55585,1,0,0:0:0:0:
109,192,55766,1,0,0:0:0:0:
329,192,55766,128,0,56308:0:0:0:0:
475,192,55766,128,0,56308:0:0:0:0:
36,192,55947,1,0,0:0:0:0:
182,192,55947,1,0,0:0:0:0:
109,192,56128,1,0,0:0:0:0:
182,192,56308,1,0,0:0:0:0:
36,192,56308,1,0,0:0:0:0:
256,192,56489,1,0,0:0:0:0:
329,192,56670,1,0,0:0:0:0:
36,192,56670,1,0,0:0:0:0:
109,192,56760,1,0,0:0:0:0:
182,192,56851,1,0,0:0:0:0:
256,192,56941,1,0,0:0:0:0:
36,192,57031,1,0,0:0:0:0:
402,192,57031,1,0,0:0:0:0:
329,192,57122,1,0,0:0:0:0:
256,192,57212,1,0,0:0:0:0:
182,192,57302,1,0,0:0:0:0:
109,192,57393,1,0,0:0:0:0:
329,192,57393,1,0,0:0:0:0:
475,192,57393,128,0,58477:0:0:0:0:
182,192,57573,1,0,0:0:0:0:
109,192,57754,1,0,0:0:0:0:
256,192,57754,1,0,0:0:0:0:
329,192,57935,1,0,0:0:0:0:
182,192,58116,1,0,0:0:0:0:
36,192,58116,1,0,0:0:0:0:
256,192,58206,1,0,0:0:0:0:
109,192,58296,1,0,0:0:0:0:
182,192,58387,1,0,0:0:0:0:
402,192,58477,128,0,58838:0:0:0:0:
256,192,58477,1,0,0:0:0:0:
36,192,58477,1,0,0:0:0:0:
182,192,58658,1,0,0:0:0:0:
256,192,58838,1,0,0:0:0:0:
109,192,58838,1,0,0:0:0:0:
36,192,58838,128,0,59923:0:0:0:0:
329,192,59019,1,0,0:0:0:0:
256,192,59200,1,0,0:0:0:0:
402,192,59200,1,0,0:0:0:0:
329,192,59381,1,0,0:0:0:0:
182,192,59561,1,0,0:0:0:0:
475,192,59561,1,0,0:0:0:0:
329,192,59652,1,0,0:0:0:0:
402,192,59742,1,0,0:0:0:0:
329,192,59832,1,0,0:0:0:0:
256,192,59923,1,0,0:0:0:0:
475,192,59923,1,0,0:0:0:0:
182,192,59923,128,0,60284:0:0:0:0:
475,192,60104,1,0,0:0:0:0:
329,192,60104,1,0,0:0:0:0:
256,192,60284,1,0,0:0:0:0:
36,192,60284,1,0,0:0:0:0:
329,192,60284,128,0,61369:0:0:0:0:
475,192,60284,128,0,61369:0:0:0:0:
109,192,60465,1,0,0:0:0:0:
36,192,60646,1,0,0:0:0:0:
182,192,60646,1,0,0:0:0:0:
256,192,60826,1,0,0:0:0:0:
182,192,61007,1,0,0:0:0:0:
36,192,61007,1,0,0:0:0:0:
109,192,61188,1,0,0:0:0:0:
36,192,61369,1,0,0:0:0:0:
182,192,61369,1,0,0:0:0:0:
256,192,61549,1,0,0:0:0:0:
475,192,61549,1,0,0:0:0:0:
36,192,61640,1,0,0:0:0:0:
475,192,61730,1,0,0:0:0:0:
182,192,61730,128,0,62453:0:0:0:0:
329,192,61730,128,0,62453:0:0:0:0:
475,192,62453,1,0,0:0:0:0:
36,192,62453,1,0,0:0:0:0:
402,192,62543,1,0,0:0:0:0:
109,192,62543,1,0,0:0:0:0:
329,192,62634,1,0,0:0:0:0:
182,192,62634,1,0,0:0:0:0:
256,192,62724,1,0,0:0:0:0:
402,192,62814,1,0,0:0:0:0:
109,192,62814,1,0,0:0:0:0:
182,192,62905,1,0,0:0:0:0:
329,192,62905,1,0,0:0:0:0:
475,192,62995,1,0,0:0:0:0:
36,192,62995,1,0,0:0:0:0:
402,192,63085,1,0,0:0:0:0:
109,192,63085,1,0,0:0:0:0:
329,192,63176,1,0,0:0:0:0:
182,192,63176,1,0,0:0:0:0:
256,192,63357,1,0,0:0:0:0:
109,192,63357,1,0,0:0:0:0:
182,192,63537,1,0,0:0:0:0:
402,192,63537,1,0,0:0:0:0:
256,192,63718,1,0,0:0:0:0:
36,192,63718,128,0,64351:0:0:0:0:
329,192,63899,1,0,0:0:0:0:
475,192,63899,1,0,0:0:0:0:
182,192,64079,128,0,64351:0:0:0:0:
402,192,64079,1,0,0:0:0:0:
329,192,64260,1,0,0:0:0:0:
475,192,64260,1,0,0:0:0:0:
402,192,64441,1,0,0:0:0:0:
36,192,64441,128,0,65164:0:0:0:0:
182,192,64441,128,0,65164:0:0:0:0:
329,192,64622,1,0,0:0:0:0:
402,192,64712,1,0,0:0:0:0:
475,192,64802,1,0,0:0:0:0:
402,192,64893,1,0,0:0:0:0:
329,192,64983,1,0,0:0:0:0:
402,192,65073,1,0,0:0:0:0:
475,192,65164,1,0,0:0:0:0:
402,192,65344,1,0,0:0:0:0:
256,192,65344,1,0,0:0:0:0:
182,192,65525,1,0,0:0:0:0:
36,192,65525,1,0,0:0:0:0:
256,192,65706,1,0,0:0:0:0:
109,192,65706,1,0,0:0:0:0:
182,192,65887,1,0,0:0:0:0:
329,192,65887,1,0,0:0:0:0:
256,192,66067,1,0,0:0:0:0:
402,192,66067,1,0,0:0:0:0:
36,192,66067,1,0,0:0:0:0:
109,192,66248,1,0,0:0:0:0:
182,192,66429,1,0,0:0:0:0:
36,192,66429,1,0,0:0:0:0:
109,192,66610,1,0,0:0:0:0:
329,192,66610,128,0,66971:0:0:0:0:
475,192,66610,128,0,66971:0:0:0:0:
182,192,66790,1,0,0:0:0:0:
36,192,66790,1,0,0:0:0:0:
109,192,66971,1,0,0:0:0:0:
256,192,67152,1,0,0:0:0:0:
402,192,67152,1,0,0:0:0:0:
182,192,67332,1,0,0:0:0:0:
36,192,67332,128,0,68055:0:0:0:0:
475,192,67332,128,0,68055:0:0:0:0:
329,192,67513,1,0,0:0:0:0:
402,192,67513,1,0,0:0:0:0:
182,192,67604,1,0,0:0:0:0:
329,192,67694,1,0,0:0:0:0:
182,192,67875,1,0,0:0:0:0:
109,192,67875,1,0,0:0:0:0:
329,192,67965,1,0,0:0:0:0:
182,192,68055,1,0,0:0:0:0:
329,192,68146,1,0,0:0:0:0:
182,192,68236,1,0,0:0:0:0:
36,192,68236,1,0,0:0:0:0:
402,192,68326,1,0,0:0:0:0:
109,192,68417,1,0,0:0:0:0:
402,192,68598,1,0,0:0:0:0:
329,192,68598,1,0,0:0:0:0:
182,192,68688,1,0,0:0:0:0:
109,192,68688,1,0,0:0:0:0:
329,192,68778,1,0,0:0:0:0:
402,192,68778,1,0,0:0:0:0:
182,192,68869,1,0,0:0:0:0:
109,192,68869,1,0,0:0:0:0:
329,192,68959,1,0,0:0:0:0:
475,192,68959,1,0,0:0:0:0:
182,192,69140,1,0,0:0:0:0:
36,192,69140,1,0,0:0:0:0:
109,192,69320,1,0,0:0:0:0:
256,192,69320,1,0,0:0:0:0:
182,192,69501,1,0,0:0:0:0:
475,192,69501,128,0,70043:0:0:0:0:
256,192,69682,1,0,0:0:0:0:
36,192,69682,1,0,0:0:0:0:
329,192,69863,128,0,70495:0:0:0:0:
109,192,69863,1,0,0:0:0:0:
182,192,70043,1,0,0:0:0:0:
36,192,70043,1,0,0:0:0:0:
475,192,70224,128,0,70495:0:0:0:0:
109,192,70224,1,0,0:0:0:0:
182,192,70405,1,0,0:0:0:0:
36,192,70405,1,0,0:0:0:0:
109,192,70585,1,0,0:0:0:0:
329,192,70585,128,0,71128:0:0:0:0:
475,192,70585,128,0,71128:0:0:0:0:
256,192,70766,1,0,0:0:0:0:
36,192,70766,1,0,0:0:0:0:
109,192,70947,1,0,0:0:0:0:
36,192,71128,1,0,0:0:0:0:
109,192,71173,1,0,0:0:0:0:
182,192,71218,1,0,0:0:0:0:
475,192,71263,1,0,0:0:0:0:
402,192,71308,1,0,0:0:0:0:
329,192,71354,1,0,0:0:0:0:
36,192,71399,1,0,0:0:0:0:
109,192,71444,1,0,0:0:0:0:
182,192,71489,1,0,0:0:0:0:
475,192,71489,1,0,0:0:0:0:
402,192,71670,1,0,0:0:0:0:
256,192,71670,1,0,0:0:0:0:
329,192,71851,1,0,0:0:0:0:
182,192,71851,1,0,0:0:0:0:
475,192,71851,128,0,72212:0:0:0:0:
109,192,72031,1,0,0:0:0:0:
36,192,72212,1,0,0:0:0:0:
182,192,72212,1,0,0:0:0:0:
109,192,72393,1,0,0:0:0:0:
256,192,72393,128,0,72754:0:0:0:0:
402,192,72393,128,0,72754:0:0:0:0:
182,192,72573,1,0,0:0:0:0:
36,192,72573,1,0,0:0:0:0:
109,192,72754,1,0,0:0:0:0:
256,192,72935,1,0,0:0:0:0:
36,192,72935,1,0,0:0:0:0:
329,192,72935,128,0,73296:0:0:0:0:
475,192,72935,128,0,73296:0:0:0:0:
109,192,73116,1,0,0:0:0:0:
36,192,73296,1,0,0:0:0:0:
182,192,73296,128,0,73387:0:0:0:0:
329,192,73387,128,0,73477:0:0:0:0:
109,192,73477,128,0,73567:0:0:0:0:
256,192,73567,128,0,73658:0:0:0:0:
36,192,73658,128,0,73748:0:0:0:0:
475,192,73658,1,0,0:0:0:0:
182,192,73748,128,0,73838:0:0:0:0:
475,192,73838,1,0,0:0:0:0:
329,192,73838,128,0,73929:0:0:0:0:
182,192,73929,128,0,74019:0:0:0:0:
36,192,74019,1,0,0:0:0:0:
475,192,74019,128,0,74110:0:0:0:0:
182,192,74110,1,0,0:0:0:0:
329,192,74110,128,0,74200:0:0:0:0:
36,192,74200,1,0,0:0:0:0:
475,192,74200,128,0,74290:0:0:0:0:
329,192,74290,128,0,74381:0:0:0:0:
182,192,74290,1,0,0:0:0:0:
475,192,74381,1,0,0:0:0:0:
36,192,74381,128,0,74471:0:0:0:0:
329,192,74471,1,0,0:0:0:0:
182,192,74471,128,0,74561:0:0:0:0:
475,192,74561,1,0,0:0:0:0:
36,192,74561,128,0,74652:0:0:0:0:
329,192,74652,1,0,0:0:0:0:
182,192,74652,128,0,74742:0:0:0:0:
475,192,74742,1,0,0:0:0:0:
36,192,74742,1,0,0:0:0:0:
329,192,74923,1,0,0:0:0:0:
109,192,74923,1,0,0:0:0:0:
256,192,75104,1,0,0:0:0:0:
402,192,75104,1,0,0:0:0:0:
109,192,75284,1,0,0:0:0:0:
475,192,75284,128,0,75917:0:0:0:0:
36,192,75465,1,0,0:0:0:0:
182,192,75465,1,0,0:0:0:0:
329,192,75646,128,0,75917:0:0:0:0:
109,192,75646,1,0,0:0:0:0:
182,192,75826,1,0,0:0:0:0:
36,192,75826,1,0,0:0:0:0:
109,192,76007,1,0,0:0:0:0:
329,192,76007,128,0,76730:0:0:0:0:
475,192,76007,128,0,76730:0:0:0:0:
36,192,76188,1,0,0:0:0:0:
109,192,76278,1,0,0:0:0:0:
182,192,76369,1,0,0:0:0:0:
109,192,76459,1,0,0:0:0:0:
36,192,76549,1,0,0:0:0:0:
109,192,76640,1,0,0:0:0:0:
182,192,76730,1,0,0:0:0:0:
256,192,76911,1,0,0:0:0:0:
402,192,76911,1,0,0:0:0:0:
329,192,77091,1,0,0:0:0:0:
475,192,77091,1,0,0:0:0:0:
182,192,77272,1,0,0:0:0:0:
36,192,77272,1,0,0:0:0:0:
109,192,77453,1,0,0:0:0:0:
256,192,77453,1,0,0:0:0:0:
182,192,77634,1,0,0:0:0:0:
329,192,77634,1,0,0:0:0:0:
36,192,77634,128,0,77814:0:0:0:0:
182,192,77814,128,0,77995:0:0:0:0:
402,192,77814,1,0,0:0:0:0:
475,192,77995,1,0,0:0:0:0:
329,192,77995,128,0,78176:0:0:0:0:
36,192,77995,1,0,0:0:0:0:
182,192,78176,1,0,0:0:0:0:
109,192,78176,128,0,78357:0:0:0:0:
256,192,78357,1,0,0:0:0:0:
475,192,78357,1,0,0:0:0:0:
402,192,78357,128,0,78537:0:0:0:0:
36,192,78537,1,0,0:0:0:0:
182,192,78537,128,0,78718:0:0:0:0:
256,192,78718,1,0,0:0:0:0:
402,192,78718,1,0,0:0:0:0:
182,192,78899,1,0,0:0:0:0:
36,192,78899,128,0,79802:0:0:0:0:
475,192,78899,128,0,79802:0:0:0:0:
329,192,79079,1,0,0:0:0:0:
402,192,79079,1,0,0:0:0:0:
182,192,79170,1,0,0:0:0:0:
329,192,79260,1,0,0:0:0:0:
182,192,79441,1,0,0:0:0:0:
109,192,79441,1,0,0:0:0:0:
329,192,79531,1,0,0:0:0:0:
182,192,79622,1,0,0:0:0:0:
329,192,79712,1,0,0:0:0:0:
182,192,79802,1,0,0:0:0:0:
109,192,79802,1,0,0:0:0:0:
402,192,79893,1,0,0:0:0:0:
109,192,79983,1,0,0:0:0:0:
402,192,80164,1,0,0:0:0:0:
329,192,80164,1,0,0:0:0:0:
182,192,80254,1,0,0:0:0:0:
109,192,80254,1,0,0:0:0:0:
329,192,80344,1,0,0:0:0:0:
402,192,80344,1,0,0:0:0:0:
182,192,80435,1,0,0:0:0:0:
109,192,80435,1,0,0:0:0:0:
329,192,80525,1,0,0:0:0:0:
475,192,80525,1,0,0:0:0:0:
402,192,80706,1,0,0:0:0:0:
256,192,80706,1,0,0:0:0:0:
329,192,80887,1,0,0:0:0:0:
36,192,80887,1,0,0:0:0:0:
402,192,81067,1,0,0:0:0:0:
182,192,81067,128,0,81610:0:0:0:0:
329,192,81248,1,0,0:0:0:0:
475,192,81248,1,0,0:0:0:0:
402,192,81429,1,0,0:0:0:0:
36,192,81429,128,0,82061:0:0:0:0:
329,192,81610,1,0,0:0:0:0:
475,192,81610,1,0,0:0:0:0:
182,192,81790,128,0,82061:0:0:0:0:
402,192,81790,1,0,0:0:0:0:
256,192,81971,1,0,0:0:0:0:
475,192,81971,1,0,0:0:0:0:
36,192,82152,128,0,82694:0:0:0:0:
182,192,82152,128,0,82694:0:0:0:0:
402,192,82152,1,0,0:0:0:0:
329,192,82332,1,0,0:0:0:0:
475,192,82332,1,0,0:0:0:0:
402,192,82513,1,0,0:0:0:0:
475,192,82694,1,0,0:0:0:0:
402,192,82739,1,0,0:0:0:0:
329,192,82784,1,0,0:0:0:0:
36,192,82829,1,0,0:0:0:0:
109,192,82875,1,0,0:0:0:0:
182,192,82920,1,0,0:0:0:0:
475,192,82965,1,0,0:0:0:0:
402,192,83010,1,0,0:0:0:0:
329,192,83055,1,0,0:0:0:0:
36,192,83055,1,0,0:0:0:0:
109,192,83236,1,0,0:0:0:0:
36,192,83417,1,0,0:0:0:0:
182,192,83417,1,0,0:0:0:0:
329,192,83417,128,0,84411:0:0:0:0:
475,192,83417,128,0,84411:0:0:0:0:
36,192,83959,128,0,84501:0:0:0:0:
182,192,83959,128,0,84501:0:0:0:0:
329,192,84501,1,0,0:0:0:0:
475,192,84501,1,0,0:0:0:0:
402,192,84682,1,0,0:0:0:0:
256,192,84682,1,0,0:0:0:0:
182,192,84863,1,0,0:0:0:0:
109,192,84863,1,0,0:0:0:0:
36,192,84863,1,0,0:0:0:0:
182,192,85043,1,0,0:0:0:0:
36,192,85043,1,0,0:0:0:0:
329,192,85224,1,0,0:0:0:0:
475,192,85224,1,0,0:0:0:0:
182,192,85405,1,0,0:0:0:0:
109,192,85405,1,0,0:0:0:0:
36,192,85405,1,0,0:0:0:0:
475,192,85405,128,0,85947:0:0:0:0:
182,192,85766,1,0,0:0:0:0:
109,192,85766,1,0,0:0:0:0:
36,192,85766,1,0,0:0:0:0:
182,192,85947,1,0,0:0:0:0:
36,192,85947,1,0,0:0:0:0:
36,192,86037,1,0,0:0:0:0:
182,192,86037,1,0,0:0:0:0:
329,192,86128,1,0,0:0:0:0:
475,192,86128,1,0,0:0:0:0:
329,192,86218,1,0,0:0:0:0:
475,192,86218,1,0,0:0:0:0:
182,192,86308,1,0,0:0:0:0:
36,192,86308,1,0,0:0:0:0:
256,192,86399,1,0,0:0:0:0:
329,192,86489,1,0,0:0:0:0:
109,192,86489,1,0,0:0:0:0:
402,192,86579,1,0,0:0:0:0:
329,192,86670,1,0,0:0:0:0:
182,192,86670,1,0,0:0:0:0:
36,192,86670,1,0,0:0:0:0:
475,192,86760,1,0,0:0:0:0:
402,192,86851,1,0,0:0:0:0:
109,192,86851,1,0,0:0:0:0:
329,192,86941,1,0,0:0:0:0:
182,192,87031,1,0,0:0:0:0:
36,192,87031,1,0,0:0:0:0:
475,192,87031,1,0,0:0:0:0:
402,192,87122,1,0,0:0:0:0:
475,192,87212,1,0,0:0:0:0:
182,192,87212,1,0,0:0:0:0:
329,192,87302,1,0,0:0:0:0:
475,192,87393,1,0,0:0:0:0:
182,192,87393,1,0,0:0:0:0:
36,192,87393,1,0,0:0:0:0:
256,192,87483,1,0,0:0:0:0:
329,192,87573,1,0,0:0:0:0:
109,192,87573,1,0,0:0:0:0:
402,192,87664,1,0,0:0:0:0:
475,192,87754,1,0,0:0:0:0:
182,192,87754,1,0,0:0:0:0:
36,192,87754,1,0,0:0:0:0:
402,192,87844,1,0,0:0:0:0:
329,192,87935,1,0,0:0:0:0:
109,192,87935,1,0,0:0:0:0:
256,192,88025,1,0,0:0:0:0:
182,192,88116,1,0,0:0:0:0:
329,192,88116,1,0,0:0:0:0:
475,192,88116,1,0,0:0:0:0:
36,192,88206,1,0,0:0:0:0:
109,192,88296,1,0,0:0:0:0:
402,192,88296,1,0,0:0:0:0:
182,192,88387,1,0,0:0:0:0:
475,192,88477,1,0,0:0:0:0:
329,192,88477,1,0,0:0:0:0:
36,192,88477,1,0,0:0:0:0:
109,192,88567,1,0,0:0:0:0:
36,192,88658,1,0,0:0:0:0:
329,192,88658,1,0,0:0:0:0:
182,192,88748,1,0,0:0:0:0:
109,192,88838,1,0,0:0:0:0:
329,192,88838,1,0,0:0:0:0:
475,192,88838,1,0,0:0:0:0:
256,192,88929,1,0,0:0:0:0:
182,192,89019,1,0,0:0:0:0:
402,192,89019,1,0,0:0:0:0:
109,192,89110,1,0,0:0:0:0:
36,192,89200,1,0,0:0:0:0:
256,192,89200,1,0,0:0:0:0:
475,192,89200,1,0,0:0:0:0:
329,192,89290,1,0,0:0:0:0:
402,192,89381,1,0,0:0:0:0:
109,192,89381,1,0,0:0:0:0:
475,192,89471,1,0,0:0:0:0:
329,192,89561,1,0,0:0:0:0:
36,192,89561,1,0,0:0:0:0:
182,192,89561,1,0,0:0:0:0:
475,192,89652,1,0,0:0:0:0:
402,192,89742,1,0,0:0:0:0:
109,192,89742,1,0,0:0:0:0:
329,192,89832,1,0,0:0:0:0:
182,192,89923,1,0,0:0:0:0:
36,192,89923,1,0,0:0:0:0:
475,192,89923,1,0,0:0:0:0:
402,192,90013,1,0,0:0:0:0:
475,192,90104,1,0,0:0:0:0:
182,192,90104,1,0,0:0:0:0:
329,192,90194,1,0,0:0:0:0:
256,192,90284,1,0,0:0:0:0:
475,192,90284,1,0,0:0:0:0:
36,192,90284,1,0,0:0:0:0:
109,192,90375,1,0,0:0:0:0:
402,192,90375,1,0,0:0:0:0:
182,192,90465,1,0,0:0:0:0:
329,192,90465,1,0,0:0:0:0:
402,192,90555,1,0,0:0:0:0:
109,192,90555,1,0,0:0:0:0:
182,192,90646,1,0,0:0:0:0:
329,192,90646,1,0,0:0:0:0:
475,192,90736,1,0,0:0:0:0:
36,192,90736,1,0,0:0:0:0:
182,192,90826,1,0,0:0:0:0:
329,192,90826,1,0,0:0:0:0:
329,192,91007,1,0,0:0:0:0:
402,192,91007,1,0,0:0:0:0:
182,192,91098,1,0,0:0:0:0:
109,192,91098,1,0,0:0:0:0:
329,192,91278,1,0,0:0:0:0:
475,192,91278,1,0,0:0:0:0:
182,192,91459,1,0,0:0:0:0:
36,192,91459,1,0,0:0:0:0:
36,192,91549,1,0,0:0:0:0:
329,192,91549,1,0,0:0:0:0:
475,192,91549,1,0,0:0:0:0:
402,192,91730,1,0,0:0:0:0:
109,192,91730,1,0,0:0:0:0:
256,192,91730,1,0,0:0:0:0:
109,192,91911,1,0,0:0:0:0:
256,192,91911,1,0,0:0:0:0:
402,192,91911,1,0,0:0:0:0:
475,192,92091,1,0,0:0:0:0:
256,192,92091,1,0,0:0:0:0:
36,192,92091,1,0,0:0:0:0:
402,192,92182,1,0,0:0:0:0:
329,192,92272,1,0,0:0:0:0:
109,192,92272,1,0,0:0:0:0:
256,192,92363,1,0,0:0:0:0:
182,192,92453,1,0,0:0:0:0:
329,192,92453,1,0,0:0:0:0:
36,192,92453,1,0,0:0:0:0:
475,192,92543,1,0,0:0:0:0:
402,192,92634,1,0,0:0:0:0:
109,192,92634,1,0,0:0:0:0:
329,192,92724,1,0,0:0:0:0:
36,192,92814,1,0,0:0:0:0:
182,192,92814,1,0,0:0:0:0:
475,192,92814,1,0,0:0:0:0:
329,192,92905,1,0,0:0:0:0:
475,192,92995,1,0,0:0:0:0:
109,192,92995,1,0,0:0:0:0:
329,192,93085,1,0,0:0:0:0:
402,192,93176,1,0,0:0:0:0:
182,192,93176,1,0,0:0:0:0:
36,192,93176,1,0,0:0:0:0:
256,192,93266,1,0,0:0:0:0:
329,192,93357,1,0,0:0:0:0:
402,192,93447,1,0,0:0:0:0:
475,192,93537,1,0,0:0:0:0:
256,192,93537,1,0,0:0:0:0:
36,192,93537,1,0,0:0:0:0:
182,192,93628,1,0,0:0:0:0:
109,192,93718,1,0,0:0:0:0:
329,192,93718,1,0,0:0:0:0:
36,192,93808,1,0,0:0:0:0:
109,192,93899,1,0,0:0:0:0:
256,192,93899,1,0,0:0:0:0:
475,192,93899,1,0,0:0:0:0:
402,192,93989,1,0,0:0:0:0:
329,192,94079,1,0,0:0:0:0:
109,192,94079,1,0,0:0:0:0:
182,192,94170,1,0,0:0:0:0:
329,192,94260,1,0,0:0:0:0:
475,192,94260,1,0,0:0:0:0:
36,192,94260,1,0,0:0:0:0:
182,192,94351,1,0,0:0:0:0:
36,192,94441,1,0,0:0:0:0:
402,192,94441,1,0,0:0:0:0:
182,192,94531,1,0,0:0:0:0:
36,192,94622,1,0,0:0:0:0:
256,192,94622,1,0,0:0:0:0:
475,192,94622,1,0,0:0:0:0:
402,192,94712,1,0,0:0:0:0:
329,192,94802,1,0,0:0:0:0:
109,192,94802,1,0,0:0:0:0:
256,192,94893,1,0,0:0:0:0:
182,192,94983,1,0,0:0:0:0:
36,192,94983,1,0,0:0:0:0:
475,192,94983,1,0,0:0:0:0:
109,192,95073,1,0,0:0:0:0:
182,192,95164,1,0,0:0:0:0:
402,192,95164,1,0,0:0:0:0:
256,192,95254,1,0,0:0:0:0:
329,192,95344,1,0,0:0:0:0:
475,192,95344,1,0,0:0:0:0:
182,192,95344,1,0,0:0:0:0:
36,192,95435,1,0,0:0:0:0:
109,192,95525,1,0,0:0:0:0:
256,192,95525,1,0,0:0:0:0:
182,192,95616,1,0,0:0:0:0:
36,192,95706,1,0,0:0:0:0:
329,192,95706,1,0,0:0:0:0:
475,192,95706,1,0,0:0:0:0:
109,192,95796,1,0,0:0:0:0:
36,192,95887,1,0,0:0:0:0:
329,192,95887,1,0,0:0:0:0:
182,192,95977,1,0,0:0:0:0:
109,192,96067,1,0,0:0:0:0:
402,192,96067,1,0,0:0:0:0:
329,192,96158,1,0,0:0:0:0:
182,192,96158,1,0,0:0:0:0:
475,192,96248,1,0,0:0:0:0:
36,192,96248,1,0,0:0:0:0:
182,192,96338,1,0,0:0:0:0:
329,192,96338,1,0,0:0:0:0:
475,192,96429,1,0,0:0:0:0:
36,192,96429,1,0,0:0:0:0:
182,192,96519,1,0,0:0:0:0:
329,192,96519,1,0,0:0:0:0:
329,192,96700,1,0,0:0:0:0:
182,192,96700,1,0,0:0:0:0:
182,192,96881,1,0,0:0:0:0:
109,192,96881,1,0,0:0:0:0:
329,192,96971,1,0,0:0:0:0:
402,192,96971,1,0,0:0:0:0:
182,192,97061,1,0,0:0:0:0:
109,192,97061,1,0,0:0:0:0:
329,192,97152,1,0,0:0:0:0:
475,192,97152,1,0,0:0:0:0:
329,192,97242,1,0,0:0:0:0:
475,192,97242,1,0,0:0:0:0:
182,192,97332,1,0,0:0:0:0:
36,192,97332,1,0,0:0:0:0:
36,192,97423,1,0,0:0:0:0:
182,192,97423,1,0,0:0:0:0:
329,192,97513,1,0,0:0:0:0:
402,192,97513,1,0,0:0:0:0:
475,192,97513,1,0,0:0:0:0:
475,192,97604,1,0,0:0:0:0:
402,192,97604,1,0,0:0:0:0:
329,192,97604,1,0,0:0:0:0:
182,192,97694,1,0,0:0:0:0:
109,192,97694,1,0,0:0:0:0:
36,192,97694,1,0,0:0:0:0:
36,192,97784,1,0,0:0:0:0:
109,192,97784,1,0,0:0:0:0:
182,192,97784,1,0,0:0:0:0:
329,192,97875,1,0,0:0:0:0:
475,192,97875,128,0,98055:0:0:0:0:
256,192,97965,1,0,0:0:0:0:
182,192,98055,1,0,0:0:0:0:
109,192,98146,1,0,0:0:0:0:
36,192,98236,1,0,0:0:0:0:
256,192,98236,1,0,0:0:0:0:
475,192,98236,1,0,0:0:0:0:
329,192,98236,128,0,98417:0:0:0:0:
109,192,98417,1,0,0:0:0:0:
256,192,98598,1,0,0:0:0:0:
402,192,98598,1,0,0:0:0:0:
36,192,98598,1,0,0:0:0:0:
109,192,98688,1,0,0:0:0:0:
182,192,98778,1,0,0:0:0:0:
475,192,98778,128,0,98959:0:0:0:0:
256,192,98959,1,0,0:0:0:0:
109,192,98959,1,0,0:0:0:0:
329,192,99049,1,0,0:0:0:0:
402,192,99140,1,0,0:0:0:0:
182,192,99140,128,0,99682:0:0:0:0:
36,192,99140,128,0,100766:0:0:0:0:
256,192,99682,1,0,0:0:0:0:
475,192,99682,1,0,0:0:0:0:
402,192,99772,1,0,0:0:0:0:
329,192,99863,1,0,0:0:0:0:
182,192,99953,1,0,0:0:0:0:
329,192,100043,1,0,0:0:0:0:
475,192,100043,1,0,0:0:0:0:
182,192,100134,1,0,0:0:0:0:
256,192,100224,1,0,0:0:0:0:
329,192,100314,1,0,0:0:0:0:
402,192,100405,1,0,0:0:0:0:
182,192,100405,1,0,0:0:0:0:
329,192,100495,1,0,0:0:0:0:
256,192,100585,1,0,0:0:0:0:
182,192,100676,1,0,0:0:0:0:
109,192,100766,1,0,0:0:0:0:
329,192,100766,128,0,100857:0:0:0:0:
475,192,100857,128,0,100947:0:0:0:0:
256,192,100947,128,0,101037:0:0:0:0:
402,192,101037,128,0,101128:0:0:0:0:
182,192,101128,128,0,101218:0:0:0:0:
329,192,101218,128,0,101308:0:0:0:0:
182,192,101308,128,0,101399:0:0:0:0:
402,192,101399,128,0,101489:0:0:0:0:
109,192,101489,128,0,101579:0:0:0:0:
402,192,101579,128,0,101670:0:0:0:0:
182,192,101670,128,0,101760:0:0:0:0:
329,192,101760,128,0,101851:0:0:0:0:
36,192,101851,1,0,0:0:0:0:
475,192,101851,128,0,101941:0:0:0:0:
109,192,101941,1,0,0:0:0:0:
329,192,101941,128,0,102031:0:0:0:0:
182,192,102031,1,0,0:0:0:0:
475,192,102031,128,0,102122:0:0:0:0:
256,192,102122,1,0,0:0:0:0:
329,192,102122,128,0,102212:0:0:0:0:
36,192,102212,1,0,0:0:0:0:
182,192,102212,1,0,0:0:0:0:
182,192,102302,1,0,0:0:0:0:
36,192,102302,1,0,0:0:0:0:
36,192,102393,1,0,0:0:0:0:
182,192,102393,1,0,0:0:0:0:
402,192,102483,128,0,102664:0:0:0:0:
329,192,102754,1,0,0:0:0:0:
475,192,102754,1,0,0:0:0:0:
475,192,102844,1,0,0:0:0:0:
329,192,102844,1,0,0:0:0:0:
329,192,102935,1,0,0:0:0:0:
475,192,102935,1,0,0:0:0:0:
109,192,103025,128,0,103206:0:0:0:0:
36,192,103296,1,0,0:0:0:0:
256,192,103296,1,0,0:0:0:0:
109,192,103387,1,0,0:0:0:0:
329,192,103387,1,0,0:0:0:0:
182,192,103477,1,0,0:0:0:0:
402,192,103477,1,0,0:0:0:0:
256,192,103567,1,0,0:0:0:0:
475,192,103567,1,0,0:0:0:0:
402,192,103658,1,0,0:0:0:0:
329,192,103658,1,0,0:0:0:0:
36,192,103658,128,0,103838:0:0:0:0:
182,192,103658,128,0,104019:0:0:0:0:
256,192,104019,1,0,0:0:0:0:
402,192,104019,1,0,0:0:0:0:
36,192,104019,128,0,104200:0:0:0:0:
475,192,104200,1,0,0:0:0:0:
402,192,104290,1,0,0:0:0:0:
329,192,104381,1,0,0:0:0:0:
109,192,104381,1,0,0:0:0:0:
402,192,104471,1,0,0:0:0:0:
475,192,104561,1,0,0:0:0:0:
182,192,104561,128,0,104742:0:0:0:0:
36,192,104742,1,0,0:0:0:0:
402,192,104742,1,0,0:0:0:0:
109,192,104832,1,0,0:0:0:0:
182,192,104923,1,0,0:0:0:0:
329,192,104923,128,0,105465:0:0:0:0:
475,192,104923,128,0,106549:0:0:0:0:
256,192,105465,1,0,0:0:0:0:
36,192,105465,1,0,0:0:0:0:
109,192,105555,1,0,0:0:0:0:
182,192,105646,1,0,0:0:0:0:
329,192,105736,1,0,0:0:0:0:
182,192,105826,1,0,0:0:0:0:
36,192,105826,1,0,0:0:0:0:
329,192,105917,1,0,0:0:0:0:
256,192,106007,1,0,0:0:0:0:
182,192,106098,1,0,0:0:0:0:
109,192,106188,1,0,0:0:0:0:
329,192,106188,1,0,0:0:0:0:
182,192,106278,1,0,0:0:0:0:
256,192,106369,1,0,0:0:0:0:
329,192,106459,1,0,0:0:0:0:
402,192,106549,1,0,0:0:0:0:
182,192,106549,1,0,0:0:0:0:
36,192,106549,1,0,0:0:0:0:
36,192,106640,1,0,0:0:0:0:
256,192,106640,1,0,0:0:0:0:
109,192,106730,1,0,0:0:0:0:
329,192,106730,1,0,0:0:0:0:
182,192,106820,1,0,0:0:0:0:
402,192,106820,1,0,0:0:0:0:
475,192,106911,1,0,0:0:0:0:
329,192,106911,1,0,0:0:0:0:
475,192,107001,1,0,0:0:0:0:
182,192,107001,1,0,0:0:0:0:
36,192,107091,1,0,0:0:0:0:
329,192,107091,1,0,0:0:0:0:
402,192,107182,1,0,0:0:0:0:
109,192,107182,1,0,0:0:0:0:
329,192,107272,1,0,0:0:0:0:
182,192,107272,1,0,0:0:0:0:
475,192,107272,128,0,107363:0:0:0:0:
256,192,107363,1,0,0:0:0:0:
402,192,107363,128,0,107453:0:0:0:0:
182,192,107453,1,0,0:0:0:0:
329,192,107453,128,0,107543:0:0:0:0:
109,192,107543,1,0,0:0:0:0:
256,192,107543,128,0,107634:0:0:0:0:
36,192,107634,1,0,0:0:0:0:
182,192,107634,128,0,107724:0:0:0:0:
109,192,107724,1,0,0:0:0:0:
256,192,107724,128,0,107814:0:0:0:0:
182,192,107814,1,0,0:0:0:0:
329,192,107814,128,0,107905:0:0:0:0:
256,192,107905,1,0,0:0:0:0:
402,192,107905,128,0,107995:0:0:0:0:
329,192,107995,1,0,0:0:0:0:
182,192,107995,1,0,0:0:0:0:
36,192,107995,1,0,0:0:0:0:
402,192,108266,1,0,0:0:0:0:
256,192,108266,1,0,0:0:0:0:
109,192,108266,1,0,0:0:0:0:
475,192,108537,1,0,0:0:0:0:
256,192,108537,1,0,0:0:0:0:
36,192,108537,1,0,0:0:0:0:
402,192,108808,1,0,0:0:0:0:
256,192,108808,1,0,0:0:0:0:
109,192,108808,1,0,0:0:0:0:
329,192,109079,1,0,0:0:0:0:
182,192,109079,1,0,0:0:0:0:
402,192,109260,1,0,0:0:0:0:
109,192,109260,1,0,0:0:0:0:
36,192,109441,128,0,112332:0:0:0:0:
256,192,109441,128,0,112332:0:0:0:0:
475,192,109441,128,0,112332:0:0:0:0:
329,192,110887,128,0,112332:0:0:0:0:
182,192,111610,128,0,112332:0:0:0:0:
