osu file format v14

[General]
AudioFilename: Daydream cafe (Euro Hopping Mix).mp3
AudioLeadIn: 0
PreviewTime: 56554
Countdown: 0
SampleSet: Normal
StackLeniency: 0.7
Mode: 1
LetterboxInBreaks: 0
WidescreenStoryboard: 0

[Editor]
DistanceSpacing: 3.4
BeatDivisor: 12
GridSize: 32
TimelineZoom: 3.099999

[Metadata]
Title:Daydream cafe (Euro Hopping Mix)
TitleUnicode:Daydream café (Euro Hopping Mix)
Artist:Remixed by BEMANI Sound Team "TAG" feat. Nanahira
ArtistUnicode:Remixed by BEMANI Sound Team "TAG" feat. ななひら
Creator:aabc271
Version:Oni
Source:SOUND VOLTEX VIVID WAVE
Tags:Taiko こころ Kokoro ぴょん Pyon ごちうさ Gochiusa Gochuumon wa Usagi desu ka? Is the order a rabbit? ご注文はうさぎですか? Anime Petit Rabbit's SDVX 5 VW Japanese Video Game Konami Eurobeat Electronic J-pop Jpop ココア Cocoa チノ Chino リゼ Rize 千夜 Chiya シャロ Syaro マヤ Maya メグ Megu 田口康裕 Yasuhiro Taguchi Cynplytholowazy Cynp-zy -GN Junior Consified _54fied Faputa
BeatmapID:2514334
BeatmapSetID:1207412

[Difficulty]
HPDrainRate:5
CircleSize:5
OverallDifficulty:5
ApproachRate:7
SliderMultiplier:1.4
SliderTickRate:1

[Events]
//Background and Video events
0,0,"BG.jpg",0,65
//Break Periods
//Storyboard Layer 0 (Background)
//Storyboard Layer 1 (Fail)
//Storyboard Layer 2 (Pass)
//Storyboard Layer 3 (Foreground)
//Storyboard Layer 4 (Overlay)
//Storyboard Sound Samples

[TimingPoints]
-5150,389.61038961039,4,1,0,84,1,0
499,-104.166666666667,4,1,0,84,0,0
7317,-104.166666666667,4,1,0,88,0,0
7707,-102.040816326531,4,1,0,88,0,0
13551,-100,4,1,0,90,0,0
25434,-100,4,1,0,84,0,0
29135,-100,4,1,0,80,0,0
30499,-100,4,1,0,84,0,0
38486,-100,4,1,0,88,0,0
50953,-99.502487562189,4,1,0,88,0,0
51148,-99.009900990099,4,1,0,88,0,0
52512,-98.5221674876847,4,1,0,89,0,0
52707,-98.0392156862745,4,1,0,89,0,0
54070,-97.5609756097561,4,1,0,90,0,0
54265,-97.0873786407767,4,1,0,90,0,0
55434,-96.1538461538461,4,1,0,92,0,0
57187,-96.1538461538461,4,1,0,96,0,1
69070,-96.1538461538461,4,1,0,96,0,0
69655,-96.1538461538461,4,1,0,96,0,1
82707,-96.1538461538461,4,1,0,90,0,0
83681,389.61038961039,4,1,0,90,1,0
96148,-96.1538461538461,4,1,0,92,0,0
108518,-96.1538461538461,4,1,0,58,0,0
109882,-96.1538461538461,4,1,0,92,0,0

[HitObjects]
256,192,499,5,0,0:0:0:0:
256,192,694,1,0,0:0:0:0:
256,192,888,5,8,0:0:0:0:
256,192,1083,1,12,0:0:0:0:
256,192,1473,1,12,0:0:0:0:
256,192,1862,1,8,0:0:0:0:
256,192,2057,1,8,0:0:0:0:
256,192,2447,1,8,0:0:0:0:
256,192,2837,1,8,0:0:0:0:
256,192,3031,1,8,0:0:0:0:
256,192,3226,5,0,0:0:0:0:
256,192,3421,1,0,0:0:0:0:
256,192,3616,5,8,0:0:0:0:
256,192,3713,1,8,0:0:0:0:
256,192,3811,5,0,0:0:0:0:
256,192,4005,1,0,0:0:0:0:
256,192,4200,1,0,0:0:0:0:
256,192,4590,5,8,0:0:0:0:
256,192,4979,5,0,0:0:0:0:
256,192,5564,1,0,0:0:0:0:
256,192,5953,5,8,0:0:0:0:
256,192,6148,1,8,0:0:0:0:
256,192,6343,5,0,0:0:0:0:
256,192,6538,1,0,0:0:0:0:
256,192,6733,5,8,0:0:0:0:
256,192,6927,5,0,0:0:0:0:
256,192,7025,1,0,0:0:0:0:
256,192,7122,5,8,0:0:0:0:
256,192,7317,1,8,0:0:0:0:
256,192,7707,1,8,0:0:0:0:
256,192,7901,5,0,0:0:0:0:
256,192,7999,1,0,0:0:0:0:
256,192,8096,5,8,0:0:0:0:
256,192,8291,1,8,0:0:0:0:
256,192,8486,1,8,0:0:0:0:
256,192,8681,5,0,0:0:0:0:
256,192,9070,1,0,0:0:0:0:
256,192,9265,5,8,0:0:0:0:
256,192,9460,1,8,0:0:0:0:
256,192,9655,1,8,0:0:0:0:
256,192,9752,5,0,0:0:0:0:
256,192,9850,5,8,0:0:0:0:
256,192,10044,5,0,0:0:0:0:
256,192,10239,5,8,0:0:0:0:
256,192,10434,1,8,0:0:0:0:
256,192,10629,1,8,0:0:0:0:
256,192,10726,5,0,0:0:0:0:
256,192,10824,1,0,0:0:0:0:
256,192,11018,5,8,0:0:0:0:
256,192,11213,1,8,0:0:0:0:
256,192,11408,5,0,0:0:0:0:
256,192,11505,1,0,0:0:0:0:
256,192,11603,5,8,0:0:0:0:
256,192,11798,1,12,0:0:0:0:
256,192,12187,1,12,0:0:0:0:
256,192,12382,1,12,0:0:0:0:
256,192,12966,5,0,0:0:0:0:
256,192,13064,1,0,0:0:0:0:
256,192,13161,5,8,0:0:0:0:
256,192,13551,1,12,0:0:0:0:
256,192,13746,5,0,0:0:0:0:
256,192,13843,1,0,0:0:0:0:
256,192,13940,5,8,0:0:0:0:
256,192,14135,1,8,0:0:0:0:
256,192,14330,5,0,0:0:0:0:
256,192,14525,1,0,0:0:0:0:
256,192,14622,1,0,0:0:0:0:
256,192,14720,5,8,0:0:0:0:
256,192,14914,1,8,0:0:0:0:
256,192,15109,1,8,0:0:0:0:
256,192,15304,5,0,0:0:0:0:
256,192,15401,1,0,0:0:0:0:
256,192,15499,5,8,0:0:0:0:
256,192,15694,1,8,0:0:0:0:
256,192,16083,1,8,0:0:0:0:
256,192,16278,5,0,0:0:0:0:
256,192,16473,5,8,0:0:0:0:
256,192,16862,5,0,0:0:0:0:
256,192,17057,5,8,0:0:0:0:
256,192,17252,5,0,0:0:0:0:
256,192,17447,5,8,0:0:0:0:
256,192,17642,5,0,0:0:0:0:
256,192,17739,1,0,0:0:0:0:
256,192,17837,5,8,0:0:0:0:
256,192,18031,1,8,0:0:0:0:
256,192,18226,1,8,0:0:0:0:
256,192,18421,1,8,0:0:0:0:
256,192,18518,1,8,0:0:0:0:
256,192,18616,5,0,0:0:0:0:
256,192,18811,1,0,0:0:0:0:
256,192,19200,1,0,0:0:0:0:
256,192,19395,5,8,0:0:0:0:
256,192,19590,5,0,0:0:0:0:
256,192,19979,1,0,0:0:0:0:
256,192,20174,1,0,0:0:0:0:
256,192,20272,1,0,0:0:0:0:
256,192,20369,5,8,0:0:0:0:
256,192,20564,1,8,0:0:0:0:
256,192,20759,5,0,0:0:0:0:
256,192,20856,1,0,0:0:0:0:
256,192,20953,5,8,0:0:0:0:
256,192,21148,1,8,0:0:0:0:
256,192,21343,1,8,0:0:0:0:
256,192,21538,5,0,0:0:0:0:
256,192,21635,1,0,0:0:0:0:
256,192,21733,5,8,0:0:0:0:
256,192,21927,1,8,0:0:0:0:
256,192,22317,1,8,0:0:0:0:
256,192,22512,5,0,0:0:0:0:
256,192,22707,5,8,0:0:0:0:
256,192,23096,5,0,0:0:0:0:
256,192,23291,1,0,0:0:0:0:
256,192,23486,5,8,0:0:0:0:
256,192,23681,1,8,0:0:0:0:
256,192,23875,1,8,0:0:0:0:
256,192,23973,1,8,0:0:0:0:
256,192,24070,5,0,0:0:0:0:
256,192,24265,1,0,0:0:0:0:
256,192,24460,5,12,0:0:0:0:
256,192,24655,5,0,0:0:0:0:
256,192,24752,1,0,0:0:0:0:
256,192,24850,1,0,0:0:0:0:
256,192,25044,5,12,0:0:0:0:
256,192,25434,5,0,0:0:0:0:
256,192,25629,1,0,0:0:0:0:
256,192,25824,5,8,0:0:0:0:
256,192,26018,5,4,0:0:0:0:
256,192,26213,5,8,0:0:0:0:
256,192,26311,1,8,0:0:0:0:
256,192,26408,5,0,0:0:0:0:
256,192,26603,1,0,0:0:0:0:
256,192,26798,1,0,0:0:0:0:
256,192,26992,5,8,0:0:0:0:
256,192,27382,5,0,0:0:0:0:
256,192,27772,5,8,0:0:0:0:
256,192,27966,5,0,0:0:0:0:
256,192,28161,1,0,0:0:0:0:
256,192,28356,5,8,0:0:0:0:
256,192,28551,1,8,0:0:0:0:
256,192,28648,1,8,0:0:0:0:
256,192,28746,5,0,0:0:0:0:
256,192,28940,5,8,0:0:0:0:
256,192,29135,5,0,0:0:0:0:
256,192,29330,5,8,0:0:0:0:
256,192,29525,5,0,0:0:0:0:
256,192,29720,1,0,0:0:0:0:
256,192,29817,1,0,0:0:0:0:
256,192,29914,5,8,0:0:0:0:
256,192,30109,5,0,0:0:0:0:
256,192,30304,1,0,0:0:0:0:
256,192,30499,5,8,0:0:0:0:
256,192,30888,1,8,0:0:0:0:
256,192,31278,1,8,0:0:0:0:
256,192,31473,5,0,0:0:0:0:
256,192,31668,1,0,0:0:0:0:
256,192,31862,1,0,0:0:0:0:
256,192,32057,5,8,0:0:0:0:
256,192,32252,5,0,0:0:0:0:
256,192,32447,5,8,0:0:0:0:
256,192,32544,1,8,0:0:0:0:
256,192,32642,5,0,0:0:0:0:
256,192,32837,1,0,0:0:0:0:
256,192,33031,1,0,0:0:0:0:
256,192,33226,5,8,0:0:0:0:
256,192,33616,5,0,0:0:0:0:
256,192,34005,5,8,0:0:0:0:
256,192,34200,5,0,0:0:0:0:
256,192,34395,1,0,0:0:0:0:
256,192,34590,5,8,0:0:0:0:
256,192,34785,1,8,0:0:0:0:
256,192,34882,1,8,0:0:0:0:
256,192,34979,5,0,0:0:0:0:
256,192,35174,5,8,0:0:0:0:
256,192,35369,1,8,0:0:0:0:
256,192,35564,5,0,0:0:0:0:
256,192,35661,1,0,0:0:0:0:
256,192,35759,5,8,0:0:0:0:
256,192,35953,1,8,0:0:0:0:
256,192,36148,1,8,0:0:0:0:
256,192,36343,5,0,0:0:0:0:
256,192,36440,1,0,0:0:0:0:
256,192,36538,5,8,0:0:0:0:
256,192,36733,5,4,0:0:0:0:
256,192,37122,1,4,0:0:0:0:
256,192,37512,5,12,0:0:0:0:
256,192,37707,5,4,0:0:0:0:
256,192,38096,5,8,0:0:0:0:
256,192,38194,1,8,0:0:0:0:
256,192,38291,1,8,0:0:0:0:
256,192,38486,5,4,0:0:0:0:
256,192,38681,1,0,0:0:0:0:
256,192,38778,1,0,0:0:0:0:
256,192,38875,5,8,0:0:0:0:
256,192,39070,1,8,0:0:0:0:
256,192,39265,5,0,0:0:0:0:
256,192,39460,1,0,0:0:0:0:
256,192,39557,5,8,0:0:0:0:
256,192,39655,1,8,0:0:0:0:
256,192,39850,1,8,0:0:0:0:
256,192,40044,5,0,0:0:0:0:
256,192,40239,1,0,0:0:0:0:
256,192,40337,1,0,0:0:0:0:
256,192,40434,5,8,0:0:0:0:
256,192,40629,1,8,0:0:0:0:
256,192,40824,1,8,0:0:0:0:
256,192,41018,5,0,0:0:0:0:
256,192,41213,1,0,0:0:0:0:
256,192,41603,1,0,0:0:0:0:
256,192,41700,1,0,0:0:0:0:
256,192,41798,5,8,0:0:0:0:
256,192,41992,5,0,0:0:0:0:
256,192,42285,1,0,0:0:0:0:
256,192,42382,5,8,0:0:0:0:
256,192,42577,5,0,0:0:0:0:
256,192,42674,5,8,0:0:0:0:
256,192,42772,5,0,0:0:0:0:
256,192,42966,5,8,0:0:0:0:
256,192,43356,1,8,0:0:0:0:
256,192,43551,1,8,0:0:0:0:
256,192,43746,5,0,0:0:0:0:
256,192,43940,1,0,0:0:0:0:
256,192,44038,1,0,0:0:0:0:
256,192,44135,5,8,0:0:0:0:
256,192,44330,5,0,0:0:0:0:
256,192,44525,5,8,0:0:0:0:
256,192,44720,1,8,0:0:0:0:
256,192,44914,1,8,0:0:0:0:
256,192,45012,5,0,0:0:0:0:
256,192,45109,5,8,0:0:0:0:
256,192,45304,5,0,0:0:0:0:
256,192,45499,1,0,0:0:0:0:
256,192,45888,5,8,0:0:0:0:
256,192,46083,5,0,0:0:0:0:
256,192,46278,5,8,0:0:0:0:
256,192,46473,1,8,0:0:0:0:
256,192,46570,5,0,0:0:0:0:
256,192,46668,5,8,0:0:0:0:
256,192,46862,5,0,0:0:0:0:
256,192,47057,5,8,0:0:0:0:
256,192,47155,1,8,0:0:0:0:
256,192,47252,5,0,0:0:0:0:
256,192,47447,5,8,0:0:0:0:
256,192,47642,5,0,0:0:0:0:
256,192,47837,1,0,0:0:0:0:
256,192,48031,5,8,0:0:0:0:
256,192,48129,5,0,0:0:0:0:
256,192,48226,5,8,0:0:0:0:
256,192,48324,1,8,0:0:0:0:
256,192,48421,5,0,0:0:0:0:
256,192,48616,5,8,0:0:0:0:
256,192,48811,1,8,0:0:0:0:
256,192,49005,5,0,0:0:0:0:
256,192,49200,5,8,0:0:0:0:
256,192,49590,1,8,0:0:0:0:
256,192,49687,5,0,0:0:0:0:
256,192,49785,5,8,0:0:0:0:
256,192,49979,1,8,0:0:0:0:
256,192,50174,1,8,0:0:0:0:
256,192,50369,5,0,0:0:0:0:
256,192,50466,1,0,0:0:0:0:
256,192,50564,5,8,0:0:0:0:
256,192,50759,1,12,0:0:0:0:
256,192,51148,5,0,0:0:0:0:
256,192,51246,1,0,0:0:0:0:
256,192,51343,5,8,0:0:0:0:
256,192,51538,5,0,0:0:0:0:
256,192,51733,1,0,0:0:0:0:
256,192,51927,1,0,0:0:0:0:
256,192,52025,1,0,0:0:0:0:
256,192,52122,1,0,0:0:0:0:
256,192,52317,5,12,0:0:0:0:
256,192,52707,5,0,0:0:0:0:
256,192,52804,5,8,0:0:0:0:
256,192,52901,1,8,0:0:0:0:
256,192,53096,5,0,0:0:0:0:
256,192,53291,1,0,0:0:0:0:
256,192,53486,1,0,0:0:0:0:
256,192,53583,5,8,0:0:0:0:
256,192,53681,5,0,0:0:0:0:
256,192,53875,5,12,0:0:0:0:
256,192,54265,5,0,0:0:0:0:
256,192,54362,5,8,0:0:0:0:
256,192,54460,1,8,0:0:0:0:
256,192,54655,5,0,0:0:0:0:
256,192,54850,1,0,0:0:0:0:
256,192,54947,1,0,0:0:0:0:
256,192,55044,5,8,0:0:0:0:
256,192,55142,5,0,0:0:0:0:
256,192,55239,1,0,0:0:0:0:
256,192,55434,5,12,0:0:0:0:
256,192,55824,1,12,0:0:0:0:
256,192,56018,1,12,0:0:0:0:
256,192,56213,1,12,0:0:0:0:
256,192,56603,5,0,0:0:0:0:
256,192,56700,1,0,0:0:0:0:
256,192,56798,1,0,0:0:0:0:
256,192,56992,5,8,0:0:0:0:
256,192,57187,1,12,0:0:0:0:
256,192,57577,1,12,0:0:0:0:
256,192,57772,5,0,0:0:0:0:
256,192,57869,1,0,0:0:0:0:
256,192,57966,5,8,0:0:0:0:
256,192,58161,1,8,0:0:0:0:
256,192,58356,5,0,0:0:0:0:
256,192,58551,5,8,0:0:0:0:
256,192,58940,1,8,0:0:0:0:
256,192,59135,1,8,0:0:0:0:
256,192,59330,5,0,0:0:0:0:
256,192,59525,1,0,0:0:0:0:
256,192,59720,5,8,0:0:0:0:
256,192,59817,1,8,0:0:0:0:
256,192,59914,5,0,0:0:0:0:
256,192,60109,1,0,0:0:0:0:
256,192,60304,1,0,0:0:0:0:
256,192,60499,1,0,0:0:0:0:
256,192,60596,1,0,0:0:0:0:
256,192,60694,5,8,0:0:0:0:
256,192,60888,1,8,0:0:0:0:
256,192,60986,1,8,0:0:0:0:
256,192,61083,5,0,0:0:0:0:
256,192,61278,1,0,0:0:0:0:
256,192,61473,5,8,0:0:0:0:
256,192,61668,1,8,0:0:0:0:
256,192,62057,1,8,0:0:0:0:
256,192,62252,1,8,0:0:0:0:
256,192,62447,5,0,0:0:0:0:
256,192,62642,1,0,0:0:0:0:
256,192,62837,5,8,0:0:0:0:
256,192,62934,1,8,0:0:0:0:
256,192,63031,5,0,0:0:0:0:
256,192,63226,5,8,0:0:0:0:
256,192,63421,1,8,0:0:0:0:
256,192,63713,5,0,0:0:0:0:
256,192,63811,5,8,0:0:0:0:
256,192,64005,5,0,0:0:0:0:
256,192,64103,1,0,0:0:0:0:
256,192,64200,5,8,0:0:0:0:
256,192,64395,1,8,0:0:0:0:
256,192,64590,1,8,0:0:0:0:
256,192,64785,5,0,0:0:0:0:
256,192,65174,1,0,0:0:0:0:
256,192,65369,5,8,0:0:0:0:
256,192,65564,1,8,0:0:0:0:
256,192,65759,1,8,0:0:0:0:
256,192,65856,5,0,0:0:0:0:
256,192,65953,5,8,0:0:0:0:
256,192,66148,5,0,0:0:0:0:
256,192,66343,5,8,0:0:0:0:
256,192,66538,1,8,0:0:0:0:
256,192,66733,1,8,0:0:0:0:
256,192,66830,5,0,0:0:0:0:
256,192,66927,1,0,0:0:0:0:
256,192,67122,5,8,0:0:0:0:
256,192,67317,1,8,0:0:0:0:
256,192,67512,5,0,0:0:0:0:
256,192,67609,1,0,0:0:0:0:
256,192,67707,5,8,0:0:0:0:
256,192,67901,1,12,0:0:0:0:
256,192,68291,5,4,0:0:0:0:
256,192,68486,1,4,0:0:0:0:
256,192,68681,5,12,0:0:0:0:
256,192,69070,5,0,0:0:0:0:
256,192,69168,1,0,0:0:0:0:
256,192,69265,1,0,0:0:0:0:
256,192,69460,5,8,0:0:0:0:
256,192,69655,1,12,0:0:0:0:
256,192,70044,1,12,0:0:0:0:
256,192,70239,5,0,0:0:0:0:
256,192,70337,1,0,0:0:0:0:
256,192,70434,5,8,0:0:0:0:
256,192,70629,1,8,0:0:0:0:
256,192,70824,5,0,0:0:0:0:
256,192,71018,5,8,0:0:0:0:
256,192,71408,1,8,0:0:0:0:
256,192,71603,1,8,0:0:0:0:
256,192,71798,5,0,0:0:0:0:
256,192,71992,1,0,0:0:0:0:
256,192,72090,1,0,0:0:0:0:
256,192,72187,5,8,0:0:0:0:
256,192,72285,1,8,0:0:0:0:
256,192,72382,5,0,0:0:0:0:
256,192,72577,1,0,0:0:0:0:
256,192,72772,1,0,0:0:0:0:
256,192,72966,1,0,0:0:0:0:
256,192,73064,1,0,0:0:0:0:
256,192,73161,5,8,0:0:0:0:
256,192,73356,1,8,0:0:0:0:
256,192,73453,1,8,0:0:0:0:
256,192,73551,5,0,0:0:0:0:
256,192,73746,1,0,0:0:0:0:
256,192,73940,5,8,0:0:0:0:
256,192,74135,1,8,0:0:0:0:
256,192,74525,1,8,0:0:0:0:
256,192,74720,1,8,0:0:0:0:
256,192,74914,5,0,0:0:0:0:
256,192,75109,1,0,0:0:0:0:
256,192,75304,5,8,0:0:0:0:
256,192,75401,1,8,0:0:0:0:
256,192,75499,5,0,0:0:0:0:
256,192,75694,5,8,0:0:0:0:
256,192,75888,1,8,0:0:0:0:
256,192,76181,5,0,0:0:0:0:
256,192,76278,5,8,0:0:0:0:
256,192,76473,5,0,0:0:0:0:
256,192,76570,1,0,0:0:0:0:
256,192,76668,5,8,0:0:0:0:
256,192,76862,1,8,0:0:0:0:
256,192,77057,1,8,0:0:0:0:
256,192,77252,5,0,0:0:0:0:
256,192,77642,1,0,0:0:0:0:
256,192,77837,5,8,0:0:0:0:
256,192,78031,1,8,0:0:0:0:
256,192,78226,1,8,0:0:0:0:
256,192,78324,5,0,0:0:0:0:
256,192,78421,5,8,0:0:0:0:
256,192,78616,5,0,0:0:0:0:
256,192,78811,5,8,0:0:0:0:
256,192,79005,1,8,0:0:0:0:
256,192,79200,1,8,0:0:0:0:
256,192,79298,5,0,0:0:0:0:
256,192,79395,1,0,0:0:0:0:
256,192,79590,5,8,0:0:0:0:
256,192,79785,1,8,0:0:0:0:
256,192,79882,1,8,0:0:0:0:
256,192,79979,5,0,0:0:0:0:
256,192,80077,1,0,0:0:0:0:
256,192,80174,5,8,0:0:0:0:
256,192,80369,1,8,0:0:0:0:
256,192,80759,1,8,0:0:0:0:
256,192,80856,5,0,0:0:0:0:
256,192,80953,5,8,0:0:0:0:
256,192,81148,5,0,0:0:0:0:
256,192,81343,1,0,0:0:0:0:
256,192,81538,1,0,0:0:0:0:
256,192,81635,5,8,0:0:0:0:
256,192,81733,1,8,0:0:0:0:
256,192,81927,1,12,0:0:0:0:
256,192,82317,1,12,0:0:0:0:
256,192,82512,1,12,0:0:0:0:
256,192,83096,5,0,0:0:0:0:
256,192,83194,1,0,0:0:0:0:
256,192,83291,5,8,0:0:0:0:
256,192,83681,1,12,0:0:0:0:
256,192,83875,5,0,0:0:0:0:
256,192,83973,1,0,0:0:0:0:
256,192,84070,5,8,0:0:0:0:
256,192,84265,1,8,0:0:0:0:
256,192,84460,5,0,0:0:0:0:
256,192,84655,1,0,0:0:0:0:
256,192,84752,1,0,0:0:0:0:
256,192,84849,5,8,0:0:0:0:
256,192,85044,1,8,0:0:0:0:
256,192,85239,1,8,0:0:0:0:
256,192,85434,5,0,0:0:0:0:
256,192,85531,1,0,0:0:0:0:
256,192,85629,5,8,0:0:0:0:
256,192,85823,1,8,0:0:0:0:
256,192,86213,1,8,0:0:0:0:
256,192,86408,5,0,0:0:0:0:
256,192,86603,5,8,0:0:0:0:
256,192,86992,5,0,0:0:0:0:
256,192,87187,5,8,0:0:0:0:
256,192,87284,5,0,0:0:0:0:
256,192,87382,1,0,0:0:0:0:
256,192,87577,5,8,0:0:0:0:
256,192,87771,5,0,0:0:0:0:
256,192,87869,1,0,0:0:0:0:
256,192,87966,5,8,0:0:0:0:
256,192,88161,1,8,0:0:0:0:
256,192,88356,1,8,0:0:0:0:
256,192,88551,1,8,0:0:0:0:
256,192,88648,1,8,0:0:0:0:
256,192,88745,5,0,0:0:0:0:
256,192,88940,1,0,0:0:0:0:
256,192,89330,1,0,0:0:0:0:
256,192,89525,5,8,0:0:0:0:
256,192,89719,5,0,0:0:0:0:
256,192,90109,1,0,0:0:0:0:
256,192,90304,1,0,0:0:0:0:
256,192,90401,1,0,0:0:0:0:
256,192,90499,5,8,0:0:0:0:
256,192,90693,1,8,0:0:0:0:
256,192,90888,5,0,0:0:0:0:
256,192,90986,1,0,0:0:0:0:
256,192,91083,5,8,0:0:0:0:
256,192,91278,1,8,0:0:0:0:
256,192,91473,1,8,0:0:0:0:
256,192,91668,5,0,0:0:0:0:
256,192,91765,1,0,0:0:0:0:
256,192,91862,5,8,0:0:0:0:
256,192,92057,1,8,0:0:0:0:
256,192,92447,1,8,0:0:0:0:
256,192,92642,5,0,0:0:0:0:
256,192,92836,5,8,0:0:0:0:
256,192,93226,5,0,0:0:0:0:
256,192,93421,1,0,0:0:0:0:
256,192,93518,1,0,0:0:0:0:
256,192,93616,5,8,0:0:0:0:
256,192,93810,1,8,0:0:0:0:
256,192,94005,1,8,0:0:0:0:
256,192,94103,1,8,0:0:0:0:
256,192,94200,5,0,0:0:0:0:
256,192,94395,1,0,0:0:0:0:
256,192,94590,5,12,0:0:0:0:
256,192,94784,5,0,0:0:0:0:
256,192,94882,1,0,0:0:0:0:
256,192,94979,1,0,0:0:0:0:
256,192,95174,5,12,0:0:0:0:
256,192,95564,5,0,0:0:0:0:
256,192,95661,5,8,0:0:0:0:
256,192,95758,5,0,0:0:0:0:
256,192,95856,5,8,0:0:0:0:
256,192,95953,1,8,0:0:0:0:
256,192,96148,1,8,0:0:0:0:
256,192,96245,1,8,0:0:0:0:
256,192,96440,1,8,0:0:0:0:
256,192,96635,1,8,0:0:0:0:
256,192,96732,5,0,0:0:0:0:
256,192,97122,1,0,0:0:0:0:
256,192,97219,5,8,0:0:0:0:
256,192,97317,1,8,0:0:0:0:
256,192,97512,1,8,0:0:0:0:
256,192,97706,5,0,0:0:0:0:
256,192,97804,1,0,0:0:0:0:
256,192,97999,1,0,0:0:0:0:
256,192,98193,1,0,0:0:0:0:
256,192,98291,5,8,0:0:0:0:
256,192,98583,5,0,0:0:0:0:
256,192,98681,5,8,0:0:0:0:
256,192,98875,5,0,0:0:0:0:
256,192,99070,5,8,0:0:0:0:
256,192,99265,1,8,0:0:0:0:
256,192,99362,1,8,0:0:0:0:
256,192,99557,1,8,0:0:0:0:
256,192,99752,1,8,0:0:0:0:
256,192,99849,5,0,0:0:0:0:
256,192,100239,1,0,0:0:0:0:
256,192,100336,1,0,0:0:0:0:
256,192,100434,5,8,0:0:0:0:
256,192,100629,1,8,0:0:0:0:
256,192,100823,1,8,0:0:0:0:
256,192,101018,1,8,0:0:0:0:
256,192,101116,5,0,0:0:0:0:
256,192,101310,1,0,0:0:0:0:
256,192,101408,5,8,0:0:0:0:
256,192,101603,1,8,0:0:0:0:
256,192,101700,5,0,0:0:0:0:
256,192,101797,1,0,0:0:0:0:
256,192,101895,5,8,0:0:0:0:
256,192,101992,1,8,0:0:0:0:
256,192,102090,5,0,0:0:0:0:
256,192,102187,5,8,0:0:0:0:
256,192,102382,1,8,0:0:0:0:
256,192,102479,1,8,0:0:0:0:
256,192,102674,1,8,0:0:0:0:
256,192,102869,1,8,0:0:0:0:
256,192,102966,5,0,0:0:0:0:
256,192,103356,1,0,0:0:0:0:
256,192,103453,5,8,0:0:0:0:
256,192,103551,1,8,0:0:0:0:
256,192,103745,1,8,0:0:0:0:
256,192,103940,5,0,0:0:0:0:
256,192,104038,1,0,0:0:0:0:
256,192,104232,1,0,0:0:0:0:
256,192,104427,1,0,0:0:0:0:
256,192,104525,5,8,0:0:0:0:
256,192,104817,5,0,0:0:0:0:
256,192,104914,5,8,0:0:0:0:
256,192,105109,5,0,0:0:0:0:
256,192,105304,5,8,0:0:0:0:
256,192,105499,5,0,0:0:0:0:
256,192,105791,1,0,0:0:0:0:
256,192,105888,5,8,0:0:0:0:
256,192,106083,5,0,0:0:0:0:
256,192,106278,5,8,0:0:0:0:
256,192,106473,5,0,0:0:0:0:
256,192,106570,5,8,0:0:0:0:
256,192,106668,1,8,0:0:0:0:
256,192,106862,1,12,0:0:0:0:
256,192,107252,1,12,0:0:0:0:
256,192,107447,1,12,0:0:0:0:
256,192,107642,1,12,0:0:0:0:
256,192,108031,5,0,0:0:0:0:
256,192,108129,1,0,0:0:0:0:
256,192,108226,1,0,0:0:0:0:
256,192,108323,1,0,0:0:0:0:
256,192,108421,5,8,0:0:0:0:
256,192,108616,12,0,109784,0:0:0:0:
256,192,109979,5,12,0:0:0:0:
