osu file format v14

[General]
AudioFilename: audio.mp3
AudioLeadIn: 0
PreviewTime: 12105
Countdown: 0
SampleSet: Soft
StackLeniency: 0.5
Mode: 0
LetterboxInBreaks: 0
WidescreenStoryboard: 0

[Editor]
DistanceSpacing: 1.37
BeatDivisor: 4
GridSize: 8
TimelineZoom: 1.2

[Metadata]
Title:Venomous Mr. Skops
TitleUnicode:Venomous Mr. Skops
Artist:Remi Gazel
ArtistUnicode:RĂ©mi Gazel
Creator:Respirte
Version:Normal
Source:Rayman
Tags:cave boss ubisoft michel ancel video game instrumental
BeatmapID:2204694
BeatmapSetID:1045788

[Difficulty]
HPDrainRate:4.5
CircleSize:3
OverallDifficulty:4.5
ApproachRate:5.5
SliderMultiplier:1.2
SliderTickRate:1

[Events]
//Background and Video events
0,0,"several more than two thousand and one.jpg",0,0
//Break Periods
//Storyboard Layer 0 (Background)
//Storyboard Layer 1 (Fail)
//Storyboard Layer 2 (Pass)
//Storyboard Layer 3 (Foreground)
//Storyboard Layer 4 (Overlay)
//Storyboard Sound Samples

[TimingPoints]
375,384.615384615385,4,2,0,30,1,0
375,-100,4,2,0,30,0,0
6528,-100,4,2,0,40,0,0
11144,-100,4,2,0,45,0,0
12682,-100,4,2,0,55,0,0
35759,-100,4,2,0,50,0,0
37298,-100,4,2,0,40,0,0
49605,-100,4,2,0,50,0,0
61144,-100,4,2,0,70,0,0

[Colours]
Combo1 : 0,191,191
Combo2 : 138,79,238
Combo3 : 210,23,80
Combo4 : 46,156,60

[HitObjects]
154,45,375,6,0,P|222:27|278:56,1,120
326,98,951,2,0,P|381:116|437:97,1,120,2|0,0:0|0:0,0:0:0:0:
498,43,1528,1,2,0:0:0:0:
435,192,1913,6,0,P|407:225|391:301,1,120,0|0,0:0|0:0,0:0:0:0:
336,238,2490,2,0,P|294:204|214:211,1,120,2|0,0:0|0:0,0:0:0:0:
164,251,3067,1,2,0:0:0:0:
63,123,3451,6,0,P|40:57|61:14,1,120,0|0,0:0|0:0,0:0:0:0:
122,68,4028,2,0,P|176:78|239:66,1,120,2|0,0:0|0:0,0:0:0:0:
293,5,4605,1,2,0:0:0:0:
247,160,4990,6,0,P|228:206|228:284,1,120,0|0,0:0|0:0,0:0:0:0:
212,355,5567,2,0,P|260:320|335:337,1,120,2|0,0:0|0:0,0:0:0:0:
384,372,6144,2,0,P|398:337|395:303,1,60,10|8,0:0|0:0,0:0:0:0:
368,240,6528,6,0,B|358:180|358:180|370:108,1,120,0|0,0:0|0:0,0:0:0:0:
429,67,7105,2,0,P|369:78|301:61,1,120,2|0,0:0|0:0,0:0:0:0:
248,15,7682,1,2,0:0:0:0:
122,117,8067,6,0,P|152:156|149:245,1,120,0|0,0:0|0:0,0:0:0:0:
106,288,8644,2,0,B|157:263|157:263|242:289,1,120,2|2,0:0|0:0,0:0:0:0:
292,311,9221,1,2,0:0:0:0:
406,197,9605,6,0,P|431:142|429:70,1,120,0|0,0:0|0:0,0:0:0:0:
375,24,10182,2,0,B|336:38|336:38|258:24,1,120,2|0,0:0|0:0,0:0:0:0:
179,7,10759,1,2,0:0:0:0:
275,137,11144,5,0,0:0:0:0:
275,137,11336,2,0,P|295:181|289:274,1,120,8|0,0:0|0:0,0:0:0:0:
246,315,11913,2,0,L|172:307,1,60,8|0,0:0|3:0,0:0:0:0:
127,252,12298,2,0,L|53:244,1,60,8|8,0:0|0:0,0:0:0:0:
8,189,12682,6,0,B|63:144|46:64,1,120,6|8,0:0|0:0,0:0:0:0:
10,11,13259,1,0,3:0:0:0:
10,11,13451,2,0,B|60:28|60:28|137:17,1,120,0|8,0:0|0:0,0:0:0:0:
276,80,14221,6,0,P|216:91|172:129,1,120,0|8,3:2|0:0,0:0:0:0:
157,208,14798,1,0,0:0:0:0:
295,291,15182,1,0,0:0:0:0:
295,291,15375,2,0,P|309:255|306:215,1,60,8|0,0:0|0:0,0:0:0:0:
246,184,15759,6,0,L|376:174,1,120,2|8,0:0|0:0,0:0:0:0:
486,66,16528,2,0,L|356:76,1,120,2|8,0:0|0:0,0:0:0:0:
239,176,17298,5,0,3:0:0:0:
239,176,17490,2,0,P|229:135|235:100,2,60,0|8|0,0:0|0:0|3:0,0:0:0:0:
273,249,18067,2,0,B|259:292|259:292|267:381,1,120,0|12,0:0|0:0,0:0:0:0:
424,331,18836,6,0,P|429:279|422:205,1,120,2|8,0:0|0:0,0:0:0:0:
418,130,19413,1,0,3:0:0:0:
418,130,19605,2,0,B|359:146|359:146|282:123,1,120,0|8,0:0|0:0,0:0:0:0:
174,29,20375,6,0,P|188:73|185:149,1,120,0|8,3:2|0:0,0:0:0:0:
142,214,20951,1,0,0:0:0:0:
142,214,21144,2,0,P|129:272|137:331,1,120,0|8,3:0|0:0,0:0:0:0:
290,279,21913,6,0,L|416:264,1,120,2|8,0:0|0:0,0:0:0:0:
301,143,22682,2,0,L|175:158,1,120,2|8,0:0|0:0,0:0:0:0:
111,301,23451,5,0,3:0:0:0:
111,301,23644,2,0,P|149:301|178:314,2,60,0|8|0,0:0|0:0|3:0,0:0:0:0:
33,334,24221,2,0,P|26:295|34:265,1,60,0|0,0:0|0:0,0:0:0:0:
53,197,24605,2,0,P|59:158|51:128,1,60,8|8,0:3|0:3,0:0:0:0:
17,66,24990,6,0,B|79:55|79:55|138:68,1,120,6|8,0:0|0:0,0:0:0:0:
215,99,25567,1,0,3:0:0:0:
215,99,25759,2,0,B|260:103|299:85|299:85|327:103,1,120,0|8,0:0|0:0,0:0:0:0:
461,11,26528,6,0,B|444:56|444:56|452:131,1,120,0|8,3:0|0:0,0:0:0:0:
512,181,27105,2,0,P|450:170|385:195,1,120,0|0,0:0|0:0,0:0:0:0:
342,248,27682,2,0,P|310:255|279:247,1,60,8|0,0:0|0:0,0:0:0:0:
240,180,28067,6,0,L|110:170,1,120,2|8,0:0|0:0,0:0:0:0:
0,62,28836,2,0,L|130:72,1,120,2|8,0:0|0:0,0:0:0:0:
249,168,29605,5,0,3:0:0:0:
249,168,29798,2,0,P|242:125|254:96,2,60,0|8|0,0:0|0:0|3:0,0:0:0:0:
288,239,30375,2,0,B|340:217|340:217|430:224,1,120,0|12,0:0|0:0,0:0:0:0:
494,356,31144,6,0,P|435:349|355:349,1,120,0|8,3:0|0:0,0:0:0:0:
296,369,31721,1,0,3:0:0:0:
296,369,31913,2,0,P|239:374|182:336,1,120,0|8,0:0|0:0,0:0:0:0:
26,367,32682,6,0,P|51:315|48:251,1,120,0|8,3:0|0:0,0:0:0:0:
30,174,33259,1,0,0:0:0:0:
30,174,33451,2,0,P|19:115|36:58,1,120,0|8,3:0|0:0,0:0:0:0:
183,130,34221,6,0,L|302:119,1,120,2|8,0:0|0:0,0:0:0:0:
406,246,34990,2,0,L|286:256,1,120,2|8,0:0|0:0,0:0:0:0:
140,325,35759,5,0,3:0:0:0:
140,325,35951,2,0,L|127:385,2,60,8|12|0,0:0|0:0|3:0,0:0:0:0:
153,244,36528,2,0,P|156:197|145:163,1,60,0|8,0:0|0:3,0:0:0:0:
115,113,36913,2,0,P|112:83|116:53,1,60,12|8,0:3|0:3,0:0:0:0:
188,16,37298,6,0,B|260:42|363:11|363:11|347:41|349:88,1,240,6|10,0:0|0:0,0:0:0:0:
437,206,38451,2,0,P|401:195|364:196,1,60,0|8,0:0|0:0,0:0:0:0:
297,199,38836,1,2,0:0:0:0:
251,354,39221,1,0,0:0:0:0:
402,295,39605,2,0,P|462:299|516:262,1,120,10|0,0:0|0:0,0:0:0:0:
411,140,40375,6,0,B|343:99|293:136|293:136|236:176|178:137,1,240,2|10,0:0|0:0,0:0:0:0:
75,24,41528,2,0,P|81:54|71:91,1,60,8|8,0:0|0:0,0:0:0:0:
31,151,41913,1,2,0:0:0:0:
116,288,42298,1,0,0:0:0:0:
186,142,42682,1,8,0:0:0:0:
475,287,43451,6,0,B|408:273|367:324|367:324|309:311|309:311|242:328,1,240,6|10,0:0|0:0,0:0:0:0:
97,378,44605,2,0,P|108:340|103:305,1,60,0|0,0:0|0:0,0:0:0:0:
67,248,44990,1,2,0:0:0:0:
199,154,45375,1,0,0:0:0:0:
344,226,45759,2,0,P|392:234|466:209,1,120,10|0,0:0|0:0,0:0:0:0:
480,54,46528,6,0,B|423:46|384:78|384:78|350:60|350:60|311:91|257:85,1,240,2|10,0:0|0:0,0:0:0:0:
96,65,47682,2,0,P|117:90|130:124,1,60,8|8,0:0|0:0,0:0:0:0:
133,195,48067,1,2,0:0:0:0:
95,352,48451,1,0,0:0:0:0:
240,279,48836,1,10,0:0:0:0:
478,55,49605,6,0,P|498:112|486:183,1,120,6|8,3:0|3:0,3:3:0:0:
446,238,50182,1,8,3:0:0:0:
446,238,50375,2,0,P|430:292|433:370,1,120,2|8,3:0|3:0,3:3:0:0:
286,280,51144,6,0,B|239:292|239:292|149:281,1,120,0|8,3:0|3:0,3:3:0:0:
87,292,51721,2,0,P|84:249|74:228,1,60,8|2,3:3|3:3,3:3:0:0:
25,173,52105,1,8,3:0:0:0:
153,72,52490,1,8,3:0:0:0:
153,72,52682,6,0,P|204:84|276:66,1,120,0|8,3:0|3:0,3:3:0:0:
339,26,53259,1,8,3:0:0:0:
339,26,53451,2,0,P|397:12|456:24,1,120,2|8,3:0|3:0,3:3:0:0:
398,176,54221,6,0,B|372:221|372:221|378:304,1,120,0|8,3:0|3:0,3:3:0:0:
435,346,54798,2,0,P|467:342|501:324,1,60,8|2,3:3|3:3,3:3:0:0:
503,251,55182,1,8,3:0:0:0:
345,247,55567,1,8,3:0:0:0:
345,248,55759,6,0,P|283:246|229:217,1,120,0|8,3:0|3:0,3:3:0:0:
210,136,56336,1,8,3:0:0:0:
210,136,56528,2,0,P|178:190|126:222,1,120,2|8,3:0|3:0,3:3:0:0:
149,58,57298,6,0,B|191:38|191:38|282:50,1,120,0|8,3:0|3:0,3:3:0:0:
343,66,57875,2,0,P|332:105|330:134,1,60,8|2,3:3|3:3,3:3:0:0:
348,203,58259,1,8,3:0:0:0:
246,332,58644,1,8,3:0:0:0:
246,332,58836,6,0,P|262:272|244:208,1,120,6|8,3:0|3:0,3:3:0:0:
200,153,59413,1,8,3:0:0:0:
200,152,59605,2,0,P|189:120|192:87,1,60,2|8,3:0|3:0,0:0:0:0:
208,15,59990,1,0,3:3:0:0:
52,58,60375,5,0,3:0:0:0:
52,220,60759,2,0,L|52:292,1,60,8|8,3:0|3:0,0:0:0:0:
52,362,61144,1,10,3:0:0:0:
