osu file format v14

[General]
AudioFilename: audio.mp3
AudioLeadIn: 0
PreviewTime: 12105
Countdown: 0
SampleSet: Soft
StackLeniency: 0.5
Mode: 0
LetterboxInBreaks: 0
WidescreenStoryboard: 0

[Editor]
DistanceSpacing: 1.2
BeatDivisor: 4
GridSize: 8
TimelineZoom: 1.2

[Metadata]
Title:Venomous Mr. Skops
TitleUnicode:Venomous Mr. Skops
Artist:Remi Gazel
ArtistUnicode:RĂ©mi Gazel
Creator:Respirte
Version:Easy
Source:Rayman
Tags:cave boss ubisoft michel ancel video game instrumental
BeatmapID:2204692
BeatmapSetID:1045788

[Difficulty]
HPDrainRate:2.5
CircleSize:2.5
OverallDifficulty:2.5
ApproachRate:3.5
SliderMultiplier:0.799999999999999
SliderTickRate:1

[Events]
//Background and Video events
0,0,"several more than two thousand and one.jpg",0,0
//Break Periods
//Storyboard Layer 0 (Background)
//Storyboard Layer 1 (Fail)
//Storyboard Layer 2 (Pass)
//Storyboard Layer 3 (Foreground)
//Storyboard Layer 4 (Overlay)
//Storyboard Sound Samples

[TimingPoints]
375,384.615384615385,4,2,0,30,1,0
375,-100,4,2,0,30,0,0
6528,-100,4,2,0,40,0,0
11144,-100,4,2,0,45,0,0
12682,-100,4,2,0,55,0,0
35759,-100,4,2,0,50,0,0
37298,-100,4,2,0,40,0,0
49605,-100,4,2,0,50,0,0
61144,-100,4,2,0,70,0,0

[Colours]
Combo1 : 0,191,191
Combo2 : 138,79,238
Combo3 : 210,23,80
Combo4 : 46,156,60

[HitObjects]
381,243,375,6,0,B|358:171|411:95|411:95|361:100|330:86,1,240,0|2,0:0|0:0,0:0:0:0:
260,18,1913,2,0,B|195:8|195:8|164:23|164:23|101:15,1,160,0|0,0:0|0:0,0:0:0:0:
10,31,3067,1,2,0:0:0:0:
72,104,3451,6,0,B|157:116|157:116|168:204|93:283,1,240,0|2,0:0|0:0,0:0:0:0:
43,325,4990,2,0,B|96:312|96:312|212:344,1,160,0|0,0:0|0:0,0:0:0:0:
288,372,6144,1,10,0:0:0:0:
372,326,6528,6,0,P|430:336|489:324,2,120,0|2|2,0:0|0:0|0:0,0:0:0:0:
286,281,8067,2,0,P|227:291|168:279,2,120,0|2|2,0:0|0:0|0:0,0:0:0:0:
370,235,9605,6,0,P|428:245|487:233,2,120,0|2|2,0:0|0:0|0:0,0:0:0:0:
285,188,11144,2,0,P|289:149|283:109,1,79.9999999999999,0|0,0:0|3:0,0:0:0:0:
219,38,11913,1,8,0:0:0:0:
122,38,12298,1,8,0:0:0:0:
58,110,12682,6,0,P|36:190|45:273,1,160,6|0,0:0|0:0,0:0:0:0:
95,346,13836,1,8,0:0:0:0:
182,307,14221,2,0,B|259:283|259:283|329:319|329:319|413:294,1,240,0|8,3:2|0:0,0:0:0:0:
466,220,15759,6,0,P|453:163|465:119,1,79.9999999999999,2|8,0:0|0:0,0:0:0:0:
458,46,16528,2,0,P|415:63|378:66,1,79.9999999999999,2|8,0:0|0:0,0:0:0:0:
285,62,17298,1,0,3:0:0:0:
258,155,17682,2,0,L|270:243,2,79.9999999999999,8|0|12,0:0|0:0|0:0,0:0:0:0:
191,85,18836,6,0,P|118:74|45:136,1,160,2|0,0:0|0:0,0:0:0:0:
53,218,19990,1,8,0:0:0:0:
140,175,20375,2,0,B|191:198|191:198|296:197,1,160,0|0,3:2|3:0,0:0:0:0:
390,195,21528,1,8,0:0:0:0:
363,287,21913,6,0,B|273:287,1,79.9999999999999,2|8,0:0|0:0,0:0:0:0:
199,334,22682,2,0,B|109:334,1,79.9999999999999,2|8,0:0|0:0,0:0:0:0:
35,381,23451,1,0,3:0:0:0:
40,285,23836,2,0,B|23:251|23:251|25:195,2,79.9999999999999,8|0|8,0:0|0:0|0:3,0:0:0:0:
125,240,24990,6,0,B|230:206|272:304|390:250,1,240,6|8,0:0|0:0,0:0:0:0:
434,320,26528,2,0,B|464:247|464:247|422:177|422:177|453:100,1,240,0|8,3:0|0:0,0:0:0:0:
418,12,28067,6,0,P|375:29|309:11,1,79.9999999999999,2|8,0:0|0:0,0:0:0:0:
250,57,28836,2,0,P|210:55|173:71,1,79.9999999999999,2|8,0:0|0:0,0:0:0:0:
123,151,29605,1,0,3:0:0:0:
186,222,29990,2,0,L|181:304,2,79.9999999999999,8|0|12,0:0|0:0|0:0,0:0:0:0:
258,158,31144,6,0,B|303:155|333:184|333:184|375:167|375:167|445:176,1,160,0|0,3:0|0:0,0:0:0:0:
502,188,32298,1,8,0:0:0:0:
451,269,32682,2,0,B|419:312|421:375|421:375|390:345|357:341,1,160,0|0,3:0|3:0,0:0:0:0:
285,347,33836,1,8,0:0:0:0:
192,371,34221,6,0,P|151:373|108:369,1,79.9999999999999,2|8,0:0|0:0,0:0:0:0:
88,276,34990,2,0,P|129:274|172:278,1,79.9999999999999,2|8,0:0|0:0,0:0:0:0:
256,240,35759,1,0,3:0:0:0:
317,166,36144,2,0,L|336:77,1,79.9999999999999,12|0,0:0|0:0,0:0:0:0:
394,13,36913,1,12,0:3:0:0:
446,93,37298,6,0,B|401:158|449:248|449:248|417:224|376:233,1,240,6|0,0:0|0:0,0:0:0:0:
290,274,38836,2,0,P|247:285|184:264,1,79.9999999999999,2|0,0:0|0:0,0:0:0:0:
143,212,39605,2,0,B|143:178|143:178|152:160|152:160|153:111,1,79.9999999999999,10|0,0:0|0:0,0:0:0:0:
226,71,40375,6,0,P|158:36|85:64,1,160,2|10,0:0|0:0,0:0:0:0:
51,153,41528,1,8,0:0:0:0:
10,239,41913,2,0,B|46:248|46:248|87:240,1,79.9999999999999,2|0,0:0|0:0,0:0:0:0:
179,211,42682,1,8,0:0:0:0:
276,376,43451,6,0,B|340:350|340:284|340:284|402:332|402:332|423:385,1,240,6|0,0:0|0:0,0:0:0:0:
509,338,44990,2,0,B|480:263,1,79.9999999999999,2|0,0:0|0:0,0:0:0:0:
456,170,45759,2,0,B|448:148|456:119|456:134|463:105|456:76,1,79.9999999999999,10|0,0:0|0:0,0:0:0:0:
385,28,46528,6,0,B|340:49|340:49|212:29,1,160,2|10,0:0|0:0,0:0:0:0:
136,15,47682,1,8,0:0:0:0:
80,94,48067,2,0,P|101:134|105:197,1,79.9999999999999,2|0,0:0|0:0,0:0:0:0:
85,262,48836,1,10,0:0:0:0:
253,353,49605,6,0,B|294:297|264:242|264:242|291:186|291:186|269:122,1,240,6|8,3:0|3:0,3:3:0:0:
328,52,51144,2,0,P|375:57|421:43,1,79.9999999999999,0|8,3:0|3:0,3:3:0:0:
479,111,51913,2,0,L|471:215,1,79.9999999999999,2|0,3:0|3:0,0:0:0:0:
429,276,52682,6,0,B|389:266|331:291|331:291|280:225|280:225|308:206|349:200,1,240,0|8,3:0|3:0,3:3:0:0:
329,107,54221,2,0,P|289:114|246:134,1,79.9999999999999,0|8,3:0|3:0,3:3:0:0:
180,192,54990,2,0,P|128:199|88:188,1,79.9999999999999,2|0,3:0|3:0,0:0:0:0:
50,112,55759,6,0,B|81:84|87:44|87:44|138:61|196:46|196:46|266:24,1,240,0|8,3:0|3:0,3:3:0:0:
340,30,57298,2,0,P|328:85|337:139,1,79.9999999999999,0|8,3:0|3:0,3:3:0:0:
365,197,58067,2,0,P|374:241|363:303,1,79.9999999999999,2|0,3:0|3:0,0:0:0:0:
280,246,58836,6,0,B|233:226|233:226|288:145|195:61|121:108|88:175|140:219,1,320,6|0,3:0|3:0,3:3:0:0:
153,288,60759,1,8,3:0:0:0:
131,381,61144,1,10,3:0:0:0:
