osu file format v14

[General]
AudioFilename: audio.mp3
AudioLeadIn: 0
PreviewTime: 19070
Countdown: 0
SampleSet: Soft
StackLeniency: 0.7
Mode: 0
LetterboxInBreaks: 0
WidescreenStoryboard: 0

[Editor]
DistanceSpacing: 1.35
BeatDivisor: 4
GridSize: 32
TimelineZoom: 1

[Metadata]
Title:Mr. Dark's Dare
TitleUnicode:Mr. Dark's Dare
Artist:Remi Gazel
ArtistUnicode:RĂ©mi Gazel
Creator:Respirte
Version:Final Dare
Source:Rayman
Tags:candy chateau final boss ubisoft michel ancel video game instrumental
BeatmapID:2036138
BeatmapSetID:972493

[Difficulty]
HPDrainRate:5.8
CircleSize:4
OverallDifficulty:7.8
ApproachRate:8.8
SliderMultiplier:1.8
SliderTickRate:1

[Events]
//Background and Video events
0,0,"Higlet.jpg",0,0
//Break Periods
//Storyboard Layer 0 (Background)
//Storyboard Layer 1 (Fail)
//Storyboard Layer 2 (Pass)
//Storyboard Layer 3 (Foreground)
//Storyboard Layer 4 (Overlay)
//Storyboard Sound Samples

[TimingPoints]
480,400,4,2,0,20,1,0
480,-166.666666666667,4,2,0,15,0,0
2080,-142.857142857143,4,2,0,20,0,0
3680,-125,4,2,0,25,0,0
5280,-111.111111111111,4,2,0,30,0,0
6880,-90.9090909090909,4,2,0,50,0,0
9380,-90.9090909090909,4,2,0,5,0,0
9480,-90.9090909090909,4,2,0,50,0,0
9780,-90.9090909090909,4,2,0,5,0,0
9880,-90.9090909090909,4,2,0,50,0,0
15780,-90.9090909090909,4,2,0,5,0,0
15880,-90.9090909090909,4,2,0,50,0,0
16180,-90.9090909090909,4,2,0,5,0,0
16280,-90.9090909090909,4,2,0,50,0,0
19680,-71.4285714285714,4,2,0,60,0,0
25380,-71.4285714285714,4,2,0,5,0,0
25480,-71.4285714285714,4,2,0,60,0,0
31780,-71.4285714285714,4,2,0,5,0,0
31880,-71.4285714285714,4,2,0,60,0,0
32180,-71.4285714285714,4,2,0,5,0,0
32280,-71.4285714285714,4,2,0,60,0,0
42080,-83.3333333333333,4,2,0,60,0,0
45480,-100,4,2,0,30,0,0
51680,-83.3333333333333,4,2,0,45,0,0
54180,-83.3333333333333,4,2,0,5,0,0
54280,-83.3333333333333,4,2,0,45,0,0
54580,-83.3333333333333,4,2,0,5,0,0
54680,-83.3333333333333,4,2,0,45,0,0
58080,-71.4285714285714,4,2,0,55,0,0
64080,-166.666666666667,4,2,0,40,0,0
64480,-166.666666666667,4,2,0,30,0,0
64880,-166.666666666667,4,2,0,20,0,0
65280,-166.666666666667,4,2,0,10,0,0
65680,-166.666666666667,4,2,0,5,0,0
65880,-166.666666666667,4,2,0,5,0,0

[Colours]
Combo1 : 202,156,70
Combo2 : 128,0,255
Combo3 : 64,135,215
Combo4 : 224,31,122

[HitObjects]
177,65,480,6,0,P|163:28|141:5,2,53.9999983520508,2|0|0,0:0|0:0|0:0,0:0:0:0:
89,82,1080,2,0,P|63:111|55:142,2,53.9999983520508,2|0|0,0:0|0:0|0:0,0:0:0:0:
148,149,1680,2,0,B|176:143|176:143|217:147,1,53.9999983520508,2|0,0:0|0:0,0:0:0:0:
178,321,2080,6,0,P|164:358|141:381,2,62.9999980773926,2|0|0,0:0|0:0|0:0,0:0:0:0:
87,303,2680,2,0,P|61:272|52:240,2,62.9999980773926,2|0|0,0:0|0:0|0:0,0:0:0:0:
148,234,3280,2,0,B|179:229|179:229|219:235,1,62.9999980773926,2|0,0:0|0:0,0:0:0:0:
339,323,3680,6,0,P|353:359|376:383,2,72,2|0|0,0:0|0:0|0:0,0:0:0:0:
430,305,4280,2,0,P|456:274|465:242,2,72,2|0|0,0:0|0:0|0:0,0:0:0:0:
369,236,4880,2,0,B|338:231|338:231|298:237,1,72,2|0,0:0|0:0,0:0:0:0:
358,86,5280,6,0,P|370:47|398:18,2,80.9999975280763,2|0|0,0:0|0:0|0:0,0:0:0:0:
458,105,5880,2,0,P|484:135|495:173,2,80.9999975280763,2|0|0,0:0|0:0|0:0,0:0:0:0:
391,181,6480,1,2,0:0:0:0:
214,50,6680,1,8,0:0:0:0:
194,47,6780,1,8,0:0:0:0:
177,59,6880,6,0,B|128:78|126:130|126:130|128:190|68:217,1,198.000006042481,6|0,0:0|0:0,0:0:0:0:
83,339,7480,1,2,0:0:0:0:
85,347,7680,2,0,L|203:353,1,99.0000030212403
312,369,8080,2,0,P|332:280|386:281,1,148.50000453186,8|0,0:0|0:0,0:0:0:0:
438,318,8480,5,2,0:0:0:0:
446,320,8680,2,0,B|453:285|453:285|447:204,1,99.0000030212403
481,68,9080,2,0,P|445:110|403:43,1,148.50000453186,8|0,3:0|0:0,0:0:0:0:
323,42,9480,2,0,B|299:101|363:140|338:213,1,148.50000453186,8|0,3:0|0:0,0:0:0:0:
326,259,9880,1,8,3:0:0:0:
151,348,10080,6,0,B|124:365|91:354|75:317|97:281|133:279|133:279|163:278|187:255,1,198.000006042481,2|0,0:0|0:0,0:0:0:0:
236,130,10680,1,2,0:0:0:0:
235,119,10880,2,0,L|103:131,1,99.0000030212403
89,41,11280,2,0,L|187:32,1,99.0000030212403,8|0,0:0|0:0,0:0:0:0:
355,60,11680,5,2,0:0:0:0:
366,60,11880,2,0,B|378:111|378:111|357:180,1,99.0000030212403
250,259,12280,2,0,P|313:236|428:302,1,198.000006042481,2|0,0:0|0:0,0:0:0:0:
460,176,12880,1,8,0:0:0:0:
328,337,13080,1,8,0:0:0:0:
301,339,13180,1,8,0:0:0:0:
281,358,13280,6,0,B|215:371|215:371|143:348|143:348|64:357,1,198.000006042481,6|0,0:0|0:0,0:0:0:0:
36,213,13880,1,2,0:0:0:0:
37,222,14080,2,0,L|142:211,1,99.0000030212403
250,157,14480,2,0,P|240:94|184:124,1,148.50000453186,8|0,0:0|0:0,0:0:0:0:
180,204,14880,5,2,0:0:0:0:
170,205,15080,2,0,B|157:239|157:239|168:321,1,99.0000030212403
320,353,15480,2,0,B|356:336|396:351|377:360|424:382|465:358,1,148.50000453186,8|0,3:0|0:0,0:0:0:0:
427,290,15880,2,0,P|374:270|255:305,1,148.50000453186,8|0,3:0|0:0,0:0:0:0:
239,342,16280,1,8,3:0:0:0:
309,195,16480,6,0,B|308:140|264:107|264:107|319:111|358:71,1,198.000006042481,2|0,0:0|0:0,0:0:0:0:
213,27,17080,1,2,0:0:0:0:
213,38,17280,2,0,L|81:50,1,99.0000030212403
77,139,17680,2,0,L|175:130,1,99.0000030212403,8|0,0:0|0:0,0:0:0:0:
286,238,18080,5,2,0:0:0:0:
287,251,18280,2,0,P|313:238|357:162,1,99.0000030212403
342,65,18680,1,2,0:0:0:0:
270,153,18880,1,0,0:0:0:0:
443,176,19080,1,8,0:0:0:0:
443,176,19180,1,8,0:0:0:0:
443,176,19280,1,8,0:0:0:0:
255,74,19480,1,8,0:0:0:0:
255,74,19580,1,8,0:0:0:0:
255,74,19680,6,0,P|127:130|172:186,1,251.999992309571,6|8,0:0|0:0,0:0:0:0:
246,311,20280,1,0,3:0:0:0:
293,319,20380,1,0,3:0:0:0:
339,307,20480,2,0,B|391:282|416:332|482:301,1,125.999996154785,0|0,3:0|0:0,0:0:0:0:
460,113,20880,2,0,P|437:171|435:234,1,125.999996154785,8|0,0:0|0:0,0:0:0:0:
309,127,21280,6,0,B|251:127|251:127|191:71|124:122|124:122|161:193,1,251.999992309571,2|8,0:0|0:0,0:0:0:0:
68,280,21880,1,0,3:0:0:0:
49,324,21980,1,0,3:0:0:0:
72,366,22080,2,0,P|128:381|197:376,1,125.999996154785,0|0,3:0|0:0,0:0:0:0:
372,310,22480,2,0,P|316:294|258:256,1,125.999996154785,8|0,0:0|0:0,0:0:0:0:
268,54,22880,6,0,B|246:135|246:135|183:174|183:174|153:278,1,251.999992309571,2|8,0:0|0:0,0:0:0:0:
170,80,23480,1,0,3:0:0:0:
188,36,23580,1,0,3:0:0:0:
219,0,23680,2,0,B|282:-14|280:54|382:20,1,125.999996154785,0|0,3:0|0:0,0:0:0:0:
502,139,24080,2,0,P|436:106|430:29,1,125.999996154785,8|0,0:0|0:0,0:0:0:0:
470,281,24480,6,0,B|395:267|395:267|217:275,1,251.999992309571,2|8,0:0|0:0,0:0:0:0:
38,363,25080,2,0,P|94:290|42:219,1,188.999994232178,2|0,0:0|0:0,0:0:0:0:
19,291,25480,1,8,0:0:0:0:
178,202,25680,2,0,B|303:196|303:196,1,125.999996154785,8|0,0:0|0:0,0:0:0:0:
382,23,26080,6,0,P|355:90|365:142,1,125.999996154785,6|0,0:0|0:0,0:0:0:0:
447,250,26480,1,8,0:0:0:0:
303,196,26680,2,0,B|178:202,1,125.999996154785,2|0,0:0|0:0,0:0:0:0:
210,335,27080,1,0,0:0:0:0:
367,278,27280,2,0,B|413:278|446:249|446:249|435:292|461:323,1,125.999996154785,10|0,0:0|0:0,0:0:0:0:
487,178,27680,6,0,P|500:138|485:50,1,125.999996154785,2|0,0:0|0:0,0:0:0:0:
360,7,28080,1,8,0:0:0:0:
223,115,28280,2,0,B|171:103|171:103|59:124,1,125.999996154785,2|0,0:0|0:0,0:0:0:0:
35,235,28680,1,0,0:0:0:0:
237,200,28880,2,0,P|304:159|307:97,1,125.999996154785,10|0,0:0|0:0,0:0:0:0:
336,247,29280,5,0,3:0:0:0:
349,377,29480,2,0,B|361:321|361:321|339:255,1,125.999996154785,0|8,0:0|0:0,0:0:0:0:
223,115,29880,2,0,P|241:56|297:31,1,125.999996154785
414,117,30280,1,0,0:0:0:0:
257,218,30480,2,0,B|206:228|206:228|167:217|167:217|109:230,1,125.999996154785,8|0,0:0|0:0,0:0:0:0:
19,371,30880,5,0,3:0:0:0:
29,370,31080,2,0,B|77:346|115:394|179:360,1,125.999996154785,0|8,0:0|0:0,0:0:0:0:
314,358,31480,2,0,B|276:319|214:317|214:317|254:315|300:298,1,188.999994232178,8|0,3:0|0:0,0:0:0:0:
368,308,31880,2,0,B|387:318|400:355|385:387|385:387|426:346|461:337|502:338,1,188.999994232178,8|0,3:0|0:0,0:0:0:0:
497,230,32280,1,8,0:0:0:0:
492,181,32380,1,8,0:0:0:0:
472,135,32480,6,0,B|397:139|397:139|321:110|321:110|213:118,1,251.999992309571,6|8,0:0|0:0,0:0:0:0:
44,174,33080,1,0,3:0:0:0:
33,128,33180,1,0,3:0:0:0:
44,82,33280,2,0,B|91:55|91:55|169:50,1,125.999996154785,0|0,3:0|0:0,0:0:0:0:
283,195,33680,2,0,P|353:221|413:220,1,125.999996154785,8|0,0:0|0:0,0:0:0:0:
449,49,34080,6,0,P|375:105|409:1,1,251.999992309571,2|8,0:0|0:0,0:0:0:0:
492,182,34680,1,0,3:0:0:0:
497,229,34780,1,0,3:0:0:0:
497,276,34880,2,0,P|488:334|441:384,1,125.999996154785,0|0,3:0|0:0,0:0:0:0:
276,294,35280,2,0,B|321:272|321:272|426:298,1,125.999996154785,8|0,0:0|0:0,0:0:0:0:
227,367,35680,6,0,B|183:347|168:284|192:219|259:207|259:207|224:186|195:139,1,251.999992309571,2|8,0:0|0:0,0:0:0:0:
344,28,36280,1,0,3:0:0:0:
299,14,36380,1,0,3:0:0:0:
252,13,36480,2,0,B|213:35|184:-4|121:23,1,125.999996154785,0|0,3:0|0:0,0:0:0:0:
44,162,36880,2,0,P|54:185|63:306,1,125.999996154785,8|0,0:0|0:0,0:0:0:0:
217,334,37280,6,0,L|357:344,1,125.999996154785,2|0,0:0|0:0,0:0:0:0:
465,201,37680,1,8,0:0:0:0:
465,189,37880,2,0,L|325:179,1,125.999996154785,2|0,0:0|0:0,0:0:0:0:
168,233,38280,1,0,3:0:0:0:
174,182,38380,1,8,0:0:0:0:
179,132,38480,1,8,0:0:0:0:
158,340,38680,1,0,0:0:0:0:
299,92,38880,6,0,P|362:65|426:86,2,125.999996154785,6|0|8,0:0|0:0|0:0,0:0:0:0:
262,216,39480,2,0,B|335:210|364:152|364:152|408:207|474:199,1,251.999992309571,2|0,0:0|0:0,0:0:0:0:
376,278,40080,2,0,L|363:152,1,125.999996154785,8|0,0:0|0:0,0:0:0:0:
226,92,40480,6,0,P|163:65|99:86,2,125.999996154785,2|0|8,0:0|0:0|0:0,0:0:0:0:
262,216,41080,2,0,B|188:210|159:152|159:152|115:207|49:199,1,251.999992309571,2|0,0:0|0:0,0:0:0:0:
148,278,41680,2,0,L|160:152,1,125.999996154785,8|0,0:0|0:0,0:0:0:0:
257,0,42080,5,4,0:0:0:0:
272,195,42280,2,0,P|259:139|259:75,1,107.999996704102,10|0,0:0|0:0,0:0:0:0:
430,159,42680,1,0,0:0:0:0:
290,295,42880,2,0,P|324:249|373:207,1,107.999996704102,10|0,0:0|0:0,0:0:0:0:
411,384,43280,1,0,0:0:0:0:
212,266,43480,1,0,3:0:0:0:
195,214,43580,1,8,0:0:0:0:
208,161,43680,6,0,B|211:116|241:92|241:92|271:127,1,107.999996704102,10|0,0:0|0:0,0:0:0:0:
347,210,43980,2,0,B|306:229|270:215|270:215|286:172,1,107.999996704102,10|8,0:0|0:0,0:0:0:0:
319,65,44280,2,0,B|356:90|362:128|362:128,1,53.9999983520508,10|8,0:0|0:0,0:0:0:0:
388,183,44480,5,8,3:0:0:0:
380,231,44580,1,0,3:0:0:0:
349,268,44680,1,0,3:0:0:0:
305,289,44780,1,0,3:0:0:0:
257,280,44880,5,8,3:0:0:0:
288,242,44980,1,0,3:0:0:0:
332,222,45080,1,0,3:0:0:0:
380,231,45180,1,0,3:0:0:0:
417,262,45280,5,6,0:0:0:0:
468,85,45880,1,2,0:0:0:0:
474,45,45980,1,2,0:0:0:0:
479,10,46080,1,2,0:0:0:0:
395,194,46680,5,2,0:0:0:0:
385,118,46880,1,2,0:0:0:0:
468,298,47480,5,2,0:0:0:0:
478,222,47680,1,2,0:0:0:0:
83,250,48480,5,2,0:0:0:0:
56,78,49080,1,2,0:0:0:0:
51,38,49180,1,2,0:0:0:0:
46,2,49280,1,2,0:0:0:0:
70,162,49880,1,2,0:0:0:0:
184,78,50080,5,2,0:0:0:0:
222,54,50180,1,2,0:0:0:0:
259,80,50280,1,2,0:0:0:0:
297,56,50380,1,2,0:0:0:0:
339,72,50480,5,2,0:0:0:0:
303,174,50680,1,0,0:0:0:0:
410,0,50880,1,2,0:0:0:0:
446,102,51080,1,2,0:0:0:0:
419,315,51280,5,8,0:0:0:0:
276,264,51480,1,8,0:0:0:0:
158,382,51680,6,0,B|166:340|156:301|156:301|138:242|138:242|125:201|134:156,1,215.999993408203,6|0,0:0|0:0,0:0:0:0:
57,49,52280,1,0,0:0:0:0:
57,62,52480,2,0,L|52:170,1,107.999996704102
207,284,52880,2,0,L|212:176,1,107.999996704102,8|0,0:0|0:0,0:0:0:0:
253,33,53280,6,0,B|323:68|393:35|393:35|363:58|344:88|344:116,1,215.999993408203,2|0,0:0|0:0,0:0:0:0:
499,106,53880,2,0,P|457:97|436:190,1,161.999995056153,8|0,3:0|0:0,0:0:0:0:
435,272,54280,2,0,P|361:232|338:136,1,161.999995056153,8|0,3:0|0:0,0:0:0:0:
349,89,54680,1,8,3:0:0:0:
286,269,54880,6,0,B|234:257|234:257|46:268,1,215.999993408203,2|0,0:0|0:0,0:0:0:0:
184,183,55480,1,0,0:0:0:0:
197,183,55680,2,0,L|305:178,1,107.999996704102
223,333,56080,2,0,L|115:338,1,107.999996704102,8|0,0:0|0:0,0:0:0:0:
184,183,56480,5,2,0:0:0:0:
197,183,56680,2,0,B|215:127|215:127|194:53,1,107.999996704102
117,11,57080,1,0,0:0:0:0:
98,286,57280,5,10,0:0:0:0:
136,127,57480,1,0,0:0:0:0:
249,341,57680,5,10,0:0:0:0:
211,182,57880,1,0,0:0:0:0:
400,286,58080,6,0,P|454:236|451:151,1,125.999996154785,6|0,0:0|0:0,0:0:0:0:
428,39,58480,1,8,0:0:0:0:
318,193,58680,1,0,3:0:0:0:
263,199,58780,1,0,3:0:0:0:
211,182,58880,1,0,3:0:0:0:
306,309,59080,1,0,3:0:0:0:
270,92,59280,1,8,0:0:0:0:
215,265,59480,1,0,0:0:0:0:
350,62,59680,6,0,P|311:13|250:0,1,125.999996154785,2|0,0:0|0:0,0:0:0:0:
103,34,60080,1,8,0:0:0:0:
257,144,60280,1,0,3:0:0:0:
263,199,60380,1,0,3:0:0:0:
246,251,60480,1,0,3:0:0:0:
373,156,60680,1,0,3:0:0:0:
156,192,60880,1,8,0:0:0:0:
329,247,61080,1,0,0:0:0:0:
126,112,61280,6,0,P|72:162|75:247,1,125.999996154785,2|0,0:0|0:0,0:0:0:0:
98,359,61680,1,8,0:0:0:0:
208,205,61880,1,0,3:0:0:0:
263,199,61980,1,0,3:0:0:0:
315,216,62080,1,0,3:0:0:0:
220,89,62280,1,0,3:0:0:0:
256,306,62480,1,8,0:0:0:0:
311,133,62680,1,0,0:0:0:0:
185,344,62880,6,0,P|235:381|329:345,1,125.999996154785,2|0,0:0|0:0,0:0:0:0:
395,185,63280,2,0,P|383:247|378:333,1,125.999996154785,8|0,0:0|0:0,0:0:0:0:
472,153,63680,1,0,0:0:0:0:
213,269,63880,1,0,3:0:0:0:
162,278,63980,1,0,3:0:0:0:
110,273,64080,2,0,B|74:275|36:253|21:206|21:206|65:172|118:200|118:200|153:183|153:183|194:200|194:200|238:146|309:180|309:180|280:163|274:141,1,485.999985168458,12|0,0:0|0:0,0:0:0:0:
