osu file format v14

[General]
AudioFilename: Lurking in the Darkness.mp3
AudioLeadIn: 0
PreviewTime: 20784
Countdown: 0
SampleSet: Normal
StackLeniency: 0.7
Mode: 1
LetterboxInBreaks: 0
WidescreenStoryboard: 0

[Editor]
DistanceSpacing: 0.9
BeatDivisor: 3
GridSize: 32
TimelineZoom: 1

[Metadata]
Title:Lurking in the Darkness
TitleUnicode:Lurking in the Darkness
Artist:Remi Gazel
ArtistUnicode:RĂ©mi Gazel
Creator:FlamingRok
Version:Oni
Source:Rayman 1
Tags:cave of skops ps1 ubisoft Michel Ancel
BeatmapID:644247
BeatmapSetID:285207

[Difficulty]
HPDrainRate:6
CircleSize:2
OverallDifficulty:6
ApproachRate:5
SliderMultiplier:1.4
SliderTickRate:1

[Events]
//Background and Video events
0,0,"Cave of Skops.jpg",0,25
//Break Periods
//Storyboard Layer 0 (Background)
//Storyboard Layer 1 (Fail)
//Storyboard Layer 2 (Pass)
//Storyboard Layer 3 (Foreground)
//Storyboard Sound Samples

[TimingPoints]
503,422.535211267606,4,1,0,30,1,0
503,-100,4,1,0,30,0,0
1348,-100,4,1,0,15,0,0
2193,-100,4,1,0,30,0,0
3038,-100,4,1,0,15,0,0
3883,-100,4,1,0,30,0,0
9798,-96.1538461538461,4,1,0,35,0,0
10643,-92.5925925925926,4,1,0,40,0,0
11488,-89.2857142857143,4,1,0,45,0,0
12333,-86.2068965517241,4,1,0,50,0,0
13179,-83.3333333333333,4,1,0,55,0,0
14446,-83.3333333333333,4,1,0,60,0,0
20784,-83.3333333333333,4,1,0,65,0,1
41066,-100,4,1,0,55,0,0
48249,-100,4,1,0,40,0,1
59657,-100,4,1,0,40,0,0

[HitObjects]
256,192,503,5,0,0:0:0:0:
256,192,925,1,2,0:0:0:0:
256,192,1207,1,2,0:0:0:0:
256,192,1348,1,0,0:0:0:0:
256,192,2193,5,0,0:0:0:0:
256,192,2615,1,2,0:0:0:0:
256,192,2897,1,2,0:0:0:0:
256,192,3038,1,0,0:0:0:0:
256,192,3179,1,2,0:0:0:0:
256,192,3883,5,0,0:0:0:0:
256,192,4305,1,2,0:0:0:0:
256,192,4587,1,2,0:0:0:0:
256,192,4728,1,0,0:0:0:0:
256,192,4869,1,2,0:0:0:0:
256,192,5150,1,0,0:0:0:0:
256,192,5432,1,2,0:0:0:0:
256,192,5573,1,0,0:0:0:0:
256,192,5714,1,2,0:0:0:0:
256,192,5995,1,2,0:0:0:0:
256,192,6277,1,0,0:0:0:0:
256,192,6418,1,0,0:0:0:0:
256,192,6559,1,2,0:0:0:0:
256,192,6700,1,0,0:0:0:0:
256,192,6841,1,2,0:0:0:0:
256,192,7122,1,0,0:0:0:0:
256,192,7263,1,0,0:0:0:0:
256,192,7686,1,2,0:0:0:0:
256,192,7967,1,2,0:0:0:0:
256,192,8108,1,0,0:0:0:0:
256,192,8249,1,2,0:0:0:0:
256,192,8390,1,0,0:0:0:0:
256,192,8531,1,2,0:0:0:0:
256,192,8812,1,0,0:0:0:0:
256,192,8953,1,0,0:0:0:0:
256,192,9376,1,2,0:0:0:0:
256,192,9657,1,2,0:0:0:0:
256,192,9798,1,0,0:0:0:0:
256,192,9939,1,2,0:0:0:0:
256,192,10080,1,0,0:0:0:0:
256,192,10221,1,0,0:0:0:0:
256,192,10503,1,0,0:0:0:0:
256,192,10643,1,0,0:0:0:0:
256,192,11066,1,2,0:0:0:0:
256,192,11348,1,0,0:0:0:0:
256,192,11488,1,2,0:0:0:0:
256,192,11629,1,2,0:0:0:0:
256,192,11770,1,0,0:0:0:0:
256,192,11911,1,2,0:0:0:0:
256,192,12193,1,0,0:0:0:0:
256,192,12333,1,0,0:0:0:0:
256,192,12756,1,2,0:0:0:0:
256,192,13038,1,0,0:0:0:0:
256,192,13179,1,2,0:0:0:0:
256,192,13320,1,2,0:0:0:0:
256,192,13461,1,0,0:0:0:0:
256,192,13601,1,0,0:0:0:0:
256,192,13883,1,0,0:0:0:0:
256,192,14024,1,0,0:0:0:0:
256,192,14305,1,2,0:0:0:0:
256,192,14446,1,0,0:0:0:0:
256,192,14869,1,2,0:0:0:0:
256,192,15291,1,0,0:0:0:0:
256,192,15573,1,0,0:0:0:0:
256,192,15714,1,2,0:0:0:0:
256,192,16418,1,2,0:0:0:0:
256,192,16559,1,0,0:0:0:0:
256,192,16841,1,0,0:0:0:0:
256,192,16981,1,2,0:0:0:0:
256,192,17263,1,2,0:0:0:0:
256,192,17404,1,2,0:0:0:0:
256,192,17686,1,0,0:0:0:0:
256,192,18249,1,2,0:0:0:0:
256,192,18531,1,2,0:0:0:0:
256,192,18672,1,0,0:0:0:0:
256,192,18953,1,0,0:0:0:0:
256,192,19094,1,2,0:0:0:0:
256,192,19376,1,0,0:0:0:0:
256,192,19798,1,2,0:0:0:0:
256,192,19939,1,0,0:0:0:0:
256,192,20080,1,0,0:0:0:0:
256,192,20221,1,2,0:0:0:0:
256,192,20362,1,2,0:0:0:0:
256,192,20643,1,2,0:0:0:0:
256,192,20784,1,0,0:0:0:0:
256,192,21066,1,0,0:0:0:0:
256,192,21207,1,2,0:0:0:0:
256,192,21488,1,2,0:0:0:0:
256,192,21629,1,2,0:0:0:0:
256,192,22052,1,2,0:0:0:0:
256,192,22333,1,0,0:0:0:0:
256,192,22474,1,2,0:0:0:0:
256,192,22756,1,0,0:0:0:0:
256,192,22897,1,2,0:0:0:0:
256,192,23179,1,2,0:0:0:0:
256,192,23319,1,0,0:0:0:0:
256,192,23742,1,2,0:0:0:0:
256,192,24164,1,0,0:0:0:0:
256,192,24446,1,0,0:0:0:0:
256,192,24587,1,2,0:0:0:0:
256,192,24869,1,0,0:0:0:0:
256,192,25010,1,2,0:0:0:0:
256,192,25432,1,2,0:0:0:0:
256,192,25714,1,0,0:0:0:0:
256,192,25855,1,0,0:0:0:0:
256,192,26136,1,2,0:0:0:0:
256,192,26559,1,0,0:0:0:0:
256,192,26700,1,0,0:0:0:0:
256,192,26981,1,0,0:0:0:0:
256,192,27122,1,2,0:0:0:0:
256,192,27263,1,2,0:0:0:0:
256,192,27404,1,0,0:0:0:0:
256,192,27545,1,0,0:0:0:0:
256,192,27826,1,0,0:0:0:0:
256,192,27967,1,2,0:0:0:0:
256,192,28249,1,2,0:0:0:0:
256,192,28390,1,2,0:0:0:0:
256,192,28812,1,2,0:0:0:0:
256,192,29094,1,2,0:0:0:0:
256,192,29235,1,0,0:0:0:0:
256,192,29517,1,0,0:0:0:0:
256,192,29657,1,2,0:0:0:0:
256,192,29939,1,2,0:0:0:0:
256,192,30080,1,0,0:0:0:0:
256,192,30503,1,2,0:0:0:0:
256,192,30925,1,0,0:0:0:0:
256,192,31207,1,0,0:0:0:0:
256,192,31348,1,2,0:0:0:0:
256,192,31629,1,2,0:0:0:0:
256,192,32052,1,0,0:0:0:0:
256,192,32193,1,0,0:0:0:0:
256,192,32474,1,0,0:0:0:0:
256,192,32615,1,2,0:0:0:0:
256,192,32897,1,0,0:0:0:0:
256,192,33038,1,2,0:0:0:0:
256,192,33319,1,2,0:0:0:0:
256,192,33460,1,0,0:0:0:0:
256,192,33601,1,0,0:0:0:0:
256,192,33742,1,2,0:0:0:0:
256,192,33883,1,2,0:0:0:0:
256,192,34164,1,2,0:0:0:0:
256,192,34305,1,0,0:0:0:0:
256,192,34587,1,0,0:0:0:0:
256,192,34728,1,2,0:0:0:0:
256,192,35010,1,2,0:0:0:0:
256,192,35150,1,2,0:0:0:0:
256,192,35573,1,2,0:0:0:0:
256,192,35855,1,0,0:0:0:0:
256,192,35995,1,2,0:0:0:0:
256,192,36277,1,0,0:0:0:0:
256,192,36418,1,2,0:0:0:0:
256,192,36700,1,2,0:0:0:0:
256,192,36841,1,0,0:0:0:0:
256,192,37263,1,2,0:0:0:0:
256,192,37686,1,0,0:0:0:0:
256,192,37967,1,0,0:0:0:0:
256,192,38108,1,2,0:0:0:0:
256,192,38390,1,2,0:0:0:0:
256,192,38531,1,0,0:0:0:0:
256,192,38953,1,0,0:0:0:0:
256,192,39235,1,2,0:0:0:0:
256,192,39376,1,0,0:0:0:0:
256,192,39657,1,0,0:0:0:0:
256,192,39798,1,2,0:0:0:0:
256,192,40080,1,2,0:0:0:0:
256,192,40221,1,0,0:0:0:0:
256,192,40503,1,6,0:0:0:0:
256,192,41066,1,4,0:0:0:0:
256,192,41488,1,2,0:0:0:0:
256,192,41770,1,2,0:0:0:0:
256,192,41911,1,0,0:0:0:0:
256,192,42052,1,0,0:0:0:0:
256,192,42193,1,0,0:0:0:0:
256,192,42333,1,2,0:0:0:0:
256,192,42756,1,0,0:0:0:0:
256,192,43038,1,0,0:0:0:0:
256,192,43179,1,2,0:0:0:0:
256,192,43460,1,2,0:0:0:0:
256,192,43601,1,0,0:0:0:0:
256,192,43742,1,0,0:0:0:0:
256,192,43883,1,2,0:0:0:0:
256,192,44024,1,0,0:0:0:0:
256,192,44446,12,0,46136,0:0:0:0:
256,192,46418,5,2,0:0:0:0:
256,192,46559,1,0,0:0:0:0:
256,192,46700,1,0,0:0:0:0:
256,192,46841,1,0,0:0:0:0:
256,192,46981,1,2,0:0:0:0:
256,192,47263,1,0,0:0:0:0:
256,192,47404,1,2,0:0:0:0:
256,192,47545,1,2,0:0:0:0:
256,192,47686,1,2,0:0:0:0:
256,192,47826,1,0,0:0:0:0:
256,192,48108,1,0,0:0:0:0:
256,192,48249,1,2,0:0:0:0:
256,192,48531,1,2,0:0:0:0:
256,192,48672,1,2,0:0:0:0:
256,192,49094,1,2,0:0:0:0:
256,192,49376,1,0,0:0:0:0:
256,192,49517,1,0,0:0:0:0:
256,192,49798,1,0,0:0:0:0:
256,192,49939,1,2,0:0:0:0:
256,192,50221,1,2,0:0:0:0:
256,192,50362,1,2,0:0:0:0:
256,192,50784,1,0,0:0:0:0:
256,192,51066,1,0,0:0:0:0:
256,192,51207,1,2,0:0:0:0:
256,192,51488,1,2,0:0:0:0:
256,192,51629,1,2,0:0:0:0:
256,192,51911,1,2,0:0:0:0:
256,192,52052,1,0,0:0:0:0:
256,192,52333,1,0,0:0:0:0:
256,192,52474,1,2,0:0:0:0:
256,192,52615,1,0,0:0:0:0:
256,192,52756,1,0,0:0:0:0:
256,192,52897,1,2,0:0:0:0:
256,192,53179,1,0,0:0:0:0:
256,192,53319,1,2,0:0:0:0:
256,192,53601,1,2,0:0:0:0:
256,192,53742,1,2,0:0:0:0:
256,192,54024,1,2,0:0:0:0:
256,192,54164,1,0,0:0:0:0:
256,192,54587,1,2,0:0:0:0:
256,192,55010,1,2,0:0:0:0:
256,192,55432,1,0,0:0:0:0:
256,192,55714,1,2,0:0:0:0:
256,192,55855,1,0,0:0:0:0:
256,192,56277,1,2,0:0:0:0:
256,192,56559,1,0,0:0:0:0:
256,192,56981,1,2,0:0:0:0:
256,192,57122,1,0,0:0:0:0:
256,192,57545,1,0,0:0:0:0:
256,192,57967,1,0,0:0:0:0:
256,192,58249,1,0,0:0:0:0:
256,192,58390,1,2,0:0:0:0:
256,192,58531,1,0,0:0:0:0:
256,192,58672,1,0,0:0:0:0:
256,192,58812,1,2,0:0:0:0:
256,192,59094,1,2,0:0:0:0:
256,192,59235,1,0,0:0:0:0:
256,192,59376,1,0,0:0:0:0:
256,192,59517,1,2,0:0:0:0:
256,192,59657,1,2,0:0:0:0:
